#VERSION:0.83;
#TITLE:Imaginary Places;
#SUBTITLE:;
#ARTIST:Busdriver;
#TITLETRANSLIT:;
#SUBTITLETRANSLIT:;
#ARTISTTRANSLIT:;
#GENRE:Rap;
#ORIGIN:;
#TAGS:;
#CREDIT:;
#BANNER:Imaginary Places.png;
#BACKGROUND:Imaginary Places.png;
#PREVIEWVID:;
#JACKET:;
#CDIMAGE:;
#DISCIMAGE:;
#LYRICSPATH:;
#CDTITLE:;
#MUSIC:Imaginary Places.ogg;
#OFFSET:-0.080000;
#SAMPLESTART:99.979263;
#SAMPLELENGTH:12.000000;
#SELECTABLE:YES;
#BPMS:0.000000=153.220123
,8.000000=158.019821
,200.000000=73.000000
,256.000000=162.999893
,320.000000=158.779495
,360.000000=161.179550
;
#STOPS:;
#DELAYS:;
#WARPS:;
#TIMESIGNATURES:0.000000=4=4
;
#TICKCOUNTS:0.000000=4
;
#COMBOS:0.000000=1
;
#SPEEDS:0.000000=1.000000=0.000000=0
;
#SCROLLS:0.000000=1.000000
;
#FAKES:;
#LABELS:0.000000=Song Start
;
#BGCHANGES:;
#KEYSOUNDS:;
#ATTACKS:
;

//---------------dance-single - ----------------
#NOTEDATA:;
#CHARTNAME:;
#CHARTHASH:82403490;
#STEPSTYPE:dance-single;
#BANNER:;
#DESCRIPTION:;
#CHARTSTYLE:;
#DIFFICULTY:Beginner;
#METER:1;
#METERF:0.000000;
#LASTSECONDHINT:180.917786;
#RADARVALUES:0.112897,0.171596,0.038685,0.038685,0.000000,143.000000,136.000000,7.000000,7.000000,0.000000,0.000000,0.000000,0.000000,0.000000,0.112897,0.171596,0.038685,0.038685,0.000000,143.000000,136.000000,7.000000,7.000000,0.000000,0.000000,0.000000,0.000000,0.000000;
#CREDIT:;
#NOTES:
0000
0000
0000
0000
,
0000
0000
0000
0000
,
1000
0000
0000
0000
,
0100
0000
0000
0000
,
0100
0000
0000
0000
,
1000
0000
0000
0000
,
0001
0000
0000
0000
,
0010
0000
0000
0000
,
0100
0000
0000
0000
,
0001
0000
0000
0000
,
1000
0000
0000
0000
,
0010
0000
0000
0000
,
1000
0000
0000
0000
,
0100
0000
0000
0000
,
0100
0000
0000
0000
,
0010
0000
0000
0000
,
0010
0000
0000
0000
,
0001
0000
0000
0000
,
1000
0000
0000
0000
,
0100
0000
0000
0000
,
1000
0000
0000
0000
,
0010
0000
0000
0000
,
1000
1000
0000
0000
,
0100
0100
0000
0000
,
0010
0010
0000
0000
,
0001
0001
0000
0000
,
1000
0000
0000
0000
,
0010
0000
0000
0000
,
1000
0000
0000
0000
,
0001
0000
0000
0000
,
0100
0000
0000
0000
,
0010
0000
0000
0000
,
1000
0000
0000
0000
,
0010
0000
0000
0000
,
1000
1000
0000
0000
,
0001
0001
0000
0000
,
0010
0010
0000
0000
,
0100
0100
0000
0000
,
1000
0000
0000
0000
,
0010
0000
0000
0000
,
0100
0000
0000
0000
,
0001
0000
0000
0000
,
0010
0000
0000
0000
,
0100
0000
0000
0000
,
1000
0000
0000
0000
,
0001
0000
0000
0000
,
0100
0100
0000
0000
,
0010
0010
0000
0000
,
0100
0100
0000
0000
,
0001
0001
0000
0000
,
0000
0000
0000
0000
,
1000
0000
1000
0000
,
0010
0000
0010
0000
,
0010
0000
0001
0000
,
0001
0000
0100
0000
,
0010
0000
0100
0000
,
0001
0000
1000
0000
,
0010
0000
0010
0000
,
0100
0000
0001
0000
,
1000
0000
0100
0000
,
0010
0000
1000
0000
,
0100
0000
0010
0000
,
0100
0000
0001
0000
,
2002
0000
3003
0000
,
0000
0000
0000
0000
,
1000
0000
0000
0000
,
0100
0000
0000
0000
,
0110
0000
0000
0000
,
0001
0000
0000
0000
,
0100
0000
0000
0000
,
0010
0000
0000
0000
,
1000
0000
0000
0000
,
0100
0000
0000
0000
,
0010
0000
0000
0000
,
0100
0000
0000
0000
,
0001
0000
0000
0000
,
1000
0000
0000
0000
,
1000
0000
0000
0000
,
0100
0100
0000
0000
,
0100
0000
0000
0000
,
2002
0000
3003
0000
,
0000
0000
0110
0000
,
0100
0100
0000
0000
,
0010
0010
0000
0000
,
1000
1000
0000
0000
,
0001
0000
0000
0000
,
1000
1000
0000
0000
,
0100
0000
0000
0000
,
0010
0010
0000
0000
,
1000
0000
0000
0000
,
0020
0000
0030
0000
,
1001
0000
0000
0000
,
0100
0000
0000
0000
,
0110
0000
0000
0000
,
1000
0000
1000
0000
,
0001
0000
0000
0000
,
0100
0000
0100
0000
,
0010
0000
0000
0000
,
0100
0000
0000
1000
,
1000
0000
0000
0001
,
0001
0000
0000
0100
,
0100
0000
0000
0010
,
0010
0000
0000
2002
,
0000
0000
3003
0000
;

//---------------dance-single - ----------------
#NOTEDATA:;
#CHARTNAME:;
#CHARTHASH:4279158780;
#STEPSTYPE:dance-single;
#BANNER:;
#DESCRIPTION:;
#CHARTSTYLE:;
#DIFFICULTY:Easy;
#METER:4;
#METERF:4.000000;
#LASTSECONDHINT:180.917786;
#RADARVALUES:0.202900,0.285994,0.049738,0.022106,0.000000,257.000000,248.000000,9.000000,4.000000,0.000000,0.000000,0.000000,0.000000,0.000000,0.202900,0.285994,0.049738,0.022106,0.000000,257.000000,248.000000,9.000000,4.000000,0.000000,0.000000,0.000000,0.000000,0.000000;
#CREDIT:;
#NOTES:
0000
0000
0000
0000
,
1000
0000
0000
0000
,
1000
0000
1000
0000
,
0100
0000
0100
0000
,
0100
0000
0010
0000
,
1000
0000
0100
0000
,
0001
0000
0100
0000
,
0010
0000
1000
0000
,
0100
0000
0001
0000
,
0001
0000
0100
0000
,
1000
0000
0010
0000
,
0010
0000
1000
0000
,
1000
0000
0001
0000
,
0100
0000
0100
0000
,
0100
0000
0001
0000
,
0010
0000
1000
0000
,
0010
0000
0010
0000
,
0001
0000
0100
0000
,
1000
0000
0001
0000
,
0100
0000
0100
0000
,
1000
0000
0010
0000
,
0010
0000
1000
0000
,
1000
1000
0100
0000
,
0100
0100
0010
0000
,
0010
0010
0001
0000
,
0001
0001
0100
0000
,
1000
0000
1000
0000
,
0010
0000
0100
0000
,
1000
0000
0100
0000
,
0001
0000
0010
0000
,
0100
0000
1000
0000
,
0010
0000
0001
0000
,
1000
0000
0100
0000
,
0010
0000
0010
0000
,
1000
1000
0010
0000
,
0001
0001
1000
0000
,
0010
0010
0001
0000
,
0100
0100
0010
0000
,
1000
0000
0100
0000
,
0010
0000
0010
0000
,
0100
0000
0001
0000
,
0001
0000
1000
0000
,
0010
0000
0100
0000
,
0100
0000
0010
0000
,
1000
0000
1000
0000
,
0001
0000
0010
0000
,
0100
0100
0001
0000
,
0010
0010
0100
0000
,
0100
0100
0010
0000
,
0001
0001
1000
0000
,
0000
0000
0000
0000
,
0100
1000
0100
1000
,
0100
0010
0100
0010
,
0100
0010
0100
0001
,
0100
0001
0100
0100
,
0100
0010
0100
1000
,
0100
0001
0100
1000
,
0100
0010
0100
0010
,
0100
0100
0100
0001
,
0100
1000
0100
0001
,
0100
0010
0100
1000
,
0100
0100
0100
0010
,
0100
1000
0100
0001
,
0100
2002
0000
3003
,
0000
0000
0000
0000
,
1000
0100
0000
0000
,
0100
1000
0000
0000
,
0110
0010
0000
0000
,
0001
0100
0000
0000
,
0100
0010
0000
0000
,
0010
1000
0000
0000
,
1000
0100
0000
0000
,
0100
0001
0000
0000
,
0110
0100
0000
0000
,
1100
0100
0000
0000
,
0011
0010
0000
0000
,
1000
1000
0000
0000
,
1000
1000
0000
0100
,
0100
0000
0000
0100
,
0100
0010
0000
0000
,
0000
0000
0000
0000
,
1001
0000
0100
0000
,
0100
0010
0001
0000
,
0100
0010
0001
0000
,
0010
0100
1000
0100
,
0001
0010
0001
0100
,
1000
0100
0010
0001
,
0100
0000
1000
1000
,
0010
0000
0001
0010
,
1000
0100
0010
0001
,
0010
0000
0000
0000
,
1001
0000
0000
0000
,
0100
0000
0100
0000
,
0110
0000
0010
0000
,
1000
0000
0100
0000
,
0001
0000
0100
0000
,
0100
0000
0010
0000
,
0010
0000
1000
0000
,
0100
0000
0010
1000
,
1000
0000
0010
0001
,
0001
0000
0010
0100
,
0100
0000
0010
0010
,
0010
0000
0000
2002
,
0000
0000
3003
0000
;

//---------------dance-single - ----------------
#NOTEDATA:;
#CHARTNAME:;
#CHARTHASH:1478102375;
#STEPSTYPE:dance-single;
#BANNER:;
#DESCRIPTION:;
#CHARTSTYLE:;
#DIFFICULTY:Medium;
#METER:7;
#METERF:7.000000;
#LASTSECONDHINT:180.917786;
#RADARVALUES:0.356061,0.457590,0.149214,0.088423,0.002763,451.000000,424.000000,27.000000,16.000000,0.000000,0.000000,0.000000,0.000000,0.000000,0.356061,0.457590,0.149214,0.088423,0.002763,451.000000,424.000000,27.000000,16.000000,0.000000,0.000000,0.000000,0.000000,0.000000;
#CREDIT:;
#NOTES:
// measure 0
0000
0000
0000
0000
,  // measure 1
1000
0000
1000
0000
1000
0000
0000
0100
,  // measure 2
1000
0000
0000
0100
1000
0000
0000
1000
,  // measure 3
0100
0000
0000
1000
0100
0000
0000
0010
,  // measure 4
0100
0000
0000
0001
0010
0000
0000
0100
,  // measure 5
1000
0000
0000
0010
0100
0000
0000
0010
,  // measure 6
0001
0000
0000
0010
0100
0000
0000
0100
,  // measure 7
0010
0000
0000
1000
1000
0000
0000
0010
,  // measure 8
0100
0000
0000
0100
0001
0000
0000
0100
,  // measure 9
0001
0000
0000
0010
0100
0000
0000
0100
,  // measure 10
1000
0000
0000
0100
0010
0000
0000
0100
,  // measure 11
0010
0000
0000
0010
1000
0000
0000
0010
,  // measure 12
1000
0000
0000
0100
0001
0000
0000
0010
,  // measure 13
0100
0000
0000
0001
0100
0010
0010
0100
,  // measure 14
0100
0000
0000
0010
0001
0000
0000
0100
,  // measure 15
0010
0000
0000
0100
1000
0000
0000
0100
,  // measure 16
0010
0000
0000
0100
0010
0000
0000
0001
,  // measure 17
0001
0000
0000
0010
0100
0000
0000
0010
,  // measure 18
1000
0000
0000
0100
0001
0000
0000
0010
,  // measure 19
0100
0000
0000
1000
0100
0000
0000
0100
,  // measure 20
1000
0000
0000
0100
0010
0000
0000
0001
,  // measure 21
0010
0000
0000
0100
1000
0000
0000
0000
,  // measure 22
1000
0100
1000
0000
0100
0000
0000
0000
,  // measure 23
0100
0010
0100
0000
0010
0000
0000
0000
,  // measure 24
0010
0100
0010
0000
0001
0000
0000
0000
,  // measure 25
0001
0100
0001
0000
0100
0000
0000
0010
,  // measure 26
1000
0000
0000
0010
1000
0000
0000
0100
,  // measure 27
0010
0000
0000
0010
0100
0000
0000
0001
,  // measure 28
1000
0000
0000
0010
0100
0000
0000
0100
,  // measure 29
0001
0000
0000
1000
0010
0000
0000
0010
,  // measure 30
0100
0000
0000
0100
1000
0000
0000
0010
,  // measure 31
0010
0000
0000
0001
0001
0000
0000
1000
,  // measure 32
1000
0000
0000
0100
0100
0000
0000
0010
,  // measure 33
0010
0000
0000
0010
0010
0000
0000
0000
,  // measure 34
1000
0010
1000
0000
0010
0000
0000
0000
,  // measure 35
0001
0100
0001
0000
1000
0000
0000
0000
,  // measure 36
0010
0100
0010
0000
0001
0000
0000
0000
,  // measure 37
0100
0010
0100
0000
0010
0000
0000
0100
,  // measure 38
1000
0000
0000
0001
0100
0000
0000
0010
,  // measure 39
0010
0000
0000
0100
0010
0000
0000
0001
,  // measure 40
0100
0000
0000
0100
0001
0000
0000
0100
,  // measure 41
0001
0000
0000
0100
1010
0000
0000
0001
,  // measure 42
0110
0000
0000
1000
0101
0000
0000
0010
,  // measure 43
1100
0000
0000
0100
0110
0000
0000
0000
,  // measure 44
1001
0000
1001
0000
,  // measure 45
0011
0000
0110
0000
,  // measure 46
0101
0001
0100
0000
0001
0000
0000
0000
,  // measure 47
0110
0100
0010
0000
0100
0000
0000
0000
,  // measure 48
0110
0010
0100
0000
0010
0000
0000
0000
,  // measure 49
1001
1000
0001
0000
1000
0000
0000
0000
,  // measure 50
0000
0000
0000
0000
,  // measure 51
0100
0000
1000
0100
0100
0000
1000
0100
,  // measure 52
0100
0000
0010
0100
0100
0010
0010
0000
,  // measure 53
0100
0000
0010
0000
0100
0001
0001
0000
,  // measure 54
0100
0000
0001
0100
0100
0010
0100
0010
,  // measure 55
0100
0010
0010
0100
0100
1000
1000
0000
,  // measure 56
0100
0000
0001
0000
0100
1000
1000
1000
,  // measure 57
0100
0000
0010
0100
0100
0010
0010
0010
,  // measure 58
0100
0010
0100
0100
0100
0001
0001
0000
,  // measure 59
0100
0000
1000
0000
0100
0000
0001
0001
,  // measure 60
0100
0000
0010
0100
0100
1000
1000
0000
,  // measure 61
0100
0100
0100
0000
0100
0010
0010
0000
,  // measure 62
0100
0000
1000
0000
0100
0001
0001
0000
,  // measure 63
0000
2002
0000
3003
,  // measure 64
0000
0000
1000
0000
,  // measure 65
1000
0100
0100
0000
,  // measure 66
0100
0000
1000
1000
0100
0000
0000
0000
,  // measure 67
0110
0010
0010
0000
,  // measure 68
0001
0000
0100
0100
0010
0000
0000
0000
,  // measure 69
0100
0000
0010
0010
0100
0000
0000
0000
,  // measure 70
0010
0000
1000
0100
0010
0000
0000
0000
,  // measure 71
1000
0000
0100
0001
0010
0000
0000
0000
,  // measure 72
0100
0000
0001
0001
1000
0000
0000
0100
,  // measure 73
0110
0000
0100
0000
0000
0000
0000
0100
,  // measure 74
1100
0000
0100
0000
0000
0000
0000
0010
,  // measure 75
0011
0000
0010
0000
0000
0000
0000
1000
,  // measure 76
1000
0100
1000
0000
0000
0000
0000
0000
,  // measure 77
1000
1000
0000
0100
,  // measure 78
0100
1000
0000
1000
0000
0000
0100
0000
,  // measure 79
0100
0000
0010
0000
0000
0000
0000
1000
,  // measure 80
1000
0000
0100
0100
0000
0000
0000
0010
,  // measure 81
1001
0000
0000
0000
0000
0000
0000
0000
0100
0000
0000
0000
0100
0000
0000
0000
0000
0000
0000
0000
0000
1100
0000
0000
,  // measure 82
0100
0000
1000
0010
0001
1000
0000
0000
,  // measure 83
1000
0100
0010
0010
1001
0010
0000
0000
,  // measure 84
0100
1000
0010
0001
0100
0100
0010
1000
,  // measure 85
1000
0100
0010
0100
0001
0000
0100
0000
,  // measure 86
1000
0100
0010
0001
,  // measure 87
0100
1000
0100
0010
1000
1000
1000
0010
,  // measure 88
0011
0001
0000
0000
0001
0100
0010
0000
,  // measure 89
1000
0100
0100
0010
1010
0100
0001
0001
,  // measure 90
0010
0000
0000
0000
0010
0001
0100
1000
,  // measure 91
1001
0100
0010
1000
0010
0020
0030
0100
,  // measure 92
0100
0020
0030
0200
0300
0200
0300
0002
,  // measure 93
0003
0100
0020
0030
0220
0000
0330
0000
,  // measure 94
1000
0100
0100
0010
,  // measure 95
0001
0100
0200
0300
,  // measure 96
0100
0000
0010
0000
,  // measure 97
0022
0033
2000
3000
,  // measure 98
0100
0000
0010
1000
,  // measure 99
1000
0000
0010
0001
,  // measure 100
0001
0000
0010
0100
,  // measure 101
0100
0000
0010
0010
,  // measure 102
0010
0000
0000
2002
,  // measure 103
0000
0000
3003
0000
;

//---------------dance-single - ----------------
#NOTEDATA:;
#CHARTNAME:;
#CHARTHASH:214827818;
#STEPSTYPE:dance-single;
#BANNER:;
#DESCRIPTION:;
#CHARTSTYLE:;
#DIFFICULTY:Hard;
#METER:7;
#METERF:7.000000;
#LASTSECONDHINT:180.917786;
#RADARVALUES:0.432642,0.486189,0.292902,0.171320,0.002763,548.000000,495.000000,53.000000,31.000000,0.000000,0.000000,0.000000,0.000000,0.000000,0.432642,0.486189,0.292902,0.171320,0.002763,548.000000,495.000000,53.000000,31.000000,0.000000,0.000000,0.000000,0.000000,0.000000;
#CREDIT:;
#NOTES:
// measure 0
0000
0000
0000
0000
,  // measure 1
1000
0000
1000
0000
1000
0000
0000
0100
,  // measure 2
1000
0000
0010
0100
1000
0000
0000
1000
,  // measure 3
0100
0000
0010
1000
0100
0000
0000
0010
,  // measure 4
0100
0000
0001
0001
0010
0000
0000
0100
,  // measure 5
1000
0000
0011
0010
0100
0000
0000
0010
,  // measure 6
0001
0000
0100
0010
0100
0000
0000
0100
,  // measure 7
0010
0000
0010
1000
1000
0000
0000
0010
,  // measure 8
0100
0000
0010
0100
0001
0000
0000
0100
,  // measure 9
0001
0000
1000
0010
0100
0000
0000
0100
,  // measure 10
1000
0000
0110
0100
0010
0000
0000
0100
,  // measure 11
0010
0000
0100
0010
1000
0000
0000
0010
,  // measure 12
1000
0000
0001
0100
0001
0000
0000
0010
,  // measure 13
0100
0000
0100
0001
0100
0010
0010
0100
,  // measure 14
0100
0000
0000
0010
0101
0000
0000
0100
,  // measure 15
1010
0000
0000
0100
1001
0000
0000
0100
,  // measure 16
1010
0000
0000
0100
0110
0000
0000
0001
,  // measure 17
0001
0000
0001
0010
0100
0000
0000
0010
,  // measure 18
1000
0000
0000
0100
0101
0000
0000
0010
,  // measure 19
0100
0000
0000
1000
0100
0000
0000
0100
,  // measure 20
1000
0000
1000
0100
0010
0000
0000
0001
,  // measure 21
0010
0000
0000
0100
1000
0000
0010
0000
,  // measure 22
1000
0100
1000
0000
0100
0000
0001
0000
,  // measure 23
0100
0010
0100
0000
0010
0000
1000
0000
,  // measure 24
0010
0100
0010
0000
0011
0000
1000
0000
,  // measure 25
0001
0100
0001
0000
0100
0000
0110
0010
,  // measure 26
1000
0000
1000
0010
1000
0000
0000
0100
,  // measure 27
0010
0000
0001
0010
0100
0000
0000
0001
,  // measure 28
1000
0000
0010
0010
0100
0000
0000
0100
,  // measure 29
0001
0000
0010
1000
0010
0000
0000
0010
,  // measure 30
0100
0000
0010
0100
1000
0000
0000
0010
,  // measure 31
0010
0000
0100
0001
0001
0000
1100
1000
,  // measure 32
1000
0000
0000
0100
0100
0000
1000
0010
,  // measure 33
0010
0000
0001
0010
0010
0000
0100
0000
,  // measure 34
1010
0010
1000
0000
0010
0000
1100
0000
,  // measure 35
0001
0100
0001
0000
1000
0000
0110
0000
,  // measure 36
0010
0100
0010
0000
0001
0000
0011
0000
,  // measure 37
0100
0010
0100
0000
0100
0000
0100
0100
,  // measure 38
1000
0000
0000
0001
0100
0000
0010
0010
,  // measure 39
0010
0000
0000
0100
0010
0000
0010
0001
,  // measure 40
0100
0000
0000
0100
0001
0000
0010
0100
,  // measure 41
0001
0000
0000
0100
1010
0000
0100
0001
,  // measure 42
0110
0000
0000
1000
0101
0000
0000
0010
,  // measure 43
1100
0000
0010
0100
0110
0000
0000
0000
,  // measure 44
2002
0000
0000
0000
3003
0000
0000
0001
,  // measure 45
0011
0000
0000
0100
0110
0000
0000
0000
,  // measure 46
0101
0001
0100
0010
0001
0000
0000
0000
,  // measure 47
0110
0100
0010
0010
0100
0000
0000
0000
,  // measure 48
0110
0010
0010
0100
0010
0100
0100
0100
,  // measure 49
1001
1000
0001
0000
1000
0000
2000
0000
,  // measure 50
3000
0000
0000
0000
,  // measure 51
0100
0000
1002
0100
0100
0010
1000
0100
,  // measure 52
0100
0000
0010
0100
0100
0013
0010
0000
,  // measure 53
0100
0000
2010
0000
0100
0001
0001
0000
,  // measure 54
0100
0000
0001
0100
3100
0010
0100
0010
,  // measure 55
0100
0010
0010
0100
0100
1000
1000
0000
,  // measure 56
0120
0000
0001
0000
0100
1000
1000
1030
,  // measure 57
0100
0000
0010
0100
0100
0010
0010
0010
,  // measure 58
0100
0010
0100
0100
0100
0001
0001
0000
,  // measure 59
0120
0000
1000
0000
0100
0000
0001
0001
,  // measure 60
0130
0000
0010
0100
0100
1000
1000
0000
,  // measure 61
0102
0100
0100
0000
0100
0010
0010
0000
,  // measure 62
0103
0000
1000
0000
0100
0001
0001
0000
,  // measure 63
1001
0110
2002
0000
0000
0000
3003
0000
,  // measure 64
0000
0000
1002
0000
,  // measure 65
1000
0100
0100
0000
,  // measure 66
0103
0000
1000
1000
0100
0000
0000
0001
,  // measure 67
0110
0000
0010
0000
0010
0000
0000
0010
,  // measure 68
0001
0000
0100
0100
0010
0000
1000
0000
,  // measure 69
0100
0000
0010
0010
0100
0000
0000
0010
,  // measure 70
0010
0000
1000
0100
0010
0000
0001
0000
,  // measure 71
1000
0000
0100
0001
0010
0000
0000
0001
,  // measure 72
0100
0000
0001
0001
1000
0000
0000
0100
,  // measure 73
0110
0000
0100
0000
0020
0030
0000
0100
,  // measure 74
1100
0000
0100
0000
0000
0100
0000
0010
,  // measure 75
0011
0000
0010
0000
0000
0000
0010
1000
,  // measure 76
1000
0100
1000
0000
0000
0010
0010
0000
,  // measure 77
1000
0000
1000
0000
0000
0001
0100
0000
,  // measure 78
0100
1000
0000
1000
0000
0000
0100
0100
,  // measure 79
0100
0000
0010
0000
0000
1100
0000
1000
,  // measure 80
1000
0000
0100
0100
0000
0000
0000
0010
,  // measure 81
1001
0000
0000
0000
0000
0000
0000
0000
0100
0000
0000
0000
0100
0000
0000
0000
0000
0000
0000
0000
0000
1100
0000
0000
,  // measure 82
0101
0000
1000
0010
0001
1000
0010
0000
,  // measure 83
1000
0100
0010
0010
1001
0010
0000
0001
,  // measure 84
0100
1000
0010
0001
0100
0100
0010
1000
,  // measure 85
1000
0100
0010
0100
0001
1000
0100
0000
,  // measure 86
1000
0000
0100
0000
0010
0000
0001
0010
,  // measure 87
0100
1000
0100
0010
1000
1000
1000
0010
,  // measure 88
0011
0001
0000
0100
0001
0100
0010
0000
,  // measure 89
1000
0100
0100
0010
1010
0100
0001
0001
,  // measure 90
0010
0000
0000
0000
0010
0001
0100
1000
,  // measure 91
1001
0100
0010
1000
0010
0020
0030
0100
,  // measure 92
0100
0020
0030
0200
0300
0200
0300
0002
,  // measure 93
0003
0100
0020
0030
0220
0000
0330
0000
,  // measure 94
1000
0100
0100
0000
0100
0000
0010
0001
,  // measure 95
0001
0100
0200
0300
,  // measure 96
0100
0000
0010
0000
,  // measure 97
0022
0033
2000
3000
,  // measure 98
0200
0300
0020
1000
,  // measure 99
1030
0000
0020
0001
,  // measure 100
0031
0000
0020
0100
,  // measure 101
0130
0000
2010
0010
,  // measure 102
3010
0000
0110
2002
,  // measure 103
0000
0000
3003
0000
;
