#TITLE:Bloody Mary;
#SUBTITLE:Wednesday Bloody Mary;
#ARTIST:Lady Gaga;
#TITLETRANSLIT:;
#SUBTITLETRANSLIT:;
#ARTISTTRANSLIT:;
#GENRE:pop'n music;
#CREDIT:;
#BANNER:Bloody Mary.png;
#BACKGROUND:Bloody Mary.png;
#LYRICSPATH:;
#CDTITLE:;
#MUSIC:Bloody Mary.ogg;
#OFFSET:0.002000;
#SAMPLESTART:-0.234000;
#SAMPLELENGTH:15.000000;
#SELECTABLE:YES;
#BPMS:0.000000=128.239792
;
#STOPS:
;
#BGCHANGES:0.000=Bloody Mary.avi=1.000=0=0=1=====,
99999=-nosongbg-=1.000=0=0=0 // don't automatically add -songbackground-
;
#KEYSOUNDS:;
#ATTACKS:;

//---------------dance-single - ----------------
#NOTES:
     dance-single:
     :
     Beginner:
     1:
     0.102838,0.183966,0.068559,0.085699,0.000000,126.000000,114.000000,12.000000,15.000000,0.000000,0.000000,0.102838,0.183966,0.068559,0.085699,0.000000,126.000000,114.000000,12.000000,15.000000,0.000000,0.000000:
0000
0000
0000
0000
,
1000
0000
0000
0000
,
0001
0000
0000
0000
,
1000
0000
0000
0000
,
0001
0000
0000
0000
,
0100
0000
0000
0000
,
0010
0000
0000
0000
,
0010
0000
0000
0000
,
1000
0000
0010
0000
,
1000
0000
0010
0000
,
1000
0000
0010
0000
,
0100
0000
0000
0000
,
0010
0000
0000
0000
,
0100
0000
0000
0000
,
0000
0000
0000
0000
,
1001
0000
0000
0000
,
1000
0000
0000
0000
,
0010
0000
0000
0000
,
1000
0000
0000
0000
,
0002
0000
0000
0003
,
0000
0000
0100
0000
,
0000
0000
0000
0000
,
1000
0000
0000
0000
,
0002
0000
0000
0003
,
0000
0000
0000
1000
,
0000
0001
0000
0000
,
0010
0000
0000
0000
,
0100
0000
0000
0000
,
0001
0000
0000
0000
,
1000
0000
0000
0000
,
0010
0000
0000
0000
,
0100
0000
0000
0000
,
0001
0000
0000
0000
,
1000
0000
0000
1000
,
0010
0000
0000
0010
,
0010
0000
0000
0000
,
0110
0000
0000
0000
,
0220
0330
0000
0000
,
1001
0000
0000
0000
,
0020
0000
0030
0000
,
0100
0000
0000
0000
,
0010
0000
0000
0000
,
1001
0000
0000
0000
,
1001
0000
0000
1000
,
0010
0000
0000
0000
,
0001
0000
0000
1000
,
0000
0000
0000
0100
,
0000
0001
0000
0001
,
0000
0000
0000
0000
,
1000
0000
0000
0000
,
0100
0000
0000
0000
,
0020
0000
0030
0000
,
0100
0000
0000
0000
,
0100
0000
0000
0000
,
0010
0000
0000
0000
,
0100
0000
0000
0000
,
0110
0000
0000
0000
,
0110
0000
0000
0000
,
1000
0000
0000
0000
,
1000
1000
0000
0000
,
0001
0001
0001
0000
,
0100
0100
0100
0100
,
0000
0000
0000
0000
,
1001
0000
0000
0000
,
0100
0000
0010
0000
,
0100
0000
0010
0000
,
1000
1000
0000
0000
,
1000
0000
0100
0000
,
0010
0000
0001
0000
,
0010
0010
0100
0100
,
1000
0000
0000
0000
,
0010
0010
0100
0000
,
0110
0000
0000
0000
,
0110
0000
0000
1000
,
0000
0000
0100
0000
,
0000
0000
0010
0000
,
0000
0000
0001
0000
,
0000
0000
0010
0000
,
0000
0000
0100
0000
,
2000
0000
0000
3000
,
0000
0002
0000
0003
,
0000
0020
0000
0030
,
0000
2000
0000
3000
,
0000
0002
0000
0000
,
0003
0020
0000
0000
,
0030
0200
0000
0000
,
0300
0020
0000
0000
,
0030
1000
1000
1000
,
0000
0000
0100
0000
,
0000
0000
1001
0000
,
0000
0000
0010
0000
,
0000
0000
0200
0000
,
0300
0000
0000
0000
;

//---------------dance-single - ----------------
#NOTES:
     dance-single:
     :
     Easy:
     4:
     0.226081,0.289090,0.257096,0.205677,0.000000,277.000000,232.000000,45.000000,36.000000,0.000000,0.000000,0.226081,0.289090,0.257096,0.205677,0.000000,277.000000,232.000000,45.000000,36.000000,0.000000,0.000000:
0000
0000
0000
0000
,
0000
0000
1000
0000
,
0001
0000
0001
0000
,
0100
0010
0100
0010
,
0000
1000
0000
0100
,
0000
0000
0000
0010
,
0001
0000
0001
0000
,
1001
0000
0000
0000
,
1000
0100
1000
0000
,
0001
0010
0001
0000
,
1000
0100
1000
0000
,
2002
0000
0000
3003
,
0001
0010
0001
0000
,
1000
0100
1000
0000
,
0220
0000
0000
0330
,
1001
0000
0000
0000
,
0011
0000
1100
0000
,
0000
0000
1000
0100
,
0010
0001
0000
0000
,
2002
0000
0000
3003
,
1100
0000
0011
0000
,
0200
0300
0001
1000
,
0001
1000
0000
0000
,
2002
0000
0000
3003
,
0100
0010
0100
0010
,
1000
0000
1000
0000
,
0010
0001
0010
0010
,
0100
0000
0002
0000
,
0103
0000
0100
0100
,
0010
0010
2002
3003
,
0110
0000
0110
0000
,
0100
0010
0100
0010
,
0220
0330
1000
0000
,
0011
0000
0011
0000
,
1100
0001
1100
0000
,
1000
1000
0001
0000
,
0002
1000
0103
0000
,
2000
0001
3010
0000
,
0200
0010
0301
0000
,
2200
0000
0000
3300
,
0001
0010
0001
0000
,
1000
0100
0010
0000
,
0001
0010
0100
1000
,
0100
0010
0001
0000
,
1001
0000
1001
0000
,
0110
0000
1000
1000
,
1000
0001
0001
0001
,
2002
0000
0000
3003
,
0100
0100
0010
0010
,
0100
0100
0010
0010
,
0100
0100
0010
0010
,
0220
0330
0110
0000
,
1000
0000
1000
0000
,
1000
0000
2000
0000
,
3100
0100
0100
0100
,
0010
0000
0020
0030
,
0010
0010
0100
0100
,
0001
0001
1000
1000
,
0001
0001
1100
0011
,
0000
0000
0110
0110
,
0000
0000
0100
1000
,
0000
0000
0010
0001
,
0000
0000
1001
0110
,
0000
0000
1001
0110
,
0000
0100
0010
0000
,
1000
0100
0010
0110
,
1000
0001
1000
0001
,
1000
0100
0010
0001
,
0010
0100
0010
0100
,
1000
0001
1000
0001
,
0110
0000
0000
0000
,
0100
0010
1001
0000
,
2001
0000
0010
3000
,
0102
0000
1000
0003
,
1000
0001
0000
0000
,
0010
0010
0010
0000
,
2001
0000
3001
0000
,
1000
0010
0100
0001
,
1002
0000
1000
1003
,
2000
0000
3001
0000
,
0000
1000
1000
1000
,
1100
0000
0100
0100
,
0110
0000
0000
0010
,
0011
0000
0000
0001
,
0001
2000
0001
0000
,
3000
0200
0010
0000
,
0300
0020
0100
0000
,
0030
0002
1000
0000
,
1003
0000
1000
0000
,
0001
0000
0010
0000
,
0100
0000
1000
0000
,
1001
0000
0220
0000
,
0330
0000
0000
0000
;

//---------------dance-single - ----------------
#NOTES:
     dance-single:
     :
     Medium:
     6:
     0.298721,0.394214,0.251383,0.222816,0.000000,366.000000,322.000000,44.000000,39.000000,0.000000,0.000000,0.298721,0.394214,0.251383,0.222816,0.000000,366.000000,322.000000,44.000000,39.000000,0.000000,0.000000:
0000
0000
0000
0000
,
1000
0000
1000
0000
,
0001
0000
0001
0000
,
0100
0010
0100
0010
,
1000
0000
1000
0100
,
0000
0010
0000
0010
,
0001
0000
0001
0000
,
1001
0000
0000
0000
,
1000
0100
0100
0000
1000
0000
0000
0000
,
0001
0010
0010
0000
0001
0000
0000
0000
,
1000
0100
0100
0000
1000
0000
0000
0000
,
2002
0000
0000
3003
,
0001
0010
0010
0000
0001
0000
0000
0000
,
1000
0100
0100
0000
1000
0000
0000
0000
,
0220
0000
0000
0330
,
1001
0000
0000
0000
,
0011
0000
0001
0000
1100
0000
1000
0100
,
0000
0000
0000
0000
1000
0100
0100
0000
,
0010
0000
0001
0001
0000
0000
0001
0000
,
2002
0000
0000
3003
,
1100
0000
0001
0000
0011
0000
0100
0100
,
0000
0100
0000
0000
0001
0001
1000
1000
,
0001
0000
1000
1000
0000
1000
0000
0000
,
2002
0000
0000
3003
,
0100
0010
0100
0010
,
1000
0010
1000
0010
,
0010
0001
0010
0010
,
0200
0300
0002
0000
,
0103
0000
0000
0100
0100
0000
0000
0010
,
0100
0010
0000
0000
2002
0000
3003
0000
,
0110
0000
0110
0000
,
0100
0010
0010
0000
0100
0000
0010
0000
,
0220
0330
1000
0000
,
0011
0010
0011
0000
,
1100
0000
0100
0000
1100
0000
0000
0100
,
1000
0000
0000
0001
,
0002
1000
0103
0000
,
2000
0001
3010
0000
,
0200
0010
0301
0000
,
2200
0000
0000
3300
,
0001
0010
0010
0000
0001
0000
0000
0000
,
1000
0100
0100
0000
0010
0000
0000
0000
,
0001
0010
0010
0000
0100
0000
1000
0000
,
0100
0010
0010
0000
0001
0000
0000
0000
,
1001
0000
0010
0000
1001
0000
0010
0220
,
0330
0000
0000
0000
1000
1000
0000
0000
,
1000
0001
0010
0100
,
2002
0000
0000
3003
,
0100
0010
0100
0000
0010
0100
0010
0000
,
0100
0010
0100
0000
0010
0100
0010
0000
,
0100
0010
0100
0000
0010
0000
0010
0000
,
0220
0330
0110
0000
,
1000
0010
1000
0100
,
1000
0001
2000
0000
,
3100
0100
0100
0100
,
0010
0000
0220
0330
,
0010
0100
0010
0000
0100
0000
0100
0000
,
0001
1000
0001
0000
1000
0000
1000
0000
,
0001
0100
0001
0000
1100
0000
0011
0000
,
0000
0000
0110
0110
,
0100
1000
1000
0000
0100
0000
1000
0000
,
0010
0001
0010
0000
0010
0000
0001
0000
,
0000
0000
1001
0110
,
0001
1000
0001
0000
1001
0000
0110
0000
,
0000
0100
0100
0000
0010
0010
0010
0000
,
1000
1000
0100
0100
0010
1000
0100
0000
,
1000
0001
1000
0001
,
1000
1000
0100
0010
0010
0000
0001
0000
,
0010
0100
0100
0000
0010
0100
0100
0000
,
1000
1000
0001
1000
1000
0001
0001
0000
,
0110
0000
0000
0000
,
0100
0100
0010
0000
1001
0000
0000
0000
,
2000
0010
0010
3000
,
0002
0100
1000
0003
,
1000
0001
0000
0000
,
1010
0110
1010
0000
,
2000
0000
0001
0000
3001
0000
1000
1000
,
0000
0010
0000
0000
0100
0100
0001
0000
,
0002
1000
1000
1003
,
2000
0000
3001
0000
,
0000
0000
1000
0000
1000
0100
1000
0000
,
1100
0000
0100
0000
0100
0010
0100
0000
,
0110
0000
0010
0000
0010
0001
0010
0000
,
0011
0000
0001
0000
0001
0010
0001
0000
,
0001
2000
0001
0001
,
3000
0200
0010
0010
,
0300
0000
0020
0000
0100
0000
0100
0030
,
0000
0002
1000
1000
,
0003
1000
1000
0001
,
0001
0010
0010
0100
,
0100
1000
1000
0100
,
1001
0000
0220
0000
,
0330
0000
0000
0000
;

//---------------dance-single - ----------------
#NOTES:
     dance-single:
     :
     Hard:
     9:
     0.413802,0.473056,0.354221,0.257096,0.019996,507.000000,445.000000,62.000000,45.000000,0.000000,0.000000,0.413802,0.473056,0.354221,0.257096,0.019996,507.000000,445.000000,62.000000,45.000000,0.000000,0.000000:
// measure 0
0000
0000
0000
0000
0000
0000
0000
1000
,  // measure 1
1000
0100
0100
1000
1000
0100
0100
0001
,  // measure 2
0001
0000
0000
0001
0001
0000
0000
0100
,  // measure 3
0100
0010
0010
0100
0100
0000
0010
1000
,  // measure 4
1000
0000
0000
1000
1000
0000
0100
0010
,  // measure 5
0010
0100
0010
0100
0100
0000
0010
0001
,  // measure 6
0001
0000
0000
0001
0001
0000
0000
0100
,  // measure 7
1001
0000
0000
1000
,  // measure 8
1000
0100
0100
1000
1000
0000
0001
0000
,  // measure 9
0001
0010
0010
0001
0001
0000
1000
0000
,  // measure 10
1000
0100
0100
1000
1000
0000
1000
0000
,  // measure 11
2002
0000
0000
3003
,  // measure 12
0001
0010
0010
0001
0001
0000
1000
0000
,  // measure 13
1000
1000
0100
0100
1000
0000
0100
0000
,  // measure 14
0220
0000
0000
0330
,  // measure 15
1001
0001
1000
0000
,  // measure 16
0011
0000
0011
0000
1100
0000
1000
0200
,  // measure 17
0000
0300
0000
0000
1000
0100
0100
0100
,  // measure 18
0020
0030
0001
0001
0000
0001
0000
0000
,  // measure 19
2002
0000
0000
3003
,  // measure 20
1100
0000
0001
0000
0011
0000
0100
0100
,  // measure 21
0000
0100
0000
0000
0001
0001
1000
1000
,  // measure 22
0002
0003
1000
1000
0000
1000
0000
0000
,  // measure 23
2002
0000
0000
3003
,  // measure 24
0100
1010
0100
0010
,  // measure 25
1001
0010
1001
0010
,  // measure 26
0110
0001
0010
0010
,  // measure 27
0210
0300
0002
0000
,  // measure 28
0103
0000
1000
0100
0100
0000
1000
0010
,  // measure 29
0100
0010
1000
0100
2002
0000
3003
0100
,  // measure 30
0110
0000
1000
0100
0110
0000
1000
0100
,  // measure 31
0100
0010
0010
0100
0100
0010
0010
0100
,  // measure 32
0220
0000
0330
1000
1000
0000
0000
0010
,  // measure 33
0011
0010
0010
0100
0011
0000
0000
0100
,  // measure 34
1100
0000
0100
0100
1100
0000
0000
0100
,  // measure 35
1000
0000
0000
0001
,  // measure 36
0102
1000
1000
0100
0103
0000
0001
0010
,  // measure 37
2001
0010
0001
0100
3010
0000
1000
1000
,  // measure 38
0201
0001
0010
0010
0301
0000
1000
0000
,  // measure 39
2200
0000
0000
3300
,  // measure 40
0001
0010
0010
0001
0001
0000
1000
1000
,  // measure 41
1000
0100
0100
0010
0010
0000
0001
0001
,  // measure 42
0001
0010
0010
0100
0100
0000
1000
0100
,  // measure 43
0100
0010
0010
0001
0001
0100
0100
0000
,  // measure 44
1001
0000
0010
0000
1001
0000
0010
0220
,  // measure 45
0330
0000
0000
0000
1000
1000
0100
0100
,  // measure 46
0011
0000
0000
0000
0000
0000
0001
0000
0000
0010
0000
0000
0000
0000
0001
0000
0000
0000
0000
0000
0000
0000
0000
0000
,  // measure 47
2002
0000
0000
3003
,  // measure 48
1100
0010
0100
0000
0011
0100
0010
0000
,  // measure 49
1100
0010
0100
0000
0011
0100
0010
0000
,  // measure 50
1100
0000
0000
0010
0000
0000
0100
0000
0000
0000
0011
0000
0000
0000
0000
0000
0010
0000
0000
0000
0000
0000
0000
0000
,  // measure 51
0220
0000
0330
0000
0220
0330
0000
0000
,  // measure 52
1000
1000
0010
0000
1000
1000
0100
0000
,  // measure 53
1000
1000
0001
0000
2000
0000
0000
0000
,  // measure 54
3100
0010
0100
1000
0100
0010
0100
1000
,  // measure 55
0010
0000
0220
0330
,  // measure 56
0010
0100
0010
0010
0100
0000
0100
0000
,  // measure 57
0001
1000
0001
0001
1000
0000
1000
0000
,  // measure 58
0001
0100
0001
0001
1100
0000
0011
0000
,  // measure 59
1000
0001
1000
1000
0110
0000
0110
0000
,  // measure 60
0100
1000
0100
1000
0110
0000
1001
0000
,  // measure 61
0010
0001
0010
0001
0001
0000
0001
0000
,  // measure 62
0100
0010
0100
0100
1001
0000
0110
0000
,  // measure 63
0001
1000
0001
0010
1001
0000
0110
0000
,  // measure 64
0000
0100
0100
0000
0010
0001
0010
0000
,  // measure 65
1000
1000
0100
0010
0010
1000
1000
1000
,  // measure 66
1000
0000
0001
1000
1000
0000
0001
0000
,  // measure 67
1000
1000
0100
0010
0010
0000
0001
0000
,  // measure 68
0010
0100
0100
0000
0010
0100
0100
0000
,  // measure 69
1000
1000
0001
1000
1000
0001
0001
0010
,  // measure 70
0110
0000
0000
0000
,  // measure 71
0100
0100
0010
0010
1001
0000
0000
0000
,  // measure 72
2000
0000
0010
0000
0010
0000
3010
0010
,  // measure 73
0002
0000
0000
0000
1000
1000
1003
1000
,  // measure 74
1000
0000
0001
0001
0000
0001
0000
0000
,  // measure 75
1010
0000
0110
0000
0000
1010
0000
0000
0000
0000
0000
0000
,  // measure 76
2000
0000
0001
0000
3001
0000
1000
1000
,  // measure 77
0000
0010
0000
0000
0100
0100
0001
0001
,  // measure 78
0002
0000
0000
1000
0000
1000
0000
0000
1000
0003
0000
0000
,  // measure 79
2000
0000
3002
0000
,  // measure 80
0003
0000
1000
0000
1000
0100
1000
1000
,  // measure 81
1100
0000
0100
0000
0100
0010
0100
0010
,  // measure 82
0110
0000
0010
0000
0010
0001
0010
0001
,  // measure 83
0011
0000
0001
0000
0001
0010
0001
0010
,  // measure 84
0001
0000
2000
0000
0001
0100
0001
3001
,  // measure 85
0000
0000
0200
0000
0010
0001
0010
0001
,  // measure 86
0300
0000
0020
0000
0100
1000
0100
1030
,  // measure 87
0000
0000
0002
0000
1000
0010
1000
0010
,  // measure 88
0103
1000
1000
0001
,  // measure 89
0001
0010
0010
0100
,  // measure 90
0100
1000
1000
1000
,  // measure 91
1001
0100
0220
0000
,  // measure 92
0330
0000
0000
0000
;
