#VERSION:0.83;
#TITLE:Bang;
#SUBTITLE:;
#ARTIST:AJR;
#TITLETRANSLIT:;
#SUBTITLETRANSLIT:;
#ARTISTTRANSLIT:;
#GENRE:;
#ORIGIN:;
#TAGS:;
#CREDIT:;
#BANNER:Bang.png;
#BACKGROUND:Bang.png;
#PREVIEWVID:;
#JACKET:;
#CDIMAGE:;
#DISCIMAGE:;
#LYRICSPATH:;
#CDTITLE:;
#MUSIC:Bang.ogg;
#OFFSET:0.000000;
#SAMPLESTART:42.526405;
#SAMPLELENGTH:12.000000;
#SELECTABLE:YES;
#BPMS:0.000000=140.000000
;
#STOPS:;
#DELAYS:;
#WARPS:;
#TIMESIGNATURES:0.000000=4=4
;
#TICKCOUNTS:0.000000=4
;
#COMBOS:0.000000=1
;
#SPEEDS:0.000000=1.000000=0.000000=0
;
#SCROLLS:0.000000=1.000000
;
#FAKES:;
#LABELS:0.000000=Song Start
;
#BGCHANGES:0.000=Bang.mp4=1.000=0=0=1=====,
99999=-nosongbg-=1.000=0=0=0 // don't automatically add -songbackground-
;
#KEYSOUNDS:;
#ATTACKS:
;

//---------------dance-single - ----------------
#NOTEDATA:;
#CHARTNAME:;
#CHARTHASH:2147483647;
#STEPSTYPE:dance-single;
#BANNER:;
#DESCRIPTION:;
#CHARTSTYLE:;
#DIFFICULTY:Beginner;
#METER:2;
#METERF:2.000000;
#LASTSECONDHINT:169.714294;
#RADARVALUES:0.104610,0.283182,0.068650,0.000000,0.000000,128.000000,116.000000,12.000000,0.000000,0.000000,0.000000,0.000000,0.000000,0.000000,0.104610,0.283182,0.068650,0.000000,0.000000,128.000000,116.000000,12.000000,0.000000,0.000000,0.000000,0.000000,0.000000,0.000000;
#CREDIT:;
#NOTES:
0000
0000
0000
0000
,
0000
0000
0000
0000
,
0000
0000
0000
0000
,
0000
0000
0000
0000
,
0000
0000
0000
0000
,
0010
0000
0000
0000
,
0010
0000
0000
0000
,
0100
0000
0000
0000
,
0010
0000
0000
0000
,
1000
0000
0000
0000
,
0001
0000
0000
0000
,
0010
0000
0100
0000
,
0100
0000
0000
0000
,
0001
0000
0000
0000
,
0001
0000
0000
0000
,
1000
0000
0000
0000
,
1000
0000
0000
0000
,
0100
0000
0000
0000
,
0100
0000
0000
0000
,
0110
0000
0000
0000
,
0110
0000
0000
0000
,
1000
0000
0000
0000
,
1000
0000
0000
0000
,
0001
0000
0000
0000
,
0001
0000
0000
0000
,
0100
0000
0000
0000
,
0100
0000
0000
0000
,
0010
0000
0010
0000
,
0010
0000
0000
0000
,
1000
0000
0000
0000
,
0001
0000
0000
0000
,
0010
0000
0000
0000
,
0010
0000
0000
0000
,
0100
0000
0000
0000
,
0010
0000
0000
0000
,
0100
0000
0000
0000
,
1001
0000
0000
0000
,
0100
0000
0000
0000
,
0100
0000
0000
0000
,
0010
0000
0000
0000
,
0010
0000
0000
0000
,
1000
0000
0000
0000
,
0001
0000
0000
0000
,
0100
0000
0000
0000
,
0010
0000
0000
0000
,
1000
0000
0000
0000
,
1000
0000
0000
0000
,
0010
0000
0000
0000
,
0010
0000
0000
0000
,
0001
0000
0000
0000
,
0001
0000
0000
0000
,
0100
0000
0000
0100
,
0000
0000
0100
0000
,
0010
0000
0000
0000
,
1001
0000
0000
0000
,
0010
0000
0000
0000
,
1001
0000
0000
0000
,
0100
0000
0000
0000
,
1001
0000
0000
0000
,
0110
0000
0010
0010
,
0010
0000
0000
0000
,
0110
0000
0000
0000
,
1000
0000
0000
0000
,
0001
0000
0000
0000
,
0100
0000
0000
0000
,
0010
0000
0000
0000
,
0100
0000
0000
0000
,
0001
0000
0010
0010
,
0010
0000
0000
0000
,
1000
0000
1000
0000
,
0100
0000
0100
0000
,
0001
0000
0001
0000
,
0010
0000
0010
0000
,
0100
0000
0100
0100
,
0100
0000
0000
0000
,
0100
0000
0000
0000
,
0010
0000
0000
0000
,
0100
0000
0000
0000
,
0010
0000
0000
0000
,
0100
0000
0000
0000
,
0001
0000
0000
0000
,
0100
0000
0010
0010
,
0010
0000
1000
0000
,
1000
0000
0000
0000
,
1000
0000
0000
0000
,
0100
0000
0000
0000
,
0010
0000
0000
0000
,
0001
0000
0000
0000
,
0001
0000
0000
0000
,
0010
0000
0100
0100
,
0100
0000
0000
0000
,
0100
0000
0000
0000
,
1000
0000
0000
0000
,
0010
0000
0000
0000
,
0001
0000
0000
0000
,
0100
0000
0000
0000
,
0100
0000
0000
0000
,
0110
0000
0110
0110
,
0110
0000
0000
0100
,
1000
0000
0000
0000
;

//---------------dance-single - ----------------
#NOTEDATA:;
#CHARTNAME:;
#CHARTHASH:2147483647;
#STEPSTYPE:dance-single;
#BANNER:;
#DESCRIPTION:;
#CHARTSTYLE:;
#DIFFICULTY:Easy;
#METER:4;
#METERF:4.000000;
#LASTSECONDHINT:169.714294;
#RADARVALUES:0.222296,0.339819,0.223113,0.097255,0.000000,272.000000,233.000000,39.000000,17.000000,0.000000,0.000000,0.000000,0.000000,0.000000,0.222296,0.339819,0.223113,0.097255,0.000000,272.000000,233.000000,39.000000,17.000000,0.000000,0.000000,0.000000,0.000000,0.000000;
#CREDIT:;
#NOTES:
0000
0000
0000
0000
,
1000
0000
0001
0000
,
1000
0000
0001
0001
,
1000
0000
0001
0000
,
1000
0000
0000
0000
,
0010
0000
0100
0000
,
0010
0000
0110
0000
,
0100
0000
0001
0000
,
0010
0000
0100
0000
,
1000
0000
0100
0000
,
0001
0000
0100
0000
,
0010
0000
0100
0100
,
0100
0000
0000
0010
,
0001
0000
0000
0100
,
0001
0000
0000
0100
,
1000
0000
0000
0100
,
1000
0000
0000
0100
,
0100
0000
0100
0000
,
0200
0000
0300
0000
,
0110
0000
0110
1001
,
0110
0000
0000
1000
,
1000
0000
0010
0000
,
1000
0100
0000
0001
,
0001
0000
0000
0010
,
0001
0000
0000
0010
,
0100
0000
0000
0100
,
0100
0000
0000
1000
,
0010
0000
0010
0100
,
0020
0000
0000
1000
,
1030
0000
0000
0010
,
0001
0000
0000
0100
,
0010
0000
0000
0001
,
0010
0000
0000
0100
,
0100
0000
0000
1000
,
0010
0000
0000
0010
,
0100
0000
0110
0110
,
1001
0000
0000
0001
,
0100
0000
0000
0001
,
0100
0000
0000
0001
,
0010
0000
0000
0001
,
0010
0000
0000
0001
,
1000
0000
0000
0001
,
0001
0000
0000
0001
,
0100
0000
2002
0000
,
0000
0000
3003
0000
,
1000
0100
1000
0100
,
1000
0000
0000
0100
,
0010
0100
0010
0100
,
0010
0000
0000
1000
,
0001
1000
0001
1000
,
0001
0000
0000
0000
,
1010
0000
0000
0101
,
0000
0100
0100
0100
,
0010
0000
0000
0100
,
1001
0000
0000
0100
,
0110
0000
0000
0100
,
1001
0000
0000
1001
,
0100
0000
0000
0010
,
1001
0000
0000
1001
,
0110
0000
0010
1000
,
0010
0000
0000
0010
,
0220
0000
0330
0100
,
2000
0000
3000
0010
,
0002
0000
0003
0010
,
0200
0000
0300
1000
,
0020
0000
0030
0001
,
0200
0000
0300
0100
,
1001
0000
0110
0010
,
0110
0000
0000
0100
,
1000
0100
1000
0010
,
0100
0000
0000
0100
,
0001
0010
0001
0000
,
0010
1100
0010
0000
,
0020
0000
0100
0000
,
0130
0000
0000
0100
,
0100
0001
1000
0100
,
0020
0000
0130
0000
,
0100
0010
0100
0001
,
0020
1000
0100
0030
,
0100
0000
0000
0000
,
0001
0100
0010
0010
,
0110
0000
0110
1001
,
0110
1000
1000
0010
,
1000
0010
0200
0001
,
1000
0000
1300
0001
,
0100
1000
0100
0010
,
0020
0001
0031
0000
,
0001
0000
1000
0000
,
0001
0000
0110
0000
,
0010
0000
0110
0011
,
0110
0000
0000
1000
,
0100
0010
0001
0000
,
0001
0010
0100
1000
,
1000
0100
0010
0001
,
1001
0000
0000
0110
,
0200
0000
0300
0000
,
0100
1000
1000
0000
,
0110
0000
0110
1001
,
0110
0000
0000
1001
,
0110
0000
0000
0000
;

//---------------dance-single - ----------------
#NOTEDATA:;
#CHARTNAME:;
#CHARTHASH:2147483647;
#STEPSTYPE:dance-single;
#BANNER:;
#DESCRIPTION:;
#CHARTSTYLE:;
#DIFFICULTY:Medium;
#METER:7;
#METERF:7.000000;
#LASTSECONDHINT:169.714294;
#RADARVALUES:0.352241,0.509728,0.417623,0.354693,0.000000,431.000000,358.000000,73.000000,62.000000,236.000000,0.000000,0.000000,0.000000,0.000000,0.352241,0.509728,0.417623,0.354693,0.000000,431.000000,358.000000,73.000000,62.000000,236.000000,0.000000,0.000000,0.000000,0.000000;
#CREDIT:;
#NOTES:
// measure 0
0000
0000
0000
0000
,  // measure 1
1000
0000
0001
0000
,  // measure 2
1000
0000
0001
0001
,  // measure 3
1000
0000
0001
0000
,  // measure 4
1000
0000
0000
0000
0000
0100
0001
0010
,  // measure 5
0000
0100
0010
0100
0000
0100
0010
0001
,  // measure 6
0000
0010
0100
1000
0000
0010
0001
0001
,  // measure 7
0000
0010
0100
1000
0000
0001
0010
0100
,  // measure 8
0000
0001
0010
0100
0000
0000
0100
0001
,  // measure 9
2000
0000
3000
0100
0000
0000
0010
0001
,  // measure 10
0002
0000
0003
0020
0000
0030
0100
0000
,  // measure 11
0110
0000
M1MM
M1MM
,  // measure 12
M2MM
0000
0000
0000
0000
0310
0010
0001
,  // measure 13
0000
1000
1000
0100
0000
0010
0100
0010
,  // measure 14
0000
0100
0001
0100
0000
1000
0100
0100
,  // measure 15
0000
0010
1000
1000
0000
0010
0010
1010
,  // measure 16
0000
0001
0010
0110
0000
0000
0100
0000
,  // measure 17
0200
0000
0001
0310
0000
0000
1000
1000
,  // measure 18
0200
0000
0300
1001
,  // measure 19
0110
0000
M11M
1MM1
,  // measure 20
M22M
0000
0330
1000
,  // measure 21
1000
0010
0010
0100
,  // measure 22
1000
0100
0010
0001
,  // measure 23
0002
0100
1003
0010
,  // measure 24
0002
0100
0100
0010
,  // measure 25
0103
0100
0000
0100
,  // measure 26
0100
0010
0100
1000
0000
0010
1000
0000
,  // measure 27
0220
0330
MM1M
M1MM
,  // measure 28
MM2M
0000
0000
1000
,  // measure 29
1030
0100
1000
0010
,  // measure 30
0002
0000
0000
0000
0010
0100
0103
0000
,  // measure 31
2000
0000
0000
0001
,  // measure 32
3010
0000
0100
0010
0010
0000
0100
0000
,  // measure 33
0200
0000
0000
1300
,  // measure 34
0010
0100
1000
1000
0000
0100
0010
0000
,  // measure 35
0100
0000
M11M
M11M
,  // measure 36
1MM1
0000
0000
0000
0000
0001
0001
0200
,  // measure 37
0300
0100
0010
0100
0000
0010
1000
0200
,  // measure 38
0300
1000
0100
0020
0030
0100
0001
0000
,  // measure 39
0020
0030
0100
0020
0030
1000
0001
0220
,  // measure 40
0330
1000
0100
0010
0000
0000
0001
0001
,  // measure 41
1000
1000
0100
0010
0000
0000
0001
0001
,  // measure 42
0002
1000
0100
1000
0003
0000
0001
0000
,  // measure 43
0100
0000
0000
0000
2MM2
3003
2MM2
3003
,  // measure 44
2MM2
3003
0100
0100
0020
0000
0100
0030
,  // measure 45
1100
0110
1010
0110
,  // measure 46
1001
0011
1001
1100
,  // measure 47
0110
0110
1001
1100
,  // measure 48
0101
0110
1010
1010
,  // measure 49
0011
1100
0101
1010
,  // measure 50
0011
1100
0101
1001
,  // measure 51
2020
3030
0011
0101
,  // measure 52
0020
0130
0100
0100
,  // measure 53
0010
0100
0001
0100
,  // measure 54
2002
0000
3003
0100
,  // measure 55
0110
0001
1000
0110
,  // measure 56
1001
0000
0100
0100
0010
0010
1001
0000
,  // measure 57
0200
0000
0300
0010
,  // measure 58
1001
0100
0100
0100
0010
0010
1001
0000
,  // measure 59
0220
0330
MMM1
1MMM
,  // measure 60
MM1M
0000
0000
0010
,  // measure 61
0220
0000
0330
0100
,  // measure 62
2000
0001
3010
0011
,  // measure 63
0002
0000
0003
0010
,  // measure 64
0200
1000
0310
1000
,  // measure 65
0020
0000
0030
0001
,  // measure 66
0000
1200
0010
0000
0010
1300
0100
0000
,  // measure 67
2002
3003
M11M
MM1M
,  // measure 68
M11M
0000
0000
M1MM
,  // measure 69
1MMM
M1MM
1MMM
MM1M
,  // measure 70
M1MM
0000
0000
M1MM
,  // measure 71
MMM1
MM1M
MMM1
0000
,  // measure 72
MM1M
11MM
MM1M
0000
,  // measure 73
MM2M
MM0M
M10M
MM0M
,  // measure 74
M13M
0000
0000
M1MM
,  // measure 75
M1MM
MMM1
1MMM
M1MM
,  // measure 76
MM2M
0000
MM0M
0000
M13M
0000
0200
0300
,  // measure 77
0100
0000
0020
0030
0100
0000
0001
0000
,  // measure 78
0020
1000
0100
0130
,  // measure 79
0100
0000
0000
0000
,  // measure 80
0001
0010
0100
0000
0010
0100
0010
0000
,  // measure 81
0220
0330
1MM1
M11M
,  // measure 82
1MM1
1MMM
1MMM
MM1M
,  // measure 83
1MMM
MM1M
M2MM
M0M1
,  // measure 84
10MM
M0MM
13MM
MMM1
,  // measure 85
M1MM
1MMM
M1MM
MM1M
,  // measure 86
MM2M
MM01
MM31
0000
,  // measure 87
MMM1
0000
1MMM
0000
,  // measure 88
MMM1
0M00
0110
0M00
,  // measure 89
001M
M000
0110
M011
,  // measure 90
011M
0000
0000
100M
,  // measure 91
01M0
0M10
M001
0000
,  // measure 92
00M1
0M10
M100
1000
,  // measure 93
1M00
01M0
001M
M001
,  // measure 94
1MM1
0000
0000
M11M
,  // measure 95
M20M
0000
03MM
0000
,  // measure 96
0100
1MM0
1M00
0000
,  // measure 97
M22M
M00M
M33M
1MM1
,  // measure 98
M22M
M00M
M33M
1MM1
,  // measure 99
M11M
0000
0000
0000
;
