#TITLE:kors k's How to make OTOGE CORE;
#ARTIST:kors k;
#BANNER:kors k's How to make OTOGE CORE.png;
#BACKGROUND:kors k's How to make OTOGE CORE-bg.png;
#JACKET:kors k's How to make OTOGE CORE-jacket.png;
#CDTITLE:./CDTITLES/BEATMANIA IIDX.png;
#MUSIC:kors k's How to make OTOGE CORE.ogg;
#SAMPLESTART:95.286;
#SAMPLELENGTH:15;
#DISPLAYBPM:124:190;
#BPMS:0=124,52=190,104=124,136=190,208=124,240=190,323=95,324.5=760,348.5=190;
#BGCHANGES:4=kors k's How to make OTOGE CORE.mp4=1=0=0=0;

//---------------dance-single - t7r----------------
#NOTES:
     dance-single:
     t7r:
     Beginner:
     5:
     :
0000
0000
0000
0000
,
0000
0000
0000
0000
,
0000
0000
0000
0000
,
0000
0000
0000
0000
,
0000
0000
0000
0000
,
0000
0000
0000
0000
,
1000
0000
0000
0000
,
0001
0000
0000
0000
,
0100
0000
0000
0000
,
0010
0000
0000
0000
,
1000
0000
1000
0000
,
1000
0000
0000
0000
,
0000
0000
0000
0000
,
0100
0000
0100
0000
,
0000
0010
0000
0010
,
0000
0000
0001
0000
,
0000
0000
1000
0000
,
0000
0000
0010
0000
,
0000
0000
0100
0000
,
0001
0000
0000
0000
,
0000
0000
0000
0000
,
1000
0000
1000
0000
,
0001
0000
0001
0000
,
0100
0000
0100
0000
,
0010
0000
0010
0000
,
1000
0000
0000
0000
,
0001
0000
0001
0000
,
1000
0000
0000
0000
,
0010
0000
0010
0000
,
0100
0000
0000
0000
,
1000
0000
1000
0000
,
0100
0000
0000
0000
,
0010
0000
0010
0000
,
0001
0000
0000
0000
,
0000
0000
0000
0000
,
0000
0100
0000
0000
,
0100
0000
0000
0000
,
0000
0010
0000
0000
,
0010
0000
0000
0000
,
0000
0000
1001
0000
,
1001
0000
1001
0000
,
0000
0000
0110
0000
,
0110
0000
0110
0000
,
0000
0000
0100
0000
,
0100
0000
0010
0000
,
0000
0000
0010
0000
,
0010
0000
1001
0000
,
0000
0001
0001
0000
,
0001
0000
0001
0000
,
0000
1000
1000
0000
,
1000
0000
1000
0000
,
0000
0000
0000
0000
,
0010
0000
0000
0000
,
0100
0000
0000
0000
,
0001
0000
0001
0000
,
1000
0000
0000
0000
,
0100
0000
0000
0000
,
0010
0000
0000
0000
,
0000
0000
1000
0000
,
0001
0000
0000
0000
,
0000
0000
0000
0000
,
0000
0100
0000
0000
,
0100
0000
0100
0000
,
0000
0010
0000
0000
,
0010
0000
0010
0000
,
0000
1001
0000
0000
,
1001
0000
1001
0000
,
0000
0000
0110
0000
,
0110
0000
0110
0000
,
0000
1000
0000
0000
,
1000
0000
1000
0000
,
0000
0000
0001
0000
,
0001
0000
0001
0000
,
0000
0000
0100
0000
,
0000
0000
0010
0000
,
0000
0000
0001
0000
,
0010
0000
0100
0000
,
0000
1001
0000
0000
,
0000
0000
0000
0000
,
0000
0000
0000
0000
,
0000
0000
0000
0000
,
0000
0010
0000
0000
0000
0000
0000
0000
,
0000
0000
0000
0000
,
0000
0000
0000
0000
,
0000
0000
0000
0000
,
0000
0000
0000
0000
,
0000
0000
0000
0000
,
0000
0000
0000
0000
,
0000
0000
0000
0000
,
1001
0000
0000
0000
;

//---------------dance-single - t7r----------------
#NOTES:
     dance-single:
     t7r:
     Easy:
     8:
     :
0000
0000
0000
0000
,
0000
0000
0000
0000
,
0000
0000
0000
0000
,
0000
0000
0000
0000
,
0000
0000
0000
0000
,
0000
0000
0000
0000
,
2000
0000
3002
0000
,
0203
0320
2030
0000
,
3001
0002
0023
0230
,
2300
0010
3002
0010
,
1003
0200
0301
0200
,
1300
0001
0100
0010
,
0000
0000
0000
0000
,
0100
0100
0100
0100
,
0000
0010
0000
0010
,
0000
1000
1000
1000
,
0000
0001
0000
0001
0000
0001
0000
0001
,
0010
0010
0010
0010
,
0000
0100
0000
0100
0000
0100
0000
0000
,
1001
0000
0000
0000
,
0000
0000
0000
0000
,
1000
0100
0001
0100
,
1000
0010
0100
0001
,
1000
0010
0001
0010
,
1000
0100
0010
0001
,
0110
0000
0000
0000
,
0002
0100
2003
0100
,
3002
0010
2003
3001
,
1000
1000
1000
0000
0001
0001
0001
0000
,
0100
0100
0100
0000
0020
0000
1030
0000
,
0001
0000
0001
0000
0010
0010
0010
0000
,
0100
0000
0100
0100
0200
0000
1300
0000
,
0001
1000
0002
0000
1003
0001
2000
0000
,
3020
0000
0000
0030
,
0000
0000
0000
0000
,
0000
0000
0000
1000
0000
1000
0000
0000
,
0001
0000
0000
0001
0000
0000
0100
0000
,
0000
0000
0010
0000
0000
0010
0000
0000
,
1000
0000
0000
0001
0000
0020
0000
0031
,
0000
1100
1100
0000
,
1100
1100
0000
1001
,
0000
0101
0101
0000
,
1001
1001
0000
0101
,
0000
1010
0000
0000
,
1010
0000
0000
1010
0000
0000
1001
0000
,
0000
0000
0011
0000
0000
0011
0000
0000
,
1001
0000
0000
1000
0002
0000
0000
0000
,
1003
0100
1100
1000
,
0001
0100
0101
0001
,
1000
0010
0001
0010
,
1000
0000
0100
0000
1000
0001
1000
0000
,
0110
0000
0000
0000
,
0002
0000
0013
0100
0200
0000
0000
0000
,
2300
3020
0230
0301
,
2000
0100
3002
0100
,
2003
0010
0010
0000
3002
0010
0010
0000
,
2003
0100
0100
0000
3010
0000
0020
0000
,
0230
0302
1003
0000
,
0000
0200
0320
0032
,
2000
0000
3003
0000
,
0001
0000
0100
0000
0001
1000
0001
0000
,
1000
0000
0001
0000
0000
1000
0000
0000
,
0010
0100
0001
0000
,
1000
0100
0000
0010
,
0100
1000
0010
0100
,
0001
1000
1100
1001
,
1000
1100
1001
1000
,
0001
0100
0101
1001
,
0001
0010
0110
1001
,
2000
0000
3010
0000
0000
0010
0000
0000
,
0100
0000
0000
0100
0000
0000
0001
0000
,
0000
0000
1000
0000
0000
0100
0000
0000
,
0010
0001
0000
1000
0000
0020
0000
0130
,
0000
0000
0001
0000
1000
0100
1000
0000
,
0001
0000
1000
0100
1000
0000
0001
0000
,
1000
0000
0001
0100
0001
0000
1000
0000
,
0001
0000
0010
0001
0010
0000
0001
0000
,
1000
0220
0000
0000
,
0000
0330
0000
0000
,
0000
0000
0000
0000
,
0000
0000
0000
0000
,
0000
1001
0000
0000
0000
0000
0000
0000
,
0000
0000
0000
0000
,
0000
0000
0000
0000
,
0000
0000
0000
0000
,
0000
0000
0000
0000
,
0000
0000
0000
0000
,
0000
0000
0000
0000
,
0000
0000
0000
0000
0000
0100
0000
0000
,
1001
0000
0000
0000
;

//---------------dance-single - t7r----------------
#NOTES:
     dance-single:
     t7r:
     Medium:
     13:
     :
0000
0000
0000
0000
,
0000
0000
0000
0000
,
0000
0000
0000
0000
,
0000
0000
0000
0000
,
0000
0000
0000
0000
,
0000
0000
0000
0000
,
2000
0100
0100
0000
3002
0100
0100
0000
,
2003
0010
0001
0100
,
3002
0010
0010
0000
2003
0010
0010
0000
,
3002
0100
0100
0000
1003
0100
0020
0000
,
0031
0001
0002
0000
1003
1000
2000
0000
,
3010
0000
0000
0010
0000
0000
0100
0000
0000
0001
0000
0000
2000
0000
0000
0000
0000
0000
0000
0000
3001
0000
0000
0000
,
0000
0000
0000
0000
,
0100
0100
0100
0100
,
0000
1001
0000
1001
,
0000
0000
1000
0100
1000
0000
0001
0001
,
0000
0100
0000
0100
0000
0100
0000
0100
,
0001
0001
0001
0001
,
0000
0010
0000
0010
0000
0010
0000
0010
,
0001
0000
0000
0000
,
0000
0000
0000
0000
,
1000
0010
1000
0001
0000
1000
0100
1000
,
0001
0010
0001
1000
0000
0001
0100
0001
,
1000
0100
0010
0100
0000
1000
0010
0100
,
0001
0010
0100
1000
0000
0001
0100
0010
,
1000
0000
0000
0000
,
0002
0100
1000
0000
0103
0010
0020
0000
,
2030
0100
0001
0000
3020
0000
0130
0000
,
0002
0010
1000
0000
2003
0010
0001
0000
,
3100
0100
0010
0100
1000
0020
0100
0000
,
2030
0000
3200
0000
0320
0100
0100
0000
,
0031
0100
0100
0010
2000
0000
3001
0000
,
2000
0100
0001
0000
3002
0010
1000
0000
,
0203
1000
0010
0301
,
0000
0000
0000
0000
,
0000
0000
1000
0010
0000
0010
0000
1000
,
1000
0000
0001
0010
0000
0001
0100
0010
,
0000
0000
0100
0001
0000
0100
0000
0001
,
0001
0010
0000
0001
1000
0200
0000
0310
,
0001
0000
1100
0100
1000
0010
1000
0000
,
1100
0100
1000
0010
1000
0000
0001
0100
,
0000
0000
0101
0100
0001
0010
0001
0000
,
0011
0001
1000
0010
0100
0001
2000
0000
,
3000
0000
0001
0100
0000
0101
0000
0001
,
1001
0000
0001
0010
0000
0001
1000
0010
,
0000
0000
1010
0010
0000
1010
0000
1000
,
0100
1100
0000
1000
0000
0002
0000
0013
,
0001
0000
0100
1000
0100
0010
0100
0000
,
1000
0100
0010
0100
0001
0010
0100
1000
,
0100
0010
0100
0001
0100
0010
0100
0100
,
1000
0010
0100
0001
0010
0100
2000
0000
,
3001
0000
0000
0000
,
2000
0100
0001
0100
3002
0100
1000
0100
,
2003
0010
3002
0010
2003
0100
3020
0000
,
0230
0001
0001
0301
0200
1000
0320
0000
,
2030
0100
0010
0010
3002
0010
0100
0100
,
2003
0100
3001
0100
0100
1000
0100
0100
,
0002
0010
2003
0010
3001
0000
0000
0000
,
0000
0200
1000
1300
0200
0010
0010
0010
,
0302
0010
1000
1003
0000
0000
0000
0000
,
0001
0001
0010
0001
0100
0010
1000
0100
,
0010
0000
0001
0010
0000
0001
0000
0001
,
0001
0000
0100
0010
0000
0100
1000
0100
,
0010
0000
1000
1000
0000
0100
0000
0001
,
0001
0100
0000
0010
0100
1000
0010
0100
,
0101
0000
1001
0001
0010
0001
0101
0000
,
1001
0001
0010
0001
0101
0001
1000
0100
,
0010
0000
1001
1000
0010
1000
1100
0000
,
1001
1000
0010
0100
0001
1000
1100
0100
,
0120
0000
0000
0000
0031
0000
0010
0000
0000
0000
0001
0000
0000
0000
1000
0001
,
1000
0000
0010
0100
0000
1000
0100
0010
,
0100
0000
0000
0000
0001
0000
1000
0000
0000
0000
0100
0000
0000
0000
0010
0001
,
0010
1000
0000
0010
0000
0200
0000
1300
,
0010
0100
0101
0001
1000
0001
0011
0001
,
1000
0100
0001
0100
1100
1000
0010
0100
,
0001
0010
0010
0100
0100
1000
1000
0001
,
1000
0000
0010
1000
0010
0000
1000
0001
1000
0000
0001
0010
0001
0000
0100
0000
,
0010
2002
0000
0000
,
0000
3003
0000
0000
,
0000
0000
0000
0000
,
0000
0000
0000
0000
,
0000
0220
0000
0000
0000
0000
0000
0000
,
0000
0000
0000
0000
,
0000
0000
0000
0000
,
0000
0000
0000
0000
,
0000
0000
0000
0000
,
0000
0000
0000
0000
,
0000
0330
0000
0000
0000
0000
0000
0000
,
0000
0000
0000
0000
0000
1000
0100
0000
,
0001
0000
0000
0000
0110
0000
0000
0000
0000
0000
0000
0000
;

//---------------dance-single - t7r----------------
#NOTES:
     dance-single:
     t7r:
     Hard:
     16:
     :
0000
0000
0000
0000
,
0000
0000
0000
0000
,
0000
0000
0000
0000
,
0000
0000
0000
0000
,
0000
0000
0000
0000
,
0000
0000
0000
0000
,
0010
1000
0100
1000
0000
0001
0100
0001
,
2000
3200
0320
0031
,
1000
0010
1000
0010
0000
0100
0001
0100
,
0002
0000
0013
0000
1000
0010
0010
0000
,
0001
0100
0200
0000
1300
0100
0200
0000
,
0310
0000
1000
0000
0001
0000
0100
0000
0020
0000
0000
0000
0130
0001
0000
0000
,
0000
0000
0000
0000
,
0100
0100
0100
0100
,
0000
1010
0000
1010
,
0000
0000
0000
0000
0001
0000
1000
0000
0100
1000
0000
0000
0001
0000
1000
0000
,
0100
0010
0000
0010
0000
0010
0000
0010
,
0001
0000
0100
0000
1000
0000
0100
0001
,
1000
0100
0000
0100
0000
0100
0000
0100
,
0010
0000
0000
0000
,
0000
0000
0000
0000
,
0001
0100
1000
0100
0001
0100
1000
0100
,
0001
0010
0100
0010
0001
0010
0100
0010
,
0001
0010
1000
0010
0001
0010
1000
0010
,
0001
0100
0010
0100
0001
0010
0100
1000
,
1001
0000
0000
0000
,
1000
0100
0200
0000
0301
0100
0200
0000
,
1300
0010
0100
0001
0020
0000
0031
0000
,
1000
0010
0020
0000
0031
0010
0020
0000
,
0130
0001
0010
0100
2000
0001
3100
0000
,
1000
0010
0020
0000
0130
0010
0020
0000
,
0031
0010
0100
0010
2000
0000
3100
0000
,
0010
0001
0002
0000
0103
1000
2000
0000
,
3200
0010
1000
0301
,
0000
0000
0000
0000
,
0000
0000
0000
0000
0001
0000
0010
0000
0000
0000
0010
0000
0000
0000
0001
0100
,
0001
0000
1000
0010
0000
0100
0010
1000
,
0000
0000
0000
0000
0001
0000
0010
0000
0000
0000
1000
0000
0000
0000
0010
0100
,
0010
0001
0000
1000
0010
0001
0010
0100
,
0001
0000
1100
0100
1100
1000
0001
0000
,
1100
0100
1100
1000
0001
0100
1000
0100
,
0001
0000
0101
0100
0101
0001
1000
0000
,
0011
0010
0011
0001
0010
1000
0020
0000
,
0030
0000
0000
0000
0001
0100
0001
0000
0000
0000
1001
0000
0000
0000
0001
0100
,
0010
0000
0001
0010
0000
1000
0001
0100
,
0000
0000
0000
0000
0010
0000
1010
0000
0000
0000
1001
0000
0000
0000
1000
0100
,
0010
0000
0100
0000
0010
0001
1000
0000
0000
0000
1100
0000
0000
0000
1000
0000
,
1001
0000
0101
0100
0101
0001
1000
0000
,
0101
0000
0100
0000
0101
0000
0001
0000
1000
0000
0100
0010
0100
0000
1000
0000
,
0001
0000
1000
0100
1000
0000
0001
0010
0001
0000
1000
0010
1000
0000
0001
0000
,
1000
0100
1000
0100
1000
0100
1000
0100
0010
0000
0001
0000
0100
0000
0000
0000
,
1010
0000
0000
0000
,
0001
0010
0010
1000
0010
0100
1000
0001
,
2000
0010
3002
0010
2003
0100
3001
0100
,
0002
1000
1000
0100
2003
0001
0001
0100
,
3020
0001
0130
0001
2000
0100
3001
1000
,
0001
0100
0100
0010
0100
1000
1000
0100
,
0002
0000
0010
0000
2003
0000
0010
0000
3001
1000
0000
0000
0000
0000
0000
0000
,
0000
0010
0010
0010
2000
0100
3002
0100
,
2003
0010
0010
3010
0000
0000
0000
0000
,
0100
0000
0100
0000
0010
0000
0100
0001
0100
0001
0100
0000
0001
0000
1000
0100
,
0010
0000
0100
1000
0001
0000
0010
0000
1000
0000
0010
0000
0001
0000
0100
0001
,
0100
1000
0100
0010
0100
0001
0100
1000
,
0100
0000
0010
0000
1000
0000
0100
0000
0001
0000
0100
0000
0010
0000
1000
0010
,
1000
0010
0001
0100
0010
0100
1000
0100
,
0101
0000
0011
0001
1001
1000
1100
0000
,
1010
0000
1000
0000
1001
0000
0001
0000
0101
0000
0001
0100
0010
0000
0100
0000
,
0001
0000
1100
0100
0101
0001
0100
0000
,
0110
0000
0010
0000
0011
0000
0001
0000
1000
0000
0001
0100
0010
0000
0100
0000
,
0001
0000
1000
0100
0010
0000
0001
0000
0100
0000
1000
0000
0100
0000
0001
1000
,
0100
0001
0100
1000
0010
0001
0010
0100
,
0001
0000
0010
0000
0100
0000
0001
0000
0100
0000
0010
0000
0001
0000
1000
0010
,
0100
1000
0100
0010
1000
0100
0010
0001
,
1001
0001
0101
0001
0011
0001
1001
0001
,
0101
0000
0001
0000
0011
0000
0001
0000
1001
0000
0001
1000
0100
0000
1000
0000
,
0001
0000
0010
1000
0010
0000
0001
0100
0001
0000
0100
1000
0100
0000
0001
0000
,
1000
0100
1000
0100
1000
0100
1000
0100
0010
0000
0001
0100
0010
0000
1000
0001
,
0100
2002
0000
0000
,
0000
3003
0000
0000
,
0000
0000
0000
0000
,
0000
0000
0000
0000
,
0000
0220
0000
0000
0000
0000
0000
0000
,
0000
0000
0000
0000
,
0000
0000
0000
0000
,
0000
0000
0000
0000
,
0000
0000
0000
0000
,
0000
0000
0000
0000
,
0000
0330
0000
0000
0000
0000
0000
0000
,
0000
0000
0000
0000
0000
0000
0000
0000
0000
0000
1000
0100
0001
0010
0000
0000
,
0100
0000
0000
0000
0000
0000
0010
0000
0000
0001
0000
0000
0000
0000
0000
0000
1000
0000
0000
0000
0000
0000
0000
0000
0000
0000
0000
0000
0000
0000
0000
0000
0000
0000
0000
0000
0000
0000
0000
0000
0000
0000
0000
0000
0000
0000
0000
0000
;

//---------------dance-single - t7r----------------
#NOTES:
     dance-single:
     t7r:
     Challenge:
     18:
     :
0000
0000
0000
0000
,
0000
0000
0000
0000
,
0000
0000
0000
0000
,
0000
0000
0000
0000
,
0000
0000
0000
0000
,
0000
0000
0000
0000
,
2000
0100
0100
0100
3002
0010
0010
0010
,
2003
3002
0203
0310
,
2000
0010
0001
0001
3200
0001
0010
0010
,
2300
0010
0100
0100
3001
0100
0020
0000
,
1030
1000
0200
0000
0310
0010
0002
0000
,
2003
0000
0000
0010
0000
0000
0100
0000
0000
0100
0000
0000
0001
0000
0000
0000
0000
0000
0000
0000
3010
0000
0000
0000
,
0000
0000
0000
0000
,
0100
0100
0100
0100
,
0000
1001
0000
1001
,
0000
0000
0000
0000
1000
0000
1000
0000
1000
0001
1000
0000
1000
0000
1000
0000
,
0000
0010
0000
0010
0000
0010
0000
0010
,
0001
0001
0001
0001
,
0000
1000
0000
1000
0000
1000
0000
1000
,
0100
0000
0000
0000
,
0000
0000
0000
0000
,
0010
0000
1000
0000
0100
0000
0001
0000
0100
0010
0100
0000
0010
0000
0001
0000
,
0100
0000
1000
0000
0100
0000
0001
0000
0010
0100
0010
0000
1000
0000
0010
0000
,
0001
0000
0100
0000
1000
0000
0100
0000
0010
0100
0010
0000
0001
0000
0010
0000
,
1000
0000
0100
0000
0001
0000
0100
0000
1000
0010
1000
0000
0001
0000
1000
0000
,
1001
0000
0000
0000
,
2000
0100
3002
0000
2003
0010
3002
0000
,
1003
0100
0010
0100
0002
0000
2003
0000
,
3010
0001
0200
0000
1300
0100
0020
0000
,
0130
0100
0010
0100
0010
2000
0001
0000
,
3100
0000
0002
0000
0103
1000
2000
0000
,
3100
0010
0010
0001
0200
0000
0320
0000
,
1030
0010
0020
0000
0031
1000
2000
0000
,
3200
1000
0010
0301
,
0000
0000
0000
0000
,
0000
0000
0000
0000
2000
0000
3010
0000
0000
0000
0010
0000
0000
0000
1000
0001
,
1000
0000
0001
0020
0030
0010
0001
2000
,
3000
0000
0000
0000
0001
0000
0200
0000
0300
0000
0020
0000
0030
0000
0100
0010
,
0100
0000
0020
0000
0030
0001
0010
0000
1000
0000
0002
0000
0000
0000
0103
0000
,
0001
0000
1100
1100
1010
1001
1010
0000
,
1100
1100
1010
1001
1010
0000
1010
1100
,
0000
0000
1100
1010
1001
1010
1100
0000
,
1001
0011
1001
0101
0110
1010
2001
0000
,
3001
0000
0000
0000
0011
0000
1001
0000
0000
0000
1001
0000
0000
0000
0001
0010
,
0001
0000
0011
0101
0000
1001
0011
0101
,
0000
0000
0000
0000
1001
0000
1010
0000
0000
0000
1100
0000
0000
0000
1000
0010
,
1000
0000
0001
0000
1000
0001
0020
0000
1000
0000
0130
0000
0000
0000
0010
0000
,
1001
0000
0101
0100
1100
0100
0110
0000
,
0101
0100
1100
0100
0110
0010
1010
1000
,
1001
0000
1000
0001
1000
0000
0100
0010
0001
0000
0100
0010
1000
0000
0010
0100
,
0001
0010
0001
0010
0100
1000
0100
1000
0001
0100
0010
1000
0001
0000
0000
0000
,
0110
0000
0000
0000
,
2000
0100
0001
0010
3002
0100
1000
0010
,
2003
0100
3002
0010
2003
0010
3002
0100
,
2003
0010
0001
0010
3002
0010
1000
0010
,
2003
0100
0001
0001
3200
0001
0010
0010
,
2300
0010
0001
0010
3002
0010
1000
0100
,
2003
0000
0100
0000
3002
0000
0010
0000
1003
0010
0000
0000
0000
0000
0000
0000
,
0000
0200
1000
0010
0302
0010
1000
0100
,
0023
1000
0100
0100
0031
0000
0000
0000
,
1000
0000
1000
0000
0100
0000
1000
0010
0100
0001
1000
0100
0010
0001
1000
0000
,
0020
0000
0000
0000
0130
0001
0100
0000
0010
0000
0100
0000
1000
0000
0100
0010
,
0100
0001
0010
0100
0001
0100
0010
0100
,
1000
0000
0010
0000
0100
0000
1000
0000
0100
0000
0010
0000
0100
0000
0001
0010
,
0001
1000
0100
0010
0100
0002
0103
1000
,
1001
0010
1100
1010
1001
1010
1100
1000
,
1100
1010
1001
1010
1100
1000
1001
1100
,
1000
0001
0101
0011
1001
0011
0101
0001
,
1001
0000
0011
0000
0101
0000
0101
0000
0001
1000
0100
0010
0001
0100
0010
1000
,
0200
0000
0000
0000
0301
0100
1000
0000
0100
0000
0010
0000
0100
0000
0001
0100
,
1000
0100
0010
1000
0010
0001
0101
1001
,
1100
0000
1000
0000
0010
0000
0001
0000
0010
0000
0100
0000
0010
0000
1000
0010
,
0001
0010
0100
2000
3100
0010
0100
0101
,
1001
1001
1100
1010
1001
1010
1100
1000
,
1100
1010
1001
1010
1100
1000
1010
1100
,
0100
0000
0010
0100
1000
0000
0010
0100
1000
0000
0001
0010
0100
0000
1000
0100
,
0001
0010
0100
0001
1000
0010
0100
1000
0001
0100
0010
0001
1000
0100
0001
0010
,
0100
2001
0000
0000
,
3001
0000
0000
0000
0000
0000
0000
0000
0000
0000
0000
0000
0000
0000
0000
0000
0000
0000
0000
0000
0000
0000
0000
0000
0000
0000
0000
0000
0000
0000
0000
0000
0000
0000
0000
0000
0000
0000
0000
0000
0000
0000
0000
0000
0000
0000
0000
0000
0001
0000
0000
0000
0000
0000
0000
0000
0000
0000
0000
0000
0000
0000
0000
0000
0000
0000
0000
0000
0000
0000
0000
0000
0000
0000
0000
0000
0000
0000
0000
0000
0000
0000
0000
0000
0000
0000
0000
0000
0000
0000
0000
0000
0000
0000
0000
0000
0000
0000
0000
0000
0000
0000
0000
0000
0000
0000
0000
0000
0000
0000
0000
0000
0000
0000
0000
1000
0000
0000
0000
0000
0000
0000
0000
0000
0000
0100
0000
0000
0000
0000
0000
0000
0000
0000
0010
0000
0000
0000
0000
0000
0000
0000
0000
0000
0000
0000
0000
0000
0000
0000
0001
0000
0000
0000
0000
0000
0000
0000
0000
0000
0000
0000
0000
0000
0000
0000
0000
0000
0100
0000
0000
0000
0000
0000
0000
0000
0000
0000
0000
0000
0000
0000
0000
0000
0000
0000
0010
0000
0000
0000
0000
0000
,
0000
0000
0000
0000
0000
0000
0000
0000
0000
0000
0000
0000
0000
0000
0000
0000
0000
0000
0000
0000
0000
0000
0000
0000
0000
0000
0000
0000
0000
0000
1000
0000
0000
0000
0000
0000
0000
0000
0000
0000
0000
0000
0000
0000
0000
0000
0000
0000
0000
0000
0000
0000
0000
0000
0000
0000
0000
0000
0001
0000
0000
0000
0000
0000
0000
0000
0000
0000
0000
0000
0000
0000
0000
0000
0000
0000
0000
0100
0000
0000
0000
0000
0000
0000
0000
0000
0000
0000
0000
0000
0000
0000
0000
0000
0000
0000
0010
0000
0000
0000
0000
0000
0000
0000
0000
0000
0000
0000
0000
0000
0000
0000
0000
0000
0000
0000
0000
0000
0000
0000
1000
0000
0000
0000
0000
0000
0000
0000
0000
0000
0000
0000
0000
0000
0000
0000
0000
0000
0000
0000
0000
0000
0000
0000
0000
0000
0000
0000
0000
0000
0000
0000
0000
0000
0000
0000
0000
0000
0000
0000
0001
0000
0000
0000
0000
0000
0000
0000
0000
0000
0000
0000
0000
0000
0000
0000
0000
0000
0000
0000
0000
0000
0000
0000
0000
0000
0000
0000
0000
0000
0000
0000
,
0100
0000
0000
0000
0000
0000
0000
0000
0000
0000
0000
0000
0000
0000
0000
0000
0000
0000
0000
0100
0000
0000
0000
0000
0000
0000
0000
0000
0000
0100
0000
0000
0000
0000
0000
0000
0000
0000
0000
0000
0000
0000
0000
0000
0000
0000
0000
0000
0000
0000
0000
0000
0000
0000
0000
0000
0000
0000
0000
0000
0000
0000
0000
0000
0000
0000
0000
0000
0000
0000
0000
0000
0000
0000
0000
0000
0000
0000
0000
0000
0000
0000
0000
0000
0000
0000
0000
0000
0000
0000
0000
0000
0000
0000
0000
0000
,
0000
2002
0000
0000
0000
0000
0000
0000
,
0000
0000
0000
0000
,
0000
0000
0000
0000
,
0000
0000
0000
0000
,
0000
0000
0000
0000
,
0000
0000
0000
0000
0000
0000
0000
3003
,
0000
0000
0000
0000
0000
0000
0000
0000
0000
0000
0000
0000
1000
0000
0000
0000
0000
0000
0000
0000
0000
0000
0000
0000
0100
0000
0000
0000
0000
0000
0000
0000
0000
0000
0000
0000
1000
0000
0000
0000
0000
0000
0000
0000
0000
0000
0000
0000
0000
0000
0000
0000
0000
0000
0000
0000
0000
0001
0000
0000
0000
0000
0000
0000
0000
0000
0000
0000
0000
0100
0000
0000
0000
0000
0000
0000
0000
0000
0000
0000
0000
0001
0000
0000
0000
0000
0000
0000
1000
0000
0000
0000
0000
0000
0000
0000
,
0000
0100
0000
0000
0000
0000
0010
0000
0000
0100
0000
0000
0000
0000
0000
0010
0000
0000
0001
0000
0000
0000
0000
0000
0000
0000
0000
0000
0000
0000
1000
0000
0000
0010
0000
0000
1000
0000
0000
0001
0000
0000
0000
0000
0000
0000
0000
0000
,
0100
0000
0000
0000
0000
0000
0010
0000
0000
0100
0000
0000
0000
0000
0000
0000
0001
0000
0000
0000
0000
0000
0000
0000
0000
0000
0000
0000
0000
0000
0000
0000
0000
0000
0000
0000
0000
0000
0000
0000
0000
0000
0000
0000
0000
0000
0000
0000
;

//---------------dance-double - t7r----------------
#NOTES:
     dance-double:
     t7r:
     Easy:
     8:
     :
00000000
00000000
00000000
00000000
,
00000000
00000000
00000000
00000000
,
00000000
00000000
00000000
00000000
,
00000000
00000000
00000000
00000000
,
00000000
00000000
00000000
00000000
,
00000000
00000000
00000000
00000000
,
00002000
00000000
00023000
00000000
,
00030200
00002300
00003002
00000000
,
00000103
00000200
00000320
00002030
,
00003002
00000000
00000103
00001000
,
00010000
02000000
13000000
00200000
,
00310000
00010000
00002000
00003010
,
00000000
00000000
00000000
00000000
,
00000100
00000100
00000100
00000100
,
00000000
00010000
00000000
00010000
,
00000000
00001000
00001000
00001000
,
00000000
00010000
00000000
00010000
00000000
00010000
00000000
00010000
,
01000000
01000000
01000000
01000000
,
00000000
00100000
00000000
00100000
00000000
00100000
00000000
00000000
,
00011000
00000000
00000000
00000000
,
00000000
00000000
00000000
00000000
,
00000010
00001000
00000001
00000100
,
00000010
00001000
00000100
00010000
,
00001000
00100000
00010000
01000000
,
00010000
00100000
01000000
10000000
,
10010000
00000000
00000000
00000000
,
20000000
01000000
30020000
01000000
,
10030000
00100000
00010000
00001000
,
00020000
00000100
00032000
01000000
,
00013000
00001000
00000020
00000031
,
00000100
00000000
00000100
00000000
00001000
00001000
00001000
00000000
,
00010000
00000000
00010000
00010000
00020000
00000000
01030000
00000000
,
00100000
01000000
00200000
00000000
00310000
10000000
00010000
00000000
,
02000000
00000000
00000000
03000000
,
00000000
00000000
00000000
00000000
,
00000000
00000000
00000000
00001000
00000000
00001000
00000000
00000000
,
00010000
00000000
00000000
00001000
00000000
00000010
00000000
00000001
,
00000000
00000000
00000100
00000000
00000000
00000100
00000000
00000000
,
00000010
00000000
00000000
00001000
00000000
00000200
00000000
00010300
,
00000000
00011000
00011000
00000000
,
01001000
01001000
00000000
01000000
,
00000000
01100000
01100000
00000000
,
10000000
01000000
00010000
00002000
,
00003000
00011000
00000000
00000000
,
00011000
00000000
00000000
00010100
00000000
00010000
00000000
00001000
,
00000000
00000000
00000010
00000000
00000000
00000011
00000000
00000000
,
00001001
00000000
00000000
00000001
00000000
00000200
00000000
00000000
,
00001300
00011000
00010000
00011000
,
00001000
01000000
00010000
10000000
,
01000000
00010000
00001000
00000100
,
00000010
00000000
00000100
00000000
00000001
00001000
00000001
00000000
,
00001001
00000000
00000000
00000000
,
00002000
00000000
00003100
00010000
00020000
00000000
00000000
00000000
,
00032000
02003000
03020000
10030000
,
00200000
00310000
00002000
00003010
,
00000002
00000100
00000100
00000000
00002003
00000100
00000100
00000000
,
00003002
00000000
00000103
00000010
00000020
00000000
00001030
00000000
,
00000200
00020300
00031000
00000000
,
00000000
02000000
03200000
20300000
,
00020000
00000000
30030000
00000000
,
10000000
01000000
10000000
10010000
,
10000000
00000000
01000000
00000000
00000000
00100000
00000000
00000000
,
00010000
00000000
00000000
10000000
00000000
00100000
00000000
00010000
,
00000000
00000000
00001000
00000000
00000000
00010000
00000000
00000000
,
00001000
00000000
00000000
00000100
00000000
00000002
00000000
00000013
,
00000000
00000100
00000010
00000011
,
00000100
00000010
00000011
00000001
,
00000000
00000100
00000010
00001010
,
00001000
00000100
00010000
00011000
,
00000000
00000000
00010000
00000000
00000000
01100000
00000000
00000000
,
10000000
00000000
00000000
00010000
00000000
00000000
10010000
00000000
,
00000000
00000000
10000000
00000000
00000000
01000000
00000000
00000000
,
00010000
00001000
00000000
00010000
00000000
00000020
00000000
00000130
,
00000000
00000000
00000001
00000000
00000010
00000100
00000010
00000000
,
00000001
00000000
00000100
00000010
00000100
00000000
00001000
00000000
,
00010000
00000000
00100000
00000000
10000000
01000000
10000000
00000000
,
00100000
00000000
10000000
00000000
00010000
00100000
00001000
00000000
,
00010000
00022000
00000000
00000000
,
00000000
00033000
00000000
00000000
,
00000000
00000000
00000000
00000000
,
00000000
00000000
00000000
00000000
,
00000000
00000002
00000000
00000000
00000000
00000000
00000000
00000000
,
00000000
00000000
00000000
00000000
,
00000000
00000000
00000000
00000000
,
00000000
00000000
00000000
00000000
,
00000000
00000000
00000000
00000000
,
00000000
00000000
00000000
00000000
,
00000003
00000000
00000000
00000000
,
00000000
00000000
00000000
00000000
00000000
01000000
00000000
00000000
,
10010000
00000000
00000000
00000000
;

//---------------dance-double - t7r----------------
#NOTES:
     dance-double:
     t7r:
     Medium:
     13:
     :
00000000
00000000
00000000
00000000
,
00000000
00000000
00000000
00000000
,
00000000
00000000
00000000
00000000
,
00000000
00000000
00000000
00000000
,
00000000
00000000
00000000
00000000
,
00000000
00000000
00000000
00000000
,
20000000
01000000
01000000
00000000
30020000
01000000
01000000
00000000
,
20030000
30200000
00320000
00031000
,
00000020
00000001
00000001
00000000
00000230
00001000
00001000
00000000
,
00020300
00001000
00001000
00000000
00030100
00001000
00000002
00000000
,
00000103
00001000
00002000
00000000
01003000
00010000
00020000
00000000
,
10030000
00000000
00000000
10000000
00000000
00000000
01000000
00000000
00000000
00010000
00000000
00000000
00020000
00000000
00000000
00000000
00000000
00000000
00000000
00000000
00031000
00000000
00000000
00000000
,
00000000
00000000
00000000
00000000
,
01000000
01000000
01000000
01000000
,
00000000
00011000
00000000
00011000
,
00000000
00000000
00001000
00001000
00000100
00000000
00000001
00000000
,
00000000
00000010
00000000
00000010
00000000
00000010
00000000
00000010
,
00001000
00001000
00001000
00001000
,
00000000
00100000
00000000
00100000
00000000
00100000
00000000
00100000
,
00010000
00000000
00000000
00000000
,
00000000
00000000
00000000
00000000
,
10000000
00100000
10000000
00010000
00000000
10000000
01000000
00100000
,
01000000
10000000
00010000
01000000
00000000
00010000
00100000
00001000
,
00010000
00000010
00001000
00000001
00000000
00000100
00000001
00001000
,
00000001
00000010
00000100
00001000
00000000
00010000
00100000
01000000
,
10000000
00000000
00000000
00000000
,
00200000
10000000
01000000
00000000
20300000
01000000
00010000
00000000
,
30100000
00010000
00002000
00003020
,
00000032
00000100
00001000
00000000
00002003
00000100
00000001
00000000
,
00003010
00001000
00000100
00010000
00001000
02000000
00010000
00000000
,
03100000
10000000
02000000
00000000
03100000
00001000
00020000
00000000
,
00031000
00000100
00000100
00000001
00000020
00000000
00002030
00000000
,
00013000
00100000
20000000
00000000
30010000
00100000
20000000
00000000
,
30200000
00010000
00001000
00310000
,
00000000
00000000
00000000
00000000
,
00000000
00000000
10000000
00100000
00000000
00100000
00000000
10000000
,
10000000
00000000
00010000
01000000
00000000
00010000
00100000
00001000
,
00000000
00000000
00010000
00000100
00000000
00010000
00000000
00001000
,
00001000
00000100
00000000
00000001
00000000
00000020
00000000
00000130
,
00000000
00000000
00010100
00000100
00010000
00001000
00010000
00000000
,
00010100
00000100
00010000
00001000
00010000
00000000
01000000
10000000
,
00000000
00000000
10100000
10000000
00010000
10000000
00100000
00000000
,
11000000
01000000
10000000
00010000
01000000
00010000
00200000
00000000
,
00300000
00000000
00001000
00010000
00000000
00011000
00000000
00001000
,
01001000
00000000
00001000
00011000
00000000
00010000
00001000
00000010
,
00000000
00000000
00000110
00000100
00000000
00010100
00000000
00000100
,
00010000
00011000
00000000
00100000
00000000
00020000
00000000
10030000
,
00100000
00000000
10000000
01000000
00010000
01000000
10000000
00000000
,
10000000
01000000
00100000
01000000
00010000
00001000
00000100
00000010
,
00000110
00000000
00000001
00000010
00001000
00000010
00000001
00000000
,
00000001
00000010
00001000
00010000
00001000
00010000
00100000
00000000
,
10100000
00000000
00000000
00000000
,
20000000
01000000
00010000
01000000
30020000
01000000
10000000
01000000
,
20030000
30200000
00320000
00031000
,
00000020
00001000
00000100
00000100
00000032
00000100
00001000
00001000
,
00000013
00000001
00000100
00000100
00001000
00010000
01000000
01000000
,
20000000
00100000
00010000
00100000
30020000
00100000
10000000
00100000
,
20030000
32000000
03010000
00000000
,
00000000
00000200
00001000
00001000
00000320
00001000
00000100
00000100
,
00000031
00000100
00001000
00001000
00000000
00000000
00000000
00000000
,
00010000
00010000
00001000
00010000
00100000
01000000
00010000
00000000
,
01000000
00000000
00010000
00100000
00000000
00010000
00000000
00010000
,
00010000
00000000
10000000
01000000
00000000
10000000
00100000
01000000
,
10000000
00000000
01000000
01000000
00000000
00010000
00000000
00100000
,
00100000
00001000
00010000
00001000
00000010
00000100
00001000
00000010
,
00000110
00000000
00000001
00000010
00001000
00000010
00000011
00000000
,
00000001
00000100
00001000
00000100
00000110
00000000
00000010
00010000
,
00000100
00000000
00010000
00001000
00010000
01000000
11000000
00000000
,
10100000
00100000
01000000
10000000
00010000
00100000
10000000
01000000
,
00010000
00000000
00000000
00000000
00011000
00000000
00001000
00000000
00000000
00000000
00000100
00000000
00000000
00000000
00000001
00000010
,
00000001
00000000
00000010
00001000
00000000
00010000
00100000
01000000
,
00010000
00000000
00000000
00000000
10000000
00000000
01000000
00000000
00000000
00000000
00100000
00000000
00000000
00000000
01000000
10000000
,
01000000
10000000
00000000
00100000
00000000
00020000
00000000
00031000
,
00010000
00001000
00011000
00000000
00001000
00000100
00000110
00000000
,
00000001
00000010
00001000
00000010
00000001
00000100
00001000
00010000
,
00011000
00010000
01000000
01000000
10000000
00100000
01000000
00001000
,
00010000
00000000
00000100
00010000
00000100
00000000
00010000
00001000
00010000
00000000
00001000
01000000
00001000
00000000
00000000
00000000
,
00010000
00022000
00000000
00000000
,
00000000
00033000
00000000
00000000
,
00000000
00000000
00000000
00000000
,
00000000
00000000
00000000
00000000
,
00000000
22000000
00000000
00000000
00000000
00000000
00000000
00000000
,
00000000
00000000
00000000
00000000
,
00000000
00000000
00000000
00000000
,
00000000
00000000
00000000
00000000
,
00000000
00000000
00000000
00000000
,
00000000
00000000
00000000
00000000
,
00000000
33000000
00000000
00000000
00000000
00000000
00000000
00000000
,
00000000
00000000
00000000
00000000
00000000
00000100
00010000
00000000
,
00001000
00000000
00000000
00000000
00011000
00000000
00000000
00000000
00000000
00000000
00000000
00000000
;

//---------------dance-double - t7r----------------
#NOTES:
     dance-double:
     t7r:
     Hard:
     16:
     :
00000000
00000000
00000000
00000000
,
00000000
00000000
00000000
00000000
,
00000000
00000000
00000000
00000000
,
00000000
00000000
00000000
00000000
,
00000000
00000000
00000000
00000000
,
00000000
00000000
00000000
00000000
,
00001000
00010000
00000100
00001000
00000000
00000010
00001000
00000001
,
00000020
00000230
00020300
00031000
,
01000000
00010000
10000000
00010000
00000000
10000000
00100000
10000000
,
02000000
03010000
00002000
00003100
,
00000001
00000010
00000200
00000000
00001300
00000100
00020000
00000000
,
00031000
00000000
01000000
00000000
00010000
00000000
10000000
00000000
00200000
00000000
00000000
00000000
01300000
00100000
00000000
00000000
,
00000000
00000000
00000000
00000000
,
10000000
10000000
10000000
10000000
,
00000000
00110000
00000000
00110000
,
00000000
00000000
00000000
00000000
00100000
00000000
00100000
00000000
00001000
00010000
00000000
00000000
00001000
00000000
00010000
00000000
,
00000100
00000010
00000000
00000010
00000000
00000010
00000000
00000010
,
00000001
00000100
00001000
00010000
,
00000100
00010000
00000000
00010000
00000000
00010000
00000000
00010000
,
00001000
00000000
00000000
00000000
,
00000000
00000000
00000000
00000000
,
01000000
00010000
10000000
01000000
00000000
00100000
00010000
10000000
,
01000000
00100000
00010000
00001000
00000000
00000001
00000010
00000100
,
00001000
00000010
00000100
00000001
00000000
00000010
00000100
00001000
,
00010000
01000000
00100000
10000000
01000000
00100000
00001000
00010000
,
00011000
00000000
00000000
00000000
,
00010000
00000100
00000200
00000000
00001300
00000010
00000020
00000000
,
00001030
00000100
00000010
00000001
00000200
00000000
00002300
00000000
,
00013000
00100000
00200000
00000000
10300000
01000000
02000000
00000000
,
13000000
00100000
00010000
00001000
02000000
00100000
03010000
00000000
,
10000000
00000000
02000000
00000000
03100000
00100000
00002000
00000000
,
00013000
00001000
00000010
00000100
00000020
00000000
00000032
00000000
,
00001003
00000010
00000200
00000000
00001300
00010000
02000000
00000000
,
23000000
00100000
00010000
31000000
,
00000000
00000000
00000000
00000000
,
00000000
00000000
00000000
00000000
10000000
00000000
00100000
00000000
00000000
00000000
00100000
00000000
00000000
00000000
10000000
00010000
,
10000000
00000000
00100000
00010000
00000000
00001000
00100000
00010000
,
00000000
00000000
00000000
00000000
00100000
00000000
01000000
00000000
00000000
00000000
00010000
00000000
00000000
00000000
00001000
00010000
,
00001000
00000100
00000000
00000001
00000010
00000100
00001000
00000001
,
00000000
00000000
00001000
00000001
00001001
00000001
00000100
00000000
,
00000001
00001000
00001001
00001000
00000100
00000000
00010000
00011000
,
00000000
00000000
00001000
00010000
00011000
00001000
01000000
00000000
,
00010000
10000000
10010000
00010000
00100000
01000000
20000000
00000000
,
30000000
00000000
00000000
00000000
00100000
00000000
00010000
00000000
00000000
00000000
00010000
00000000
00000000
00000000
00001000
00010000
,
00001000
00000000
00000010
00000100
00000000
00000010
00000001
00001000
,
00000000
00000000
00000000
00000000
00000001
00000000
00000100
00000000
00000000
00000000
00000010
00000000
00000000
00000000
00001000
00000100
,
00001000
00000100
00000000
00010000
00000000
00011000
00001000
01000000
,
00010000
00000000
10000000
00010000
10010000
10000000
01000000
00000000
,
10000000
00010000
10010000
00010000
00100000
00000000
00001000
00011000
,
00010000
00000000
00000010
00001000
00000010
00000000
00001000
00000001
00001000
00000000
00000001
00000010
00000001
00000000
00001000
00000000
,
00000100
00010000
00000100
00010000
00000100
00010000
00000100
00010000
00000100
00000000
00010000
00000000
00002000
00000000
00000000
00000000
,
00013000
00000000
00000000
00000000
,
00001000
00010000
00010000
00001000
01000000
00100000
00100000
10000000
,
00020000
01000000
20030000
01000000
30020000
00000000
00230000
00000000
,
00301000
00010000
00010000
00001000
00000010
00000100
00000100
00001000
,
00000002
00000100
00002003
00000000
00003200
00001000
00010300
00010000
,
00001000
00100000
00100000
00010000
01000000
00100000
00100000
10000000
,
02000000
00000000
00100000
00000000
23000000
00000000
00100000
00000000
30010000
01000000
00000000
00000000
00000000
00000000
00000000
00000000
,
00000000
00001000
00001000
00001000
00020000
00000100
00032000
00010000
,
00103000
00001000
00010000
00010000
00000000
00000000
00000000
00000000
,
00001000
00000000
00001000
00000000
00010000
00000000
00000100
00001000
00000100
00001000
00000001
00000000
00000100
00000000
00000010
00001000
,
00000001
00000000
00000010
00000100
00001000
00000000
00000001
00000000
00000010
00000000
00001000
00000000
00010000
00000000
00000010
00001000
,
00000010
00000100
00001000
00010000
00000100
00010000
00001000
00010000
,
01000000
00000000
10000000
00000000
00100000
00000000
00010000
00000000
00100000
00000000
01000000
00000000
00010000
00000000
10000000
01000000
,
10000000
01000000
00010000
00001000
01000000
00100000
00010000
00001000
,
00011000
00000000
01001000
00001000
00011000
00010000
00001000
00000000
,
01001000
00001000
00011000
00010000
00000100
00001000
00000001
00000100
,
00000101
00000000
00000011
00000001
00001001
00000001
00000010
00000000
,
00001000
00010000
00000100
00001000
00010000
00100000
01000000
00010000
,
10010000
00000000
00000000
00000000
10000000
00100000
10000000
00000000
00100000
00000000
00010000
00000000
00001000
00000000
00100000
00010000
,
00100000
00001000
00010000
00001000
00000010
00000001
00000100
00000010
,
00001010
00000000
00001000
00000000
00000001
00000000
00000010
00000000
00001000
00000000
00010000
00000000
00000100
00000000
00001000
00000010
,
00001000
00000010
00000100
00001000
00010000
01000000
00100000
00010000
,
10010000
00010000
00110000
00100000
00101000
00001000
00011000
00010000
,
00011000
00010000
00010010
00010000
00011000
00001000
00101000
00100000
,
00010000
00000000
10000000
01000000
10000000
00000000
01000000
00100000
01000000
00000000
00100000
00010000
00100000
00000000
00001000
00000000
,
00010000
00001000
00010000
00001000
00010000
00001000
00010000
00001000
00010000
00000000
00001000
00000000
00000010
00000000
00000001
00000000
,
00000100
00022000
00000000
00000000
,
00000000
00033000
00000000
00000000
,
00000000
00000000
00000000
00000000
,
00000000
00000000
00000000
00000000
,
00000000
02200000
00000000
00000000
00000000
00000000
00000000
00000000
,
00000000
00000000
00000000
00000000
,
00000000
00000000
00000000
00000000
,
00000000
00000000
00000000
00000000
,
00000000
00000000
00000000
00000000
,
00000000
00000000
00000000
00000000
,
00000000
03300000
00000000
00000000
00000000
00000000
00000000
00000000
,
00000000
00000000
00000000
00000000
00000000
00000000
00000000
00000000
00000000
00000000
00001000
00010000
00000100
00001000
00000000
00000000
,
00000010
00000000
00000000
00000000
00000000
00000000
00000100
00000000
00000000
00000001
00000000
00000000
00000000
00000000
00000000
00000000
00001000
00000000
00000000
00000000
00000000
00000000
00000000
00000000
00000000
00000000
00000000
00000000
00000000
00000000
00000000
00000000
00000000
00000000
00000000
00000000
00000000
00000000
00000000
00000000
00000000
00000000
00000000
00000000
00000000
00000000
00000000
00000000
;

//---------------dance-double - t7r----------------
#NOTES:
     dance-double:
     t7r:
     Challenge:
     18:
     :
00000000
00000000
00000000
00000000
,
00000000
00000000
00000000
00000000
,
00000000
00000000
00000000
00000000
,
00000000
00000000
00000000
00000000
,
00000000
00000000
00000000
00000000
,
00000000
00000000
00000000
00000000
,
20000000
01000000
01000000
01000000
30020000
00100000
00100000
00100000
,
20030000
30200000
00310000
00021000
,
00030020
00000001
00000100
00000100
00002030
00000010
00000001
00000001
,
00003100
00010000
00001000
00001000
00010000
01000000
21000000
00000000
,
30100000
00010000
00002000
00000000
00103000
00010000
00002000
00000000
,
00003010
00000000
00000000
00000100
00000000
00000000
00000001
00000000
00000000
00000010
00000000
00000000
00002000
00000000
00000000
00000000
00000000
00000000
00003000
00000000
00011000
00000000
00000000
00000000
,
00000000
00000000
00000000
00000000
,
01000000
01000000
01000000
01000000
,
00000000
00011000
00000000
00011000
,
00000000
00000000
00000000
00000000
00001000
00000000
00001000
00000000
00001000
00000100
00000000
00000000
00000001
00000000
00000001
00000000
,
00000000
00000010
00000000
00000010
00000000
00000010
00000000
00000010
,
00001000
00001000
00001000
00001000
,
00000000
00010000
00000000
00010000
00000000
00010000
00000000
00010000
,
00011000
00000000
00000000
00000000
,
00000000
00000000
00000000
00000000
,
00100000
00000000
00010000
00000000
01000000
00000000
10000000
00000000
01000000
00100000
01000000
00000000
00100000
00000000
10000000
00000000
,
01000000
00000000
00010000
00000000
00001000
00000000
00000010
00000000
00000100
00000010
00000100
00000000
00000010
00000000
00000001
00000000
,
00000100
00000000
00001000
00000000
00010000
00000000
00100000
00000000
01000000
00100000
01000000
00000000
00100000
00000000
10000000
00000000
,
01000000
00000000
00010000
00000000
00001000
00000000
00000100
00000000
00000010
00001000
00000010
00000000
00010000
00000000
00000100
00000000
,
00010100
00000000
00000000
00000000
,
00020000
00000100
00032000
00000000
00023000
00000010
00032000
00000000
,
00013000
01000000
10000000
00010000
02000000
00000000
03200000
00000000
,
10300000
01000000
00200000
00000000
10300000
00100000
02000000
00000000
,
13000000
10000000
00100000
00010000
00001000
00020000
00000100
00000000
,
00031000
00000000
00020000
00000000
00031000
00000100
00000200
00000000
,
00000310
00001000
00001000
00000001
00000020
00000000
00000230
00000000
,
00000310
00000001
00000002
00000000
00000103
00001000
00002000
00000000
,
00023000
00230000
20300000
31000000
,
00000000
00000000
00000000
00000000
,
00000000
00000000
00000000
00000000
00200000
00000000
00301000
00000000
00000000
00000000
00001000
00000000
00000000
00000000
00010000
00001000
,
00010000
00000000
00001000
00000020
00000030
00000010
00000100
00001000
,
00000000
00000000
00000000
00000000
00000001
00000000
00000200
00000000
00000300
00000000
00000020
00000000
00000030
00000000
00000100
00000001
,
00001000
00000000
00000200
00000000
00000300
00010000
00001000
00000000
00010000
00000000
02000000
00000000
00000000
00000000
03100000
00000000
,
00010000
00000000
11000000
11000000
10100000
10010000
10100000
00000000
,
11000000
11000000
10100000
10010000
10100000
10000000
01000000
00010000
,
00001000
00000000
00010100
00010100
00011000
00010100
00010010
00000000
,
00010000
00001000
00000100
00000001
00000010
00000100
00000120
00000000
,
00000031
00000000
00000000
00000000
00000101
00000000
00000101
00000000
00000000
00000000
00001001
00000000
00000000
00000000
00000001
00000010
,
00000001
00000000
00000011
00001001
00000000
00001100
00010100
00011000
,
00000000
00000000
00000000
00000000
01010000
00000000
01010000
00000000
00000000
00000000
01100000
00000000
00000000
00000000
00010000
10000000
,
00100000
00000000
01000000
00000000
00010000
10000000
02000000
00000000
00010000
00000000
03100000
00000000
01000000
00000000
10000000
00000000
,
10100000
00000000
11000000
01000000
01010000
00010000
00011000
00000000
,
00001100
00000100
00000101
00000001
00001001
00000001
00000011
00000010
,
00000001
00000000
00000100
00000001
00001000
00000000
00000100
00010000
00001000
00000000
00010000
00001000
01000000
00000000
00010000
10000000
,
00010000
00100000
00010000
00100000
01000000
10000000
01000000
10000000
00010000
01000000
00001000
00010000
00001000
00000000
00000000
00000000
,
00000110
00000000
00000000
00000000
,
00000002
00000010
00001000
00000100
00002003
00000010
00000001
00000100
,
00003001
00000100
00001000
00010000
02000000
10000000
00100000
00010000
,
23000000
00100000
00010000
00100000
30020000
00001000
00100000
00001000
,
02030000
00010000
00010000
00010000
03002000
00010000
00010000
00010000
,
00003200
00001000
00000010
00000001
00000320
00000001
00000100
00001000
,
00000130
00000000
00000001
00000000
00000010
00000000
00001000
00000000
00010000
00001000
00000000
00000000
00000000
00000000
00000000
00000000
,
00000000
01000000
00010000
00100000
10000000
00100000
00001000
00010000
,
00001000
00000010
00000001
00000100
00001000
00000000
00000000
00000000
,
00010000
00000000
00010000
00000000
00001000
00000000
01000000
00010000
10000000
00010000
00100000
00000000
00010000
10000000
01000000
00000000
,
20000000
00000000
00000000
00000000
30100000
01000000
00010000
00000000
10000000
00000000
00100000
00000000
00010000
00000000
00001000
00010000
,
00001000
00000010
00000001
00000100
00000010
00000100
00001000
00000100
,
00000001
00000000
00000010
00000000
00000100
00000000
00000001
00000000
00000100
00000000
00010000
00000000
00001000
00000000
00010000
00001000
,
01000000
00010000
01000000
10000000
01000000
00100000
10000000
01000000
,
01010000
00010000
00011000
00001000
00001010
00001000
00011000
00001000
,
00011000
00000000
00010000
00000000
00110000
00000000
00010000
00000000
00011000
00000000
00001000
00000010
00000100
00000000
00000010
00000000
,
00000001
00000100
00001100
00001000
00011000
00010000
01010000
00010000
,
00011000
00000000
00011000
00000000
00010100
00000000
00010100
00000000
00011000
00000000
00011000
00000000
00001000
01000000
00010000
10000000
,
02000000
00000000
00000000
00000000
03100000
00010000
10000000
00000000
00100000
00000000
01000000
00000000
00010000
00000000
00100000
00001000
,
00010000
00001000
00010000
00000010
00001000
00000001
00000100
00000010
,
00000100
00000000
00001000
00000000
00000100
00000000
00000001
00000000
00001000
00000000
00000010
00000000
00010000
00000000
00001000
00100000
,
00010000
01000000
00100000
00010000
10000000
01000000
00001000
00010000
,
00011000
00001000
01001000
01001000
00011000
00011000
00011000
00010000
,
00010100
00000000
00010100
00000000
00011000
00000000
00011000
00000000
00011000
00000000
00001000
00010000
01000000
00000000
10000000
00010000
,
10000000
00000000
00100000
01000000
00010000
00000000
00100000
01000000
10000000
00000000
01000000
00100000
00010000
00000000
10000000
01000000
,
10000000
00100000
10000000
00100000
01000000
00010000
01000000
00010000
00100000
00001000
00010000
00001000
00000100
00000001
00000010
00000100
,
00010000
00022000
00000000
00000000
,
00000000
00033000
00000000
00000000
,
00000000
00000000
00000000
00000000
,
00000000
00000000
00000000
00000000
,
00000000
00200020
00000000
00000000
00000000
00000000
00000000
00000000
,
00000000
00000000
00000000
00000000
,
00000000
00000000
00000000
00000000
,
00000000
00000000
00000000
00000000
,
00000000
00000000
00000000
00000000
,
00000000
00000000
00000000
00000000
,
00000000
00300030
00000000
00000000
00000000
00000000
00000000
00000000
,
00000000
00000000
00000000
00000000
00000000
00000000
00000000
00000000
00000000
00000000
00000001
00000100
00001000
00010000
00000000
00000000
,
01000000
00000000
00000000
00000000
00000000
00000000
10000000
00000000
00000000
00010000
00000000
00000000
00000000
00000000
00000000
00000000
00001000
00000000
00000000
00000000
00000000
00000000
00000000
00000000
00000000
00000000
00000000
00000000
00000000
00000000
00000000
00000000
00000000
00000000
00000000
00000000
00000000
00000000
00000000
00000000
00000000
00000000
00000000
00000000
00000000
00000000
00000000
00000000
;
