#TITLE:Yona Yona Journey;
#ARTIST:TAKU INOUE & Mori Calliope;
#BANNER:Yona Yona Journey.png;
#BACKGROUND:Yona Yona Journey-bg.png;
#JACKET:Yona Yona Journey-jacket.png;
#CDTITLE:./CDTITLES/NONE.PNG;
#MUSIC:Yona Yona Journey.ogg;
#SAMPLESTART:32.336;
#SAMPLELENGTH:15;
#BPMS:0=122;

//---------------dance-single - t7r----------------
#NOTES:
     dance-single:
     t7r:
     Beginner:
     2:
     :
0000
0000
0000
0000
,
0000
0000
0000
0000
,
0000
0000
0000
0000
,
0000
0000
0000
0000
,
0000
0000
0000
0000
,
0001
0000
0000
0000
,
0100
0000
0000
0000
,
0010
0000
0000
0000
,
1000
0000
0000
0000
,
0000
0001
0000
0001
,
0001
0000
0001
0000
,
0000
1000
0000
1000
,
1000
0000
1000
0000
,
0010
0000
0000
0000
,
0100
0000
0000
0000
,
0001
0000
0000
0000
,
1000
0000
0000
0000
,
1000
0000
0000
0000
,
0001
0000
0000
0000
,
0100
0000
0000
0000
,
0010
0000
0000
0000
,
1000
0000
0000
0000
,
0100
0000
0100
0000
,
0100
0000
0000
0000
,
0010
0000
0000
0000
,
0001
0000
1000
0000
,
0001
0000
0000
0000
,
0100
0000
0010
0000
,
0100
0000
0000
0000
,
0001
0000
1000
0000
,
0010
0000
0010
0000
,
0010
0000
0000
0000
,
0000
0000
0000
0000
,
1000
0000
0100
0000
,
0010
0000
0100
0000
,
0001
0000
0000
0000
,
0100
0000
0000
0000
,
1000
0000
0010
0000
,
0100
0000
0010
0000
,
0001
0000
0000
0000
,
0010
0000
0000
0000
,
1000
0000
0000
0000
,
0000
0000
0000
0000
,
0001
0000
0000
0000
,
0000
0000
0000
0000
,
0010
0000
0010
0000
,
0100
0000
0100
0000
,
1000
0000
0001
0000
,
1000
0000
0000
0000
,
0010
0000
0010
0000
,
0100
0000
0100
0000
,
0001
0000
0001
0000
,
1000
0000
1000
0000
,
0100
0000
0000
0010
,
0010
0000
0001
0000
,
1000
0000
0000
0000
,
0010
0000
0000
0000
,
0100
0000
1000
0000
,
0100
0000
0001
0000
,
0100
0000
0010
0000
,
0100
0000
0001
0000
,
1000
0000
0000
0100
,
0100
0000
0010
0000
,
0001
0001
0000
0000
,
1000
0000
0010
0010
;

//---------------dance-single - t7r----------------
#NOTES:
     dance-single:
     t7r:
     Easy:
     4:
     :
0000
0000
0000
0000
,
0000
0000
0000
0000
,
0000
0000
0000
0000
,
0000
0000
0000
0000
,
0000
0000
0000
0000
,
2000
0000
0000
3000
,
0002
0003
0200
0300
,
0020
0000
0000
0030
,
2000
0000
0002
3003
,
1000
0000
0100
0000
,
1000
1000
0001
0000
,
0001
0000
0100
0000
,
0001
0001
1000
0000
,
0200
0000
0310
0000
,
0002
0000
1003
0000
,
0020
0000
0000
0000
,
0130
0000
0000
0000
,
0001
0001
1000
1000
,
0001
1000
0000
0000
,
1000
1000
0001
0001
,
1000
0001
0000
0000
,
0100
0100
0010
0010
,
0200
0300
0002
0003
,
2000
0010
0000
0000
,
3001
0000
1000
0000
,
0001
0001
0010
0010
,
0001
1000
0000
0000
,
1000
1000
0010
0010
,
1000
0001
0000
0000
,
0001
0001
0100
0100
,
0002
0003
2000
3000
,
0020
0100
0000
0000
,
1030
0100
0010
0000
,
1001
0000
1000
0000
,
0020
0000
0130
0000
,
0002
0000
0013
0000
,
0100
0000
1000
0000
,
0020
0000
0000
0000
,
0030
0000
0100
0000
,
0000
0001
1000
0000
,
0020
0000
0000
0030
,
2002
0000
0000
0000
,
3003
0000
0000
0000
,
0000
0000
0000
0000
,
1000
0000
0000
0000
,
0001
0000
0001
0000
,
0100
0000
0100
0000
,
0010
0010
0010
0000
,
1001
0000
0000
0000
,
0000
1000
1000
0000
,
0001
1000
0000
0001
,
1000
1000
0010
0010
,
1000
0100
0000
0010
,
0001
0001
0100
0100
,
0002
1003
2000
3001
,
0002
0023
0000
0100
,
0000
1030
0000
0110
,
0001
0001
0100
0100
,
0001
0100
0010
0000
,
1000
1000
0100
0100
,
2000
3020
0130
0001
,
0020
0100
0000
0031
,
1000
0010
0001
0010
,
1000
0200
0000
0000
,
0310
0001
1000
0020
,
0030
0000
0000
0000
;

//---------------dance-single - t7r----------------
#NOTES:
     dance-single:
     t7r:
     Medium:
     7:
     :
0000
0000
0000
0000
,
0000
0000
0000
0000
,
0000
0000
0000
0000
,
0000
0000
0000
0000
,
0000
0000
0000
0000
,
0002
0000
0000
0000
,
2003
0000
3020
0000
,
0230
0000
0010
0000
,
0302
0000
2000
3003
,
0001
0100
0010
0100
,
0001
0000
0010
0000
0100
1000
0100
0000
,
1000
0010
0100
0010
,
1000
0000
0100
0000
0010
0001
1000
0000
,
0020
0100
0000
1030
,
0200
0001
0000
0310
,
0001
0000
0100
0000
0010
1000
0001
0000
,
2000
0000
0000
3000
,
0001
0000
0010
0000
0001
1000
0100
0000
,
1000
0020
0000
0130
,
0001
0000
1000
0000
0100
0010
0001
0000
,
1000
0002
0000
0103
,
0010
0000
0100
0000
0001
1000
0010
0000
,
2000
0100
3002
0100
,
2003
3020
0000
0130
,
0010
0000
1000
0000
0001
0010
0001
0000
,
1000
0000
1100
0000
1000
0001
1000
0000
,
0001
0010
0001
0100
,
0001
0000
1001
0000
0001
0100
0010
0000
,
1000
1010
1000
0100
,
0010
0000
0110
0000
0100
1000
0001
0000
,
2000
0010
3002
0010
,
2003
0100
0000
3001
,
0100
0000
0010
0000
0100
0001
1000
0000
,
0001
0000
0100
0000
1000
0100
1000
0000
,
0200
0000
0310
0000
1000
0001
1000
0000
,
0002
0013
0100
2000
,
3000
0000
0010
0000
0001
0010
0100
0000
,
0002
0010
0000
1000
,
0103
0001
1000
0000
0010
0100
0001
0000
,
1000
0000
0100
0001
0100
0000
1000
0010
,
2000
0100
0000
3001
,
2002
0000
0000
0000
,
3003
0000
0000
0000
,
0001
0000
0000
0000
,
0001
0000
1000
0000
,
0010
0000
0010
0000
0000
0100
0001
0000
,
0010
0000
0010
0000
0000
0100
1000
0000
,
0001
0001
0001
0000
1000
1000
1000
0000
,
0020
0000
0130
0000
,
0010
0000
1001
0000
1000
0100
0010
0000
,
2000
0000
3010
0000
0001
1000
0001
0000
,
0100
0000
0001
0000
1000
0010
0100
0000
,
2000
0000
3100
0000
0001
1000
0001
0000
,
0010
0000
0100
0000
0001
0100
0001
0000
,
0200
1000
0320
0001
,
0230
0000
1000
0000
0000
0001
0000
0301
,
0100
0010
0100
1001
,
1000
0010
1000
0000
0010
0000
0100
0000
,
0010
0001
0010
0000
0100
0000
0001
0000
,
1000
0100
1000
0000
0100
0001
0100
0000
,
2000
0000
3020
0000
0130
0001
1000
0000
,
0002
0010
0000
1003
,
0001
0100
0010
0000
0001
0010
0100
0000
,
0001
0000
0010
2000
0000
0000
0000
3010
,
0010
0100
1000
2002
,
3003
0000
0000
0000
;

//---------------dance-single - t7r----------------
#NOTES:
     dance-single:
     t7r:
     Hard:
     11:
     :
0000
0000
0000
0000
,
0000
0000
0000
0000
,
0000
0000
0000
0000
,
0000
0000
0000
0000
,
0000
0000
0000
0000
,
2000
0000
0000
0000
,
3002
0000
0203
0000
,
0320
0000
0000
0000
1000
0000
0000
1000
0000
0000
0000
0000
0230
0000
0000
0000
,
0302
0000
0000
0010
0000
0000
1003
0000
,
0001
0000
0101
0000
0001
1000
0100
0000
,
2000
0000
3010
0000
1000
0001
0010
0000
,
0012
0000
0103
0000
0010
0100
0001
0000
,
0010
0100
1000
0000
0010
0100
0001
1000
,
0200
1000
0010
0310
,
0002
0000
0103
1000
0100
0010
0100
0001
,
2000
0000
0100
0000
0001
0000
3010
0100
,
0002
0000
0000
1003
,
1001
0000
0000
0000
0101
0000
0000
0001
0000
0100
0000
0001
0010
0000
0000
0000
,
1001
0000
1100
0000
1000
0010
0100
0000
,
1001
0000
0000
0000
1010
0000
0000
1000
0000
0010
0000
0100
0010
0000
0000
0000
,
1001
0000
0011
0000
0001
0100
0010
0000
,
0110
0000
0000
0000
0101
0000
0000
0001
0000
0010
0000
0100
1000
0000
0000
0000
,
2100
3010
2100
3001
,
1100
0012
1000
0100
,
1003
0000
0010
0000
0100
0000
0010
1000
0000
0100
0000
0010
0100
0000
1000
0000
,
0001
0000
0000
0000
1100
0000
0000
0001
0000
0010
0000
0100
0001
0000
0100
0000
,
0010
0000
1001
0000
0001
0100
0010
0000
,
1000
0000
0000
0000
0101
0000
0000
1000
0000
0100
0000
0010
1000
0000
0010
0000
,
0100
0000
1001
0000
0001
0100
1000
0100
,
0010
0000
0000
0000
1001
0000
0000
1000
0000
0010
0000
0100
1000
0000
0000
0000
,
0102
1003
0102
1003
,
0100
0000
0000
0000
0120
0000
0000
0000
0001
0000
0001
0000
0000
0100
0000
0130
,
1000
0001
0000
0100
0000
0100
0010
0000
0100
0000
0001
0000
2000
0000
0000
0000
,
3001
0000
0010
0000
0100
0000
0001
0000
0100
0000
1000
0000
0010
0000
0100
0020
,
0000
1030
0010
0001
0010
0200
0000
0302
,
0000
0000
1003
0000
0100
0000
0010
0000
1000
0000
0010
0200
0000
0000
0000
0000
,
1300
0001
0100
0010
0001
0010
0100
0001
,
2000
0000
0000
0000
0010
0000
0000
0000
0001
0000
0000
0000
3100
0000
0000
1000
,
0001
0000
0000
0000
0100
0000
0001
0010
0000
0100
0020
0000
0000
0000
0031
0000
,
1000
0000
0001
0100
1000
0001
0010
1000
,
0002
0000
0000
0000
0010
0000
0000
1000
0000
1000
0000
0000
0103
0000
0000
0000
,
0220
0000
0000
0000
,
0330
0000
0000
0000
,
0010
0000
0010
0000
,
1000
0000
0000
0000
0001
0000
0000
1000
0000
1000
0000
0000
0001
0000
0000
0000
,
1000
0100
0010
0000
0001
0001
1000
0000
,
0001
0100
0010
0000
1000
1000
0001
0000
,
1000
0000
0100
0000
0001
0000
0100
0000
1000
0000
0010
0000
0100
0010
0100
0000
,
0020
0000
0130
0010
,
1000
0000
0000
0000
1001
0000
0000
0001
0000
0010
0000
0100
0001
0000
0100
0000
,
1000
0000
1010
0000
1000
0010
0100
1000
,
0100
0000
0000
0000
1010
0000
0000
1000
0000
0100
0000
0010
1000
0000
0010
0000
,
0100
0000
0011
0000
1000
0001
0100
0001
,
0010
0000
0000
0000
1100
0000
0000
0001
0000
0100
0000
1000
0100
0000
0010
0000
,
1000
0100
0000
0000
0110
0000
0000
0000
0001
1000
0000
0000
1001
0000
0000
0000
,
1000
0010
0000
0000
0102
0000
0000
0000
1003
0000
0110
0000
1000
0000
0110
0000
,
1000
0000
0010
0001
0000
0010
0000
0100
0000
0001
0000
0010
1000
0000
0010
0000
,
0100
0000
1000
0000
1010
0000
0010
0100
0000
0010
0000
0001
0010
0000
1000
0000
,
0001
0010
0000
1000
0010
0000
0100
0010
0000
0001
0000
0100
0000
0010
1000
0000
,
0001
0100
0000
0010
0100
0000
1000
0000
0100
0010
0000
0100
0001
0000
1000
0000
,
0100
0000
0000
0010
0200
0000
0000
0000
0301
0000
0000
0000
0110
0000
0000
0000
,
2001
0000
0000
0000
0010
0000
0000
0001
0000
3001
0000
0100
1000
0000
0100
0000
,
0010
1000
0000
0001
0100
0000
0001
0000
1000
0100
0000
0010
0001
0000
1000
0000
,
0001
0000
0010
2000
0000
0000
0000
3001
,
0001
0000
0100
0010
0100
0000
1000
0000
0010
0100
0000
0100
0002
0000
0000
0000
,
0003
0000
0000
0000
;

//---------------dance-single - t7r----------------
#NOTES:
     dance-single:
     t7r:
     Challenge:
     17:
     :
0000
0000
0000
0000
,
0000
0000
0000
0000
,
0000
0000
0000
0000
,
0000
0000
0000
0000
,
0000
0000
0000
0000
,
2000
0000
0000
0000
3100
0000
0010
1000
0000
0000
0010
0000
0100
0000
1000
0010
,
0000
0000
0100
0000
0001
0000
0010
0100
0000
0000
0001
0000
0100
0000
0010
0002
,
0000
0000
0000
0000
0100
0000
0000
0000
1003
0000
0010
0000
1000
0000
0001
2000
,
0000
0000
0100
0000
0001
0000
3010
1000
,
0001
0000
0000
0000
1000
0000
0100
0020
0000
0000
0130
0000
0001
0000
0100
0020
,
0000
0000
0130
0000
1000
0000
0001
0200
0000
0000
0310
0000
0100
0000
1000
0000
,
0100
0000
0000
0000
0001
0000
0010
0200
0000
0000
0310
0000
1000
0000
0010
0200
,
0000
0000
0310
0000
0001
0000
1000
0000
0010
0100
0010
0000
1000
0000
0001
0000
,
0010
0000
0000
1000
0010
0000
0100
0000
0010
0001
0000
1000
0001
0000
0010
0000
,
0001
0000
0000
0100
0010
0000
0100
0000
1000
0100
0000
0010
1000
0000
0001
0000
,
0020
1000
0100
0031
,
1002
0000
0000
0000
0000
0000
0000
1003
0000
0100
0000
1000
0001
0100
0001
1000
,
0001
0010
0100
0000
0010
0001
0000
1000
0001
0100
0000
0001
1000
0100
1000
0001
,
1000
0010
0000
1000
0001
0100
0000
0001
1000
0010
0000
1000
0010
0100
0010
1000
,
0001
0010
0000
0100
0010
0001
0000
1000
0010
0100
0000
0010
1000
0001
0010
0001
,
2000
0000
0010
0000
3002
0000
0100
0000
1003
0100
0010
0001
1000
0010
0100
0001
,
1000
0100
0000
0010
0100
1000
0000
0001
1000
0010
0000
0100
0001
1000
0010
0100
,
0002
0010
0000
1003
0200
0010
0000
1300
0002
0100
0000
1003
0020
0100
0000
1030
,
0002
0010
0000
1003
0020
0100
0000
0001
0000
0100
0000
1030
0001
0000
0010
0000
,
0100
1000
0002
0003
0100
0010
0000
0100
0001
1000
0000
0100
0010
0100
1000
0001
,
1000
0100
1000
0001
1000
0000
0010
1000
0000
0001
0100
0001
1000
0001
0010
0001
,
2000
0100
0000
3001
0200
0010
0000
0301
1000
0001
1000
0010
1000
0001
1000
0100
,
0010
0001
1000
0001
0010
0100
0000
0010
0001
1000
0001
0100
0010
1000
0001
0100
,
0002
0010
0000
1003
0200
0010
0000
1300
0001
0100
0001
1000
0001
0010
0100
1000
,
0001
0100
0010
0100
0001
1000
0000
0100
1000
0001
0000
1000
0100
1000
0010
1000
,
0002
1000
0000
0103
0010
2000
3002
0003
1000
0200
0320
0031
0100
0020
2030
3000
,
0001
0000
0000
0000
0010
0000
0000
0000
1000
0000
0100
0000
0000
0100
0000
0001
,
0000
0000
0010
0000
0000
0000
1000
0000
0000
0000
0010
0000
0100
0000
0000
0000
0010
0000
0001
0000
1000
0001
1000
0000
0001
0000
1000
0000
0001
0000
1000
0000
,
0001
0000
0010
0100
0010
0000
0100
0001
0100
0010
0001
0000
0100
0010
1000
0020
,
0000
0000
0031
0000
0010
1000
0000
0001
0100
0001
0020
0000
0100
0000
2030
0000
,
0000
3010
0001
1000
0010
0100
0010
0001
0020
0000
0130
0002
1000
0000
0000
0103
,
0001
0000
0000
1000
0001
0010
0100
1000
0100
0010
0001
1000
0001
0100
0010
1000
,
0020
0001
0000
0130
0010
1000
0100
0010
0000
1000
0000
0010
0100
1000
0010
0001
,
0000
0000
0010
0000
0000
0000
0100
0000
0002
0000
0000
0000
0013
0000
0100
1000
0100
0000
1000
0000
0002
0000
0000
0000
0100
0000
0000
0000
1003
0000
0000
0000
,
1001
0000
0000
0000
0000
0000
0001
1000
0001
0000
0100
0000
0010
0000
2000
0000
3000
0000
0000
0000
0200
0000
0010
0000
0000
0000
1300
0000
0001
0000
0010
0000
,
0001
0000
0000
0000
1000
0000
0001
0100
0001
0000
1000
0000
0001
0000
0010
0000
0000
0000
1000
0000
0000
0000
0010
0000
0100
0000
1000
0000
0010
0000
0100
0000
,
0001
0200
1000
0010
,
0301
0000
1000
0000
,
0200
0001
0010
1300
,
0001
0000
0000
0000
0000
0000
0000
1000
0000
1000
0000
0001
0010
0001
1000
0001
,
0100
0000
0100
0000
1100
0000
0100
0010
0000
0110
0000
0010
1000
0001
1000
1000
,
0100
0000
0100
0000
0101
0000
0100
0010
0000
0110
0000
0010
0001
1000
0001
0001
,
1000
0000
0100
0000
1000
0000
0100
0000
0010
0000
0001
0000
0010
0000
0001
0000
1000
0000
0001
1000
0001
0000
1000
0000
0010
0000
0100
0000
0001
0000
1000
0001
,
1000
0000
0000
0000
0000
0000
0000
0100
0000
0100
0000
0010
0001
1000
0001
0100
,
0010
0000
0000
0000
2000
3200
0320
0032
1003
0100
0000
1000
0001
0100
0001
1000
,
0002
0010
0000
1003
0020
0001
0000
0130
0010
1000
0001
0010
0001
1000
0100
1000
,
0002
0100
0000
1003
0200
0010
0000
1300
0001
0100
0000
0001
1000
0100
0010
0100
,
2000
0010
0000
3001
0020
0100
0000
1030
0010
0001
1000
0001
0100
0001
1000
0001
,
0200
1000
0000
0310
2000
0100
0000
3001
1000
0100
0000
1000
0001
0010
0001
1000
,
0002
0100
0000
1003
0020
0100
0000
1030
0002
0010
0000
1003
0200
0001
0000
0310
,
0002
0100
0000
1003
0020
0100
0000
0001
0000
0100
0000
1030
0001
0000
0110
0000
,
1100
0000
0000
0000
1000
0000
0001
1000
0001
0000
0100
0000
0000
0000
0010
0000
0000
0000
0010
0000
1000
0001
1000
0000
0100
0000
0010
0000
0001
0000
1000
0000
,
0001
0010
1000
0010
0002
0000
1003
0010
0000
0001
0010
1000
0001
0010
2000
0000
,
3020
0001
0000
0130
1000
0010
0100
0020
0000
0031
0010
0100
0010
1000
0001
1000
,
0001
0100
0010
0100
1000
0100
0010
0100
0001
1000
0100
0010
0100
0001
0100
1000
,
0002
0000
0100
0000
0000
0000
1003
0010
0200
0000
0000
0000
1300
0000
0000
0000
0110
0000
0000
0000
0001
0000
1000
0000
0100
0000
0010
0000
0001
0000
1000
0000
,
0020
0001
0000
0100
0100
0000
1000
1000
0000
0100
0130
0010
1000
0001
1000
0100
,
0001
0100
1000
0000
0001
0100
1000
0100
0020
0230
0302
2003
3100
0010
0100
1000
,
0001
1000
0100
0001
0100
0000
0020
1000
0000
0100
0000
0100
0100
0000
0031
0000
,
1000
0000
0001
0000
0100
0010
0100
0010
0100
0000
0010
0000
1000
0000
0001
0000
0010
0000
0100
0000
1000
0001
1000
0000
0020
0000
0230
0000
0302
0000
2003
0000
,
3000
0000
0000
0000
;

//---------------dance-double - t7r----------------
#NOTES:
     dance-double:
     t7r:
     Easy:
     4:
     :
00000000
00000000
00000000
00000000
,
00000000
00000000
00000000
00000000
,
00000000
00000000
00000000
00000000
,
00000000
00000000
00000000
00000000
,
00000000
00000000
00000000
00000000
,
20000000
00000000
00000000
30000000
,
00200000
00300000
02000000
03000000
,
00002000
00000000
00000000
00003000
,
00020000
00000000
00030000
00000000
,
00001000
00000000
00000100
00000000
,
00000001
00000000
00001000
00000000
,
00000100
00000000
00010000
00000000
,
00001000
00000000
00010000
00000000
,
02000000
00000000
03000000
00000000
,
20000000
00000000
30000000
00000000
,
00100000
00000000
00020000
00000000
,
00031000
00000000
00000000
00000000
,
00010000
00000000
00001000
00001000
,
00010000
00000000
00000000
00000000
,
01000000
00000000
10000000
10000000
,
00100000
00000000
00000000
00000000
,
01000000
00000000
00001000
00001000
,
00010000
00000000
00001000
00000000
,
00000100
00000200
00000000
00000000
,
00000310
00000000
00001000
00000000
,
00000001
00000000
00000010
00000010
,
00000001
00000000
00001000
00000000
,
00000001
00000000
00000100
00000100
,
00001000
00000000
00010000
00000000
,
00001000
00000000
00010000
00010000
,
00100000
00000000
10000000
00000000
,
01000000
02000000
00000000
00000000
,
03000000
00000000
00000000
00000000
,
00010000
00000000
00001000
00000000
,
00020000
00000000
00030100
00000000
,
00002000
00000000
00003010
00000000
,
00000100
00000001
00001000
00000000
,
00000200
00000000
00000000
00000000
,
00000300
00010000
00010000
00000000
,
00001000
00000000
00010000
00000000
,
00200000
00000000
00000000
00300000
,
20020000
00000000
00000000
00000000
,
30030000
00000000
00000000
00000000
,
10000000
00000000
00000000
00000000
,
01000000
00000000
00000000
00000000
,
00010000
00000000
00001000
00000000
,
00010000
00010000
00001000
00000000
,
00000100
00000000
00000010
00000000
,
00001001
00000000
00000000
00000000
,
00000000
00000001
00000001
00000000
,
00000010
00000000
00001000
00000000
,
00010000
00010000
00000000
01000000
,
01000000
00000000
10000000
00000000
,
00100000
00100000
00000000
00010000
,
00010000
00000000
00001000
00000000
,
00010000
00020000
00000000
00000100
,
00030000
00001000
00001000
00000000
,
00000001
00000001
00001000
00000000
,
00000001
00000000
00000010
00000000
,
00001000
00001000
00000000
00010000
,
00001000
00001000
00000000
00010000
,
00200000
00000000
00000000
00300000
,
00000000
10000000
00000000
01000000
,
00010000
00010000
00002000
00000000
,
01003000
00000000
00000000
00022000
,
00033000
00000000
00000000
00000000
;

//---------------dance-double - t7r----------------
#NOTES:
     dance-double:
     t7r:
     Medium:
     8:
     :
00000000
00000000
00000000
00000000
,
00000000
00000000
00000000
00000000
,
00000000
00000000
00000000
00000000
,
00000000
00000000
00000000
00000000
,
00000000
00000000
00000000
00000000
,
00002000
00000000
00000000
00000000
,
00023000
00000000
02030000
00000000
,
23000000
00000000
00100000
00000000
,
30020000
00000000
20000000
30030000
,
10000000
01000000
00100000
01000000
,
10000000
00000000
00010000
00000000
01000000
00001000
00010000
00000000
,
00001000
00000100
00000010
00000100
,
00000001
00000000
00001000
00000000
00000001
00000000
00000010
00000100
,
00020000
00000000
00000000
00000000
00031000
00010000
00000000
00000000
,
00002000
00000000
00013000
01000000
,
20000000
00000000
30100000
00010000
,
00002000
00000000
00000000
00003000
,
00010000
00000000
01000000
00000000
00100000
01000000
00100000
00000000
,
00010000
10000000
00000000
10010000
,
10000000
00000000
01000000
00000000
00010000
00001000
00010000
00000000
,
00001000
00010000
00000000
00011000
,
00001000
00000000
00000100
00000000
00000010
00000100
00000010
00000000
,
00002000
00000100
00003002
00000203
,
00002300
00023000
00000000
00001000
,
00130000
00000000
01000000
00000000
00010000
10000000
00010000
00000000
,
10000000
00000000
10010000
00000000
10000000
00100000
10000000
00000000
,
00100000
00010000
00000000
00011000
,
00001000
00000000
00000010
00000000
00000100
00000010
00000100
00000000
,
00000010
00000001
00000000
00001001
,
00000001
00000000
00000100
00000000
00001000
00010000
00001000
00000000
,
00020000
01000000
00032000
00003200
,
00002300
00020000
00000000
00033000
,
00001000
00000000
00010000
00000000
00100000
10000000
00010000
00000000
,
10000000
01000000
00100000
01000000
,
00020000
00031000
00000100
00000010
,
00000200
00000000
00000301
00001000
00000001
00000000
00000020
00000000
,
00000030
00000000
00001000
00000000
00010000
00001000
00010000
00000000
,
00200000
10000000
00000000
01000000
,
00000000
00000000
10300000
00000000
01000000
00010000
00001000
00000000
,
00011000
00000000
00001000
00000100
00000010
00000000
00001000
00000001
,
00000020
00000100
00000000
00000031
,
00002002
00000000
00000000
00000000
,
00003003
00000000
00000000
00000000
,
00000001
00000000
00000000
00000000
,
00000100
00000000
00001000
00010000
,
00001000
00000000
00010000
00000000
01000000
01000000
01000000
00000000
,
00010000
00000000
00001000
00000000
00000100
00000100
00000100
00000000
,
00001000
00001000
00001000
00000000
00010000
00010000
00010000
00000000
,
00002000
00000000
00013000
00000000
,
00000000
00011000
00010000
01000000
,
00200000
00000000
00310000
00000000
10000000
00100000
10000000
00000000
,
00100000
00000000
00010000
00000000
00001000
00010000
00001000
00000000
,
00000020
00000130
00001001
00000001
,
00000010
00000000
00000100
00000000
00000001
00000100
00001000
00000000
,
00000200
00001000
02000300
00010000
,
03002000
00000000
00010000
00000000
00000000
01000000
00000000
01003000
,
00100000
00000000
10000000
00000000
01000000
00010000
00001000
00000000
,
00010000
00000000
00010000
00000000
01000000
00100000
01000000
00000000
,
00010000
00001000
00010000
00000000
00001000
00000000
00000100
00000000
,
00000010
00000000
00000010
00000000
00000100
00000001
00001000
00000000
,
00000002
00000000
00000023
00000000
00001030
00010000
00001000
00000000
,
00020000
00001000
00000000
00030100
,
00001000
00000010
00000100
00000000
00000001
00000010
00001000
00000000
,
00020000
00000000
01030000
20000000
00000000
00000000
00000000
30100000
,
00100000
00010000
00001000
00022000
,
00033000
00000000
00000000
00000000
;

//---------------dance-double - t7r----------------
#NOTES:
     dance-double:
     t7r:
     Hard:
     11:
     :
00000000
00000000
00000000
00000000
,
00000000
00000000
00000000
00000000
,
00000000
00000000
00000000
00000000
,
00000000
00000000
00000000
00000000
,
00000000
00000000
00000000
00000000
,
00000002
00000000
00000000
00000000
,
00000203
00000000
00000320
00000000
,
00002030
00000000
00000000
00000000
00000100
00000000
00000000
00000100
00000000
00000000
00000000
00000000
00000000
00000000
00000000
00000000
,
00003002
00000000
00000013
00002000
,
00013000
00000000
01000000
10000000
00010000
00000000
10000000
00000000
,
00100000
00000000
01000000
00010000
00100000
00000000
00001000
00000000
,
00010000
00000000
00001000
00000100
00000010
00000000
00000100
00000000
,
00000001
00000000
00001000
00000001
00000010
00000000
00001000
00000000
,
00010000
00000000
00001000
00000000
00010000
01000000
00000000
00010000
,
00001000
00000000
00010000
00000000
00001000
00000100
00000000
00000010
,
00000200
00001000
00000010
00000301
,
00000010
00000000
00000000
00001000
,
00010000
00000000
00000000
00000000
00100000
00000000
00000000
10000000
00000000
00010000
00000000
00000000
10000000
00000000
00000000
00000000
,
00100000
00010000
00001000
00000100
,
00000001
00000000
00000000
00000000
00001000
00000000
00000000
00000001
00000000
00000010
00000000
00000000
00000001
00000000
00000000
00000000
,
00000010
00001000
00010000
01000000
,
00100000
00000000
00000000
00000000
00010000
00000000
00000000
10000000
00000000
00100000
00000000
00000000
01000000
00000000
00000000
00000000
,
20100000
30010000
20100000
30010000
,
20000000
32000000
00010000
00000000
,
03100000
00000000
00010000
00000000
00001000
00000010
00000100
00000100
,
00000001
00000000
00000000
00000000
00000011
00000000
00000000
00000001
00000000
00000100
00000000
00000001
00001000
00000000
00000000
00000000
,
00000100
00011000
01000000
00011000
,
00010000
00000000
00000000
00000000
01100000
00000000
00000000
10000000
00000000
00100000
00000000
10000000
00010000
00000000
00000000
00000000
,
00100000
00011000
00000010
00011000
,
00001000
00000000
00000000
00000000
00000110
00000000
00000000
00000001
00000000
00000010
00000000
00000001
00001000
00000000
00000000
00000000
,
00000120
00010030
00000120
00010030
,
00001000
00000000
00000000
00000000
00021000
00000000
00000000
00000000
00001000
00000000
00001000
00000000
00000000
00100000
00000000
00130000
,
10000000
00010000
00000000
10000000
00000000
01000000
00010000
00000000
00001000
00000000
00010000
00000000
00002000
00000000
00000000
00000000
,
00013000
00000000
00001000
00000000
00000100
00000000
00000001
00000000
00000100
00000000
00000010
00000000
00000100
00000000
00000001
00002000
,
00000000
00003001
00000010
00000100
00001000
00020000
00000000
20030000
,
00000000
00000000
30100000
00000000
01000000
00000000
10000000
00000000
01000000
00000000
00100000
20000000
00000000
00000000
00000000
00000000
,
31000000
00000000
00010000
00001000
00000100
00000000
00000010
00001000
,
00000002
00000000
00000000
00000000
00000010
00000000
00000000
00000000
00001000
00000000
00000000
00000000
00000103
00000000
00000000
00000001
,
00001000
00000000
00000000
00000000
00000001
00000000
00000010
00000100
00000000
00000010
00000002
00000000
00000000
00000000
00000103
00000000
,
00001000
00000000
00010000
00100000
10000000
00010000
00002000
00003010
,
00000200
00000000
00000000
00000000
00000010
00000000
00000000
00000001
00000000
00000301
00000000
00000000
00001000
00000000
00000000
00000000
,
00002002
00000000
00000000
00000000
,
00003003
00000000
00000000
00000000
,
00000001
00000000
00000000
00000000
,
00000100
00001000
00010000
00100000
,
10000000
00000000
01000000
00100000
00010000
00000000
01000000
00000000
,
00001000
00000000
00010000
00000100
00000010
00000000
00000100
00000000
,
00001000
00000001
00000100
00000000
00001000
00010000
00100000
00000000
,
20000000
00000000
31000000
00100000
,
01000000
00000000
00000000
00000000
10010000
00000000
00000000
10000000
00000000
01000000
00000000
10000000
00010000
00000000
00100000
00000000
,
00001000
00000000
00011000
00000000
00001000
00000100
00000001
00000000
,
00000010
00000000
00000000
00000000
00000110
00000000
00000000
00000010
00000000
00000001
00000000
00001000
00000001
00000000
00000100
00000000
,
00001000
00000000
00011000
00000000
00001000
00010000
00100000
00000000
,
10000000
00000000
00000000
00000000
10100000
00000000
00000000
00100000
00000000
01000000
00000000
00100000
00010000
00000000
00100000
00000000
,
10000000
01000000
00000000
00000000
01100000
00000000
00000000
00000000
00001000
00010000
00000000
00000000
00011000
00000000
00000000
00000000
,
00001000
00000100
00000000
00000000
00000102
00000000
00000000
00000000
00001003
00000000
00000110
00000000
00001000
00000000
00000110
00000000
,
00000001
00000000
00000010
00001000
00000000
00000010
00000000
00000100
00000000
00010000
00000000
00001000
00010000
00000000
00000000
00000000
,
00100000
00000000
10000000
00000000
00100000
00000000
01000000
00100000
00000000
01000000
00000000
00010000
10000000
00000000
00100000
00000000
,
00010000
00001000
00000000
00000010
00000100
00000000
00000010
00000000
00000001
00000000
00000100
00000000
00000010
00000000
00001000
00000000
,
00000001
00000010
00000000
00000100
00000010
00000000
00001000
00000000
00010000
00100000
00000000
00000000
10000000
00000000
00010000
00000000
,
20000000
32000000
03010000
00011000
,
00000020
00000000
00000001
00000000
00000130
00000010
00001000
00000000
,
00000001
00000010
00000000
00000100
00001000
00000000
00000001
00000000
00000100
00001000
00000000
00010000
00001000
00000000
00000000
00000000
,
00010000
01000000
00000000
00100000
01000000
00000000
20000000
00000000
00000000
00000000
00000000
00000000
00000000
00000000
30100000
00000000
,
00100000
00000000
00010000
00000000
00001000
00000000
00000100
00000010
00000100
00000000
00000001
00000000
00000020
00000000
00000000
00000000
,
00000030
00000000
00000000
00000000
;

//---------------dance-double - t7r----------------
#NOTES:
     dance-double:
     t7r:
     Challenge:
     16:
     :
00000000
00000000
00000000
00000000
,
00000000
00000000
00000000
00000000
,
00000000
00000000
00000000
00000000
,
00000000
00000000
00000000
00000000
,
00000000
00000000
00000000
00000000
,
00002000
00000000
00000000
00000000
01003000
00000000
00100000
01000000
00000000
00000000
00010000
00000000
10000000
00000000
01000000
00100000
,
00000000
00000000
00001000
00000000
00010000
00000000
00000100
00001000
00000000
00000000
00000001
00000000
00000100
00000000
00001000
00020000
,
00000000
00000000
00000000
00000000
01000000
00000000
00000000
00000000
00031000
00000000
01000000
00000000
00010000
00000000
10000000
00200000
,
00000000
00000000
00010000
00000000
01300000
00010000
10000000
00000000
,
00010000
00000000
00000000
00000000
10000000
00000000
01000000
00200000
00000000
00000000
00310000
00000000
00001000
00000000
00000010
00000200
,
00000000
00000000
00000301
00000000
00001000
00000000
00000001
00000200
00000000
00000000
00001300
00000000
00010000
00000000
00000100
00000000
,
00001000
00000000
00000000
00000000
00000001
00000000
00000010
00000200
00000000
00000000
00001300
00000000
00010000
00000000
01000000
00200000
,
00000000
10300000
00010000
10000000
00100000
00010000
00001000
02000000
,
00100000
00000000
03010000
10000000
01000000
00010000
00001000
01000000
,
00100000
00000000
00000000
00010000
00001000
00000000
00000010
00000000
00000100
00000000
00001000
00000000
00000001
00000000
00000020
00000000
,
00001000
00000000
00000130
00010000
00001000
00000100
00000001
00000010
,
00002000
00000000
00000000
00000000
00000000
00000000
00000000
00013000
00000000
00001000
00000000
01000000
00010000
10000000
00010000
00000000
,
10000000
01000000
00000000
10000000
00010000
00000000
10000000
01000000
00000000
10000000
00000000
00010000
00100000
00010000
10000000
00000000
,
00100000
00000000
00010000
00000000
00002000
00000000
00000000
00000000
00003010
00000000
00000001
00000000
00000100
00000001
00001000
00000000
,
00000001
00000100
00000000
00000001
00001000
00000000
00000001
00000100
00000000
00000001
00000000
00001000
00000010
00001000
00000001
00000000
,
00000010
00000000
00001000
00000000
00020000
00000000
00000000
00000000
00130000
00000000
10000000
00000000
01000000
10000000
00010000
00000000
,
10000000
00100000
00000000
10000000
00010000
00000000
10000000
00100000
00000000
10000000
00000000
00010000
01000000
00010000
10000000
00000000
,
01000000
00020000
00000000
00031000
00010000
00000000
00001000
00000000
00010000
00000200
00000000
00001300
00000001
00000000
00000010
00000000
,
00000001
00000200
00000000
00001300
00020000
00000000
00000000
01000000
00000000
00001000
00000000
01030000
00100000
00000000
00010000
00000000
,
10000000
00000000
00200000
00000000
00310000
00000000
00001000
00010000
00000000
00000100
00000000
00001000
00000001
00000100
00000010
00001000
,
00000001
00000010
00000000
00000100
00001000
00000000
00000001
00000100
00000000
00001000
00000000
00010000
00001000
00010000
00000100
00000000
,
00020000
00001000
00000000
00030100
00002000
00000001
00000000
00003010
00001000
00000000
00000001
00000000
00000100
00000000
00001000
00000000
,
00010000
00001000
00000000
01000000
00010000
00000000
10000000
01000000
00000000
00010000
00000000
00001000
01000000
00010000
10000000
00000000
,
00200000
00010000
00000000
01300000
00020000
10000000
00000000
01030000
00010000
00000000
10000000
00000000
01000000
00000000
00010000
00000000
,
00001000
00010000
00000000
00000100
00001000
00000000
00000001
00000010
00000000
00001000
00000000
00010000
00000010
00001000
00000001
00000000
,
00000100
00002000
00000000
00013000
00001000
01000000
00010000
00000000
10000000
01000000
00100000
00000000
00001000
00010000
00000010
00000000
,
00001000
00000000
00000000
00000000
00000001
00000000
00000000
00000000
00000010
00000000
00001000
00000000
00000000
00001000
00000000
00010000
,
00000000
00001000
00000000
00100000
00000000
00010000
10000000
00000000
00010000
01000000
00100000
00000000
10010000
00000000
10000000
00010000
,
10000000
00000000
00100000
10000000
00100000
00000000
10000000
00100000
00010000
00001000
00010000
00000000
00001000
00000010
00000001
00000200
,
00000000
00000000
00000301
00000000
00001000
00000001
00000000
00000010
00001000
00010000
00000200
00000000
00000010
00000000
00002300
00000000
,
00000000
00003001
00000100
00001000
00010000
00000100
00001000
00000001
00000200
00000000
00001300
00020000
00000100
00000000
00000000
00031000
,
00010000
00000000
00000000
01000000
10000000
00100000
00010000
00001000
00000100
00000010
00001000
00010000
00100000
01000000
10000000
00010000
,
00200000
10000000
00000000
01300000
00100000
00010000
10000000
01000000
00000000
00010000
00000000
00001000
00000100
00000001
00000010
00000100
,
00001000
00000000
00000001
00000000
00000000
00000000
00000100
00000000
00002000
00000000
00000000
00000000
00013000
00000000
00001000
00010000
00001000
00000000
00010000
00000000
00000200
00000000
00000000
00000000
00001000
00000000
00000000
00000000
00010300
00000000
00000000
00000000
,
00011000
00000000
00000000
00000000
00000000
00000000
00001000
00010000
00001000
00000000
00010000
00000000
00100000
00000000
20000000
00000000
30000000
00000000
00000000
00000000
02000000
00000000
00100000
00000000
00000000
00000000
13000000
00000000
00010000
00000000
00100000
00000000
,
00010000
00000000
10000000
00100000
00010000
00000000
00001000
00010000
00000000
00001000
00000000
00000010
00000001
00000100
00001000
00010000
,
00000100
00002000
00000100
00000001
,
00003010
00000000
00010000
00000000
,
00002000
00010000
01000000
00103000
,
00010000
00000000
00000000
00000000
00000000
00000000
00000000
10000000
00000000
10000000
00000000
00010000
00100000
00000000
00000000
00000000
,
10010000
00000000
10000000
00000000
11000000
00000000
01000000
00010000
00000000
00011000
00000000
00001000
00010000
00000000
00001000
00010000
,
00001000
00000000
00000100
00000000
00001100
00000000
00000100
00000001
00000000
00001001
00000000
00000001
00000010
00000000
00000001
00001000
,
00000001
00000000
00000010
00000000
00000001
00000000
00000010
00000000
00000100
00000000
00001000
00000000
00000100
00000000
00001000
00000000
00010000
00000000
00100000
00000000
01000000
00000000
10000000
00000000
00100000
00000000
00010000
00000000
00001000
00000000
00010000
00001000
,
00010000
00000000
00000000
00000000
00000000
00000000
00000000
00001000
00000000
00001000
00000000
01000000
00010000
10000000
00010000
00100000
,
00000000
00000000
00000000
00000000
00020000
20030000
32000000
03200000
00310000
10000000
00000000
00010000
01000000
00010000
10000000
01000000
,
00020000
00001000
00000000
00030100
00002000
00000010
00000000
00003001
00001000
00000001
00000010
00000001
00001000
00000001
00000100
00000010
,
00002000
00000001
00000000
00003100
00020000
00001000
00000000
00030100
00001000
00000001
00000000
00000100
00000010
00001000
00000100
00010000
,
00002000
00100000
00000000
01003000
00020000
10000000
00000000
01030000
00200000
00000000
10300000
01000000
00100000
00010000
10000000
00100000
,
20000000
01000000
00000000
30010000
02000000
00100000
00000000
03010000
10000000
00100000
00000000
00010000
00001000
00000010
00000100
00001000
,
00000002
00000100
00000000
00001003
00000020
00000100
00000000
00010030
00000200
00001000
00000000
00010300
00002000
01000000
00000000
00013000
,
00001000
00000000
00010000
00000000
02000000
00000000
00000000
00010000
00000000
00100000
00000000
13000000
00010000
00000000
01100000
00000000
,
10100000
00000000
10000000
00010000
10000000
01000000
00000000
00010000
00000000
00001000
00000000
01000000
00100000
00010000
00001000
00000100
,
00000001
00000000
00001001
00000000
00011000
00000000
00001000
00010000
00000000
00100000
00000000
01000000
00010000
10000000
00020000
00000000
,
10030000
00100000
00000000
00010000
00001000
00000000
00100000
02000000
00000000
03010000
00001000
00000100
00000010
00000100
00000001
00001000
,
00000001
00000010
00000000
00000100
00001000
00000001
00000000
00000100
00001000
00010000
00000000
00000100
00001000
00000001
00000010
00001000
,
00020000
00000000
01030000
10000000
00200000
00000000
00310000
00000000
01100000
00000000
10000000
00100000
01000000
00010000
10000000
01000000
,
00020000
00001000
00000000
01000000
01000000
00000000
00001000
00001000
00000000
00000100
00030100
00000000
00001000
00000001
00000100
00000010
,
00001000
00000001
00000010
00000000
00000100
00010000
00001000
01000000
00010000
10000000
00100000
01000000
00010000
10000000
01000000
00100000
,
00010000
00000000
00001000
00000010
00000100
00000000
00000002
00000010
00000000
00001000
00000000
00000100
00000100
00000000
00001003
00000000
,
00000001
00000000
00000000
00000000
00000100
00000000
00001000
00010000
00001000
00000000
00000000
00000000
00010000
00000000
01000000
00000000
10000000
00000000
00100000
00000000
01000000
00000000
00001000
00010000
00002000
00000000
00023000
00000000
00030200
00000000
00002300
00000000
,
00003000
00000000
00000000
00000000
;
