#TITLE:Yağmurum Ol;
#ARTIST:Irmak Arıcı;
#TITLETRANSLIT:Yagmurum Ol;
#ARTISTTRANSLIT:Irmak Arici;
#BANNER:Yagmurum Ol.png;
#BACKGROUND:Yagmurum Ol-bg.png;
#JACKET:Yagmurum Ol-jacket.png;
#LYRICSPATH:Yagmurum Ol.lrc;
#CDTITLE:./CDTITLES/NONE.PNG;
#MUSIC:Yagmurum Ol.ogg;
#SAMPLESTART:55;
#SAMPLELENGTH:15;
#BPMS:0=96;

//---------------dance-single - t7r----------------
#NOTES:
     dance-single:
     t7r:
     Beginner:
     1:
     :
0000
0000
0000
0000
,
0000
0000
0000
0000
,
0000
0000
0000
0000
,
0000
0000
0000
0000
,
0000
0000
0000
0000
,
0000
0000
0000
0000
,
0010
0000
0000
0000
,
0100
0000
0000
0000
,
0001
0000
0000
0000
,
1000
0000
0000
0000
,
0001
0000
0000
0000
,
1000
0000
0000
0000
,
0010
0000
0000
0000
,
0100
0000
0000
0000
,
0010
0000
0010
0000
,
0100
0000
0100
0000
,
0001
0000
0001
0000
,
1000
1000
1000
0000
,
0001
0000
0001
0000
,
0010
0000
0010
0000
,
0100
0000
0100
0000
,
0010
0010
0010
0000
,
0100
0000
0000
0000
,
1000
0000
0000
0000
,
0001
0000
0000
0000
,
0100
0000
0000
0000
,
0010
0000
0010
0000
,
0010
0000
0000
0000
,
0100
0000
0100
0000
,
0100
0000
0000
0000
,
0000
0001
0000
0001
,
0000
0001
0001
0000
,
0000
1000
0000
1000
,
0000
1000
1000
0000
,
0000
0010
0000
0010
,
0000
0010
0010
0000
,
0000
0100
0000
0100
,
0000
0100
0100
0000
,
0001
0000
0001
0000
,
1000
0000
1000
0000
,
0010
0000
0010
0000
,
0100
0000
0100
0000
,
0001
0001
0001
0000
,
0010
0010
0010
0000
,
0100
0100
0100
0000
,
1000
0000
1000
0000
;

//---------------dance-single - t7r----------------
#NOTES:
     dance-single:
     t7r:
     Easy:
     5:
     :
0000
0000
0000
0000
,
0000
0000
0000
0000
,
0000
0000
0000
0000
,
0000
0000
0000
0000
,
0000
0000
0000
0000
,
0000
0000
0000
0000
,
1000
1000
1000
0000
,
0001
0001
0001
0000
,
0100
0100
0100
0000
,
0010
0010
0010
0000
,
1000
0000
1000
0000
,
0001
0000
0001
0000
,
0010
0000
0010
0000
,
0100
0000
0100
0000
,
0010
0001
0200
0000
,
0310
1000
0200
0000
,
0310
0001
2000
0000
,
3001
0001
0001
0000
,
0100
0001
0020
0000
,
0130
1000
0020
0000
,
0130
0001
2000
0000
,
3010
0000
0010
0000
0010
0010
0010
0000
,
1000
0100
0001
0100
,
1000
0100
0001
0110
,
0001
0100
1000
0100
,
0001
0100
1000
0110
,
1000
0010
0001
0010
,
1000
0010
0001
0110
,
0001
0010
0200
0310
,
0002
0000
2000
3003
,
0000
0000
0001
0001
0000
0000
1000
1000
,
0000
0000
0001
0001
0001
0000
0001
0000
,
0000
0000
0010
0010
0000
0000
0100
0100
,
0000
0000
0010
0010
0010
0000
0010
0000
,
0000
0000
0001
0001
0000
0000
0100
0100
,
0000
0000
0010
0010
0010
0000
1000
0000
,
0000
0000
1000
1000
0000
0000
0100
0100
,
0000
0000
0010
0010
0010
0000
0001
0000
,
0100
0001
0010
0100
,
0001
0100
0010
1001
,
0100
1000
0100
0010
,
1000
0100
0010
1001
,
0010
0001
0010
0100
,
0001
0100
0010
1001
,
0010
1000
0010
0100
,
0020
0000
0000
1030
0001
1000
0002
0000
0000
2003
0000
0000
,
3000
0000
0000
0000
;

//---------------dance-single - t7r----------------
#NOTES:
     dance-single:
     t7r:
     Medium:
     6:
     :
0000
0000
0000
0000
,
0000
0000
0000
0000
,
0000
0000
0000
0000
,
0000
0000
0000
0000
,
0000
0000
0000
0000
,
0000
0000
0000
0000
,
1000
0000
0100
0000
1000
0000
0001
0100
,
0001
0000
0010
0000
0001
0000
1000
0100
,
0010
0000
0100
0000
0010
0000
0001
1000
,
0100
0000
0010
0000
0100
0000
1000
0001
,
1000
0000
1000
0000
,
0001
0000
0001
0000
,
0100
0000
0100
0000
,
0010
0000
0010
0000
,
1000
0100
0020
0000
,
0031
0100
0020
0000
,
1030
0001
0200
0000
,
0310
0000
0010
0000
0010
0010
0010
0000
,
1000
0001
0020
0000
,
0031
1000
0020
0000
,
0130
0001
2000
0000
,
3001
0000
0001
0000
0001
0001
0001
0000
,
1000
0000
0100
0000
0001
0000
0100
1000
,
0001
0000
0100
0000
1000
0000
0100
0001
,
1000
0000
0010
0000
0001
0000
0010
1000
,
0001
0010
0200
1300
,
0001
0000
0100
0000
1000
0000
0100
0010
,
1000
0000
0100
0000
0001
0000
0100
0010
,
0001
0100
0020
1030
,
0002
0000
0000
1003
0001
1000
0002
0000
0000
0003
0000
0000
,
0000
1000
0100
0100
0000
0001
0100
0100
,
0000
1000
0010
0010
0100
0001
0010
0100
,
0000
1000
0010
0010
0000
0001
0010
0010
,
0000
1000
0010
0100
0002
0000
1003
0000
,
0000
0001
0010
0011
0000
1000
0010
1010
,
0000
0001
0100
1000
0100
0110
1010
1001
,
0000
1000
0100
1100
0000
0001
0100
0101
,
0000
1000
0010
0001
0020
0000
0130
0000
,
0001
0000
0010
0000
1000
0000
0010
0001
,
1000
0000
0010
0000
0001
0000
0010
1000
,
0001
0000
0100
0000
0010
0000
0001
0010
,
0100
0000
1000
0100
0010
1000
1001
0000
,
0001
0000
0100
0000
1000
0000
0100
0001
,
1000
0000
0100
0000
0001
0000
0100
1000
,
0001
0000
0100
0010
0001
0000
0110
0000
,
2000
0000
0000
3010
0100
0001
2000
0000
0000
3002
0000
0000
,
0003
0000
0000
0000
;

//---------------dance-single - t7r----------------
#NOTES:
     dance-single:
     t7r:
     Hard:
     8:
     :
0000
0000
0000
0000
,
0000
0000
0000
0000
,
0000
0000
0000
0000
,
0000
0000
0000
0000
,
0000
0000
0000
0000
,
0000
0000
0000
0000
,
1100
0000
0000
0000
0101
0000
0000
0000
1100
0000
0000
1000
0100
0000
1000
0000
,
0001
0000
0000
0000
0011
0000
0000
0000
1010
0000
0000
1000
0010
0000
1000
0000
,
0100
0000
0000
0000
0101
0000
0000
0000
1100
0000
0000
0100
1000
0000
0001
0000
,
0010
0000
0000
0000
1010
0000
0000
0000
0011
0000
0000
0001
0100
0000
0010
0000
,
0100
0000
0100
0000
,
0010
0000
0010
0000
,
1000
0000
1000
0000
,
0001
0001
2000
3000
,
0001
0000
0100
0000
0010
1000
0200
0000
,
1300
0000
0001
0000
0010
0001
0200
0000
,
0301
0000
0010
0000
0100
0010
0002
0000
,
1003
0100
0001
0100
1000
0110
0011
0000
,
0001
0000
0100
0000
0010
1000
0002
0000
,
1003
0000
0100
0000
0010
0001
2000
0000
,
3001
0000
0100
0000
0010
0100
0002
0000
,
1003
0000
1000
0000
0001
1000
0110
0000
,
0010
0000
1000
0000
0100
0000
0001
0000
0100
0000
0000
1000
0001
0000
1000
0000
,
0100
0000
1000
0000
0010
0000
0001
0000
0010
1000
0000
1000
0001
0000
0000
0000
,
1000
0000
0010
0000
0001
0000
0010
0000
1000
0000
0000
0001
1000
0000
0001
0000
,
1000
0000
0100
0000
0001
0000
0100
0000
0010
0100
0000
0100
0010
0000
0000
0000
,
0100
0000
1000
0000
0010
0000
0001
0000
0010
0000
0000
1000
0001
0000
1000
0000
,
0010
0000
1000
0000
0100
0000
0001
0000
0100
1000
0000
1000
0010
0000
0000
0000
,
0100
0001
0010
0000
0100
1000
0010
0000
,
0200
0000
0000
0310
0100
0010
2000
0000
0000
3001
0000
0000
,
0000
0000
1000
0100
1000
0000
1000
0000
0000
0000
0001
0100
0001
0000
0001
0000
,
0000
0000
1000
0010
1000
0000
1000
0000
0001
0000
0010
0000
1000
0000
0010
0000
,
0000
0000
0001
0010
0001
0000
0001
0000
0000
0000
1000
0010
1000
0000
1000
0000
,
0000
0000
0001
0100
0001
0000
0001
0000
2000
0000
0000
0000
3001
0000
0000
0000
,
0000
0000
1000
0100
1000
0000
1100
0000
0000
0000
0001
0100
0001
0000
0101
0000
,
0000
0000
1000
0010
1000
0000
0100
0000
0001
0000
0110
0000
0011
0000
1001
0000
,
0000
0000
0001
0010
0001
0000
0011
0000
0000
0000
1000
0010
1000
0000
1010
0000
,
0000
0000
0001
0100
0001
0000
0100
0000
1200
0000
0000
0000
0310
0000
0000
0000
,
0110
0000
1000
0000
0100
0000
0001
0000
0100
0000
0000
1000
0001
0000
1000
0000
,
0010
0000
0001
0000
0010
0000
0100
0000
0001
0010
0000
0010
0100
0000
1000
0000
,
0001
0000
0010
0000
1000
0000
0010
0000
0001
0000
0000
1000
0001
0000
1000
0000
,
0001
0000
0100
0000
1000
0000
0100
0000
0010
1000
0000
1000
0100
0000
0010
0000
,
0001
0000
0100
0000
1000
0000
0001
0000
0010
0000
0000
0100
0001
0000
1000
0000
,
0001
0000
0010
0000
1000
0000
0001
0000
0100
1000
0000
1000
0001
0000
1000
0000
,
0100
0000
1000
0000
0010
0000
0100
0001
1000
0000
0000
0000
0110
0000
0000
0000
,
0020
0000
0000
1030
0100
0001
0200
0000
0000
2300
0000
0000
,
3000
0000
0000
0000
;

//---------------dance-single - t7r----------------
#NOTES:
     dance-single:
     t7r:
     Challenge:
     14:
     :
0000
0000
0000
0000
,
0000
0000
0000
0000
,
0000
0000
0000
0000
,
0000
0000
0000
0000
,
0000
0000
0000
0000
,
0000
0000
0000
0000
,
1100
0000
1000
0001
0100
0000
0001
1000
0100
0000
1000
0100
0000
0100
1000
0000
,
0001
0000
0100
0001
1000
0000
0100
1000
0001
0010
0000
0010
0001
0000
1000
0000
,
0010
0000
0100
0001
0010
0000
0100
1000
0010
0000
0100
0010
0000
0010
1000
0000
,
0010
0000
0100
0001
1000
0000
0100
1000
0001
1000
0000
1000
0010
0000
0100
0000
,
0120
0000
0000
0000
1030
0000
0000
0000
0100
1000
0100
0000
1000
0000
0001
0000
,
0200
0000
0000
0000
0310
0000
0000
0000
0100
0001
0000
1000
0001
0000
0010
0000
,
0002
0000
0000
0000
0103
0000
0000
0000
0010
1000
0000
0001
1000
0000
0001
0000
,
2000
0000
0000
0000
3100
0000
0000
0000
1000
0100
0010
0001
0000
0001
1000
0000
,
0001
0100
0001
0010
0001
1000
0000
0100
1000
0000
0001
1000
0010
0100
0000
0001
,
1000
0100
1000
0001
1000
0010
1000
0001
1000
0100
0010
0000
0001
0000
0100
0000
,
0001
0010
0001
1000
0001
0100
0001
0010
0001
1000
0001
0100
0010
1000
0100
0000
,
1010
0010
1010
0010
0110
0110
0210
0310
,
1000
0100
0010
0100
1000
0100
0010
0100
1000
0010
0100
0001
1000
0010
0000
1000
,
0001
0010
0100
0010
0001
0010
0100
0010
0001
0100
0010
0000
1000
0100
0010
0000
,
0001
1000
0100
1000
0001
1000
0010
1000
0001
0100
0010
1000
0001
0000
0010
0000
,
0101
0000
0001
0000
0101
0000
0001
1000
0001
0100
0010
1000
0002
0000
1003
0000
,
1001
0000
1000
0100
0010
0000
1000
0100
0010
0000
1000
0100
0010
0001
1000
0010
,
0100
0000
0001
0010
0100
0000
0001
0010
0100
0010
0000
0010
1001
0000
0001
1000
,
0100
0000
1000
0010
0100
0000
1000
0010
0100
0000
1000
0010
0100
0001
0010
0100
,
1000
0000
0001
0100
0010
0000
0001
0100
0010
0100
0000
0100
1001
0000
0010
0000
,
0110
0000
0100
0001
0010
0000
0100
0001
0010
0000
0100
0001
0010
1000
0010
0001
,
0100
0000
0010
1000
0100
0000
0010
1000
0100
0010
0000
0010
1001
0000
0100
0000
,
0101
0000
0001
1000
0100
0000
1000
0001
0010
0001
0000
0001
1000
0000
0010
0000
,
1000
0000
0000
0000
0000
0000
0110
0000
0000
0000
0000
0000
1000
0000
0000
0000
0010
0000
0000
0000
0001
0000
0000
0000
0020
0000
0000
0000
0000
0000
0000
0000
0000
0100
0000
0000
0000
0000
0000
0000
0000
0000
0130
0000
0000
0000
0000
0000
,
0000
0000
0001
0010
1000
0010
0001
0010
0000
0000
0001
0010
1000
0010
0001
0010
,
0000
0000
0001
0010
1000
0010
0001
0010
0001
0100
1000
0000
0110
0000
0101
0000
,
0000
0000
1000
0100
0001
0100
1000
0100
0000
0000
1000
0100
0001
0100
1000
0100
,
0000
0000
1000
0100
0001
0100
1000
0010
0001
0010
0000
0000
0110
0000
1001
0000
,
0101
0000
0000
0000
1000
0000
0100
0000
0001
0000
0100
0000
1000
0001
1000
0000
0000
0000
0000
0000
1000
0000
0100
0000
0001
0000
0100
0000
1000
0001
1000
0000
,
0000
0000
0000
0000
1000
0000
0100
0000
0001
0000
0100
0000
1000
0001
1000
0000
0001
0010
0000
0000
0010
0100
0000
0000
0100
1000
0000
0000
1000
0001
0000
0000
,
0000
0000
0000
0000
1000
0000
0010
0000
0001
0000
0010
0000
1000
0001
1000
0000
0000
0000
0000
0000
1000
0000
0010
0000
0001
0000
0010
0000
1000
0100
1000
0000
,
0000
0000
1000
0100
0001
0000
0100
0000
0010
0000
0000
0001
1000
0000
0001
0000
,
1001
0000
0010
1000
0100
0000
0010
1000
0100
0000
0010
1000
0001
0100
1000
0100
,
0001
0000
0010
0001
0100
0000
0010
0001
0100
0001
0000
0001
0110
0000
1000
0000
,
0001
0000
0010
0100
1000
0000
0010
0100
1000
0000
0010
0100
1000
0010
0001
0010
,
1000
0000
0100
0010
0001
0000
0100
0010
0001
1000
0000
1000
0110
0000
0001
0000
,
0100
0000
0001
0010
1000
0000
0001
0010
1000
0000
0001
0010
0100
0010
0001
1000
,
0010
0000
1000
0100
0001
0000
1000
0100
0001
1000
0000
1000
0110
0000
0001
0000
,
1001
0000
0010
1000
0100
0000
0010
0001
0100
0010
0000
0010
1001
0000
0100
0000
,
0001
0000
0000
0000
0000
0000
0110
0000
0000
0000
0000
0000
0001
0000
0000
0000
0010
0000
0000
0000
1000
0000
0000
0000
0020
0000
0000
0000
0000
0000
0000
0000
0000
0100
0000
0000
0000
0000
0000
0000
0000
0000
0130
0000
0000
0000
0000
0000
;

//---------------dance-double - t7r----------------
#NOTES:
     dance-double:
     t7r:
     Easy:
     5:
     :
00000000
00000000
00000000
00000000
,
00000000
00000000
00000000
00000000
,
00000000
00000000
00000000
00000000
,
00000000
00000000
00000000
00000000
,
00000000
00000000
00000000
00000000
,
00000000
00000000
00000000
00000000
,
00100000
00000000
00100000
00000000
,
00001000
00000000
00001000
00000000
,
00010000
00000000
00010000
00000000
,
00000100
00000000
00000100
00000000
,
00000010
00000000
00000010
00000000
,
00000001
00000000
00000001
00000000
,
00000100
00000000
00000100
00000000
,
00000010
00000010
00000010
00000000
,
00010000
00001000
00020000
00030000
,
00001000
00010000
00002000
00003000
,
01000000
00100000
02000000
03000000
,
00100000
00100000
00200000
00300000
,
10000000
00010000
10000000
00000000
,
00010000
01000000
00010000
00000000
,
00100000
00001000
00100000
00000000
,
00001000
00000000
00001000
00000000
00010000
00010000
00010000
00000000
,
00001000
01000000
10000000
01000000
,
00010000
01000000
00100000
10010000
,
10000000
01000000
00010000
01000000
,
00100000
00001000
00010000
00011000
,
00010000
00000100
00000001
00000100
,
00001000
00000100
00000001
00000100
,
00000010
00000000
00000020
00000130
,
00020000
00000000
00002000
00033000
,
00000000
00000000
01000000
01000000
00000000
00000000
01000000
01000000
,
00000000
00000000
01000000
01000000
01000000
00000000
01000000
00000000
,
00000000
00000000
00001000
00001000
00000000
00000000
00001000
00001000
,
00000000
00000000
00001000
00001000
00001000
00000000
00001000
00000000
,
00000000
00000000
00010000
00010000
00000000
00000000
00010000
00010000
,
00000000
00000000
00010000
00010000
00010000
00000000
00010000
00000000
,
00000000
00000000
00000100
00000100
00000000
00000000
00000100
00000100
,
00000000
00000000
00000100
00000100
00000100
00000000
00000100
00000000
,
00010000
00000010
00000001
00000010
,
00001000
00000010
00000100
00001001
,
00000001
00000010
00001000
00000010
,
00000100
00010000
00001000
00011000
,
00001000
00100000
10000000
00100000
,
00010000
00100000
10000000
00100000
,
01000000
00000000
02000000
03100000
,
00002000
00000000
00000000
00013000
00001000
00010000
00002000
00000000
00000000
00023000
00000000
00000000
,
00030000
00000000
00000000
00000000
;

//---------------dance-double - t7r----------------
#NOTES:
     dance-double:
     t7r:
     Medium:
     6:
     :
00000000
00000000
00000000
00000000
,
00000000
00000000
00000000
00000000
,
00000000
00000000
00000000
00000000
,
00000000
00000000
00000000
00000000
,
00000000
00000000
00000000
00000000
,
00000000
00000000
00000000
00000000
,
00000010
00000000
00000100
00000000
00000010
00000000
00000100
00000001
,
00001000
00000000
00000100
00000000
00000010
00000000
00000100
00010000
,
00001000
00000000
01000000
00000000
00100000
00000000
01000000
00010000
,
10000000
01000000
00100000
00001000
,
00010000
00000000
00010000
00000000
,
00001000
00000000
00001000
00000000
,
01000000
00000000
01000000
00000000
,
00100000
10000000
00020000
00030000
,
10000000
01000000
00200000
00000000
,
00301000
00010000
00000020
00000000
,
00000130
00000001
00002000
00000000
,
00003100
00000000
00000100
00000000
00010000
00010000
00010000
00000000
,
00001000
01000000
00200000
10300000
,
10000000
01000000
00200000
00310000
,
00010000
00100000
00001000
00010000
,
00000010
00000100
00000010
00000000
00010000
00001000
00010000
00000000
,
00011000
00000000
00001000
00010000
02000000
00000000
03010000
00001000
,
00010000
00000000
00001000
00010000
00200000
00000000
00310000
00001000
,
00010000
00000000
00001000
00010000
00000200
00000000
00000301
00000100
,
00001000
00000000
00010000
00100000
10000000
00000000
01100000
00000000
,
10000000
00020000
00000000
01030000
00010000
00000000
00001000
00000100
,
00000001
00000100
00000110
00001001
,
00010100
00000000
00000000
00001000
00001000
00000000
00010000
00000000
,
00012000
00000000
00000000
00013000
00001000
00010000
00002000
00000000
00000000
00013000
00000000
00000000
,
00000000
01000000
00010000
00010000
00000000
00000100
00001000
00001000
,
00000000
01000000
00010000
00010000
00001000
00001000
00000100
00000110
,
00000000
00000010
00000001
00000001
00000000
00000010
00001000
00001000
,
00000000
00100000
00010000
00010000
20000000
00000000
30010000
00000000
,
00000000
01000000
00100000
01100000
00000000
01000000
00001000
00011000
,
00000000
00000100
00010000
00011000
00000010
00000110
00001010
00000110
,
00000000
00000010
00000100
00000110
00000000
00000001
00001000
00001001
,
00000000
00000100
00010000
00001000
00012000
00000000
00013000
00000000
,
00010000
01000000
10000000
00000000
02000000
00000000
03100000
00010000
,
00001000
00000010
00000001
00000000
00000020
00000000
00000130
00001000
,
00010000
00100000
10000000
00000000
00200000
00000000
01300000
00010000
,
00001000
00000100
00000001
00000000
00000110
00000000
00001001
00000000
,
00000100
00020000
00000000
00031000
01000000
00010000
10000000
00000000
,
01000000
00100000
00001000
00000000
00010000
00000010
00000100
00000000
,
00000110
00010000
01100000
00001000
,
00200000
00000000
00000000
00301000
00010000
00001000
00020000
00000000
00000000
00032000
00000000
00000000
,
00003000
00000000
00000000
00000000
;

//---------------dance-double - t7r----------------
#NOTES:
     dance-double:
     t7r:
     Hard:
     8:
     :
00000000
00000000
00000000
00000000
,
00000000
00000000
00000000
00000000
,
00000000
00000000
00000000
00000000
,
00000000
00000000
00000000
00000000
,
00000000
00000000
00000000
00000000
,
00000000
00000000
00000000
00000000
,
00010100
00000000
00000000
00000000
00011000
00000000
00000000
00000000
01001000
00000000
00000000
00001000
01000000
00000000
00100000
00000000
,
10000000
00000000
00000000
00000000
10100000
00000000
00000000
00000000
01100000
00000000
00000000
01000000
00001000
00000000
00010000
00000000
,
00001000
00000000
00000000
00000000
00011000
00000000
00000000
00000000
00010100
00000000
00000000
00000100
00000010
00000000
00000001
00000000
,
00000100
00000000
00000000
00000000
00000101
00000000
00000000
00000000
00010010
00000000
00000000
00000010
00010000
00000000
00001000
00000000
,
00010000
00000000
00010000
00000000
,
00001000
00000000
00001000
00000000
,
01000000
00000000
01000000
00000000
,
00100000
10000000
00020000
00030000
,
10000000
00000000
01000000
00000000
00100000
00010000
00002000
00000000
,
00003010
00000000
00000100
00000000
00000001
00001000
00000200
00000000
,
00001300
00000000
00000001
00000000
00000100
00001000
00020000
00000000
,
00130000
00100000
00100000
00000000
01000000
01000000
01000000
00000000
,
00010000
10000000
01000000
00000000
00100000
00010000
00002000
00000000
,
00003010
00001000
00000001
00000000
00000100
00000001
00002000
00000000
,
00003001
00000010
00000100
00000000
00001000
00010000
00100000
00000000
,
01000000
01000000
01000000
00100000
00001000
00010000
00001000
00000000
,
00010000
00001000
00000100
00000001
00000100
00001000
00011000
00000000
,
00001000
00010000
01000000
10000000
01000000
00010000
00011000
00000000
,
00010000
00001000
00000010
00000001
00000010
00001000
00011000
00000000
,
00001000
00010000
00100000
10000000
00100000
01000000
00010000
10000000
,
01000000
00010000
00001000
00000100
00000001
00000100
00000110
00000000
,
00000100
00001000
00010000
01000000
10000000
01000000
01100000
00000000
,
00100000
00001000
00010000
00000000
00000010
00010000
00001000
00000000
,
00021000
00000000
00000000
00031000
00010000
00001000
02000000
00000000
00000000
03100000
00000000
00000000
,
00000000
00000000
10000000
01000000
10000000
00000000
10000000
00000000
00000000
00000000
01000000
00100000
01000000
00000000
01000000
00000000
,
00000000
00000000
00100000
00001000
00100000
00000000
00100000
00000000
00001000
00000000
00011000
00000000
00010000
00000000
00011000
00000000
,
00000000
00000000
00000010
00001000
00000010
00000000
00000010
00000000
00000000
00000000
00000100
00000001
00000100
00000000
00000100
00000000
,
00000000
00000000
00000001
00000010
00000001
00000000
00000001
00000000
00002000
00000000
00000000
00000000
00003100
00000000
00010000
00000000
,
00011000
00000000
00001000
01000000
00001000
00000000
01001000
00000000
00000000
00000000
01000000
00100000
01000000
00000000
01100000
00000000
,
00000000
00000000
00100000
10000000
00100000
00000000
10100000
00000000
10000000
00000000
11000000
00000000
01000000
00000000
01010000
00000000
,
00000000
00000000
00001000
00010000
00001000
00000000
00011000
00000000
00000000
00000000
00010000
00001000
00010000
00000000
00011000
00000000
,
00000000
00000000
00000100
00000001
00000100
00000000
00000010
00000000
00000002
00000000
00000000
00000000
00001003
00000000
00000000
00000000
,
00000001
00000000
00000100
00000000
00001000
00000000
00010000
00000000
01000000
00000000
00000000
00100000
00010000
00000000
10000000
00000000
,
00010000
00000000
00100000
00000000
10000000
00000000
00100000
00000000
00010000
00001000
00000000
00001000
00000010
00000000
00000000
00000000
,
00000100
00000000
00000001
00000000
00000010
00000000
00001000
00000000
00010000
00000000
00000000
01000000
00100000
00000000
00010000
00000000
,
10000000
00000000
01000000
00000000
00010000
00000000
00001000
00000000
00000100
00000010
00000000
00000010
00001000
00000000
00000001
00000000
,
00001000
00000000
00000100
00000000
00000001
00000000
00001000
00000000
00010000
00000000
00000000
01000000
00100000
00000000
00010000
00000000
,
10000000
00000000
01000000
00000000
00010000
00000000
00001000
00000000
00000001
00000100
00000000
00000100
00000010
00000000
00000001
00000000
,
00001000
00000000
00000100
00000000
00010000
00000000
00001000
00010000
00001000
00000000
00000000
00000000
00011000
00000000
00000000
00000000
,
02000000
00000000
00000000
03100000
00010000
00001000
00000020
00000000
00000000
00000230
00000000
00000000
,
00000300
00000000
00000000
00000000
;

//---------------dance-double - t7r----------------
#NOTES:
     dance-double:
     t7r:
     Challenge:
     14:
     :
00000000
00000000
00000000
00000000
,
00000000
00000000
00000000
00000000
,
00000000
00000000
00000000
00000000
,
00000000
00000000
00000000
00000000
,
00000000
00000000
00000000
00000000
,
00000000
00000000
00000000
00000000
,
01010000
00000000
00010000
10000000
01000000
00000000
10000000
00010000
01000000
00000000
00001000
00010000
00000000
00010000
00001000
00000000
,
00010000
00000000
00000010
00000100
00000001
00000000
00000010
00000100
00010000
00001000
00000000
00001000
00010000
00000000
00001000
00000000
,
01000000
00000000
00100000
10000000
01000000
00000000
00100000
00010000
01000000
00000000
00001000
00100000
00000000
00100000
00001000
00000000
,
00010000
00000000
00001000
00010000
00000010
00000000
00000100
00000010
00001000
00000001
00000000
00000001
00000100
00000000
00000010
00000000
,
00000110
00000000
00001000
00000100
00002000
00000000
00000000
00000000
00003100
00001000
00010000
00000000
01000000
00000000
00100000
00000000
,
10000000
01000000
00100000
00000000
00020000
00000000
00000000
00000000
00031000
00000010
00000000
00000100
00000010
00001000
00000001
00000000
,
00000100
00000001
00000000
00000100
00002000
00000000
00000000
00000000
00013000
00100000
00000000
10000000
00100000
00000000
01000000
00000000
,
00010000
00100000
00000000
01000000
00000000
01000000
00010000
00001000
00000100
00000010
00001000
00000001
00000000
00000001
00001000
00000000
,
00000001
00000010
00000001
00000100
00000010
00001000
00010000
00000000
01000000
00100000
10000000
01000000
00100000
00010000
00000000
00010000
,
00000010
00000100
00001000
00000100
00000010
00000001
00001000
00000000
00000001
00000100
00000010
00001000
00000100
00001000
00010000
00000000
,
01000000
00010000
10000000
00000000
01000000
00010000
00001000
00000000
00000100
00000010
00001000
00000100
00000010
00000001
00000100
00000000
,
00001010
00000000
00000010
00000000
00001010
00000000
00000010
00010000
00001000
00000000
00011000
00000000
01001000
00000000
01100000
00000000
,
10000000
00100000
10000000
01000000
00100000
00010000
00001000
00000000
00000100
00000010
00000001
00000100
00000010
00001000
00000000
00001000
,
00100000
01000000
00010000
01000000
00100000
10000000
00010000
00000000
10000000
01000000
00100000
00010000
01000000
00010000
00001000
00000000
,
00000100
00001000
00000001
00000000
00000100
00001000
00010000
00000000
01000000
00100000
00010000
01000000
00100000
10000000
01000000
00000000
,
00110000
00000000
00100000
00000000
00110000
00000000
00100000
00010000
00001000
00000010
00000000
00000010
00000200
00000000
00000310
00000000
,
00001001
00000000
00000001
00000100
00000010
00000000
00000001
00000100
00000010
00000000
00000001
00000100
00001000
00010000
00001000
00000000
,
00011000
00000000
00001000
00010000
01000000
00000000
00001000
00010000
01000000
00010000
00000000
00010000
00100000
00000000
01100000
00000000
,
10010000
00000000
10000000
01000000
00100000
00000000
10000000
01000000
00100000
00000000
10000000
01000000
00010000
00001000
00010000
00000000
,
00011000
00000000
00010000
00001000
00000100
00000000
00010000
00001000
00000100
00001000
00000000
00001000
00000010
00000000
00000110
00000000
,
00001001
00000000
00000100
00000001
00000010
00000000
00000100
00000001
00000010
00000000
00000100
00001000
00010000
00001000
00000100
00000000
,
00011000
00000000
00001000
00010000
00100000
00000000
00001000
00010000
00100000
00010000
00000000
00010000
01000000
00000000
01100000
00000000
,
10010000
00000000
10000000
01000000
00010000
00000000
00001000
00000010
00000002
00000000
00000103
00000000
00000110
00000000
00000000
00000000
,
00000001
00000000
00000000
00000000
00000000
00000000
00000110
00000000
00000000
00000000
00000000
00000000
00001000
00000000
00000000
00000000
00010000
00000000
00000000
00000000
00100000
00000000
00000000
00000000
02000000
00000000
00000000
00000000
00000000
00000000
00000000
00000000
00000000
00100000
00000000
00000000
00000000
00000000
00000000
00000000
00000000
00000000
13000000
00000000
00000000
00000000
00000000
00000000
,
00000000
00000000
10000000
01000000
00010000
01000000
10000000
01000000
00000000
00000000
10000000
01000000
00010000
01000000
10000000
01000000
,
00000000
00000000
10000000
01000000
00010000
00001000
00000100
00000000
00000010
00001000
00000100
00000000
00000110
00000000
00001001
00000000
,
00000000
00000000
00000001
00000100
00001000
00000100
00000001
00000100
00000000
00000000
00000001
00000100
00001000
00000100
00000001
00000100
,
00000000
00000000
00000001
00000100
00001000
00010000
01000000
00000000
00100000
00001000
00000000
00001000
00010000
00000000
00001000
00000000
,
00011000
00000000
00000000
00000000
00001000
00000000
00000100
00000000
00000001
00000000
00000100
00000000
00000001
00001000
00000001
00000000
00000000
00000000
00000000
00000000
00001000
00000000
00000100
00000000
00000001
00000000
00000100
00000000
00001000
00000001
00001000
00000000
,
00000000
00000000
00000000
00000000
00000001
00000000
00000100
00000000
00001000
00000000
00000100
00000000
00001000
00000000
00010000
00000000
00100000
01000000
00000000
00000000
01000000
00010000
00000000
00000000
00010000
00100000
00000000
00000000
00100000
00010000
00000000
00000000
,
10010000
00000000
00000000
00000000
00010000
00000000
01000000
00000000
10000000
00000000
01000000
00000000
00010000
10000000
00010000
00000000
00000000
00000000
00000000
00000000
10000000
00000000
01000000
00000000
00010000
00000000
01000000
00000000
10000000
00010000
10000000
00000000
,
00000000
00000000
00010000
00001000
00000020
00000000
00002030
00000000
00003100
00001000
00000000
00001000
00010000
00000000
01000000
00000000
,
01100000
00000000
00010000
00100000
01000000
00000000
00010000
00100000
01000000
00000000
00010000
00100000
01000000
10000000
01000000
00010000
,
00001000
00000000
00010000
00001000
00000100
00000000
00010000
00001000
00000100
00001000
00000000
00001000
00000110
00000000
00000101
00000000
,
00001001
00000000
00000010
00000100
00001000
00000000
00000010
00000100
00001000
00000000
00000010
00000100
00001000
00000100
00000001
00000100
,
00001000
00000000
00000010
00001000
00010000
00000000
00000010
00001000
00010000
00001000
00000000
00001000
00000110
00000000
00000101
00000000
,
00000110
00000000
00000001
00000100
00001000
00000000
00000001
00000100
00001000
00000000
00000001
00000100
00001000
00010000
00000100
00010000
,
00001000
00000000
01000000
00010000
10000000
00000000
01000000
00010000
10000000
00010000
00000000
00010000
01100000
00000000
10010000
00000000
,
11000000
00000000
10000000
01000000
00010000
00000000
00001000
00000010
00000002
00000000
00000103
00000000
00000110
00000000
00000000
00000000
,
00000001
00000000
00000000
00000000
00000000
00000000
00000110
00000000
00000000
00000000
00000000
00000000
00001000
00000000
00000000
00000000
00010000
00000000
00000000
00000000
01000000
00000000
00000000
00000000
00200000
00000000
00000000
00000000
00000000
00000000
00000000
00000000
00000000
00010000
00000000
00000000
00000000
00000000
00000000
00000000
00000000
00000000
00301000
00000000
00000000
00000000
00000000
00000000
;
