#TITLE:XANADU OF TWO;
#ARTIST:T.Kakuta With Starving Trancer + 森永真由美;
#ARTISTTRANSLIT:T.Kakuta With Starving Trancer + Mayumi Morinaga;
#BANNER:XANADU OF TWO.png;
#BACKGROUND:XANADU OF TWO-bg.png;
#JACKET:XANADU OF TWO-jacket.png;
#CDTITLE:./CDTITLES/BEATMANIA IIDX.PNG;
#MUSIC:XANADU OF TWO.ogg;
#SAMPLESTART:53.625;
#SAMPLELENGTH:15;
#BPMS:0=160;
#STOPS:275.5=0.375;
#BGCHANGES:0=../../../BGAs/08pa.mp4=1=0=0=1=====;

//--------------- dance-single - forcednature ----------------
#NOTES:
     dance-single:
     forcednature:
     Beginner:
     3:
     :
0000
0000
0000
0000
,
0000
0000
0000
0000
,
0000
0000
0000
0000
,
0000
0000
0000
0000
,
0000
0000
0000
0000
,
0000
0000
0000
0000
,
0000
0000
0000
0000
,
0001
0000
0000
0000
,
0001
0000
0000
0000
,
1000
0000
0000
0000
,
0100
0000
0000
0000
,
1001
0000
0000
0000
,
0000
0000
0000
0000
,
0001
0000
0000
0000
,
0100
0000
0000
0000
,
0001
0000
0000
0000
,
0000
0000
0000
0000
,
1000
0000
0000
0000
,
0100
0000
0000
0000
,
1000
0000
0000
0000
,
0000
0000
0000
0000
,
0010
0000
0000
0000
,
0100
0000
0000
0000
,
0001
0000
0000
0000
,
0000
0000
0000
0000
,
0100
0000
0000
0000
,
0010
0000
0000
0000
,
1000
0000
0000
0000
,
1000
0000
0000
0000
,
0100
0000
0000
0000
,
0100
0000
0000
0000
,
0010
0000
0000
0000
,
0010
0000
0000
0000
,
0001
0000
0000
0000
,
0001
0000
0000
0000
,
0100
0000
0000
0000
,
1001
0000
0000
0000
,
0001
0000
0100
0000
,
0001
0000
0000
0000
,
1000
0000
0001
0000
,
1000
0000
0000
0000
,
0100
0000
1000
0000
,
0100
0000
0000
0000
,
0010
0000
0000
0000
,
1001
0000
0000
0000
,
1000
0000
0010
0000
,
1000
0000
0000
0000
,
0010
0000
0100
0000
,
0010
0000
0000
0000
,
0100
0000
0001
0000
,
0100
0000
0000
0000
,
1001
0000
0000
0000
,
0110
0000
0000
0000
,
0001
0000
0000
0000
,
1000
0000
0000
0000
,
0100
0000
0000
0000
,
1000
0000
0000
0000
,
0001
0000
0000
0000
,
0100
0000
0000
0000
,
0010
0000
0000
0000
,
1000
0000
0000
0000
,
0000
0000
0000
0000
,
0100
0000
0000
0000
,
0000
0000
0000
0000
,
0010
0000
0000
0000
,
0001
0000
0000
0000
,
1000
0000
0000
0000
,
0001
0000
0000
0000
,
0000
0100
0000
0100
,
0000
0000
0000
0010
,
0000
0000
0000
1000
,
0000
0000
0000
0001
,
0000
0000
0000
1000
,
0000
0000
0000
0100
,
0000
0000
0000
0010
,
0000
0000
0000
0001
,
0000
0000
0000
0100
,
0000
0100
0000
0100
,
0000
0000
0000
0010
,
0000
0010
0000
0010
,
0000
0000
0000
1000
,
0000
0000
0000
0001
,
0000
0000
0000
0010
,
0000
0000
0000
0001
,
0000
0001
0000
0100
;

//---------------dance-single - forcednature----------------
#NOTES:
     dance-single:
     forcednature:
     Easy:
     8:
     :
0000
0000
0000
0000
,
0000
0000
0000
0000
,
0000
0000
0000
0000
,
0000
0000
0000
0000
,
0000
0000
0000
0000
,
0000
0000
0000
0000
,
0000
0000
0000
0000
,
0001
0100
0001
0000
,
1000
0100
1000
0000
,
0110
0000
1001
0000
,
1000
0000
0000
1000
0000
0000
0000
0000
0001
0000
0000
0001
0000
0000
0000
0000
,
0100
0100
0100
0000
,
0010
0000
1000
0000
,
0100
0100
0100
0000
,
0010
0000
0001
0000
,
0100
0010
1000
0000
,
0100
0010
0001
0000
,
1000
0001
0100
0000
,
0010
0010
1000
1000
,
1001
0001
0010
0000
,
0100
0000
1000
0100
,
0010
0001
1000
0000
,
0001
0000
0100
0010
,
1001
0010
0100
0000
,
0001
0010
0100
0000
,
1000
0001
0100
0000
,
0010
0010
1000
0001
,
1001
0000
1000
0000
,
0010
0000
0100
0001
,
2000
0000
3100
0000
,
0010
0000
0001
0100
,
0010
1000
0010
0000
,
0100
0000
0001
0000
,
2000
0000
3100
1000
,
0001
1000
0001
0000
1000
0001
1000
0000
,
0220
0000
0000
0330
,
1001
0001
0100
0010
,
0000
1000
0100
0010
,
0100
1000
0010
0100
,
0000
0001
0010
0100
,
0010
0010
0020
0000
,
0031
0001
0001
1000
,
0010
0000
0100
0000
0010
0000
0000
1001
,
0000
0100
0000
0100
0000
0010
0000
0000
,
1000
0001
1000
0100
,
0000
0010
0001
1000
,
0001
0100
0010
0100
,
0002
1000
1003
0000
,
1001
0000
1000
0010
,
0100
0001
0010
0000
,
0110
0000
0110
0000
,
1000
0000
0001
0000
1000
0000
0000
0000
0001
0000
0000
0001
0000
0000
0000
0000
,
0100
0001
1000
0000
,
0010
1000
0001
0000
,
1000
0100
0010
0001
,
0010
0100
1000
0000
,
0001
0100
0010
0000
,
1000
0100
0010
0000
,
0100
1000
0010
0010
,
0100
0000
0000
0100
0000
0000
0000
0000
0010
0000
0000
0010
0000
0000
0000
0000
,
2002
0000
0000
0000
,
0000
0000
0000
0000
,
3003
0000
0000
0000
,
0000
0000
0000
0000
,
0220
0000
0330
0000
,
2002
0000
3003
0000
,
2200
3300
0202
0303
,
1001
0110
1001
0110
,
0000
0000
0001
0000
0000
0010
0000
0000
0100
0000
0000
1000
0000
0000
0010
0000
,
1001
0001
0100
0010
,
1000
0100
1000
0010
,
0100
0001
0010
0200
,
1000
1300
0000
0110
,
0000
0010
0001
1000
,
0001
0100
0100
0110
,
0000
0010
1000
0001
,
1000
0100
0100
0110
,
0000
1000
0001
1001
,
0000
0110
0100
1001
,
0001
0000
0200
0000
0000
0000
0301
1000
,
0001
0000
0000
0000
1000
0000
0000
1000
0000
0000
0000
0000
0010
0000
0000
0000
,
1000
0001
1000
0000
,
0100
0010
0001
0100
,
0010
0000
1000
0000
0001
0000
1000
0100
,
1000
0000
0001
0100
0001
0000
1001
0000
;

//---------------dance-single - t7r----------------
#NOTES:
     dance-single:
     t7r:
     Medium:
     10:
     :
0000
0000
0000
0000
,
0000
0000
0000
0000
,
0000
0000
0000
0000
,
0000
0000
0000
0000
,
0000
0000
0000
0000
,
0000
0000
0000
0000
,
0000
0000
0000
0000
,
0001
0000
0000
0000
0010
0000
0000
0000
0001
0000
0000
0001
0000
0000
0001
0000
,
1000
0000
0000
0000
0010
0000
0000
0000
1000
0000
0000
1000
0000
0000
1000
0000
,
0100
0000
0000
0000
0010
0000
0000
0000
0001
0000
0000
0001
0000
0000
0001
0000
,
0100
0000
0000
0100
0000
0000
0100
0000
0010
0000
0000
0010
0000
0000
0010
0000
,
1000
0001
0100
0010
,
1000
0000
0100
0000
0010
0000
0001
1000
,
0001
0100
0010
1000
,
0001
0000
0010
0000
0100
0000
1000
0010
,
1000
0100
0000
0010
0000
0001
0100
0001
,
0000
0010
0000
0100
0000
1000
0010
1000
,
0000
0001
0000
0100
0000
0010
1000
0001
,
1000
1100
0001
0101
,
1000
0000
0010
0000
0100
0001
1000
0000
,
0001
0000
0000
0000
0010
0000
0100
0000
1000
0000
0000
1000
0000
0000
1000
0000
,
0001
0001
0000
0100
0000
0010
0000
1000
,
0001
0000
0010
0001
0100
0000
0010
1000
,
0001
0000
0011
0000
1000
0100
0010
0000
,
1000
0000
1010
0000
0001
0100
0010
0000
,
0001
0110
1000
1001
,
1000
0100
0010
0000
0001
0100
0010
0000
,
2000
0000
0010
0000
3001
0100
0010
0000
,
2000
3100
0002
0103
,
0020
0000
0100
0000
0031
1000
0010
0000
,
0002
0013
2000
3010
,
0100
0001
0010
0000
0001
0000
0001
0000
,
0100
0010
1000
0000
0100
0000
0100
0000
,
0010
0001
0100
0000
0001
0000
1000
0002
,
0100
0000
0100
0000
1003
0001
1000
0000
,
0001
0010
0100
0000
1000
0000
0010
0000
,
1001
0000
1000
0100
0000
0010
0001
2000
,
0000
0000
3010
0000
0100
0000
0001
0010
,
0002
0000
0103
0010
0000
1000
0000
0001
,
0000
0010
0001
1000
0010
0000
0110
0000
,
1000
0100
0000
0020
0000
0130
1000
0010
,
1000
0000
1010
0000
0001
0000
0010
0001
,
0100
0000
0010
1000
0100
0000
0010
0100
,
0000
1000
1000
0001
0000
0100
0100
0010
,
0200
0000
0301
0010
0000
0001
1000
0010
,
0000
1000
0100
0000
1000
0000
1001
0000
,
0101
0000
0001
0020
0000
0130
0000
0020
,
0000
0031
0100
0001
0000
1000
0010
0000
,
1001
0000
1000
0200
0000
0310
0001
0200
,
0000
0310
1000
1010
,
0001
0100
0010
0000
1000
0100
0010
0000
,
0001
0000
0001
0000
1000
0000
0000
0000
0010
0000
0000
0010
0000
0000
0010
0000
,
0100
0000
0000
0000
0001
0000
0000
0000
1000
0000
0000
0010
0000
0000
1000
0000
,
0001
0000
0000
0000
0010
0000
0000
0000
0001
0000
0000
0100
0000
0000
0001
0000
,
1000
0000
0000
0000
0100
0000
0000
0000
0010
0000
0000
0001
0000
0000
1000
0000
,
0001
0000
0100
0000
0010
1000
0010
0000
,
1000
0000
0000
0000
0100
0000
0000
0000
0010
0000
0000
0001
0000
0000
1000
0000
,
0001
0000
0000
0000
0100
0000
0000
0000
0010
0000
0000
1000
0000
0000
0001
0000
,
0010
0000
0000
0000
0001
0000
0000
0000
1000
0000
0000
0010
0000
0000
0100
0000
,
0001
0000
0000
1001
0000
0000
1000
0000
0001
0000
0000
1001
0000
0000
0010
0000
,
0200
0000
0000
0000
,
0000
0000
0000
0000
,
0300
0000
0000
0000
,
0000
0000
0000
0000
,
0110
0000
0000
0000
0000
0000
0000
0001
,
0001
0000
0000
0000
0000
0000
0000
1000
,
1000
0000
0000
0010
0010
0000
0000
0100
,
0100
0100
0001
0001
,
0000
0000
1000
0000
0000
0100
0000
0000
0010
0000
0000
0001
0000
0000
1000
0000
,
1001
0000
0001
0100
0010
0000
0100
0001
,
0000
0010
0001
0000
1000
0000
0001
0000
,
1000
0100
0000
0010
0100
0000
1000
0010
,
0000
0100
0000
0001
1000
0001
0010
0000
,
0001
0100
0000
0001
0010
0002
0000
1000
,
1000
0000
0000
0000
0103
0000
0000
0001
0000
0000
1000
0000
0001
0000
0000
0000
,
1000
0100
0000
0010
0100
2000
0000
0001
,
0001
0000
0000
0000
3010
0000
0000
1000
0000
0000
0001
0000
0100
0000
0000
0000
,
0010
0100
0000
0001
0010
0100
1000
0010
,
0000
0000
0100
0000
0010
0000
0000
0110
0000
0000
0001
0000
2000
0000
0000
0000
,
3100
1000
0020
0000
0000
0000
0130
0100
,
0001
0000
0001
0000
1000
0000
0000
1001
0000
0000
0001
0000
1000
0000
0010
0000
,
1000
0000
0000
0000
0001
0000
0000
0010
0000
0000
0100
0000
1000
0000
0001
0000
,
0100
0000
0000
0000
0010
0000
0000
1000
0000
0000
0001
0000
0010
0000
0001
0000
,
1000
0000
0000
0000
0001
0000
0000
0100
0000
0000
0010
0000
1000
0000
0100
0000
,
0010
0000
0100
0000
1000
0000
0000
1001
0000
0000
0001
0000
0100
0000
0000
0000
;

//---------------dance-single - 47R----------------
#NOTES:
     dance-single:
     47R:
     Hard:
     13:
     :
0000
0000
0000
0000
,
0000
0000
0000
0000
,
0000
0000
0000
0000
,
0000
0000
0000
0000
,
0000
0000
0000
0000
,
0000
0000
0000
0000
,
0000
0000
0000
0000
,
0001
0000
0010
0000
0100
0000
1000
0000
0010
0000
0100
0001
0000
0000
1000
0000
,
0100
0000
1000
0000
0001
0000
0100
0000
0010
0000
1000
0100
0000
0000
0010
0000
,
0001
0000
0100
0000
0010
0000
1000
0000
0100
0000
1000
0001
0000
0000
0100
0000
,
0010
0000
0000
0100
0000
0000
0110
0000
0001
0000
0000
1000
0000
0000
1001
0000
,
0001
0000
0000
0001
0000
0000
0001
0000
0000
0000
1000
0000
0001
0000
1000
0000
,
0100
0000
0000
0010
0000
0000
0020
0000
0000
0000
0000
0000
0030
0000
0000
0000
,
0001
0000
0000
0100
0000
0000
0010
0000
0000
0000
1000
0000
0001
0000
0010
0000
,
0100
0000
0000
1000
0000
0000
2000
0000
0000
0000
0000
0000
3001
0000
0100
0000
,
0020
0000
1000
0000
0130
0010
1000
0001
,
0010
0000
0100
1000
0001
0100
0010
1000
,
0001
0000
0000
0010
0000
0000
0200
0000
0000
0000
0000
0000
0001
0000
0000
0000
,
0010
0000
1000
0000
0310
0000
0100
0100
,
1001
0000
0000
1000
0000
0000
1000
0000
0000
0000
0100
0000
0010
0000
0001
0000
,
1000
0000
0000
0010
0000
0000
0100
0000
0100
0000
0001
0000
1000
0000
0010
0000
,
1000
0000
0000
0100
0000
0000
0010
0000
0000
0000
0001
0000
1000
0000
0001
0000
,
0010
0000
0000
0100
0000
0000
1000
0000
1000
0000
0001
0000
0001
0000
1000
0000
,
1001
0000
1000
0000
0001
0100
0010
1000
,
0001
0000
0010
0100
1000
0100
0010
0002
,
0100
0000
1000
0000
0013
0001
1000
0001
,
0100
0100
0001
0001
1000
1000
0100
0100
,
1000
0000
0010
0100
0001
0100
0010
1000
,
0001
0000
0010
0200
0000
0000
1300
0002
,
0000
0000
0103
0001
1000
0010
1000
0100
,
0010
0000
0001
0200
0000
0320
0000
2030
,
0000
3200
0000
0000
0300
0010
0001
0100
,
0001
0000
0001
2000
0000
3002
0000
0023
,
0000
0230
0000
0000
0300
0000
1000
0001
,
0100
0000
0100
0000
0001
0000
0001
0000
1000
0000
1000
0000
0100
0000
0100
0010
,
0002
0000
0000
0000
0000
0000
0000
0000
0000
0000
0000
0000
1003
0000
0001
1000
,
0001
0000
0100
0010
1000
0100
0010
0001
,
0100
0000
1010
0000
0101
0000
0001
0010
,
1000
0000
0010
0100
1000
0001
0100
0010
,
1000
1000
0000
0001
0000
0010
0100
1000
,
0100
0010
0001
0100
0010
0000
1000
0001
,
0101
0000
1010
0000
1100
0000
0001
1000
,
1001
0000
1000
0100
0010
0001
0100
0010
,
0000
1000
1000
0100
0000
0001
0001
0100
,
0010
0000
0001
1000
0010
0100
0001
0010
,
0100
0000
1100
0000
0011
0000
0001
1000
,
0010
0000
0100
0001
1000
0100
0010
0001
,
0100
1000
0100
0010
0000
0100
0001
0010
,
0001
0000
0010
0100
0000
0010
1000
0010
,
0001
0100
0010
0000
1000
0001
0100
0000
,
0001
0010
0100
2000
0010
0000
3001
0000
,
1000
0100
1000
0100
0010
0001
0100
0010
,
1000
0000
1000
0000
0010
0000
0100
0000
0001
0000
0000
1000
0000
0000
0001
0000
,
0010
0000
0010
0000
0001
0000
0100
0000
0010
0000
0000
1000
0000
0000
0010
0000
,
0100
0000
0100
0000
0001
0000
1000
0000
0100
0000
0000
0010
0000
0000
0001
0000
,
1000
0100
0010
0100
0001
0100
0010
0001
,
0100
0000
0100
0000
0010
0000
0100
0000
1000
0000
0000
0100
0000
0000
0001
0000
,
0010
0000
0010
0000
0100
0000
0001
0000
0100
0000
0000
1000
0000
0000
0010
0000
,
0110
1000
0110
0001
,
1000
0000
0000
1100
0000
0000
0001
0000
0010
0000
0000
0011
0000
0000
0001
0000
,
0200
0000
0000
0000
,
0000
0000
0000
0000
,
0300
0000
0000
0000
,
0000
0000
0000
0000
,
0220
0000
0000
0000
0330
0000
0000
0001
,
2002
0000
3003
0000
0000
0000
0000
1000
,
2200
0000
3300
0001
0022
0000
0033
1000
,
1000
0010
0010
0100
0100
0001
0001
0010
,
0000
0000
0011
0000
0000
1001
0000
0000
1100
0000
0000
1001
0000
0000
0010
0000
,
0110
0000
1000
0010
0100
0001
0000
0010
,
0001
0100
0000
0001
0010
0000
0100
0000
,
1000
0001
0000
0100
0010
2000
0010
0000
,
0001
0000
3100
0010
0001
0100
1000
0000
,
0100
0001
0010
0100
0010
1000
0010
0001
,
0001
0000
0000
0000
1000
0000
0000
1001
0000
0000
0001
0000
0100
0000
0000
0000
,
1000
0100
0010
0100
0001
0010
0001
1000
,
1000
0000
0000
0000
0001
0000
0000
0011
0000
0000
0001
0000
1000
0000
0000
0000
,
0010
0100
0010
0001
0010
0100
0010
1000
,
0000
0000
0100
0000
1000
0000
0000
1100
0000
0000
0001
0000
0010
0000
0001
0000
,
0100
0000
0010
1000
0100
0000
0010
0010
,
0001
0000
0001
0000
0100
0000
0000
0110
0000
0000
0001
0000
1000
0000
0010
0000
,
0100
0000
0010
0000
0001
0000
0010
0100
0000
0010
1000
0000
0001
0000
0010
0000
,
0100
0000
0010
0000
1000
0000
0010
0100
0000
0010
0001
0000
1000
0000
0100
0000
,
0010
0000
0100
0000
0001
0000
0100
1000
0000
0001
1000
0000
0001
0000
1000
0100
,
1000
0000
0001
0010
0001
0000
0100
0001
1000
0000
0001
0000
1001
0000
0000
0000
;

//---------------dance-single - 47R----------------
#NOTES:
     dance-single:
     47R:
     Challenge:
     15:
     :
0000
0000
0000
0000
,
0000
0000
0000
0000
,
0000
0000
0000
0000
,
0000
0000
0000
0000
,
0000
0000
0000
0000
,
0000
0000
0000
0000
,
0000
0000
0000
0000
,
1000
0010
1000
0000
0001
0000
0010
0000
0100
0000
0010
0001
0000
1000
0001
1000
,
0000
0000
0001
0000
0100
0000
0001
0000
0010
0000
0100
1000
0000
0001
0100
0001
,
0000
0000
1000
0000
0010
0000
0100
0000
0001
0000
0010
0001
0000
1000
0010
1000
,
0001
0000
0000
1000
0100
0000
0010
0100
1000
0000
0000
1010
0000
0000
1000
0001
,
0100
0000
0001
0100
0000
0000
0100
0010
0000
0000
0010
1000
0000
0000
1000
0001
,
0000
0000
1000
0100
0000
0000
0100
0010
0000
0000
0010
0001
0000
0000
0100
0000
,
0001
0000
0010
0100
0000
0000
0100
1000
0000
0000
1000
0010
0000
0000
0010
0100
,
0000
0000
0100
0001
0000
0000
0001
1000
0000
0000
1000
0100
0000
0000
0100
0000
,
1000
0000
0001
0010
0000
0000
0001
0100
0000
0000
0001
0010
0000
0000
0001
1000
,
0000
0000
1000
0010
0000
0000
1000
0001
0000
0000
1000
0100
0000
0000
1000
0001
,
0100
0000
0010
0000
0100
0001
0000
0001
1000
0000
0100
0000
0010
0100
0000
0100
,
1000
0010
0100
0001
2000
3200
0310
0001
,
1001
0000
0001
0100
0000
0000
0001
0010
0000
0000
0001
1000
0000
0000
0001
0000
,
0001
0000
0010
0000
0100
0000
1000
0000
2000
0000
0000
3001
0000
0000
1000
0000
,
0010
0000
1000
0100
0000
0000
1000
0010
0000
0000
1000
0001
0000
0000
1000
0000
,
1000
0000
0100
0000
0010
0000
0001
0000
0002
0000
0000
0103
0000
0000
0010
0000
,
0100
0001
0100
1000
0100
0010
0100
0001
,
0010
0100
0010
1000
0010
0001
0010
0100
,
0010
0000
0001
0100
0001
0000
1000
0000
0010
0000
1000
0100
1000
0000
0001
0000
,
1000
0100
1000
0100
0010
0000
0001
0000
0100
0010
0100
0010
1000
0000
0001
0000
,
0010
0001
0100
1000
0100
0010
0100
0001
,
0010
1000
0010
0100
0010
0001
1000
0100
,
1000
0010
0100
0010
0001
0010
0100
0010
,
1000
0100
0010
0100
0001
0100
0010
0100
,
1000
0010
0100
0001
0010
0001
1000
1000
,
0001
0010
0100
1000
0010
0100
0001
0001
,
1000
0100
0010
0000
0001
0100
0010
0000
,
1000
0000
1000
0000
0001
0000
0001
0000
0100
0000
0100
0000
0010
0000
1000
0001
,
1000
0010
1000
0010
0100
0000
0001
0000
0010
0100
0010
0100
1000
0000
0001
1000
,
0001
0100
0010
0200
0001
0000
0310
0100
,
0001
0010
0100
0010
1000
0010
0001
1000
,
0001
0010
1000
0010
0001
0100
1000
0100
,
0010
0100
0001
0100
0010
0100
1000
0100
,
0010
1000
0100
0001
0100
1000
0001
0100
,
0010
0001
1000
0100
0010
0100
0001
1000
,
1001
0000
1000
0100
1100
0000
0001
0011
,
0000
1001
1000
1001
0000
0101
0100
0010
,
0110
0010
1000
0010
0100
1000
0100
0001
,
0010
0100
0010
1000
0010
0001
1000
0100
,
0010
0001
1000
0010
0100
0001
1000
0002
,
0010
0000
0100
0000
1003
0001
0010
0000
,
0110
0000
0100
1000
0010
1000
0001
0200
,
0010
0000
1300
0000
0001
0010
1000
0000
,
0110
0000
0000
0000
1000
0000
0001
0100
0001
0000
0010
0000
0100
0000
1000
0000
,
0010
0000
1000
0100
1000
0000
0001
0100
0001
0000
0000
0110
0000
0000
1001
0000
,
0001
0010
0001
0000
1000
0010
1000
0010
0100
0000
0001
0010
0000
0100
1000
0001
,
0000
0000
0100
0000
0001
1000
0001
1000
0010
0000
0100
0001
0000
1000
0100
0010
,
0001
0000
0100
0000
0010
1000
0010
1000
0001
0000
0010
0001
0000
1000
0100
0010
,
0001
0100
0001
0000
1000
0100
1000
0000
0001
0010
0001
0000
1000
0010
1000
0000
,
0100
0010
0100
0000
1000
0001
1000
0001
0100
0000
0010
1000
0000
0001
0010
0100
,
1000
0000
0010
0000
0100
0001
0100
0001
1000
0000
0100
1000
0000
0001
0100
0010
,
1000
0000
0001
0000
0010
0001
0010
0001
1000
0000
0001
0100
0000
0010
1000
0001
,
1000
0000
0000
1000
0100
0000
0010
0001
0100
0000
0000
0101
0000
0000
1000
0001
,
1000
0000
0100
0010
0001
0100
1000
0200
,
0000
0310
1000
0001
,
0010
0000
0100
1000
0000
0010
0000
0100
,
0000
0001
2000
0000
0000
0000
3000
0000
,
2002
0000
3003
0000
0000
0000
0000
0110
,
0220
0000
0330
0000
0000
0000
0000
1100
,
0011
0000
0000
0101
1010
0000
0000
1001
,
0001
0100
1000
0100
0001
0010
1000
0010
,
0000
0000
1001
0000
0000
1100
0000
0000
0101
0000
0000
0110
0000
0000
1001
0000
,
0001
0100
0010
1000
0001
0010
0100
0000
,
1000
0010
0000
0000
0010
0100
0000
0000
0100
0001
0000
0000
0011
0000
0000
0000
,
0001
0010
1000
0010
0100
1000
0001
0100
,
1000
0100
0010
0001
0010
1000
1001
0000
,
1000
0100
1000
0010
0100
0001
1000
1100
,
1100
0000
0000
0000
0011
0000
0000
1001
0000
0000
0101
0000
1000
0000
0100
0000
,
0001
0100
0010
1000
0010
0001
0000
1001
,
1001
0000
0000
0000
0110
0000
0000
1001
0000
0000
0001
0010
0100
0000
1000
0000
,
0010
0000
0001
0000
0010
0000
1000
0000
0001
0000
0100
0010
2000
0000
0000
0000
,
3000
0000
0000
0000
1001
0000
0000
0110
0000
0000
1001
0000
2000
0000
0000
0000
,
0100
0000
0000
0000
0001
0000
0000
0000
0010
0000
0000
0000
3100
1000
0100
1000
,
0001
0100
0001
0100
0010
0000
0000
0110
0000
0000
1001
0000
1000
0100
1000
0000
,
0001
0100
0001
0100
0010
0000
1000
0001
0000
1000
0100
0010
0000
0000
0001
0000
,
1000
0010
1000
0010
0100
0000
0001
0010
0000
0100
1000
0100
0010
0000
0001
0000
,
0100
0001
0100
0001
1000
0000
0010
1000
0000
0001
1000
0001
0100
0001
0100
0001
,
1000
0100
1000
0100
0010
0001
0010
0001
1000
0010
1000
0010
0100
0000
0000
0000
;

//---------------dance-double - forcednature----------------
#NOTES:
     dance-double:
     forcednature:
     Easy:
     8:
     :
00000000
00000000
00000000
00000000
,
00000000
00000000
00000000
00000000
,
00000000
00000000
00000000
00000000
,
00000000
00000000
00000000
00000000
,
00000000
00000000
00000000
00000000
,
00000000
00000000
00000000
00000000
,
00000000
00000000
00000000
00000000
,
00001000
01000000
00001000
00000000
,
00010000
00000100
00010000
00000000
,
00001000
00100000
00001000
00000000
,
00010000
00000000
00000000
00010000
00000000
00000000
00010000
00000000
00001000
00000000
00000000
00001000
00000000
00000000
00001000
00000000
,
01000000
00010000
00100000
01000000
,
10000000
00100000
01000000
00000000
,
00010000
00100000
00001000
00010000
,
00000010
00001000
00000001
00000000
,
00001000
00000100
00010000
00001000
,
00100000
00010000
00100000
00000000
,
00010000
01000000
00001000
00010000
,
00000010
00001000
00000010
00000000
,
00000100
00000001
00000010
00000001
,
00001000
00000100
00010000
00001000
,
00100000
00010000
10000000
01000000
,
00100000
00010000
00100000
00001000
,
00011000
00000000
00001000
00010000
,
00000010
00001000
00000010
00000100
,
00000001
00000000
00000010
00000100
,
00001000
00001000
00000001
00000001
,
00001001
00000000
00000001
00000000
,
00000100
00000000
00001000
00010000
,
00200000
00000000
10300000
00000000
,
01000000
00000000
00010000
00001000
,
00010000
00000100
00001000
00000000
,
00000010
00000000
00001000
00000001
,
00002000
00000000
00003010
00010000
,
00001000
00010000
00001000
00000000
00010000
00001000
00010000
00000000
,
00022000
00000000
00000000
00033000
,
00011000
00001000
01000000
00010000
,
00000000
01010000
00010000
10010000
,
10000000
01000000
00100000
00010000
,
00000000
01000000
00001000
00010000
,
00000100
00000100
00000100
00000000
,
00000010
00000001
00000010
00000100
,
00001000
00000000
00000001
00000000
00001000
00000000
00000000
00000110
,
00000000
00001000
00000000
00001000
00000000
00010000
00000000
00010000
,
00000000
01100000
10000000
00010000
,
00000000
01010000
00010000
00110000
,
00100000
00001000
00010000
00000010
,
00002000
00000100
00003100
00000000
,
00000110
00000000
00000010
00000001
,
00001000
00000001
00000100
00000010
,
00001001
00000000
00000110
00000000
,
00000001
00000000
00000100
00000000
00000001
00000000
00000000
00000000
00001000
00000000
00000000
00000100
00000000
00000000
00001000
00000000
,
00000010
00001000
00000010
00010000
,
00001000
00100000
00010000
00100000
,
01000000
10000000
00010000
01000000
,
00001000
00001000
00010000
00010000
,
00000100
00001000
00000001
00001000
,
00000010
00010000
00001000
00100000
,
00010000
10000000
00010000
01000000
,
00001000
00000000
00000000
00010000
00000000
00000000
00001000
00000000
00010000
00000000
00000000
00001000
00000000
00000000
00010000
00000000
,
00022000
00000000
00000000
00000000
,
00000000
00000000
00000000
00000000
,
00033000
00000000
00000000
00000000
,
00000000
00000000
00000000
00000000
,
00020200
00000000
00030300
00000000
,
02002000
00000000
03003000
00000000
,
00020020
00030030
00202000
00303000
,
00010000
00001000
00010000
00000000
00001000
00010000
00001000
00000000
,
00000000
00000000
00010000
00000000
00000000
00000100
00000000
00000000
00001000
00000000
00000000
00000001
00000000
00000000
00001000
00000000
,
00000110
00000001
00001000
00000000
,
00001010
00000010
00010010
00010000
,
00001000
00100000
00010000
00200000
,
01000000
01300000
00000000
10010000
,
00000000
00000000
10000000
00000000
00010000
00000000
00000000
01000000
,
01000000
00000000
00000000
00000000
00010000
00000000
00000000
00010000
00000000
00000000
00010000
00000000
00100000
00000000
00000000
00000000
,
00000000
00000000
00001000
00000000
00010000
00000000
00000000
00000010
,
00000010
00000000
00000000
00000000
00001000
00000000
00000000
00001000
00000000
00000000
00001000
00000000
00000100
00000000
00000000
00000000
,
00000010
00000100
00001000
00001001
,
00000000
00000000
00000000
00000000
00001000
00000000
00000000
00001000
00000000
00000000
00001000
00000000
00000001
00000000
00000000
00000000
,
00000100
00000000
00000001
00000000
00000010
00000000
00000100
00001000
,
00000100
00000000
00000000
00000000
00010000
00000000
00000000
00001000
00000000
00000000
00010000
00000000
00000010
00000000
00000000
00000000
,
00001000
00000100
00010000
00001000
,
01000000
00010000
00100000
01000000
,
10000000
00000000
00010000
00000000
01000000
00000000
00001000
00010000
,
00001000
00000000
00010000
00001000
00010000
00000000
00011000
00000000
;

//---------------dance-double - t7r----------------
#NOTES:
     dance-double:
     t7r:
     Medium:
     10:
     :
00000000
00000000
00000000
00000000
,
00000000
00000000
00000000
00000000
,
00000000
00000000
00000000
00000000
,
00000000
00000000
00000000
00000000
,
00000000
00000000
00000000
00000000
,
00000000
00000000
00000000
00000000
,
00000000
00000000
00000000
00000000
,
00000001
00000000
00000010
00000000
00000100
00000000
00000000
00000000
00000010
00000000
00000000
00000010
00000000
00000000
00000010
00000000
,
00000001
00000000
00000100
00000000
00000010
00000000
00000000
00000000
00001000
00000000
00000000
00001000
00000000
00000000
00001000
00000000
,
00000100
00000000
00010000
00000000
00001000
00000000
00000000
00000000
01000000
00000000
00000000
01000000
00000000
00000000
01000000
00000000
,
00010000
00000000
00000000
00100000
00000000
00000000
10000000
00000000
00100000
00000000
00000000
00001000
00000000
00000000
00010000
00000000
,
00000010
00001000
00000001
00000100
,
00000010
00001000
00000100
00010000
,
00001000
01000000
00010000
10000000
,
01000000
00000000
00010000
00000000
00001000
00000000
00000100
00000010
,
00000200
00000000
00000001
00000000
00000000
00000310
00000100
00000000
,
00000001
00000000
00000020
00000000
00000000
00000130
00010000
00000000
,
00001000
00010000
02000000
00000000
,
13000000
00000000
00100000
00000000
01000000
00010000
01000000
00000000
,
00010000
00000000
10000000
00000000
00000000
01000000
00100000
00000000
,
01000000
00000000
00010000
00001000
00010000
00000000
00010000
00000000
,
00001000
00000000
00000100
00000000
00000000
00000010
00000100
00000000
,
00000001
00000000
00000010
00000001
00000010
00000000
00000010
00000000
,
00000001
00000000
00000100
00000000
00000000
00000001
00001000
00000000
,
00000100
00000000
00010000
00000000
00000000
00001000
00010000
00000000
,
00100000
10000000
00010000
10000000
,
01000000
00100000
01000000
00000000
00100000
00010000
00100000
00000000
,
00002000
00000000
00013000
00000100
,
00002000
00000000
00003010
00000100
,
00000002
00000000
00000023
00000000
,
00001030
00010000
01000000
10000000
,
00200000
00000000
00000000
00000000
01300000
00010000
01000000
00000000
,
00020000
00000000
00000000
00000000
00130000
00001000
00100000
00000000
,
00002000
00000000
00000000
00000000
00013000
00001000
00000010
00000000
,
00000002
00000100
00001000
00001003
,
00000001
00001000
00000001
00000000
00000100
00000000
00001000
00000000
,
00011000
00010000
00100000
01000000
,
00010000
00100000
00000000
00010000
00000000
10000000
00000000
01000000
,
00010000
00001000
00000010
00000100
,
00001000
00000010
00000000
00000100
00000000
00000001
00000000
00001000
,
00000010
00000100
00000002
00000013
,
00000001
00000010
00000200
00010300
,
00011000
00000000
01000000
00000000
00011000
00000000
00000100
00010000
,
00000000
00001000
00001000
00010000
00000000
00001000
01000000
00000000
,
00100000
00000000
10000000
01000000
00000000
00000000
00100000
00000000
,
00001000
00010000
00000000
00000010
00000000
00001000
00000001
00000000
,
00000010
00000000
00000001
00000100
00000000
00001000
00000000
00020000
,
00000000
00100000
00000000
00031000
,
00011000
00000000
00001000
00000000
00000100
00000000
00000010
00000100
,
00000010
00001000
00000001
00000010
,
00000001
00000000
00000100
00001000
00000000
00010000
00001000
00000000
,
00010000
01000000
10000000
00100000
,
10000000
00000000
00000000
00000000
01000000
00000000
00000000
00000000
10000000
00000000
00000000
00010000
00000000
00000000
10000000
00000000
,
00100000
00000000
00000000
00000000
01000000
00000000
00000000
00000000
00010000
00000000
00000000
00100000
00000000
00000000
00001000
00000000
,
00010000
00000000
00000000
00000000
00000100
00000000
00000000
00000000
00001000
00000000
00000000
00000001
00000000
00000000
00001000
00000000
,
00000001
00000100
00001000
00010000
,
00001000
00000000
00000000
00000000
00100000
00000000
00000000
00000000
00010000
00000000
00000000
10000000
00000000
00000000
00010000
00000000
,
00100000
00000000
00000000
00000000
01000000
00000000
00000000
00000000
10000000
00000000
00000000
00100000
00000000
00000000
00010000
00000000
,
00001000
00000000
00000000
00000000
00010000
00000000
00000000
00000000
00000010
00000000
00000000
00001000
00000000
00000000
00000001
00000000
,
00001000
00000000
00000000
00001000
00000000
00000000
00000001
00000000
00000100
00000000
00000000
00000100
00000000
00000000
00001000
00000000
,
00020000
00000000
00000000
00000000
,
00000000
00000000
00000000
00000000
,
00030000
00000000
00000000
00000000
,
00000000
00000000
00000000
00000000
,
10010000
00000000
00000000
00000000
00000000
00000000
00000000
10000000
,
00010000
00000000
00000000
00000000
00000000
00000000
00000000
00001000
,
00000001
00000000
00000000
00000001
00001000
00000000
00000000
00010000
,
10000000
10000000
01000000
01000000
,
00000000
00000000
00010000
00000000
00000000
00010000
00000000
00000000
00001000
00000000
00000000
00010000
00000000
00000000
00001000
00000000
,
00011000
00000000
00010000
00000000
01000000
10000000
00000000
00010000
,
00000000
01000000
00000000
00100000
00000000
10000000
01000000
00000000
,
00010000
00001000
00000000
00000100
00000000
00000010
00000000
00001000
,
00000000
00000001
00000000
00000010
00000001
00000000
00000100
00000000
,
00000010
00001000
00000000
00000100
00010000
00000100
00000000
00010000
,
00010000
00000000
00000000
00000000
00001000
00000000
00000000
00001000
00000000
00000000
00001000
00000000
01000000
00000000
00000000
00000000
,
00010000
00100000
00000000
00010000
10000000
00010000
00000000
01000000
,
01000000
00000000
00000000
00000000
00100000
00000000
00000000
00100000
00000000
00000000
00100000
00000000
10000000
00000000
00000000
00000000
,
00010000
00100000
00000000
01000000
00100000
00000000
00001000
00010000
,
00000000
00000000
00001000
00000000
00010000
00000000
00000000
00011000
00000000
00000000
00010000
00000000
00002000
00000000
00000000
00000000
,
00000000
00003100
00000020
00000000
00000000
00000000
00000130
00000001
,
00000100
00000000
00000001
00000000
00001000
00000000
00000001
00000010
,
00000001
00000000
00000000
00000000
00000100
00000000
00000000
00000100
00000000
00000000
00000100
00000000
00001000
00000000
00010000
00000000
,
00001000
00000000
00000000
00000000
00010000
00000000
00000000
00010000
00000000
00000000
00010000
00000000
01000000
00000000
00100000
00000000
,
01000000
00000000
00000000
00000000
00100000
00000000
00000000
00100000
00000000
00000000
00100000
00000000
00001000
00000000
00010000
00000000
,
00001000
00000000
00010000
00001000
00000010
00000000
00001001
00000000
;

//---------------dance-double - 47R----------------
#NOTES:
     dance-double:
     47R:
     Hard:
     13:
     :
00000000
00000000
00000000
00000000
,
00000000
00000000
00000000
00000000
,
00000000
00000000
00000000
00000000
,
00000000
00000000
00000000
00000000
,
00000000
00000000
00000000
00000000
,
00000000
00000000
00000000
00000000
,
00000000
00000000
00000000
00000000
,
00001000
00000000
00010000
00000000
00000100
00000000
00001000
00000000
00000100
00000000
00000000
00000010
00000000
00000000
00000001
00000000
,
00001000
00000000
00000001
00000000
00000100
00000000
00000001
00000000
00001000
00000000
00000000
00000010
00000000
00000000
00001000
00000000
,
00000100
00000000
00010000
00000000
00001000
00000000
01000000
00000000
00010000
00000000
00000000
00100000
00000000
00000000
00010000
00000000
,
10000000
00000000
00000000
10000000
00000000
00000000
00010000
01000000
00010000
00000000
00000000
00010000
00000000
00000000
10000000
01000000
,
10000000
00000000
00100000
00000000
10000000
01000000
00010000
00001000
,
00000010
00000001
00000100
00000100
,
00000001
00000000
00000010
00000000
00000001
00000100
00001000
00010000
,
00100000
10000000
01000000
01000000
,
00100000
00010000
00100000
00000000
00001000
00000000
00010000
00000000
,
00100000
01000000
00100000
00000000
00010000
00000000
00001000
00000000
,
00000010
00000100
00001000
00000000
00000010
00000100
00000001
00000000
,
00001000
00000100
00010000
00001000
00010000
00000010
00001000
00000000
,
00001001
00000000
00000110
00000000
00000001
00000100
00001000
00010000
,
00100000
10000000
11000000
00110000
,
10010000
00000000
01100000
00000000
10000000
01000000
00010000
00001000
,
00000010
00000001
00000101
00001010
,
00000001
00000100
00000001
00000000
00000010
00000000
00001000
00000000
,
00010000
00000100
00010000
00000000
00001000
00000000
01000000
00000000
,
00010000
00100000
00010000
00000000
10000000
00100000
10000000
00000000
,
01000000
00010000
00001000
00010000
00000100
00010000
00001000
00000100
,
00000010
00000000
00001010
00000000
00001000
00000001
00000010
00000100
,
00001000
00000000
00000010
00000100
00000010
00000000
00001000
00000100
,
00010000
00000000
00001000
00000000
01000000
00010000
00100000
01000000
,
00010000
00000000
00001000
00100000
00001000
00010000
00100000
00000000
,
10000000
00000000
00010000
00000000
10000000
01000000
00100000
00010000
,
01000000
00000000
00100000
00010000
00001000
00010000
00000100
00000000
,
00000010
00000000
00000010
00000000
00000001
00000100
00001000
00000000
,
00010000
00100000
10000000
00010000
10000000
01000000
00010000
00001000
,
00022000
00000000
00000000
00000000
00033000
00000000
00000100
00001000
,
00000010
00010000
00001000
00000010
00000100
00001000
00000001
00000100
,
00000010
00001010
00010010
00011000
,
00100000
00010000
00100000
00001000
00010000
00100000
10000000
00000000
,
01000000
00100000
00010000
01000000
00001000
00010000
00000010
00010000
,
00000100
00001000
00000010
00000100
00001000
00010000
01000000
00000000
,
00100000
00001000
00010000
00100000
10000000
00010000
10000000
00000000
,
11000000
00000000
00010000
00100000
01000000
00010000
00001000
00010000
,
00000000
00000100
00000100
00000100
00000000
00000010
00000010
00000010
,
00000100
00001000
00000001
00000100
00000001
00001000
00000010
00000100
,
00001000
00011000
01001000
01010000
,
00010000
00100000
01000000
10000000
00100000
01000000
10000000
01000000
,
00200000
10000000
00000000
01000000
00000000
00310000
00001000
00010000
,
00000100
00000000
00001000
00000010
00000100
00000001
00000010
00000100
,
00000010
00000001
00000100
00000010
00000100
00000001
00001000
00000000
,
00000100
00001000
00010000
00000000
20020000
00000000
30030000
00000000
,
10000000
01000000
00100000
01000000
10000000
10000000
00010000
00010000
,
10000000
00000000
00100000
00000000
01000000
00000000
00100000
00000000
10000000
00000000
00000000
01000000
00000000
00000000
00100000
00000000
,
01000000
00000000
10000000
00000000
00100000
00000000
00010000
00000000
00001000
00000000
00000000
00010000
00000000
00000000
00001000
00000000
,
00000100
00000000
00000010
00000000
00000100
00000000
00000001
00000000
00000010
00000000
00000000
00001000
00000000
00000000
00000010
00000000
,
00000001
00000100
00000010
00001000
00000001
00000100
00000010
00001000
,
00000001
00000000
00000010
00000000
00000100
00000000
00000010
00000000
00000001
00000000
00000000
00000010
00000000
00000000
00001000
00000000
,
00010000
00000000
00001000
00000000
00100000
00000000
00010000
00000000
10000000
00000000
00000000
00100000
00000000
00000000
01000000
00000000
,
00100000
00000000
10000000
00000000
01000000
00000000
00100000
00000000
01000000
00000000
00000000
00010000
00000000
00000000
00001000
00000000
,
00000100
00000000
00000000
00000110
00000000
00000000
00001000
00000000
00000001
00000000
00000000
00001001
00000000
00000000
00000001
00000000
,
00002000
00000000
00000000
00000000
,
00000000
00000000
00000000
00000000
,
00003000
00000000
00000000
00000000
,
00000000
00000000
00000000
00000000
,
02200000
00000000
00000000
00000000
03300000
00000000
00000000
10000000
,
00020000
00000000
00030000
00000000
00000000
00000000
00000000
00001000
,
00000002
00000000
00000003
00000001
00002000
00000000
00003000
00010000
,
10000000
10000000
00100000
00100000
01000000
01000000
00010000
00010000
,
00000000
00000000
00001000
00000000
00000000
00000010
00000000
00000000
00000100
00000000
00000000
00000001
00000000
00000000
00001000
00000000
,
00001001
00000000
00000001
00000010
00000100
00000010
00000000
00000001
,
00000000
00000100
00000000
00001000
00010000
00001000
00010000
00000000
,
01000000
10000000
00000000
01000000
00100000
01000000
00010000
00001000
,
00000000
00000100
00000000
00000010
00001000
00000001
00000010
00000000
,
00000001
00001000
00000000
00000001
00000010
00002000
00000000
00010000
,
00010000
00000000
00000000
00000000
00000100
00000000
00000000
00000100
00000000
00000000
00013000
00000000
00001000
00000000
00000000
00000000
,
00010000
00100000
00000000
10000000
01000000
00200000
00000000
00001000
,
00001000
00000000
00000000
00000000
01000000
00000000
00000000
01000000
00000000
00000000
00301000
00000000
00010000
00000000
00000000
00000000
,
00001000
00000100
00000000
00000010
00000100
00000010
00001000
00000001
,
00000000
00000000
00000010
00000000
00000001
00000000
00000000
00001001
00000000
00000000
00000001
00000000
00000200
00000000
00000000
00000000
,
00000310
00010000
00002000
00000000
00000000
00000000
00013000
00001000
,
00010000
00000000
00001000
00000000
00010000
00000000
00000000
00011000
00000000
00000000
00001000
00000000
00010000
00000000
01000000
00000000
,
10000000
00000000
00100000
00000000
01000000
00000000
00000000
00010000
00000000
00000000
01000000
00000000
00010000
00000000
00100000
00000000
,
00001000
00000000
00010000
00000000
00001000
00000000
00000000
00000100
00000000
00000000
00000010
00000000
00000100
00000000
00000001
00000000
,
00000010
00000000
00000100
00000000
00010000
00000000
00000000
00001000
00000000
00000000
00010000
00000000
01000000
00000000
10000000
00010000
,
10000000
00000000
00010000
00000000
01000000
00000000
00001000
00010000
00001000
00000000
00010000
00000000
00011000
00000000
00000000
00000000
;

//---------------dance-double - 47R----------------
#NOTES:
     dance-double:
     47R:
     Challenge:
     15:
     :
00000000
00000000
00000000
00000000
,
00000000
00000000
00000000
00000000
,
00000000
00000000
00000000
00000000
,
00000000
00000000
00000000
00000000
,
00000000
00000000
00000000
00000000
,
00000000
00000000
00000000
00000000
,
00000000
00000000
00000000
00000000
,
00001000
00000000
01000000
00000000
00010000
00000000
10000000
00000000
01000000
00000000
00100000
01000000
00000000
01000000
10000000
00000000
,
00100000
00000000
01000000
00000000
00010000
00000000
00100000
00000000
00001000
00000000
00010000
00001000
00000000
00001000
00010000
00000000
,
00001000
00000000
00000010
00000000
00000001
00000000
00000100
00000000
00000010
00000000
00000100
00000001
00000000
00000001
00001000
00000000
,
00000001
00000000
00001000
00000100
00000000
00000000
00000010
00000001
00000010
00000000
00000000
00000011
00000000
00000000
00000001
00001000
,
00000001
00000000
00000100
00000001
00000000
00000000
00000001
00001000
00000000
00000000
00001000
00000100
00000000
00000000
00000100
00010000
,
00000000
00000000
00010000
00001000
00000000
00000000
00001000
01000000
00000000
00000000
01000000
00010000
00000000
00000000
10000000
00010000
,
10000000
00000000
01000000
00100000
00000000
00000000
00100000
00001000
00000000
00000000
00001000
00010000
00000000
00000000
00010000
00000010
,
00000000
00000000
00000010
00001000
00000000
00000000
00001000
00000001
00000000
00000000
00001000
00000010
00000000
00000000
00000100
00000010
,
00000100
00000000
00000001
00000010
00000000
00000000
00000100
00001000
00000000
00000000
00000100
00010000
00000000
00000000
00001000
00010000
,
00000000
00000000
00001000
00100000
00000000
00000000
00010000
10000000
00000000
00000000
00010000
01000000
00000000
00000000
00010000
10000000
,
00000000
00000000
01000000
00100000
00000000
00000000
01000000
00010000
00000000
00000000
00001000
00010000
00000000
00000000
00001000
00000100
,
00000000
00000000
00000010
00000100
00000000
00000000
00000001
00000000
00002000
00000000
00003020
00000000
00000130
00000000
00000001
00000000
,
00001001
00000000
00000001
00000000
00000100
00000000
00000001
00000010
00000000
00000000
00000001
00001000
00000000
00000000
00000001
00000100
,
00000000
00000000
00000001
00000000
00000010
00000000
00001000
00000000
00002000
00000000
00000000
00013000
00000000
00000000
00001000
00000000
,
00010000
00000000
00010000
00000000
01000000
00000000
10000000
00100000
00000000
00000000
01000000
00010000
00000000
00000000
10000000
00010000
,
00000000
00000000
10000000
01000000
00000000
00000000
00010000
00000000
00001000
00000000
00001000
00000000
00010000
00000000
00001000
00000000
,
00000100
00000010
00000100
00000001
00000010
00000100
00000010
00001000
,
00000010
00000100
00001000
00000100
00010000
00001000
01000000
00010000
,
10000000
00000000
00100000
01000000
00000000
00000000
00010000
00100000
00000000
00000000
00001000
00010000
00000000
00000000
00001000
00000000
,
00000010
00000000
00000001
00000100
00000001
00000000
00001000
00000000
00000010
00000000
00000100
00000010
00000100
00000000
00000001
00000000
,
00001000
00000010
00000001
00000010
00000100
00000001
00001000
00000000
,
00000001
00000010
00001000
00000010
00000100
00010000
00001000
00010000
,
00100000
01000000
00010000
10000000
00200000
00000000
01300000
00000000
,
10000000
01000000
00010000
00100000
00001000
00010000
00001000
00000100
,
00000001
00000010
00000100
00000010
00000002
00000000
00001003
00000000
,
00000001
00000100
00001000
00010000
00200000
00000000
10300000
00000000
,
01000000
00100000
01000000
00010000
01000000
00100000
00001000
00010000
,
00001000
00001000
00010000
00010000
00001000
00001000
00000100
00000100
,
00000010
00000000
00000100
00000001
00000100
00000000
00000001
00000000
00001000
00000000
00000100
00010000
00000100
00000000
00010000
00000000
,
00011000
00000000
00010000
02000000
00100000
00000000
03010000
01000000
,
00100000
01000000
10000000
00100000
01000000
00100000
00010000
00100000
,
10000000
00000000
01000000
00100000
01000000
00010000
00001000
00010000
,
00001000
00000100
00000010
00000100
00000001
00000010
00000100
00001000
,
00000001
00000100
00000010
00000100
00001000
00000100
00000010
00001000
,
00000001
00000010
00000100
00000010
00001000
00000010
00000001
00001000
,
00010000
00000000
10000000
00010000
00001000
00000000
00000010
00000110
,
00000000
00000001
00000001
00000001
00000000
00001000
00000001
00001000
,
00001100
00000000
00001000
00000010
00000100
00000010
00000001
00000010
,
00001000
00000100
00010000
00001000
00000100
00000010
00001000
00000100
,
00010000
00000000
00001000
00010000
00100000
10000000
01000000
00020000
,
00100000
00000000
00001000
00000000
00030100
00010000
00001000
00000010
,
00000100
00000000
00001000
00000001
00000100
00001000
00010000
00200000
,
10000000
00000000
00310000
00000000
00100000
10000000
01000000
00100000
,
00001000
00000000
00000000
00000000
00010000
00000000
00000100
00001000
00000100
00000000
00000010
00000000
00000001
00000000
00001000
00000000
,
00000001
00000000
00000100
00000001
00000100
00000000
00000010
00001000
00000010
00000000
00000000
00000110
00000000
00000000
00001001
00000000
,
00001000
00000000
00000010
00000000
00010000
00001000
00010000
00001000
00100000
00000000
01000000
10000000
00000000
10000000
00010000
00000000
,
01000000
00000000
00001000
00000000
00010000
00000100
00010000
00000100
00001000
00000000
00000001
00000100
00000000
00000100
00000010
00000000
,
00001000
00000000
00000100
00000000
00010000
00001000
00010000
00001000
01000000
00000000
00010000
10000000
00000000
10000000
01000000
00000000
,
00100000
00010000
00100000
00000000
00001000
00010000
00001000
00000000
00010000
00000010
00010000
00000000
00000010
00001000
00000010
00000000
,
00000100
00000000
00000001
00000000
00001000
00000100
00001000
00000100
00000010
00000000
00000001
00000100
00000000
00000100
00001000
00000000
,
00000100
00000000
00000010
00000000
00001000
00000100
00001000
00000100
00010000
00000000
00001000
01000000
00000000
01000000
00010000
00000000
,
00100000
00000000
01000000
00000000
10000000
00010000
10000000
00010000
01000000
00000000
00001000
00010000
00000000
00010000
00000100
00000000
,
00000110
00000000
00000000
00000010
00000001
00000000
00000100
00000001
00001000
00000000
00000000
00001100
00000000
00000000
00000100
00010000
,
00000100
00000000
00000010
00000001
00000100
00001000
00010000
00002000
,
00000000
00003010
00000100
00010000
,
00001000
00000000
01000000
00010000
00000000
10000000
00000000
01000000
,
00000000
00010000
00002000
00000000
00000000
00000000
00003000
00000000
,
00022000
00000000
00033000
00000000
00000000
00000000
00000000
01001000
,
00022000
00000000
00033000
00000000
00000000
00000000
00000000
00010100
,
00011000
00000000
00000000
00101000
00011000
00000000
00000000
00010010
,
00011000
00001000
01000000
01000000
00010000
00010000
00100000
00100000
,
00000000
00000000
01100000
00000000
00000000
01000000
00000000
00000000
00010000
00000000
00000000
00000010
00000000
00000000
00000110
00000000
,
00000001
00000100
00001000
00000100
00000010
00010000
00001000
00000000
,
00100000
00010000
00000000
00000000
00010000
01000000
00000000
00000000
01000000
10000000
00000000
00000000
01100000
00000000
00000000
00000000
,
00010000
10000000
01000000
00010000
00001000
00100000
00010000
01000000
,
10000000
01000000
00010000
00100000
00001000
00010000
00011000
00000000
,
00001000
00000010
00000100
00001000
00000001
00000100
00000010
00000100
,
00000110
00000000
00000000
00000000
00001001
00000000
00000000
00010000
00000000
00000000
00001000
00000000
01000000
00000000
00010000
00000000
,
00100000
10000000
00100000
00010000
01000000
00001000
00000000
00100000
,
00110000
00000000
00000000
00000000
10010000
00000000
00000000
00001000
00000000
00000000
00010000
00001000
00010000
00000000
00000100
00000000
,
00001000
00000000
00000100
00000000
00010000
00000000
00001000
00000000
01000000
00000000
00010000
10000000
00020000
00000000
00000000
00000000
,
00030000
00000000
00000000
00000000
00011000
00000000
00000000
00000100
00000000
00000000
00001000
00000000
00000020
00000000
00000000
00000000
,
00000130
00000000
00001000
00000000
00010000
00000000
01000000
00000000
00100000
00000000
00000000
00000000
00001000
01000000
00001000
00000000
,
00100000
00010000
00100000
00010000
00100000
00000000
00000000
00001000
00000000
00000000
00010000
00000000
00000010
00001000
00000010
00000000
,
00000100
00000001
00000100
00000001
00001000
00000000
00000100
00010000
00000000
00010000
00001000
00000000
01000000
00000000
00010000
00000000
,
10000000
01000000
10000000
01000000
00100000
00000000
00001000
00010000
00000000
00010000
00000010
00000000
00000100
00000001
00000100
00000000
,
00000010
00001000
00000010
00001000
00000001
00000000
00000010
00000100
00000000
00000100
00010000
00000000
00001000
01000000
00001000
00000000
,
00010000
00000100
00010000
00000000
00001000
00100000
00001000
00000000
00010000
00000010
00010000
00000000
00011000
00000000
00000000
00000000
;
