#TITLE:Winner's Proof ft. KANASA from bless4;
#ARTIST:BEMANI Sound Team "HuΣeR" & kors k;
#ARTISTTRANSLIT:HuΣeR & kors k;
#BANNER:Winner's Proof ft. KANASA from bless4.png;
#BACKGROUND:Winner's Proof ft. KANASA from bless4-bg.png;
#JACKET:Winner's Proof ft. KANASA from bless4-jacket.png;
#CDTITLE:./CDTITLES/BEATMANIA IIDX.PNG;
#MUSIC:Winner's Proof ft. KANASA from bless4.ogg;
#SAMPLESTART:60;
#SAMPLELENGTH:15;
#BPMS:0=100;
#BGCHANGES:0=Winner's Proof ft. KANASA from bless4.avi=1=0=0=0;

//---------------dance-single - t7r----------------
#NOTES:
     dance-single:
     t7r:
     Beginner:
     1:
     :
0000
0000
0000
0000
,
0000
0000
0000
0000
,
0000
0000
0000
0000
,
0000
0000
0000
0000
,
0000
0000
0000
0000
,
0000
0000
0000
0000
,
0000
0000
0000
0000
,
0001
0000
0000
0000
,
1000
0000
0000
0000
,
0010
0000
0010
0000
,
0010
0000
0000
0000
,
0100
0000
0000
0000
,
1000
0000
0000
0000
,
0001
0000
0001
0000
,
0001
0000
0000
0000
,
0010
0000
0000
0000
,
0100
0000
0000
0000
,
1000
0000
0000
0000
,
0001
0000
0000
0000
,
0100
0000
0100
0000
,
0100
0000
0000
0000
,
0010
0000
0010
0000
,
0010
0000
0000
0000
,
1000
0000
0000
0000
,
0000
0000
0001
0000
,
1000
1000
1000
0000
,
0001
0000
0001
0000
,
0100
0000
0100
0000
,
0010
0000
0010
0010
,
0010
0000
1000
0000
,
0001
0001
0001
0000
,
0010
0000
0100
0000
,
0010
0010
0010
0000
,
1001
0000
0000
0000
,
0000
0000
0100
0100
,
0100
0000
0000
0000
,
0010
0000
0010
0010
,
0000
1000
0000
1000
,
0000
0001
0000
0001
,
0001
0000
0010
0000
,
0100
0000
1000
0000
,
0010
0010
0010
0000
,
0100
0000
0100
0100
,
0100
0000
0000
0000
,
0010
0000
0000
0000
,
1000
0000
0000
0000
,
0001
0000
0000
0000
,
0010
0000
1000
0000
;

//---------------dance-single - t7r----------------
#NOTES:
     dance-single:
     t7r:
     Easy:
     6:
     :
0000
0000
0000
0000
,
0000
0000
0000
0000
,
0000
0000
0000
0000
,
0000
0000
0000
0000
,
0000
0000
0000
0000
,
0000
0000
0000
0000
,
0000
0000
0000
0000
,
2000
0100
3010
0000
,
0001
1000
0010
0100
,
0002
0010
1003
0000
,
0001
0100
0010
1000
,
2001
0100
3100
0000
,
0020
0001
0031
0000
,
0200
0320
1030
0001
,
1000
0100
0010
0001
,
2000
0000
3010
0000
,
0002
0000
0103
1001
,
2000
0000
3100
0000
,
0002
0000
0013
1001
,
1000
0110
0000
0110
,
0001
0020
0130
2000
,
3001
0110
0000
0110
,
2000
3020
0230
0302
,
2003
0000
3200
0000
,
0320
0000
0031
2001
,
3001
1100
0001
0100
,
0010
0101
0010
1000
,
0100
0000
0001
0000
,
2000
3020
0031
1000
,
0001
0110
1000
0001
,
1000
0110
0001
0100
,
0001
0000
0010
1000
,
0110
1001
0210
0301
,
1000
0000
0000
0000
1000
1000
0000
0000
,
1000
0000
1000
1000
2000
0000
3000
0000
,
0001
0000
0000
0000
0001
0001
0000
0000
,
0001
0000
0001
0001
0002
0000
0003
0000
,
0100
0000
0010
0000
0100
0000
0100
0100
,
0000
0000
0000
0001
0001
0001
0001
0000
,
1000
0100
0001
1100
,
0001
0100
1000
0101
,
1000
0010
0100
1001
,
0110
1001
0220
0330
,
2000
0000
3200
0320
,
0032
0203
0320
2030
,
3002
0000
0023
2030
,
3002
0203
2300
0000
,
3002
0000
2000
0000
,
3003
0000
0000
0000
;

//---------------dance-single - t7r----------------
#NOTES:
     dance-single:
     t7r:
     Medium:
     8:
     :
0000
0000
0000
0000
,
0000
0000
0000
0000
,
0000
0000
0000
0000
,
0000
0000
0000
0000
,
0000
0000
0000
0000
,
0000
0000
0000
0000
,
0000
0000
0000
0000
,
0020
0000
0130
0001
1000
0000
0000
0000
,
0200
0000
0310
0001
1000
0000
0001
0000
,
2000
3020
0031
0010
,
0100
0000
0010
0000
1000
0001
0010
0001
,
2000
0000
3100
0010
0100
0000
1000
0000
,
0001
0001
0001
0000
0100
0000
0010
0000
,
2000
3200
0301
0100
,
1000
0001
0100
0000
1001
0000
0010
0000
,
0100
0200
0000
0000
0310
0000
0000
0000
,
2000
0000
3001
0210
,
0301
0002
0000
0000
0013
0000
0000
0000
,
0100
1000
0001
0000
0100
0001
1000
0000
,
0001
0010
0010
0000
0110
0000
1000
0000
,
0002
0000
0203
0000
1300
0100
0001
0000
,
1000
0010
0010
0000
0110
0000
0001
0000
,
1000
0100
0001
0000
1000
0010
0001
0000
,
2000
3002
0203
0000
,
0320
0000
1030
2001
,
3001
0000
0011
0000
0001
0010
0100
0000
,
1000
0000
1010
0000
0010
0100
0001
0000
,
1000
0100
0010
0000
1000
0010
0100
0000
,
0020
0000
0031
0000
1000
1000
0001
0001
,
0100
0000
1010
0000
0100
0001
1000
0000
,
0100
0000
0011
0000
0100
1000
0001
0000
,
1000
0010
0100
0000
1000
0100
0001
0000
,
1001
0110
2002
3003
,
2000
0000
3100
0001
0100
0100
0010
0000
,
0100
1000
0100
0010
0100
0000
1001
0000
,
0102
0000
1003
0000
0010
0010
0001
0000
,
0010
1000
0001
0010
1000
0000
0110
0000
,
1000
0200
0000
0310
1000
0001
0100
0010
,
0000
0002
0000
2003
3020
0230
2300
3200
,
0301
0000
0011
0000
1000
0100
1000
1000
,
0010
0000
1010
0000
0001
0100
0010
0010
,
1000
0100
0010
0000
1000
0010
0001
0100
,
0001
0001
0010
0010
0100
1000
0001
0000
,
0120
0000
0000
0000
2030
0000
3002
0023
,
0230
2300
3002
0000
,
0203
0000
0000
0000
2300
0000
3200
0302
,
0023
0230
2300
0000
,
3002
0000
2000
0000
,
3003
0000
0000
0000
;

//---------------dance-single - t7r----------------
#NOTES:
     dance-single:
     t7r:
     Hard:
     13:
     :
0000
0000
0000
0000
,
0000
0000
0000
0000
,
0000
0000
0000
0000
,
0000
0000
0000
0000
,
0000
0000
0000
0000
,
0000
0000
0000
0000
,
0000
0000
0000
0000
,
0020
0000
0000
0130
0001
0000
0100
1000
0000
0000
0100
0000
0010
0000
1000
0000
,
0200
0000
0000
0301
0100
0000
0010
0001
0000
0000
1000
0000
0010
0000
0100
0001
,
2000
0000
0000
0000
3200
0000
0000
0000
0320
0000
0000
1030
0000
0010
0100
0000
,
0010
0000
0000
0001
1000
0000
0001
0001
0000
0100
0100
0000
0010
1000
0100
0000
,
0020
0000
0000
0031
0100
0000
1000
0100
0000
0100
0000
0010
1000
0001
0000
0010
,
0000
0100
1000
0000
0100
0000
0001
0100
0000
0100
0000
0010
0001
0100
0010
0000
,
2000
0000
0000
0000
3020
0000
0000
0000
0031
0000
0010
0100
0000
0100
0001
0000
,
0010
0000
0100
1000
0010
0000
0100
0001
1000
0000
0100
0010
0001
1000
0010
0000
,
0100
0210
0000
0000
0301
0000
0000
0000
,
2001
0000
0000
0000
0000
0000
0000
0000
3100
0000
0000
0000
0012
0000
0000
1003
,
0010
0120
0000
0000
1030
0000
0000
0000
,
0100
0000
0100
0000
0001
0000
0100
1000
0100
0010
0010
0000
0001
0100
0010
0000
,
1000
0000
0110
0000
0110
0000
0110
0000
0101
0000
0001
0100
0010
1000
0100
0010
,
0020
0000
0000
0031
2000
0000
0000
3001
0100
0010
0010
0000
2000
0000
0000
0000
,
3001
0000
0110
0000
0110
0000
0110
0000
1100
0000
1000
0010
0100
0001
0010
0001
,
0001
0100
0010
0000
1000
0100
0010
0000
0001
0100
1000
0000
0001
0010
0100
0001
,
2000
0000
3200
0000
0302
0000
1003
0020
,
0001
0000
0130
0010
1001
0010
0210
0000
,
0301
0000
0100
1000
0100
0000
0001
0100
1000
0100
0100
0000
0010
0000
1000
0200
,
0000
0310
0100
0000
1000
0000
0110
0000
0001
0010
0010
0000
0001
1000
0010
1000
,
0001
0000
0010
1000
0000
0001
0100
0000
1000
0000
0010
0001
0000
1000
0100
0000
,
0020
0000
0030
0000
1001
0000
0000
0000
0010
0100
0100
0000
0001
0010
0100
1000
,
0001
0000
0010
0000
1001
0000
1000
0100
0001
0100
0100
0000
0010
0000
0001
1000
,
0100
0000
1000
0001
0100
0000
0001
0010
1000
0010
0010
0000
0001
0000
0100
1000
,
0000
0100
0010
1000
0001
0000
0010
0001
0010
1000
0010
0001
0100
0000
0010
0000
,
1001
0100
1001
0100
1001
0010
0010
0100
,
0110
0000
0001
0000
1000
0100
1000
0100
1000
0000
1100
0000
1001
0000
0001
0100
,
0001
0000
0101
0000
1001
0000
1000
0100
0001
0100
0100
0000
0010
0001
1000
0000
,
0010
0000
1100
0000
0001
0100
0001
0100
0001
0000
0011
0000
1001
0000
1000
0100
,
1000
0000
1010
0000
0001
0010
1000
0000
0001
0000
0110
0000
1000
0010
0001
0000
,
0110
0000
1001
0000
1000
0100
0001
0100
0000
0100
0100
0000
0010
0001
1000
0010
,
0000
0000
0110
0000
1000
0002
0023
2030
3002
0203
2300
3002
0023
0230
0310
0010
,
0002
0000
0103
1000
0100
0000
0001
0100
0001
0000
0100
0000
1010
0000
1001
0000
,
2000
0000
3100
0001
0100
0000
0010
0001
0020
0000
0031
0000
1001
0000
0101
0000
,
0001
0010
0100
0010
0001
0000
0001
0010
1000
0010
0001
0000
0011
0000
1001
0000
,
1000
0010
0001
1000
0100
0010
1000
0001
2000
0000
3200
0000
0302
0000
0013
0000
,
2001
0000
0000
3200
0302
0203
2300
3020
,
0230
0000
0302
0000
2003
0000
3002
0023
,
0230
0000
0000
0320
0032
0203
2300
3200
,
0320
2030
3002
0000
,
2003
0000
0002
0000
,
3003
0000
0000
0000
;

//---------------dance-single - t7r----------------
#NOTES:
     dance-single:
     t7r:
     Challenge:
     16:
     :
0000
0000
0000
0000
,
0000
0000
0000
0000
,
0000
0000
0000
0000
,
0000
0000
0000
0000
,
0000
0000
0000
0000
,
0000
0000
0000
0000
,
0000
0000
0000
0000
,
2000
0000
0000
3010
0100
0000
0010
0020
0000
0031
0000
0010
0000
0100
0000
0001
,
0000
0000
0001
1000
0001
0000
1000
0000
0100
0000
0010
0000
0100
0000
0100
0000
0000
0000
0100
0000
0001
0000
0100
0000
1000
0000
0010
0000
0100
0000
0001
0000
,
2000
0000
0000
0000
3020
0000
0000
0000
0031
1000
0100
0001
0000
0010
0100
0010
,
0001
0000
0010
0100
1000
0000
0010
0100
0001
1000
0100
0010
0001
0100
1010
0000
,
0002
0000
0000
0013
0100
0000
0010
0020
0000
1030
0000
0010
0000
0100
0000
1000
,
0000
0000
1000
0001
1000
0000
0010
0000
0100
0000
0001
0000
0010
0000
0100
0000
0000
0000
0001
0000
0100
0000
1000
0000
0010
0000
0100
0000
0001
0000
1000
0000
,
0020
0000
0000
0000
0032
0000
0000
0000
1003
0100
0001
0010
0000
0100
1000
0001
,
0100
0000
0000
0000
0010
0000
0100
0000
0001
0000
0000
0000
0010
0100
0010
0000
1000
0000
0010
0000
0100
0000
0010
0000
1001
0000
0000
0000
0110
0000
0000
0000
,
1010
2010
3200
0000
1300
0000
0001
0001
,
1002
0000
0000
0000
0203
0000
0000
0000
0310
0000
0100
0000
1001
0000
1000
0001
,
0100
0102
0023
0000
0031
0000
0000
0000
,
0100
0000
0000
0000
0100
0000
0000
0000
1001
0000
0000
0000
0001
0000
1000
0000
0001
0000
0010
0000
0100
0000
1000
0000
0001
0100
0010
1000
0001
0000
1000
0001
,
1000
0000
0100
0001
1000
0000
0001
0100
1000
0100
0100
0000
1001
0000
0001
0100
,
0020
0000
0000
0031
0020
0000
0000
0130
0001
0100
0100
0000
1002
0000
0000
0103
,
0001
0000
0100
1000
0001
0000
1000
0100
0001
0100
0100
0000
1001
0000
1000
0100
,
1000
0010
0100
0001
1000
0000
0001
0000
1000
0100
0010
0001
1000
0000
0001
0000
0100
0010
1000
0001
0010
0000
0001
0000
1000
0100
0010
0001
0100
0010
1000
0001
,
2000
0010
3002
0010
2003
0100
3002
0100
,
0013
0000
0000
0000
0100
0000
0000
0000
0010
0000
0000
0000
0100
0000
0000
0000
0010
0000
0000
0000
0001
0000
0000
0000
0010
0000
0000
0000
0001
0000
0000
0000
1000
0001
0000
0000
0000
0000
0000
0000
0100
0000
0000
0000
0000
0000
0000
0000
0120
0000
0000
0000
0000
0000
0000
0000
0000
0000
0000
0000
0000
0000
0000
0000
,
1030
0000
0100
0010
1000
0000
0001
0100
1000
0100
0100
0000
1001
0000
0001
0200
,
0000
0000
0310
0000
0100
0000
0001
0000
1000
0000
0000
0000
0100
0010
0100
0010
0100
0000
1000
0000
0010
0000
0100
0000
0001
0000
0010
0000
0001
0000
1000
0000
,
0010
0001
0010
0100
0001
0000
0010
0100
0010
1000
0010
0100
1000
0010
0100
1000
,
0100
0000
0001
0000
0010
0000
0100
0000
0001
0000
0100
0000
0010
0000
0001
0000
1000
0010
0100
0010
1000
0000
0001
0000
1000
0100
0010
0100
1000
0000
0001
0000
,
1000
0100
0010
0100
0001
0100
0010
0100
1000
0100
0100
0010
1001
0000
0001
0100
,
0001
0010
0001
0010
0001
0000
1000
0000
0010
1000
0010
0000
1000
0000
0100
0000
0010
0000
0100
0000
0100
0000
1000
0000
0010
0100
0010
0100
0010
0000
0100
0000
,
1000
0001
0010
1000
0200
0000
0301
0100
1000
0010
0001
0010
0110
0000
0001
0100
,
0001
0000
0010
0000
0001
0000
0010
0000
0001
0000
0000
0000
1000
0000
0000
0000
0010
0000
1000
0000
0010
0000
1000
0000
0010
0000
0000
0000
0100
0000
0000
0000
0110
0000
0000
0000
0000
0000
0000
0000
0001
0000
0000
0000
0010
0000
0000
0000
0001
1000
0000
0000
0000
0000
0000
0000
0010
0000
0000
0000
0000
0000
0000
0000
,
0110
0000
0101
0000
1000
0100
0100
0001
1000
0100
0100
0001
1000
0100
0100
0001
,
1000
0000
0100
0000
0100
0000
0001
0000
1000
0000
0100
0000
0100
0000
0010
0000
0100
0000
0001
0000
0100
0010
0100
0000
0010
0000
0100
0000
1001
0000
0000
0000
,
0110
0000
0101
0000
0001
0100
0100
1000
0001
0100
0100
1000
0001
0100
0100
1000
,
0001
0000
0100
0000
0100
0000
1000
0000
0001
0010
0100
0010
0001
0000
1000
0000
0010
1000
0001
1000
0010
0000
0100
0000
0001
0000
0100
0000
0120
0000
0000
0000
,
1030
0000
0101
0000
1000
0010
0010
0001
1000
0010
0010
0001
1000
0010
0010
0100
,
2000
0000
3100
0000
1001
0001
0101
0100
0010
1000
1010
0010
1010
0010
1010
0010
,
1000
0100
0010
1000
0002
0000
0103
1000
0010
0001
0010
0100
0101
0000
1010
0000
,
0001
0010
0100
0001
2000
0000
3010
0001
0100
1000
0100
0010
1010
0000
0101
0000
,
1000
0100
1100
1000
0001
0100
0101
0001
1000
0010
1010
1000
0001
0010
0011
0001
,
1000
0000
1000
0000
0100
0000
0100
0000
0001
0000
0001
0000
0010
0000
0010
0000
1000
0100
1000
0100
1000
0100
1000
0100
0010
0001
0010
0001
0010
0001
0010
0001
,
2000
0010
0001
3200
0320
0032
0203
0320
,
2030
0100
3002
0010
2003
0010
3002
0203
,
0320
0001
0100
2030
3200
0320
2030
3002
,
0103
1000
0010
0000
0100
0001
0010
0000
0002
0000
0100
0000
1000
0000
0010
0000
,
1003
0100
0010
0001
0100
0010
1000
0001
0100
0100
0010
0100
0001
1000
0100
0000
;

//---------------dance-double - t7r----------------
#NOTES:
     dance-double:
     t7r:
     Easy:
     5:
     :
00000000
00000000
00000000
00000000
,
00000000
00000000
00000000
00000000
,
00000000
00000000
00000000
00000000
,
00000000
00000000
00000000
00000000
,
00000000
00000000
00000000
00000000
,
00000000
00000000
00000000
00000000
,
00000000
00000000
00000000
00000000
,
00000010
00000100
00000001
00000000
,
00000010
00000100
00010000
00000000
,
00000200
00020300
00031000
00010000
,
00001000
00010000
01000000
10000000
,
01100000
10000000
10000000
00000000
,
01000000
00010000
00010000
00000000
,
00002000
00003020
00000032
00001003
,
00000100
00010000
00001000
00010000
,
00200000
00000000
01300000
00000000
,
00020000
00000000
10030000
20010000
,
31000000
00000000
00020000
00000000
,
00031000
00001000
00000010
00000001
,
00000100
00001000
00010000
01000000
,
10000000
01000000
00010000
00002000
,
00003000
00000110
00000000
00000110
,
00000001
00000100
00000010
00010000
,
00002000
00000000
00023000
00000000
,
00030020
00000000
00000130
00001002
,
00001003
00000001
00000100
00001000
,
00010000
00100000
10000000
01000000
,
00010000
00000000
00000100
00000000
,
00002000
00003010
00010000
00001000
,
00011000
02000000
03200000
00300000
,
10000000
00010000
00001000
00000100
,
00000010
00000100
00010000
00001000
,
00011000
00011000
00022000
00033000
,
00100000
00000000
00100000
00000000
,
00100000
00000000
00100000
00100000
00100000
00000000
00000000
00000000
,
00011000
00000000
00000010
00000000
,
00000010
00000000
00000010
00000010
00000010
00000000
00000000
00000000
,
00011000
00000000
01000000
00000000
01000000
00000000
01000000
01000000
,
00000000
00000000
00011000
00000000
00000100
00000000
00000100
00000100
,
00000000
00000000
00000110
00000000
00000000
00000000
00000010
00000010
,
00000000
00000000
00001001
00000000
00000000
00000000
00000001
00000001
,
00000001
00000100
00001000
00010000
,
00100000
10000000
00010000
00000000
10010000
00000000
00000000
00000000
,
01200000
00000000
20300000
00000000
,
32000000
03020000
00032000
00000000
,
00023000
00000000
00030020
00000000
,
00000230
00000302
00002003
00000000
,
00003002
00000000
00000020
00000000
,
00000033
00000000
00000000
00000000
;

//---------------dance-double - t7r----------------
#NOTES:
     dance-double:
     t7r:
     Medium:
     7:
     :
00000000
00000000
00000000
00000000
,
00000000
00000000
00000000
00000000
,
00000000
00000000
00000000
00000000
,
00000000
00000000
00000000
00000000
,
00000000
00000000
00000000
00000000
,
00000000
00000000
00000000
00000000
,
00000000
00000000
00000000
00000000
,
20000000
00000000
31000000
10000000
00010000
00000000
00000000
00000000
,
02000000
00000000
03001000
00010000
00000100
00000000
00000010
00000000
,
00000002
00000203
00001300
00100000
,
00010000
10000000
10010000
01000000
,
20010000
00000000
30100000
01000000
00001000
00000000
00000000
00000000
,
00020000
00000000
00030010
00001000
00000001
00000000
00000010
00000000
,
00000002
00000023
00001030
00010000
,
01000000
10000000
00100000
01100000
,
10000000
20000000
00000000
00000000
31000000
00000000
00000000
00000000
,
00020000
00000000
00031000
00000120
,
00001030
00002000
00000000
00000000
00003001
00000000
00000000
00000000
,
00000010
00001000
00010000
00000000
00000010
00010000
00001000
00000000
,
01000000
00100000
00100000
00000000
01100000
00000000
00001000
00000000
,
00020000
00000000
00030010
00000000
00000100
00000001
00002000
00000000
,
00003001
00000010
00000010
00000000
00000110
00000000
00010000
00000000
,
01000000
00010000
00001000
00000000
01000000
00001000
00010000
00000000
,
00021000
00030020
00000230
00000000
,
00000302
00000000
00000013
00001002
,
00001003
00000000
00001010
00000000
00000010
00001000
00010000
00000000
,
00200000
00000000
00310000
00000000
10000000
01000000
00010000
00000000
,
00000020
00000130
00002000
00003100
,
00000120
00000000
00010030
00000000
00001000
00010000
00100000
01000000
,
00010000
00000000
11000000
00000000
00201000
00000000
00310000
01000000
,
10000000
00000000
01000000
00000000
00010000
00100000
00001000
00000000
,
00000100
00000010
00001000
00000000
00000100
00010000
00001000
00000000
,
00011000
00011000
00022000
00033000
,
00201000
00000000
00310000
00000000
01000000
01000000
00010000
00000000
,
00100000
00001000
00010000
00001000
00000200
00000000
00000310
00001000
,
00001002
00000000
00000013
00000000
00000100
00000100
00001000
00000000
,
00000100
00010000
00001000
00010000
02000000
00000000
13000000
00010000
,
10000000
10010000
00000000
10000000
00100000
00010000
00001000
00000010
,
00000000
00000002
00000000
00000203
00002300
00023000
02030000
23000000
,
30010000
00000000
10010000
00000000
10000000
01000000
00010000
00010000
,
00021000
00030010
00000210
00000301
,
00000010
00001000
00010000
00000010
00001000
00010000
00100000
00010000
,
10000000
10000000
01000000
01000000
00010000
00000000
00000010
00000000
,
00000210
00000000
00000000
00000000
00000302
00000000
00000023
00002030
,
00023000
00032000
02003000
00000000
,
03200000
00000000
00000000
00000000
20300000
00000000
32000000
03020000
,
00032000
00003200
00000302
00000000
,
00002003
00000000
00000020
00000000
,
00003030
00000000
00000000
00000000
;

//---------------dance-double - t7r----------------
#NOTES:
     dance-double:
     t7r:
     Hard:
     13:
     :
00000000
00000000
00000000
00000000
,
00000000
00000000
00000000
00000000
,
00000000
00000000
00000000
00000000
,
00000000
00000000
00000000
00000000
,
00000000
00000000
00000000
00000000
,
00000000
00000000
00000000
00000000
,
00000000
00000000
00000000
00000000
,
00200000
00000000
00000000
10300000
01000000
00000000
00100000
01000000
00000000
00000000
10000000
00000000
00100000
00000000
00010000
00000000
,
00002000
00000000
00000000
00003010
00000100
00000000
00001000
00000001
00000000
00000000
00000100
00000000
00001000
00000000
00010000
00000000
,
00200000
00000000
00000000
00000000
02300000
00000000
00000000
00000000
03010000
00000000
10000000
00010000
00000000
00000000
10000000
00000000
,
01000000
00000000
00010000
00000000
00001000
00000000
00000100
00000010
00001000
00000100
00000100
00000000
00010000
00000000
00001000
00000000
,
00012000
00000000
00000000
01003000
00001000
00000000
00010000
00000100
00000000
00000100
00000000
00010000
00001000
00010000
00000000
00001000
,
00000000
00001000
01000000
00000000
00100000
00000000
10000000
01000000
00000000
01000000
00000000
00010000
00001000
00000000
00010000
00000000
,
00002000
00000000
00000000
00000000
00003020
00000000
00000000
00000000
00000130
00000000
00010000
00001000
00000000
01000000
00001000
00000000
,
00010000
00000000
01000000
00000000
10000000
00000000
00100000
01000000
01000000
00000000
00010000
00000000
00100000
00000000
00000000
00000000
,
10010000
20000000
00000000
00000000
31000000
00000000
00000000
00000000
,
00020000
00000000
00000000
00000000
00000000
00000000
00000000
00000000
00031000
00000000
00000000
00000000
00021000
00000000
00000000
00030010
,
00000100
00000210
00000000
00000000
00000301
00000000
00000000
00000000
,
00000010
00000000
00000010
00000000
00001000
00010000
00000100
00000000
00010000
00001000
00001000
00000000
01000000
00010000
10000000
00000000
,
00010000
00000000
01100000
00000000
01100000
00000000
01100000
00000000
10100000
00000000
10000000
01000000
00100000
00000000
00001000
00010000
,
00000020
00000000
00000000
00000130
00000002
00000000
00000000
00001003
00000100
00010000
00010000
00000000
00021000
00000000
00000000
00031000
,
00010000
00000000
00000110
00000000
00000110
00000000
00000110
00000000
00000101
00000000
00000001
00000010
00000100
00000000
00010000
00001000
,
00010000
01000000
10000000
00000000
00100000
10000000
00010000
00000000
00100000
00001000
00010000
00000000
00001000
00000100
00000010
00000000
,
00002001
00000000
00003002
00000000
00000023
00000000
00001030
00020000
,
01000000
00000000
00031000
00010000
00100000
10000000
01200000
00000000
,
10300000
00000000
01000000
00010000
01000000
00000000
00100000
00000000
00001000
00010000
00010000
00000000
00000010
00000000
00000100
00000001
,
00000000
00000100
00001000
00000000
00000100
00000000
00000010
00000000
00010000
00000100
00000000
00020000
00000000
00031000
01000000
00000000
,
00100000
00000000
00010000
00100000
00000000
10000000
01000000
00000000
00010000
00000000
00001000
00000010
00000000
00000001
00001000
00000000
,
00000020
00000000
00000000
00000000
00001030
00000000
00000000
00000000
00000001
00000010
00000010
00000000
00001000
00000000
00010000
00000000
,
00011000
00000000
00010000
00000000
01000000
00000000
00010000
00000000
00001000
00010000
00010000
00000000
00001000
00000000
00000100
00000001
,
00001000
00000000
00000100
00010000
00001000
00000000
00010000
00000000
01000000
10000000
00000000
00200000
00000000
00000000
00310000
00001000
,
00000000
00000100
00000010
00001000
00000001
00000000
00000100
00001000
00010000
00100000
10000000
00000000
00010000
00000000
10000000
00000000
,
10010000
00100000
10010000
01000000
10010000
01000000
01100000
00100000
,
10200000
00000000
00000000
00000000
10300000
00000000
01000000
00010000
01000000
00000000
00010000
00000000
00011000
00000000
00010000
00001000
,
00010000
00000000
00001000
00000000
00001100
00000000
00000100
00001000
00010000
01000000
01000000
00000000
00100000
00010000
10000000
00000000
,
00010000
00000000
01100000
00000000
10000000
01000000
10000000
01000000
00010000
00000000
00001000
00000000
00011000
00000000
00001000
00010000
,
00000100
00001000
00000010
00000000
00000001
00000010
00001000
00000000
00000001
00000010
00000100
00000000
00000010
00000000
00001001
00000000
,
00000001
00000000
00000110
00000000
00000000
00000001
00000010
00001000
00010000
00100000
10000000
00100000
01000000
00100000
01000000
01000000
,
00000000
00000000
20010000
00000000
00000000
00010000
30010000
00000000
20000000
32000000
03020000
00032000
00003200
00000302
00000203
00000320
,
00001030
00000000
00000100
00000001
00000100
00000000
00010000
00000000
00010100
00000000
00010000
00000000
00011000
00000000
00011000
00000000
,
00001000
00000000
00010000
01000000
10000000
00000000
00100000
00000000
10100000
00000000
10000000
00000000
10010000
00000000
10010000
00000000
,
10000000
00000000
00100000
00010000
00001000
00000000
00100000
00010000
00001000
00000000
00000010
00000000
00000100
00000001
00001000
00000000
,
00000001
00000010
00001000
00010000
01000000
00100000
00001000
00010000
00000010
00000000
00000200
00000000
00000302
00000000
00000023
00000000
,
00002030
00000000
00000000
00023000
02030000
23000000
30200000
02300000
,
03020000
00000000
00230000
00000000
00302000
00000000
00023000
00032000
,
00003200
00000000
00000000
00000302
00000023
00000230
00000320
00000032
,
00000203
00002300
00023000
00000000
,
00230000
00000000
20000000
00000000
,
30300000
00000000
00000000
00000000
;

//---------------dance-double - t7r----------------
#NOTES:
     dance-double:
     t7r:
     Challenge:
     16:
     :
00000000
00000000
00000000
00000000
,
00000000
00000000
00000000
00000000
,
00000000
00000000
00000000
00000000
,
00000000
00000000
00000000
00000000
,
00000000
00000000
00000000
00000000
,
00000000
00000000
00000000
00000000
,
00000000
00000000
00000000
00000000
,
01000000
00000000
00100000
10000000
00010000
00000000
10000000
02000000
00000000
03100000
00000000
10000000
00000000
00100000
00000000
01000000
,
00000000
00000000
00010000
00001000
00010000
00000000
00001000
00000000
00000100
00000000
00000001
00000000
00000010
00000000
00000100
00000000
00000000
00000000
00000010
00000000
00000001
00000000
00000100
00000000
00000010
00000000
00001000
00000000
00000001
00000000
00000000
00000000
,
00000020
00000000
00000000
00000000
00002030
00000000
00000000
00000000
00003010
00001000
00010000
00100000
00000000
01000000
00010000
10000000
,
01000000
00000000
10000000
00100000
01000000
00000000
00010000
00100000
00010000
00001000
00000010
00000100
00000001
00000010
00000100
00000000
,
00001002
00000000
00000000
00000103
00000010
00000000
00000001
00000020
00000000
00000130
00000000
00000001
00000010
00000100
00000001
00000100
,
00000000
00000000
00000100
00000000
00010000
00000000
00001000
00010000
00001000
00000000
00010000
00000000
01000000
00000000
10000000
00000000
00000000
00000000
00100000
00000000
01000000
00000000
00010000
00000000
00100000
00000000
00010000
00000000
10000000
00000000
00000000
00000000
,
00200000
00000000
00000000
00000000
00320000
00000000
00000000
00000000
00130000
00010000
00001000
00000010
00000000
00000100
00001000
00000001
,
00000100
00000000
00000000
00000000
00000001
00000000
00000010
00000000
00000100
00000000
00000000
00000000
00001000
00000010
00000100
00000000
00000001
00000000
00000010
00000000
00000100
00000000
00001000
00000000
00010000
00000000
00100000
00000000
01000000
00000000
10000000
00000000
,
00010000
20010000
30200000
00000000
01300000
00000000
00010000
00010000
,
00200000
00000000
00000000
00000000
00302000
00000000
00000000
00000000
00013000
00000000
00000000
00000000
00012000
00000000
00000000
00003100
,
00000001
00000102
00002003
00000000
00003010
00000000
00000000
00000000
,
00000100
00000000
00000100
00000000
00001001
00000000
00000001
00000100
00001000
00010000
01000000
10000000
00100000
01000000
00010000
10000000
,
10010000
00000000
10000000
01000000
00100000
00000000
01000000
00010000
00001000
00000100
00000100
00000010
00001000
00000001
00000010
00000100
,
00000002
00000000
00000000
00000103
00000020
00000000
00000000
00000031
00000100
00000010
00001000
00000000
00000210
00000000
00000000
00000301
,
00001000
00000000
00000001
00000100
00000010
00000000
00000100
00001000
00010000
01000000
01000000
00100000
00010000
10000000
00100000
01000000
,
10000000
00000000
01000000
00000000
00010000
00000000
01000000
00000000
00100000
00000000
10000000
00000000
01000000
00000000
00010000
00000000
00001000
00000000
00000010
00000000
00000001
00000000
00000100
00000000
00000001
00000010
00000100
00000010
00000001
00000000
00001000
00000000
,
00000200
00010000
02000300
00001000
03000200
00001000
02000300
00010000
,
03100000
00000000
00000000
00000000
10000000
00000000
00000000
00000000
01000000
00000000
00000000
00000000
00010000
00000000
00000000
00000000
00001000
00000000
00000000
00000000
00000100
00000000
00000000
00000000
00000001
00000000
00000000
00000000
00000010
00000000
00000000
00000000
00000100
00000010
00000000
00000000
00000000
00000000
00000000
00000000
00000100
00000000
00000000
00000000
00000000
00000000
00000000
00000000
00012000
00000000
00000000
00000000
00000000
00000000
00000000
00000000
00000000
00000000
00000000
00000000
00000000
00000000
00000000
00000000
,
00023000
00000000
01030000
10000000
00010000
00000000
10000000
01000000
00010000
00001000
00001000
00000000
00010000
00001000
00000010
00000200
,
00000000
00001300
00000010
00000000
00000100
00000001
00000010
00000000
00000100
00000001
00000100
00000010
00000001
00000100
00001000
00010000
,
00200000
00000000
00310000
00100000
00000000
00100000
10000000
00000000
02000000
00000000
03010000
00001000
00000000
00001000
00000100
00000000
,
00000020
00000000
00000000
00000000
00000130
00000000
00000001
00000000
00001000
00000000
00000000
00000000
00000001
00000000
00000000
00000000
00001000
00000100
00000010
00000001
00001000
00000000
00000001
00000000
00000100
00000010
00001000
00000001
00000100
00000000
00000010
00000000
,
00001000
00000000
00001001
00000000
00000100
00000000
00011000
00000000
00001000
00010000
00010000
01000000
00100000
00000000
00010000
10000000
,
00100000
01000000
00100000
10000000
00100000
00000000
10000000
00000000
01000000
00100000
01000000
00000000
00010000
00000000
00001000
00000000
00000100
00000000
00000001
00000000
00000001
00000000
00000010
00000000
00000001
00000100
00000001
00000100
00000001
00000000
00001000
00000000
,
00000001
00000000
00000010
00000000
00001000
00000000
00010000
00000000
00200000
00000000
00000000
00000000
10300000
00000000
00100000
00000000
00010000
00000000
00001000
00000000
00000010
00000000
00000100
00000000
00000010
00000000
00000000
00000000
00000001
00000100
00000001
00001000
,
00000001
00000000
00001000
00000000
00010000
10000000
00010000
00000000
10000000
00000000
00010000
00000000
00001000
00000001
00001000
00000000
00000001
00000000
00001000
00000000
00010000
10000000
00010000
00000000
02100000
00000000
00000000
00000000
03010000
00000000
00000000
00000000
,
10010000
00000000
11000000
00000000
10000000
01000000
00100000
01000000
10000000
01000000
00010000
00001000
00000100
00000010
00000100
00000001
,
00001000
00000000
00000001
00000000
00000010
00000000
00000100
00000000
00000010
00000000
00001000
00000000
00010000
00000000
00100000
00000000
01000000
00000000
00100000
00000000
10000000
00010000
10000000
00000000
00100000
00000000
01000000
00000000
10010000
00000000
00000000
00000000
,
11000000
00000000
10010000
00000000
10000000
00100000
01000000
00100000
10000000
00100000
00010000
00001000
00000010
00000001
00000010
00000100
,
00000010
00000000
00001000
00000000
00010000
00000000
00100000
00000000
10000000
00010000
01000000
00010000
10000000
00000000
01000000
00000000
00010000
00001000
00010000
00001000
00010000
00000000
00001000
00000000
00000010
00000000
00000001
00000000
00001000
00000000
00000000
00000000
,
00000110
00000000
00001001
00000000
00001000
00000100
00000010
00001000
00010000
00001000
00000100
00000010
00001000
00010000
00100000
01000000
,
20000000
00000000
30100000
00000000
10010000
00010000
10000000
01000000
00010000
00001000
00011000
00001000
00011000
00001000
00011000
00001000
,
00000100
00000001
00000100
00000010
00002000
00000000
00003001
00000010
00000100
00000001
00000100
00000010
00000011
00000000
00001001
00000000
,
00000001
00000100
00000010
00001000
00000200
00000000
00010300
00001000
00010000
00100000
01000000
00010000
10010000
00000000
11000000
00000000
,
10000000
00100000
01000000
10000000
00010000
00100000
10000000
00010000
00001000
00000100
00000010
00001000
00010000
00001000
00000100
00000001
,
00001000
00000000
00001000
00000000
00010000
00000000
00010000
00000000
10000000
00000000
10000000
00000000
01000000
00000000
01000000
00000000
00010000
00001000
00010000
00001000
00010000
00001000
00010000
00001000
00010000
00001000
00010000
00001000
00020000
00000000
00000000
00000000
,
00032000
01000000
00010000
00203000
20300000
30200000
00302000
00023000
,
00032000
00100000
00023000
00000010
00032000
01000000
00023000
00030200
,
00002300
00000100
00000001
00003020
00000032
00000023
00002030
00003200
,
00010300
00001000
01000000
00000000
00001000
00010000
00000100
00000000
00010000
00001000
00000010
00000001
00000200
00000000
00000310
00000000
,
00000001
00000010
00000100
00000010
00001000
00000100
00001000
00010000
00100000
01000000
10000000
00100000
00010000
00001000
00000010
00000000
;
