#TITLE:Waiting (feat. Bianca);
#ARTIST:KUURO;
#BANNER:Waiting (feat. Bianca).png;
#BACKGROUND:Waiting (feat. Bianca)-bg.png;
#JACKET:Waiting (feat. Bianca)-jacket.png;
#CDTITLE:./CDTITLES/NONE.PNG;
#MUSIC:Waiting (feat. Bianca).ogg;
#SAMPLESTART:45.333;
#SAMPLELENGTH:15;
#BPMS:0=90;

//---------------dance-single - t7r----------------
#NOTES:
     dance-single:
     t7r:
     Beginner:
     1:
     :
0000
0000
0000
0000
,
0000
0000
0000
0000
,
0000
0000
0000
0000
,
0000
0000
0000
0000
,
0000
0000
0000
0000
,
0010
0000
0000
0000
,
1000
0000
0000
0000
,
0001
0000
0000
0000
,
0010
0000
0000
0000
,
0100
0000
0100
0000
,
0001
0000
0001
0000
,
1000
0000
0000
0000
,
0010
0000
0000
0000
,
1000
0000
1000
0000
,
0001
0000
0000
0000
,
0100
0000
0100
0000
,
0010
0000
0000
0000
,
1001
0000
1000
0000
,
0001
0001
0001
0000
,
1001
0000
0001
0000
,
1000
1000
1000
0000
,
0010
0000
0100
0000
,
0001
0000
0010
0000
,
0100
0000
1000
0000
,
0010
0010
0010
0000
,
0100
0000
0000
0000
,
0001
0000
0000
0000
,
0010
0000
0000
0000
,
0100
0000
0000
0000
,
1000
0000
0000
0000
,
0010
0000
0000
0000
,
0100
0000
0000
0000
,
0001
0001
0001
0000
,
0000
1000
0000
1000
,
1000
0000
0001
0001
,
0001
0000
0100
0000
,
0010
0010
0010
0000
,
1000
0000
0100
0000
,
0001
0000
0100
0000
,
0000
1000
0000
0001
,
0001
0000
1001
0000
,
1000
0000
0001
0000
,
0100
0100
0100
0000
,
0010
0000
1000
0000
,
0001
0001
0001
0000
,
0000
0010
0000
0100
,
0000
1000
1000
0000
,
0000
0001
0000
0100
,
0000
0010
0010
0010
;

//---------------dance-single - t7r----------------
#NOTES:
     dance-single:
     t7r:
     Easy:
     4:
     :
0000
0000
0000
0000
,
0000
0000
0000
0000
,
0000
0000
0000
0000
,
0000
0000
0000
0000
,
0000
0000
0000
0000
,
0200
0001
0000
0310
,
2000
0100
0000
3001
,
0020
0001
0000
0130
,
2000
0000
0000
3001
,
1000
0100
0000
1000
,
0001
0100
0000
0001
,
0020
0001
0000
0130
,
2000
0010
0000
3001
,
1001
0000
0100
0000
,
0010
0000
1000
0000
,
0002
0000
0013
0000
,
0001
0001
0100
0010
,
2000
3000
0002
0003
,
0100
0100
0020
0030
,
2000
3000
0200
0300
,
0010
0010
0002
0003
,
1000
0000
0100
0000
,
0010
0000
0001
0001
,
0200
0300
0020
0030
,
1000
0001
2000
3000
,
0002
0000
0003
0000
,
2000
0000
3000
0000
,
0010
0000
0010
0000
,
0100
0000
0100
0000
,
0002
0000
1003
0000
,
0200
0000
0310
0000
,
0100
0000
0100
0000
,
1000
1000
0001
0000
,
2002
3003
0220
0330
,
0100
0100
0100
0000
0020
0000
0030
0000
,
2002
3003
0220
0330
,
0001
0001
0001
0000
2000
0000
3100
0000
,
1000
0010
0100
0000
,
0001
0010
0100
0000
,
2200
3300
0022
0033
,
1000
1000
1000
0000
0020
0000
0030
0000
,
2000
3100
2000
3010
,
1000
0100
0010
0001
,
0200
0310
0200
0301
,
0010
0100
1000
0001
,
0100
0000
0010
0010
0000
0000
1000
1000
,
0000
0000
0001
0000
1000
1000
1000
0000
,
0000
0000
0001
0001
0000
0010
0010
0010
,
0000
0000
0100
0000
1000
0000
0001
0001
;

//---------------dance-single - t7r----------------
#NOTES:
     dance-single:
     t7r:
     Medium:
     6:
     :
0000
0000
0000
0000
,
0000
0000
0000
0000
,
0000
0000
0000
0000
,
0000
0000
0000
0000
,
0000
0000
0000
0000
,
0100
0010
1000
0002
,
0013
0001
0100
0020
,
1030
0100
0010
0001
,
0200
0000
0000
0310
,
1000
0000
0001
0000
0000
1000
0100
0000
,
1000
0000
0010
0000
0000
0100
0010
0000
,
0200
0001
0000
0310
,
2000
0100
0000
3001
,
1000
1000
0010
0000
,
0100
0100
0001
0000
,
0020
0100
0000
0031
,
1000
0001
1000
0001
2000
0000
3001
0000
,
2000
3100
0020
0130
,
0010
0010
0010
0000
0002
0000
1003
0000
,
0002
0103
0020
0130
,
0001
0001
0001
0000
2000
0000
3100
0000
,
1000
0100
0000
0110
,
0000
0001
1000
1001
,
0002
0103
0020
0130
,
0010
0010
0010
0000
2002
0000
3003
0000
,
1000
0000
0100
0000
,
0010
0000
0001
0000
,
0100
0000
0000
0000
,
0020
0000
2030
0000
,
3001
0010
0001
0000
,
1000
0010
1000
0000
,
0001
0000
0100
0000
,
1000
0010
0001
1000
,
2001
3100
0002
0103
,
0010
0010
0010
0000
0002
0000
1003
0000
,
0002
0103
2000
3100
,
0001
0001
0001
0000
2000
0000
3010
0000
,
1000
1100
0100
1001
,
0001
0101
0100
1001
,
0002
0013
2000
3010
,
0100
0100
0100
0000
0020
0000
0031
0000
,
2000
0000
3010
1000
0000
0000
0001
0010
,
0000
0000
0001
0100
0010
1000
0001
0000
,
0000
0000
1000
0100
0000
0010
0001
1000
,
0000
0000
0001
1000
0010
0100
0001
0000
,
0000
0000
1000
0010
0000
0000
0001
0010
,
0000
0000
0100
0100
0010
1000
0001
0010
,
0000
0000
0011
0011
0000
1000
0100
1100
,
0000
0000
0001
1000
0100
0001
0010
1000
;

//---------------dance-single - t7r----------------
#NOTES:
     dance-single:
     t7r:
     Hard:
     8:
     :
0000
0000
0000
0000
,
0000
0000
0000
0000
,
0000
0000
0000
0000
,
0000
0000
0000
0000
,
0000
0000
0000
0000
,
2000
0000
3001
0000
0100
0010
0100
0002
,
1000
0000
0103
0000
0010
1000
0100
2000
,
0010
0000
3001
0000
0100
0010
1000
0002
,
0010
1000
0103
0020
,
1030
0000
1001
0000
1000
0100
0010
0000
,
0001
0000
0101
0000
0001
0100
0010
1000
,
0002
0000
0013
0100
0100
1000
0001
0000
,
2000
0000
3010
0100
0100
0001
1000
0000
,
1100
0100
0001
1000
,
0001
0000
0100
0000
1000
0000
0001
0010
,
0200
1000
0010
0301
,
0100
0100
0100
0100
0010
0000
0001
0000
,
2001
3100
1002
1003
,
0010
0010
0010
1000
0002
0000
0103
0000
,
2001
0000
3100
0020
0032
0000
0103
0000
,
0110
0110
0110
0001
2000
0000
3010
0000
,
1000
0000
0000
0100
0000
0000
0010
0000
0000
1000
0000
0000
0001
0000
0000
0100
,
0000
0000
0010
0000
0000
0001
0000
0000
0100
0000
0010
0000
0110
0000
0000
0000
,
0012
0000
0103
0020
2030
0000
3100
0000
,
1001
1001
1001
0001
2000
0000
3100
0000
,
2000
0000
0000
3010
1000
0000
0100
0000
,
0020
0000
0000
0031
1000
0000
0001
0000
,
0100
0010
0100
0000
0001
0000
0000
0000
,
0010
0100
1000
0000
0010
0100
0001
1000
,
0002
0010
0000
1000
0103
0000
0010
0000
,
2000
0010
0000
0001
3100
0010
0001
0000
,
0100
1000
0100
0000
0002
0000
0003
0000
,
1000
0100
0001
0010
,
2001
3010
1002
1003
,
0010
0010
0010
0100
2001
0000
3100
0000
,
1020
0000
0130
0002
0023
0000
0130
0000
,
1100
1100
1100
0001
2000
0000
3010
0000
,
1000
0000
0000
0100
0000
0000
0001
0000
0000
1000
0000
0000
0001
0000
0000
0100
,
0000
0000
1000
0000
0000
0010
0000
0000
0100
0000
0010
0000
0101
0000
0000
0000
,
0012
0000
1003
0020
2030
0000
3001
0000
,
0110
0110
0110
0001
1000
0100
1001
0001
,
2000
0000
3001
0100
2000
0000
3001
0010
,
0200
0000
0000
0000
0301
0000
0010
0000
0100
0000
0010
0001
1000
0000
0001
0000
,
2000
0000
3100
0002
1003
0010
0001
0100
,
0020
0000
0000
0000
0130
0000
0001
0000
1000
0000
0010
0100
0001
0000
0010
0000
,
0201
0000
0310
0110
2010
0000
3100
0110
,
0012
0000
0000
0000
1003
0000
0010
0000
0100
0000
0010
1000
0001
0000
0010
0000
,
0120
0000
0031
0011
2001
0010
3100
1010
,
0120
0000
0000
0000
0130
0001
1000
0000
0100
0000
0001
0000
0010
0000
1000
0000
;

//---------------dance-single - t7r----------------
#NOTES:
     dance-single:
     t7r:
     Challenge:
     13:
     :
0000
0000
0000
0000
,
0000
0000
0000
0000
,
0000
0000
0000
0000
,
0000
0000
0000
0000
,
0000
0000
0000
0000
,
1000
0100
0010
0100
0000
1000
0001
0100
0010
1000
0001
0010
0000
0001
2000
0000
,
3001
0100
0010
0100
0000
0001
1000
0100
0010
0001
1000
0010
0000
1000
0002
0000
,
0013
0100
1000
0010
0000
0100
0001
0010
0001
0100
0010
1000
0000
0100
0020
0000
,
0031
0100
0010
1000
0100
0000
1000
0010
0100
0001
0010
0000
0002
0000
1003
0000
,
0001
0010
0001
0000
0101
0000
0001
0010
0001
0100
0000
0100
0010
0000
1000
0001
,
1000
0100
1000
0000
1010
0000
1000
0100
0010
0100
0000
0100
1000
0010
0100
0001
,
0010
0001
0100
0010
1000
0000
0010
1000
0001
0100
0000
0001
0010
0000
0001
0000
,
1000
0010
0100
0001
0000
0010
0100
0000
0110
0000
1000
0001
0010
0001
0100
0000
,
0010
1000
0010
1000
0100
0000
0010
0001
0010
0001
0100
0010
0000
0100
0001
1000
,
0001
0010
0001
0010
0100
0000
1000
0010
1000
0010
0100
0001
0000
1000
0100
0010
,
0001
0000
0100
0010
0100
0010
0100
0000
1000
0000
0100
0010
0100
0010
0100
0000
,
0001
0000
0010
0000
0010
0000
1000
0000
0001
0100
0100
1000
0001
0100
0010
0000
,
2001
3100
1002
0013
,
0001
1000
1001
0010
0110
0010
1001
0000
,
1200
0000
0310
0100
0012
0000
1003
0000
,
0101
0101
0101
1000
1020
0000
0130
0001
,
2000
0000
0000
3100
0010
0000
0001
0000
0200
0000
0000
0310
1000
0000
0001
0000
,
0020
0000
0000
0130
0010
0000
0001
0000
0100
0000
1000
0000
0110
0000
0000
0000
,
1002
0000
0013
0011
0201
0000
0310
1010
,
1001
0110
1001
1000
0200
0000
0000
0000
,
0310
0001
1000
0000
0010
1000
0001
0100
,
0001
0010
0100
0000
1000
0010
0001
0010
,
0100
0001
1000
0001
0002
0000
0013
0000
,
0100
0000
1000
0000
0100
0000
0001
0000
0100
0000
0010
0000
0001
0000
0100
0000
0010
0000
1000
0000
0000
0001
0000
0000
,
1000
0000
0010
0000
0200
0000
0010
0000
0301
0010
0100
1000
0001
0000
0010
0001
,
0100
0000
0010
0000
2000
0000
0100
0000
3001
1000
0010
0100
0001
0000
0010
0000
,
1000
0000
0001
0000
0100
0000
1000
0000
0010
0100
0001
0100
0010
1000
0001
0000
,
1000
0100
0000
0000
0001
0010
1000
0010
0100
0010
0100
0100
0010
0000
0010
0000
,
2002
3003
0202
0303
2002
3003
2200
3300
,
1001
0010
0110
0100
1001
0001
1100
0001
,
0202
0303
1010
1100
0022
0033
0101
0011
,
1001
0110
1001
1100
0011
0100
2002
3003
,
2000
0000
0000
3100
0010
0000
0100
0000
0002
0000
0000
0103
0010
0000
0100
0000
,
2000
0000
0000
3010
0100
0000
0010
0000
0001
0000
0010
0000
0202
0000
0303
0000
,
2002
3003
1100
0110
0022
0033
0101
0110
,
1010
0000
0101
0000
1000
0001
0100
0000
1000
0000
0100
0000
0001
0000
0010
0000
,
0200
0000
2300
3020
0032
0000
0023
2030
,
3002
0000
0000
0000
0013
0000
1000
0000
0010
0000
0001
0100
0020
0000
1030
0000
,
0002
0000
2003
3200
0302
0203
2300
3002
,
0203
0000
0000
0000
0310
0000
1000
0000
1001
0000
0100
0010
0100
0000
0110
0000
,
2002
0000
3003
0000
2200
3300
0110
0000
0022
0000
0033
0000
0202
0303
0110
0000
,
1000
0000
0000
0100
0000
0000
0001
0000
0000
0000
0100
0000
1000
0000
0000
0000
1001
0000
0000
0000
0001
0000
0100
0000
2000
0000
0000
0000
3100
0000
0000
0000
,
0220
0000
0330
0000
0202
0303
0110
0000
1010
0000
2002
3003
1100
0000
1001
0000
,
0022
0000
0033
0000
0001
0010
0100
0000
1000
0000
0010
0000
0001
0000
0110
0000
;

//---------------dance-double - t7r----------------
#NOTES:
     dance-double:
     t7r:
     Easy:
     5:
     :
00000000
00000000
00000000
00000000
,
00000000
00000000
00000000
00000000
,
00000000
00000000
00000000
00000000
,
00000000
00000000
00000000
00000000
,
00000000
00000000
00000000
00000000
,
02000000
10000000
00100000
03010000
,
10000000
01000000
00010000
00001000
,
00000200
00001000
00000010
00000301
,
00000020
00000000
00000200
00000330
,
00000010
00000000
00001001
00000000
,
00000100
00000000
00011000
00000000
,
02000000
00000000
03100000
10000000
,
00020000
00000000
00130000
00001000
,
00010000
00000000
00001000
00000000
,
00000100
00000000
00000001
00000000
,
00000020
00000000
00000130
00000000
,
00010000
00010000
00001000
00200000
,
00320000
00030000
20000000
30000000
,
01000000
01000000
00010000
00001000
,
00020000
00030000
00002000
00003000
,
00000100
00000100
00000001
00001000
,
00000002
00000003
00000020
00000030
,
00002000
00003000
00020000
00030000
,
00200000
00300000
20000000
30000000
,
01000000
01000000
00200000
00000000
,
00301000
00000000
00000000
00000000
,
00010000
00000000
00000000
00000000
,
01000000
00000000
00000000
00000000
,
10000000
10000000
00010000
00000000
,
20000000
00000000
30100000
00000000
,
00020000
00000000
00031000
00000000
,
00000020
00000000
00000130
00000000
,
00000010
00000001
00001000
00000200
,
00020300
00030000
00002000
00003000
,
00010000
00010000
00010000
00000000
01000000
00000000
01100000
00000000
,
20000000
30000000
00200000
00300000
,
00010000
00010000
00010000
00000000
00001000
00000000
00011000
00000000
,
00001000
00000010
00000001
00000000
,
00000100
00001000
00010000
00001000
,
00022000
00033000
02200000
03300000
,
10000000
10000000
10000000
00000000
01000000
00000000
00100000
00000000
,
00002000
00013000
00002000
00013000
,
00001000
00000100
00000001
00000000
,
00000020
00000130
00000020
00000130
,
00000010
00000001
00001000
00000000
,
00000200
00010300
00000200
00010300
,
00001000
00010000
01000000
00000000
,
20000000
30100000
20000000
30100000
,
00010000
00000000
00001000
00001000
00010000
00000000
00011000
00000000
;

//---------------dance-double - t7r----------------
#NOTES:
     dance-double:
     t7r:
     Medium:
     6:
     :
00000000
00000000
00000000
00000000
,
00000000
00000000
00000000
00000000
,
00000000
00000000
00000000
00000000
,
00000000
00000000
00000000
00000000
,
00000000
00000000
00000000
00000000
,
00100000
00010000
10000000
00020000
,
10030000
01000000
00010000
00002000
,
00013000
00001000
00000100
00000010
,
00002000
00000000
00000000
00003001
,
00000010
00000000
00000001
00000000
00000100
00000010
00001010
00000000
,
00001000
00000000
00000100
00000000
00010000
00001000
00011000
00000000
,
00020000
00000000
01030000
00000000
10000000
00100000
01000000
00000000
,
00200000
00000000
10300000
00000000
00010000
01000000
00001000
00000000
,
00010000
00010000
00001000
00000000
,
00000100
00000100
00000001
00000000
,
00000020
00000100
00000000
00000031
,
00000100
00000000
00001000
00010000
00002000
00000000
00013000
00000000
,
00002000
00003100
00002000
00013000
,
00001000
00001000
00001000
00000000
00010000
00000000
00011000
00000000
,
00020000
01030000
00020000
00031000
,
00010000
00010000
00010000
00000000
00001000
00000000
00011000
00000000
,
00002000
00013000
02000000
13000000
,
00200000
00000000
01300000
00001000
00010000
00000000
00011000
00000000
,
00002000
00003010
00002000
00013000
,
00001000
00001000
00001000
00000000
00020000
00000000
00031000
00000000
,
00010000
00000000
00100000
00000000
,
10000000
00000000
01000000
00000000
,
00100000
00000000
00000000
00000000
,
00001000
00001000
00010000
00000000
,
00001000
00000100
00000001
00000000
,
00000010
00000100
00010000
00000000
,
00002000
00000000
00000000
00013000
00001000
00000000
00000000
00000000
,
00010000
01000000
10000000
00200000
,
02300000
03002000
00023000
00030200
,
00010300
00010000
00010000
00000000
00001000
00000000
00011000
00000000
,
00000020
00020030
00032000
00203000
,
00301000
00001000
00001000
00000000
00010000
00000000
00011000
00000000
,
00010000
01000000
10000000
00100000
,
00010000
00001000
00000100
00000001
,
00000020
00000000
00000130
00010000
00002000
00000000
00013000
00000000
,
00001000
00001000
00001000
00000000
00010000
00000000
00011000
00000000
,
00020000
00000000
00130000
10000000
00000000
00000000
00010000
00100000
,
00000000
00000000
00001000
00010000
00001000
00000000
00000010
00000000
,
00000000
00000000
00000001
00000100
00000000
00000000
00000010
00001000
,
00000000
00000000
00000001
00000010
00000100
00000000
00010000
00000000
,
00000000
00000000
00002000
00013000
00000000
00000000
00020000
00031000
,
00000000
00000000
00010000
00000000
01000000
10000000
00100000
00000000
,
00000000
00000000
20000000
30010000
00000000
00000000
00002000
00003001
,
00000000
00000000
00000100
00000000
00001000
00010000
00001000
01000000
;

//---------------dance-double - t7r----------------
#NOTES:
     dance-double:
     t7r:
     Hard:
     8:
     :
00000000
00000000
00000000
00000000
,
00000000
00000000
00000000
00000000
,
00000000
00000000
00000000
00000000
,
00000000
00000000
00000000
00000000
,
00000000
00000000
00000000
00000000
,
00000200
00000000
00010300
00000000
00001000
01000000
00020000
00000000
,
20030000
00000000
31000000
00000000
00100000
00001000
00020000
00000000
,
00030020
00000000
00001030
00000000
00000010
00000100
00000001
00000020
,
00001000
00000100
00000031
00002000
,
00003001
00000000
00000100
00000000
00000010
00001000
00000100
00000000
,
00010000
00000000
00001000
00000000
01000000
00010000
00100000
00000000
,
00020000
00000000
01030000
00000000
00100000
10000000
00010000
00000000
,
20000000
00000000
31000000
00000000
00010000
00001000
00010000
00000000
,
00012000
01000000
01000000
00013000
,
00020000
00000100
00000100
00031000
,
00200000
00310000
10000000
00100000
,
00020000
00032000
00023000
00032000
00023000
00000000
00031000
00000000
,
00012000
00003100
00001002
00000013
,
00000100
00000100
00000100
00010000
00002000
00000000
00013000
00000000
,
00021000
00000000
01030000
10000000
20010000
00000000
30100000
00000000
,
01000000
01000000
01000000
00001000
00020000
00000000
00031000
00000000
,
00010000
00000000
00000000
00001000
00000000
00000000
00000100
00000000
00000000
00000001
00000000
00000000
00000010
00000000
00000000
00001000
,
00000000
00000000
00010000
00000000
00000000
00100000
00000000
00000000
10000000
00000000
00010000
00000000
10010000
00000000
00000000
00000000
,
21000000
00000000
31000000
00020000
00032000
00000000
00013000
00000000
,
00011000
00011000
00011000
00000000
00001000
00000100
00000001
00001000
,
00000002
00000000
00000000
00000013
00000010
00000000
00000001
00000000
,
00002000
00000000
00000000
00000000
00003100
00010000
00001000
00010000
,
01000000
10000000
00200000
01000000
01300000
00000000
00000000
00000000
,
00100000
10000000
00010000
00001000
,
00000002
00000100
00000000
00001003
00001000
00000001
00000010
00000000
,
00002000
01000000
00000000
00013000
00010000
00100000
01000000
00100000
,
10000000
01000000
00010000
00001000
00000200
00000000
00000310
00000000
,
00001000
00000100
01000000
00012000
,
01003000
20010000
30100000
10020000
,
10030000
10000000
10000000
01000000
00020000
00000000
00031000
00000000
,
00000120
00000000
00001030
00000002
00000023
00000000
00000130
00000000
,
00000010
00000011
00000011
00000001
00000200
00000000
00000320
00000000
,
00001030
00000000
00000000
00000100
00000000
00000000
00010000
00000000
00000000
00001000
00000000
00000000
00010000
00000000
00000000
00100000
,
00000000
00000000
10000000
00000000
00000000
01000000
00000000
00000000
00010000
00000000
00001000
00000000
00011000
00000000
00000000
00000000
,
00002000
00000000
00003100
00000002
00002003
00000000
00003100
00000000
,
00010000
00010000
00010000
00001000
01000000
00010000
10010000
00000000
,
20000000
00000000
30100000
01000000
00020000
00000000
00130000
00001000
,
00020000
00000000
00030010
00001000
00000001
00000010
00000100
00001000
,
00000002
00000000
00000103
00000010
00001000
00000100
00010000
00001000
,
02000000
00000000
00000000
00000000
03010000
00000000
10000000
00000000
01000000
00000000
00100000
00001000
00010000
00000000
00001000
00000000
,
00012000
00000000
00013000
01000000
20000000
00000000
30100000
01000000
,
00020000
00000000
00000000
00000000
00130000
00000000
00001000
00000000
00010000
00000000
00001000
00000010
00000002
00000000
00000103
00000000
,
00000020
00000000
00000031
00000020
00001030
00000200
00020300
00032000
,
00023000
00000000
00000000
00000000
00130000
00000000
10000000
00000000
01000000
00000000
00010000
00001000
00010000
00000000
00010000
00000000
;

//---------------dance-double - t7r----------------
#NOTES:
     dance-double:
     t7r:
     Challenge:
     13:
     :
00000000
00000000
00000000
00000000
,
00000000
00000000
00000000
00000000
,
00000000
00000000
00000000
00000000
,
00000000
00000000
00000000
00000000
,
00000000
00000000
00000000
00000000
,
10000000
01000000
00100000
00010000
00000000
10000000
00010000
00000000
01000000
00001000
00010000
00001000
00000000
00010000
00002000
00000000
,
00003100
00000001
00000010
00000100
00000000
00000010
00000001
00000000
00000100
00000001
00000010
00001000
00000000
00010000
00200000
00000000
,
10300000
01000000
00100000
00010000
00000000
10000000
00100000
00000000
01000000
00010000
00100000
00001000
00000000
00010000
00002000
00000000
,
00003010
00000001
00001000
00000000
00000001
00000000
00000100
00001000
00020000
00000100
00000000
00000000
00032000
00000000
01000000
00000000
,
00013000
00001000
01000000
00000000
00100000
00000000
01000000
00010000
10000000
01000000
00000000
01000000
00100000
00000000
01000000
10000000
,
00010000
01000000
00001000
00000000
00010000
00000000
00001000
00010000
00000100
00001000
00000000
00001000
00000001
00000000
00000100
00000010
,
00001000
00000100
00000010
00000002
00000000
00000000
00000103
00000001
00001000
00000020
00000000
00001030
00000100
00010000
00001000
00000000
,
00010000
01000000
10000000
00010000
00000000
10000000
00000000
00100000
00000000
00010000
00000000
00001000
01000000
00010000
10000000
00000000
,
01000000
00100000
00010000
00000000
00002000
00000000
00003100
00000000
00010000
00001000
00000000
01000000
00000000
00001000
00010000
00001000
,
00000010
00000100
00001000
00000000
00020000
00000000
00130000
00001000
00010000
00000000
00000010
00001000
00000000
00000001
00000100
00000010
,
00001000
00000000
00000100
00000010
00000100
00000010
00000100
00000000
00000010
00000000
00000001
00000100
00001000
00010000
00001000
00000000
,
00010000
00000000
00010000
00000000
00001000
00000000
00001000
00000000
00010000
01000000
10000000
00100000
01000000
00010000
10000000
00000000
,
12000000
03100000
00102000
00013000
,
00000001
00001000
00010000
10000000
00100000
00000000
10010000
00000000
,
12000000
00000000
03010000
00002000
00003200
00000000
00000310
00000000
,
00000101
00000101
00000101
00000001
00000020
00000000
00002030
00000000
,
00023000
00000000
00000000
00130000
10000000
00000000
01000000
00000000
00200000
00000000
00000000
00301000
00010000
00000000
00001000
00000000
,
00000020
00000000
00000000
00000031
00001000
00000000
00000001
00000000
00000100
00000000
00001000
00000000
00011000
00000000
00000000
00000000
,
00201000
00000000
00310000
10010000
20100000
00000000
30010000
00000000
,
10000000
01000000
01100000
00100000
00002000
00000000
00000000
00000000
,
00013000
00000100
00001000
00000000
00000001
00000100
00000010
00001000
,
00010000
00100000
01000000
00000000
10000000
00100000
01000000
00010000
,
00001000
00000010
00000001
00002000
00003200
00000000
00000310
00000000
,
00001000
00000000
00000100
00000000
00010000
00000000
00001000
00000000
00010000
00000000
01000000
00000000
00100000
00000000
00001000
00000000
00010000
00000000
00000010
00000000
00000000
00000100
00000000
00000000
,
00000001
00000000
00000010
00000000
00000100
00000000
00001000
00000000
00010000
00100000
00010000
00000000
10000000
00000000
00010000
00000000
,
10000000
00000000
00100000
00000000
01000000
00000000
00010000
00000000
00001000
00000010
00001000
00000000
00000001
00000000
00001000
00000000
,
00000100
00000000
00000001
00000000
00001000
00000000
00000010
00000100
00001000
00000000
00000001
00000000
00000100
00000000
00001000
00000000
,
00010000
00100000
00000000
00000000
10000000
00010000
00000000
00000000
00001000
00000001
00000000
00000000
00001001
00000000
00000000
00000000
,
00000202
00000303
00002002
00003003
00020200
00030300
20020000
30030000
,
10000000
00010000
00001000
00000001
00000010
00000000
00002002
00003003
,
00000202
00000303
00001010
00001200
00020300
00030000
00202000
00303000
,
01010000
01010000
01010000
00100000
10010000
01000000
00220000
00330000
,
20000000
00000000
00000000
31000000
00100000
00000000
00010000
00000000
00002000
00000000
00000000
00003010
00000100
00000000
00000001
00000000
,
00000020
00000000
00000000
00000130
00001000
00000000
00010000
00000000
01000000
00000000
00100000
00000000
20020000
00000000
30030000
00000000
,
20200000
00000000
30300000
00000000
01100000
00000000
01020000
00000000
00230000
00000000
00300000
00000000
00011000
00000000
00010000
00000100
,
00001000
00000000
00001001
00000000
00000001
00000100
00000010
00000000
00001000
00000000
00000100
00000000
00010000
00000000
00001000
00000000
,
02000000
00000000
10000000
03200000
00010000
00000000
01300000
01000000
,
00010000
00000000
10000000
01000000
00100000
00000000
00001000
00000000
00011000
00000000
00001000
00000100
00000010
00000000
00001000
00000100
,
00000020
00000001
00000130
00001100
00000100
00010100
00011000
01001000
,
02000000
00000000
10000000
00000000
03100000
00000000
01100000
00000000
01010000
00000000
10000000
01000000
00200000
00000000
01300000
10000000
,
00020000
00000000
20030000
30020000
00032000
00000000
00003002
00002003
,
00013000
00000000
00000000
00100000
00000000
00000000
01000000
00000000
00000000
00000000
00010000
00000000
00001000
00000000
00000000
00000000
00000200
00000000
00000000
00000000
00000310
00000000
00000100
00000000
00000001
00000000
00000010
00000000
00000100
00000000
00001000
00000000
,
00000002
00000000
00002003
00023000
20030000
30020000
00032000
00003002
,
00000203
00000000
00000310
00001000
00000100
00010000
00001000
00000000
00011000
00000000
00100000
00000000
00010000
00000000
10010000
00000000
;
