#TITLE:Under The Shades Of The Divine Ray;
#ARTIST:BEMANI Sound Team "asaki";
#ARTISTTRANSLIT:asaki;
#BANNER:Under The Shades Of The Divine Ray.png;
#BACKGROUND:Under The Shades Of The Divine Ray-bg.png;
#JACKET:Under The Shades Of The Divine Ray-jacket.png;
#CDTITLE:./CDTITLES/GITADORA.PNG;
#MUSIC:Under The Shades Of The Divine Ray.ogg;
#SAMPLESTART:36.093;
#SAMPLELENGTH:15;
#BPMS:0=192;
#BGCHANGES:0=../../../BGAs/tm0007.mp4=1=0=0=1=====;

//---------------dance-single - t7r----------------
#NOTES:
     dance-single:
     t7r:
     Beginner:
     5:
     :
0000
0000
0000
0000
,
0000
0000
0000
0000
,
0000
0000
0000
0000
,
0000
0000
0000
0000
,
0000
0000
0000
0000
,
0000
0000
0000
0000
,
0000
0000
0000
0000
,
1000
0000
0000
0000
,
1000
0000
0000
0000
,
0001
0000
0000
0000
,
0001
0000
0000
0000
,
0100
0000
0000
0000
,
0000
0000
0000
0000
,
0010
0000
0000
0000
,
0010
0000
0010
0000
,
0010
0000
0000
0000
,
1000
0000
0000
0000
,
0001
0000
0000
0000
,
0001
0000
0001
0000
,
0001
0000
0000
0000
,
0010
0000
0000
0000
,
0000
0100
0000
0100
,
0100
0000
0000
0000
,
1000
0000
0000
0000
,
1000
0000
0000
0000
,
0010
0000
0000
0010
,
0010
0000
0010
0000
,
1000
0000
1000
0000
,
0001
0001
0001
0000
,
1000
0000
0000
0000
,
0100
0000
0000
0000
,
0010
0000
0010
0000
,
0001
0000
0000
0000
,
0100
0000
0000
0000
,
0010
0000
0000
0000
,
1000
0000
0001
0000
,
1000
0000
0000
0000
,
0001
0000
0000
0000
,
0010
0010
0010
0000
,
0100
0000
0000
0000
,
1000
0000
0001
0000
,
1000
0000
1000
0000
,
0001
0000
0001
0000
,
0100
0000
0100
0000
,
0010
0010
0010
0000
,
1001
0000
0000
0000
,
0000
0000
0000
0000
,
0000
0000
0000
0000
,
0000
0000
0000
0000
,
1000
0000
0000
0000
,
0001
0000
0000
0000
,
0100
0000
0000
0000
,
0010
0000
0010
0000
,
1000
0000
0000
0000
,
0000
0000
0000
0000
,
0001
0000
0000
0000
,
0001
0000
0000
0000
,
1000
0000
1000
0000
,
1000
0000
0000
0000
,
0001
0000
0001
0000
,
0100
0000
0100
0000
,
0100
0000
0000
0000
,
0010
0000
0000
0000
,
1000
0000
0000
0000
,
0100
0000
0100
0000
,
0100
0000
0000
0000
,
0000
0010
0000
0010
,
0010
0000
0000
0000
,
0001
0000
0001
0000
,
1000
0000
0000
0000
,
0010
0000
0010
0000
,
0010
0000
0010
0000
,
0100
0000
0100
0000
,
0001
0001
0001
0000
,
1000
0000
0000
0000
,
0000
0000
0000
0000
,
0100
0000
0000
0000
,
0010
0000
0000
0000
,
0001
0000
0000
0000
,
1000
0000
0000
0000
,
0001
0000
0000
0000
,
0100
0000
0000
0000
,
0010
0000
0000
0000
,
1000
0000
0000
0000
,
0000
0001
0000
0001
,
0001
0000
0001
0000
,
0000
1000
0000
1000
,
1000
0000
1000
0000
,
0000
0010
0000
0010
,
0010
0000
0010
0000
,
0000
0100
0000
0100
,
0100
0000
0100
0000
,
0001
0000
0000
1000
,
1000
0000
0000
0001
,
0001
0000
0010
0000
,
0100
0000
1000
0000
,
0001
0000
0001
0000
,
1000
0000
1000
0000
,
0010
0000
0010
0000
,
0100
0000
0100
0100
,
0000
0010
0000
0000
,
0010
0000
0000
0000
,
1000
0000
0000
0000
,
0001
0000
0000
0000
,
0000
0010
0000
0000
,
0000
0010
0000
0000
,
0000
0001
0000
1000
,
0000
0010
0000
0100
,
0000
0010
0000
0000
;

//---------------dance-single - t7r----------------
#NOTES:
     dance-single:
     t7r:
     Easy:
     12:
     :
0000
0000
0000
0000
,
0000
0000
0000
0000
,
0000
0000
0000
0000
,
0000
0000
0000
0000
,
0000
0000
0000
0000
,
0000
0000
0000
0000
,
0000
0000
0000
0000
,
0010
0000
1000
0100
0000
1000
0001
0000
,
0100
0001
0000
0100
0010
0000
1000
0000
,
0100
0000
1000
0010
0000
1000
0001
0000
,
0010
0001
0000
0010
0100
0000
1000
0000
,
0020
0000
0000
0000
,
1030
0001
1000
0001
1000
0001
1000
0001
,
2000
0000
0000
0000
0000
3001
0010
0001
,
1000
0010
0100
0001
,
1000
0100
0010
0000
0001
0100
0010
0000
,
1000
0100
0010
0001
2000
0000
3000
0000
,
0002
0000
0000
0000
0000
1003
0010
1000
,
0001
0010
0100
1000
,
0001
0100
0010
0000
1000
0100
0010
0000
,
0001
0100
0010
1000
0001
0000
0010
0001
,
1000
0000
0010
0100
0001
0100
0000
0020
,
0000
0130
0002
0000
0000
0000
1003
0100
,
0010
0001
0100
0000
0010
2000
0000
3100
,
0001
0100
1000
0010
,
0200
0000
0000
0000
0000
0301
0010
0000
,
0001
0100
0001
0000
1000
0010
1000
0000
,
0001
1001
0010
0110
,
1000
0100
0010
0001
0200
0000
0000
0000
,
0302
0010
1000
0203
,
0310
0000
1000
0002
0000
0000
0023
0000
,
0230
0000
0000
1300
0020
0000
0000
0130
,
0002
0000
0000
0013
0100
1000
0010
0000
,
0200
0000
0000
0320
0000
0000
2030
0000
,
3200
0301
0100
0020
,
0032
0000
0103
0020
0000
0000
2030
0000
,
3001
1000
0001
1000
0001
0000
0110
0000
,
2000
0100
0001
3010
,
1010
0000
0101
0000
1100
0000
0001
0010
,
0002
0000
0103
0020
0000
1030
0020
0000
,
1030
0100
1000
0001
0100
0001
2000
0000
,
3010
1001
0100
1001
,
0010
0101
0010
1100
,
1000
0100
0010
0000
0001
0100
0010
0000
,
1000
0100
0010
0001
0200
0000
0000
0000
,
0320
0000
0000
0000
,
0000
0000
0000
0000
,
0000
0000
0000
0000
,
0030
0000
0000
0000
,
1000
0000
0000
1000
0000
0000
1000
0000
0000
0001
0000
0000
0001
0000
0001
0000
,
0100
0000
0000
0100
0000
0000
0100
0000
0000
0010
0000
0000
0010
0000
0010
0000
,
1000
0100
0100
0000
1000
0010
0100
0001
,
0010
0100
0100
0000
0010
0001
1000
0001
,
0100
0000
1000
0100
0000
0100
0010
0000
,
0100
0100
0001
0000
0010
0000
1001
0000
,
0002
0000
1003
0100
0000
0100
0001
0000
,
0100
0100
0010
0000
2002
0000
3003
0000
,
0001
0100
0001
1000
0100
1000
0001
0010
,
0001
1000
0010
1000
0001
0010
0100
2000
,
0000
3010
0100
0000
0010
1000
0001
1000
,
0100
0100
0010
0000
0001
0001
1000
0001
,
0020
0000
0000
0030
,
0001
0100
0101
1100
,
1000
0100
1100
0011
,
0001
0100
0010
1000
0001
0100
0010
0010
,
2000
3002
2003
3002
,
1003
0000
0100
0001
0100
0010
0000
0002
,
0000
0103
0010
1000
0002
0000
1003
0000
,
0001
0010
0100
0020
0000
0130
0000
1000
,
0010
0100
0001
0200
0000
0310
1000
0000
,
0001
0200
0000
1300
0200
0000
0310
0200
,
0000
0301
0200
0000
0310
0000
0110
0000
,
1000
0011
0100
1010
,
0001
0100
0010
1000
0002
0000
0003
0000
,
0020
0000
0000
0000
,
0000
0000
0000
0000
0030
0000
0000
0001
,
0001
0000
0000
0000
,
1000
0100
1001
0000
,
2000
0000
0000
3010
0100
0000
0000
0000
,
0001
0000
0010
0000
0100
0010
0001
0000
,
0100
0000
1000
0100
0000
0010
0100
0000
,
0001
0100
0000
0001
1000
0000
1001
0000
,
0001
0010
0001
0000
0010
1000
0010
0000
,
0001
0000
0000
0100
0000
0000
0100
0000
0010
0000
0000
1000
0000
0000
1000
0000
,
0002
0000
0010
0000
1003
0010
0100
0001
,
1000
0100
0010
0001
1000
0010
0100
0001
,
2000
0000
0010
0000
3001
0100
0010
2000
,
0100
0000
3001
0010
0100
1000
0100
0010
,
0002
0000
0100
0000
1003
0000
0010
0100
,
0100
0000
0010
0002
0000
0013
1000
0000
,
0200
0000
0301
0200
0000
1300
0020
0000
,
0001
0000
0100
0000
2030
0000
0000
3001
,
0200
1000
0000
0010
0000
0301
0010
0000
,
0200
0001
0000
0010
0000
1300
0010
0000
,
0100
0000
0001
0020
0000
0031
2000
0000
,
3100
0100
0100
0010
0010
0010
0001
0000
,
1000
1010
0001
0011
,
0001
0100
1000
0000
0100
0010
0100
0000
,
0010
1010
0100
0011
,
1000
0000
0001
0000
1000
0000
0001
0000
0100
0000
0000
0010
0000
0000
0220
0000
,
0000
0330
1000
0000
1010
0000
1001
0000
,
1100
0000
1001
0001
1000
0000
0001
0010
,
0001
1000
0001
0011
,
1001
0000
0101
0000
0100
0010
1000
1000
,
0001
0001
1000
0100
0000
1100
0000
0100
,
0010
0000
0001
0001
0100
0010
0000
0100
,
0000
0100
0001
1000
0100
0000
1000
1010
,
0000
1000
0100
0010
0001
0100
0010
1000
,
0001
1000
0020
0000
0000
0000
0000
0000
,
0000
0000
0000
0000
,
0000
0030
0000
0000
;

//---------------dance-single - t7r----------------
#NOTES:
     dance-single:
     t7r:
     Medium:
     15:
     :
0000
0000
0000
0000
,
0000
0000
0000
0000
,
0000
0000
0000
0000
,
0000
0000
0000
0000
,
0000
0000
0000
0000
,
0000
0000
0000
0000
,
0000
0000
0000
0000
,
1000
0100
0100
0010
0100
0100
1000
0100
,
0100
0010
0100
0100
1000
0000
1001
0000
,
0001
0100
0100
0010
0100
0100
0001
0100
,
0100
0010
0100
0100
0001
0000
1001
0000
,
0220
0000
0000
0330
,
1000
0000
0100
0000
0010
0000
0000
0000
0001
0000
1000
0000
1000
0000
0001
1000
,
0002
0000
0010
0000
1003
0100
0010
0001
,
0100
0010
0010
0100
0100
0001
0020
0000
,
0031
0100
1000
0100
0001
0010
0100
0010
,
0001
1000
0001
0000
1000
0000
0001
0000
0012
0000
0000
0000
0000
0000
1003
0001
,
2000
0000
0010
0000
3001
0100
0010
1000
,
0100
0010
0010
0100
0100
1000
0020
0000
,
1030
0100
0001
0100
1000
0010
0001
0010
,
1000
0000
0100
1000
0001
0000
0000
0000
0100
0000
0000
0000
0110
0000
0000
0000
,
1001
0000
0000
0000
0001
0010
0001
0000
0010
0000
0100
0000
0000
0000
2000
0000
,
0000
3010
0002
0000
0000
0000
0013
0100
,
0001
0010
1000
0001
0100
1000
0001
0100
,
0010
0100
0100
0001
0001
1000
1000
0001
,
0200
1000
0000
0010
0000
0301
0010
0100
,
1000
0010
0001
1000
0100
0001
1000
0001
,
1000
0100
1100
0000
0001
0010
0011
0000
,
0001
0000
1000
0010
0100
0000
0001
1000
0002
0000
0000
0000
0000
0000
0000
0000
,
2003
0010
0000
0001
0000
3100
0020
0000
,
0032
0100
0000
2003
0000
3010
0200
0000
,
0302
0010
0000
1003
2000
0100
0000
3001
,
0002
0000
0100
0000
0000
0000
1003
0000
0010
0000
0100
0010
0100
0000
0001
0000
,
0020
0000
0130
2000
0000
3010
0200
0000
,
2300
3100
0002
0013
,
0100
1000
0010
0100
0001
0010
0100
0000
,
1000
0000
0010
1000
0010
0000
0000
0000
0100
0000
0001
0010
0001
0000
1000
0001
,
2000
0100
0000
0001
0000
3010
0100
1000
,
0100
0001
0011
0000
1001
0001
0100
0010
,
2000
0100
0000
3002
0000
0013
0200
0000
,
1300
0100
0001
1000
0010
0001
0200
0000
,
1300
0100
1000
0100
0010
0100
0102
0000
,
0013
1000
0010
1000
0001
0100
0120
0000
,
1030
0010
1000
0010
0001
1000
2001
0000
,
3010
0000
0100
0001
1000
0000
0100
0000
0220
0000
0000
0000
0330
0000
0000
0000
,
0021
0001
0100
0100
,
1000
0100
0100
0001
,
0100
0100
1000
1000
,
0130
0000
0000
0000
0110
0000
0000
0000
0001
0000
1000
0000
1000
0000
0001
1000
,
0001
0000
0000
0100
0000
0000
0001
0000
0000
0001
0000
0000
1001
0000
1000
0000
,
0100
0000
0000
1000
0000
0000
0001
0000
0000
0001
0000
0000
1001
0000
1000
0000
,
0001
0010
0011
0000
1000
0010
0100
0001
,
1000
0000
0100
0000
1100
0000
0000
0000
0001
0000
1000
0001
1000
0000
0001
1000
,
0002
0000
0103
2000
0000
3100
0010
0000
,
0100
0100
0001
0100
0010
0010
0100
0001
,
2000
0000
3100
0002
0000
0103
0010
0001
,
0100
0010
1000
0000
0220
0000
0330
0000
,
1000
0100
0010
1000
0001
0100
0010
0001
,
1000
0010
0100
1000
0001
0010
0100
0002
,
0000
1003
0100
0100
0010
0010
0001
0001
,
1000
0100
0100
0001
1000
0010
0010
0001
,
2000
0000
0000
0000
0000
0000
0000
0000
0000
0000
3001
1000
0001
0000
0000
0000
,
1000
0000
0000
0100
0010
0000
0100
0000
1000
0000
0000
0001
0100
0000
0001
0000
,
0010
0000
0000
0001
0100
0000
1000
0000
0100
0000
0000
0010
0100
0000
0001
0000
,
1000
1000
0100
0100
0010
0010
0001
0001
,
2000
3002
2003
3002
,
0103
0000
1000
0100
0010
0100
0000
0002
,
0000
0013
0100
1000
0001
0010
0001
0000
,
0010
1000
0010
0200
0000
1300
0010
0100
,
0001
0100
0010
0002
0000
0013
1000
0000
,
0001
0000
0010
0000
0001
1000
0001
0000
1000
0000
0010
0000
1000
0001
1000
0000
,
0001
0000
0100
0000
0001
1000
0001
0000
1000
0000
0100
0000
1000
0001
1000
0000
,
0001
0100
0100
1000
0001
0010
0010
1000
,
0010
0000
0100
0001
1000
0000
0001
0010
0002
0000
0000
0000
0000
0000
0000
0000
,
2003
0000
0000
0000
,
0000
0000
0000
0000
3000
0000
0000
0001
,
0001
0000
0000
0000
,
1000
0000
0100
1000
1001
0001
0100
0000
,
0020
0000
0000
0130
0001
0100
0010
0100
,
1000
0100
0020
0000
1030
0100
0010
0000
,
0002
0000
1003
1100
0100
1000
0001
0000
,
1000
1002
0000
1003
0010
0010
0010
0000
,
0100
0001
0100
0100
0010
1000
0100
0100
,
0010
0000
0000
0011
0000
0000
0001
0000
1000
0000
0001
1000
0010
0000
1000
0001
,
2000
0000
3100
0010
0100
1000
0010
0100
,
1000
0100
0010
0001
1000
0100
0001
0010
,
0002
0000
0100
0000
1003
0100
0010
0020
,
1000
0000
0130
1000
1000
0001
0101
0000
,
1002
0000
0010
0000
1003
0000
0100
0010
,
0010
0000
0100
0002
0000
0103
0020
0000
,
0230
0000
1300
0020
0000
0031
0020
0000
,
0130
0000
0001
1000
0100
0000
1000
0000
0001
0000
0010
0100
1000
0000
0001
0000
,
2000
0100
0000
0001
0000
3010
0010
0100
,
0002
0010
0000
1003
1000
0100
0010
0001
,
0100
0000
1000
0200
0000
0301
0020
0000
,
0031
0000
1000
0001
1000
0000
0100
0000
1000
0010
1000
0000
0002
0000
0000
0000
,
1003
0100
1100
0000
1000
0001
1001
0000
,
0001
0100
0101
0000
0001
0010
0011
0000
,
0001
0100
0110
0000
1000
0100
0110
0000
,
0001
0000
1000
0010
0100
0000
0001
0010
0100
0000
0000
0110
0000
0000
2002
0000
,
0000
0000
3003
0000
1000
0000
0100
0010
0100
0000
1000
0000
0001
0000
1000
0000
,
0100
0000
0001
0000
0100
0000
2000
0000
3020
0000
0130
0000
0001
0100
0001
0000
,
1000
0001
1001
0000
0001
0200
0320
0031
,
1000
0000
0100
0000
0010
0000
1000
0100
1000
0000
0001
0010
0001
0000
1000
0001
,
0100
0000
0001
1000
0100
0000
0100
0000
0000
0000
1100
0000
0000
0000
0100
0000
,
0010
0000
0000
0000
0100
0010
0100
0000
0001
0000
0001
0000
0000
0000
0100
0000
,
0000
0100
1100
0000
1000
0000
0010
0110
,
0000
0000
0001
0000
1000
0000
0100
0000
0100
0000
0001
0000
1000
0010
0100
0000
,
0001
0010
0100
0000
0220
0000
0000
0000
0000
0000
0000
0000
0000
0000
0000
0000
,
0000
0000
0000
0000
,
0000
0330
0000
0000
;

//---------------dance-single - t7r----------------
#NOTES:
     dance-single:
     t7r:
     Hard:
     18:
     :
0000
0000
0000
0000
,
0000
0000
0000
0000
,
0000
0000
0000
0000
,
0000
0000
0000
0000
,
0000
0000
0000
0000
,
0000
0000
0000
0000
,
0000
0000
0000
0000
,
1000
0000
0100
1000
0100
0000
1000
0000
0001
0100
0001
0000
1000
0000
0001
1000
,
0001
0000
0010
0000
0001
0100
0001
0000
0010
0100
1000
0000
0010
0100
0001
0000
,
1000
0000
0010
0100
0010
0000
1000
0000
0001
0010
0001
0000
1000
0000
0100
1000
,
0100
0000
0010
0000
0001
0100
0001
0000
1000
0010
0100
0000
0001
1000
0010
0000
,
0220
0000
0000
0330
,
1000
0000
0010
0100
0001
0000
0010
0100
1000
0000
0001
1000
0001
1000
0001
1000
,
0002
0100
0000
1000
0000
0013
0001
1000
,
0001
0000
0100
0010
1000
0000
0100
0010
0001
0000
0100
0010
1000
0000
0001
0000
,
1000
0100
0010
1000
0010
0001
0100
0010
,
1000
0100
0010
0001
0100
0010
1000
0001
0020
0000
0000
0000
0031
0000
1000
0001
,
2000
0100
0000
0001
0000
3010
1000
0001
,
1000
0000
0100
0010
0001
0000
0100
0010
1000
0000
0100
0010
0001
0000
1000
0000
,
0001
0100
0010
0001
0010
1000
0100
0010
,
0001
0100
0010
1000
0100
0010
0001
1000
0010
0000
0100
0001
0010
0100
1000
0001
,
1000
0000
0000
0000
0010
0001
0010
0000
0100
0000
0001
0000
0000
0000
0020
0000
,
0000
1030
0020
0000
0000
0000
0031
0100
,
1000
0100
0010
0100
0001
0010
0100
0010
,
0001
0100
0001
0100
0010
1000
0010
1000
0001
0010
0001
0010
0100
1000
0100
1000
,
0020
0000
1000
0001
0000
0000
0001
1000
0030
0000
1000
0000
0100
0000
0010
0000
,
0100
0000
1000
0000
0010
0100
0010
0000
0001
0000
0010
1000
0100
0010
0001
1000
,
0001
0000
1000
0100
1000
0000
0001
0010
0001
0000
1000
0010
1000
0000
0001
0100
,
0010
0000
1000
0000
0100
0000
0010
0000
0001
0000
0100
0000
0010
0000
0100
0000
0001
1000
0000
0000
0000
0000
0000
0000
0000
0000
0000
0000
0000
0000
0000
0000
,
0002
0000
0100
0000
0000
0000
1000
0000
0000
0000
0013
0000
0001
0000
0100
0010
,
2000
0100
0000
3002
0000
0013
0200
0000
,
2300
0000
0010
0000
0000
0000
3001
0100
0002
0000
0010
0000
0000
0000
1003
0100
,
2000
0000
0010
0000
0000
0000
3001
0000
0100
0000
0010
1000
0001
0000
1000
0000
,
0200
0010
0000
0302
0000
0103
1000
0010
,
0100
0000
1000
0000
1200
0000
0000
0000
0301
0000
0010
0000
0001
1000
0001
1000
,
0001
0000
1000
0100
1000
0000
0001
0100
0001
0100
0010
0100
0001
0000
1000
0100
,
0010
0100
0010
0100
1000
0000
0001
0100
0010
1000
0001
0010
0100
1000
0001
0100
,
0020
0000
1000
0001
0000
0000
0001
1000
0000
0000
1000
0001
0030
0000
0001
0100
,
0010
0000
1000
0100
0010
0000
0001
0100
0010
0000
1000
0000
0100
0010
0001
1000
,
0010
0000
0100
0001
0100
0000
0010
0000
0100
0000
1000
0100
1000
0000
0100
0000
,
0001
0010
0001
0010
0100
0000
1000
0010
1000
0010
0100
0000
0020
0000
0000
0000
,
1030
0100
0010
0001
0100
0001
1000
0000
0001
0010
0100
1000
0010
1000
0001
0000
,
1000
0010
0100
0001
0010
0001
1000
0000
0100
0010
0001
0100
0010
1000
0001
0000
,
1000
0100
1000
0100
0010
0100
0010
0100
0010
0001
0010
0001
1000
0010
1000
0010
,
0100
0000
0001
0000
0010
0000
0100
0000
1000
0000
0100
0000
0010
0000
0001
0000
1000
0010
0000
0000
0000
0000
0000
0000
0000
0000
0000
0000
1000
0000
0001
0000
,
0200
0000
0001
1000
0000
0000
1000
0001
0000
0000
0001
1000
0000
0000
1000
0010
,
0000
0000
0001
0010
0000
0000
1000
0010
0000
0000
0001
0010
0000
0000
0010
0001
,
0000
0000
0010
1000
0000
0000
0010
0001
0000
0000
0010
1000
0300
0000
1000
0000
,
1010
0000
0010
0100
0001
0000
1000
0000
1100
0000
1000
0001
1000
0001
1000
0001
,
1000
0000
0000
1100
0000
0000
0001
0000
0000
0011
0000
0000
1001
0000
0001
0000
,
0101
0000
0000
0110
0000
0000
0010
0000
0000
1010
0000
0000
1001
0000
1000
0000
,
0100
0010
0001
0000
0011
0000
0001
0100
0010
0000
1010
0000
1000
0000
0001
0000
,
2000
0000
3200
0000
0302
0000
2003
0000
3010
0001
1000
0001
1000
0001
1000
0001
,
2000
0000
3010
0100
1000
1000
0100
0010
,
0100
0000
0100
0000
0001
0000
0001
0000
0100
0000
0100
0000
0010
0000
1000
0001
,
0010
0000
0100
0000
1000
0000
2010
0000
0000
0000
3001
0000
0101
0000
0100
0001
,
1000
0100
0110
0000
2002
0000
3003
0000
,
1000
0000
0010
0000
0110
0000
0010
0000
1000
0000
0100
0010
0001
0000
0100
0000
,
0001
0000
0010
0000
0011
0000
0001
0100
0010
0000
1000
0100
0010
0000
0120
0000
,
0000
0000
0130
0000
1000
0001
0100
0010
1000
0000
0010
0100
0001
0000
1000
0000
,
0100
0001
0100
0001
0100
0010
0001
0000
0100
1000
0100
1000
0100
0010
1000
0000
,
0002
0000
0000
0000
0010
0000
0000
0000
1003
0000
0100
0010
0001
0000
0000
0000
,
0200
0000
0001
1000
0000
0000
1000
0001
0300
0000
0010
1000
0010
0000
0100
0000
,
1000
0000
0100
0010
1000
0000
0100
0010
0001
0000
0100
0000
0110
0000
0000
0000
,
0001
0010
0100
1000
0001
0010
0100
1000
0001
0100
0010
1000
0001
0100
0010
1000
,
0200
0302
2003
3020
,
0031
0000
0000
0000
1000
0010
0100
0000
0010
1000
0001
0000
1000
0000
0200
0000
,
0000
0000
0301
0000
0100
0000
1000
0000
0010
0000
0100
0010
1000
0001
1000
0000
,
0001
0000
0100
0000
1000
0000
0200
0000
0000
0000
0310
0000
1000
0001
1000
0001
,
1000
0000
0100
0010
0100
1000
0100
0000
1000
0001
0010
0000
0001
0100
0010
0000
,
0100
0000
0010
0000
0100
0100
1000
0000
0100
0000
0010
0000
0100
0100
0001
0000
,
0100
0000
0010
0000
0100
0100
1000
0000
0100
0000
1000
0010
0100
0001
1000
0000
,
0001
0010
0001
0010
0100
0010
0100
0010
0100
1000
0100
1000
0001
0100
0010
1000
,
0001
0000
1000
0000
0001
0000
1000
0000
0100
0000
0010
0000
0100
0000
0010
0000
0001
1000
0000
0000
0100
0000
0000
0000
0010
0000
0000
0000
0001
0000
0000
0000
,
2002
0000
0000
0000
,
0000
0000
0000
0000
3003
0000
0000
0001
,
0001
0000
0000
0000
,
0100
0000
0000
0000
0010
0000
1000
0100
0010
0000
0001
0000
0100
0000
0000
0000
,
2010
0000
0000
3001
1001
1000
0100
0010
,
0110
0010
0001
0000
0101
0100
0010
0100
,
0102
0000
0000
0000
1003
0000
1010
0000
0010
0000
0100
0000
0110
0000
0010
1000
,
0001
0000
2001
0000
0000
0000
3100
0000
1000
0010
1000
0010
0100
0001
0100
0001
,
2000
0000
0100
0100
0100
0100
0010
3010
,
1010
0000
0000
1100
0000
0000
1000
0000
1001
0000
0001
0100
0010
1000
0001
0000
,
1000
0100
0010
0100
0001
0100
1000
0010
,
0100
0010
1000
0010
0001
0010
0100
0010
,
2000
0000
0100
0000
3001
0010
1000
0010
,
0200
0000
0000
0000
0301
0000
0100
1000
0100
0000
1000
0000
1010
0000
0010
0100
,
0002
0000
0010
0000
1000
0000
0013
0010
,
0001
0000
0100
1000
0100
0010
2000
0000
,
3200
0000
0301
0100
0010
0100
2000
0000
,
3010
0100
0010
0100
0001
0000
1000
0001
1000
0100
0010
0001
1000
0010
0100
0001
,
2000
0000
0010
0000
0000
0000
0001
0000
0000
0000
3100
1000
0100
0000
1000
0000
,
0002
0000
0010
0000
0000
0000
1003
0001
1000
0000
0010
0000
0100
0000
0010
0000
,
1000
0100
0010
2000
0000
3001
0200
0000
,
1300
0010
1000
0010
1000
0000
0010
0001
0010
0001
0010
0000
0200
0000
0000
0000
,
0301
0010
0001
0010
0100
1000
0100
1000
0001
0000
0100
0000
0101
0000
0000
0000
,
1000
0010
1000
0010
0100
0010
0100
0010
1000
0000
0100
0010
0001
1000
0010
0000
,
1000
0100
1000
0100
0010
0100
0010
0100
0010
0001
0010
0001
1000
0010
0100
0001
,
1000
0001
1000
0001
1000
0001
1000
0001
0100
0000
0000
0110
0000
0000
2002
0000
,
0000
0000
3003
0000
1100
0000
0100
0100
0001
0000
0100
0000
0101
0000
0100
0000
,
0110
0000
0010
0000
1010
0000
0010
0010
0002
0000
0103
0000
0001
1000
0100
0000
,
1000
0000
0001
0000
0011
0000
0010
0010
1000
0000
0100
0000
1100
0000
1000
0000
,
1001
0000
0001
0000
1000
0000
0010
0100
0001
0010
0100
0000
1000
0010
0100
0001
,
1000
0100
0010
0001
1000
0000
1100
0000
0000
0000
0110
0000
0000
0000
0100
0000
,
1100
0000
0000
0000
0100
0100
0001
0000
0100
0000
0110
0000
0000
0000
0010
0000
,
0000
0100
0101
0001
0010
0010
0100
1001
,
0000
0000
1000
0000
0001
0000
0100
0010
1000
0001
0010
0000
0001
1000
0001
1000
,
0001
0100
0010
1000
0200
0000
0000
0000
0000
0000
0000
0000
0000
0000
0000
0000
,
0000
0000
0000
0000
,
0000
0300
0000
0000
;

//---------------dance-single - t7r----------------
#NOTES:
     dance-single:
     t7r:
     Challenge:
     19:
     :
0000
0000
0000
0000
,
0000
0000
0000
0000
,
0000
0000
0000
0000
,
0000
0000
0000
0000
,
0000
0000
0000
0000
,
0000
0000
0000
0000
,
0000
0000
0000
0000
,
1100
0000
0100
1000
0001
0000
1001
0000
0001
1000
0100
0000
1100
0000
0100
1000
,
0001
0000
1001
0000
0001
1000
0100
0000
1000
0010
0100
0000
0001
0010
0100
1000
,
0001
0000
0010
0001
1000
0000
1001
0000
1000
0001
0010
0000
0011
0000
0010
0001
,
1000
0001
0100
0001
1000
0100
1000
0001
1000
0010
1000
0010
0100
0001
0100
0001
,
1000
0100
0010
0001
0010
0100
1000
0001
1000
0100
0010
0001
0010
0100
1000
0001
,
1000
0010
0100
0001
0100
0010
1000
0001
1000
0010
0100
0001
0100
0010
1000
0001
,
0020
0000
0001
1000
0000
0000
1000
0001
0030
0000
0001
0000
0100
0001
1000
0000
,
0001
0010
0001
0010
0100
0010
0100
0010
0100
1000
0100
1000
0001
0100
0001
0100
,
0001
0000
0010
0000
0100
1000
0001
0000
1000
0000
0010
0000
0100
0001
1000
0000
,
0100
0010
0001
0010
0100
1000
0001
1000
0010
0100
0001
0000
1000
0000
0001
1000
,
0200
0000
1000
0001
0000
0000
0001
1000
0300
0000
0010
0000
0001
1000
0010
0000
,
1000
0010
1000
0010
0100
0010
0100
0010
0001
0010
0001
0010
1000
0010
1000
0010
,
1000
0000
0100
0010
0001
1000
0010
0000
0110
0000
0100
0001
1000
0010
0100
0000
,
0001
1000
0100
0010
0001
0010
0100
1000
0001
1000
0010
0100
0001
0100
0010
1000
,
0001
0000
0010
0001
1000
0000
0010
0000
0001
0010
0001
0000
0010
0100
0002
0000
,
0010
0000
1003
0000
0200
0000
0010
0000
1300
0001
0100
0001
1000
0000
0100
1000
,
0001
0000
0100
0010
2000
0000
0100
0000
3002
0000
0010
0000
1003
0001
0100
0001
,
1000
0100
1000
0100
0010
0100
0010
0100
0001
0100
0001
0100
0010
0100
1000
0100
,
0020
0000
0001
1000
0000
0000
1000
0001
0030
0000
0001
0000
0100
0010
1000
0000
,
0100
0000
0010
0000
0001
1000
0010
0000
0100
0010
1000
0001
1000
0100
0010
0001
,
1000
0010
1000
0010
0100
0010
0100
0010
0001
0010
0001
0010
0100
0010
0100
0010
,
1000
0000
0100
0000
0010
0000
0001
0000
0010
0000
0100
0000
1000
0000
0001
0000
0200
0010
0000
0000
0000
0000
0000
0000
0301
0000
1000
0000
0100
0000
1000
0000
,
0020
0000
1000
0001
0000
0000
0001
1000
0030
0000
1000
0001
0200
0000
0001
1000
,
0300
0000
1000
0000
0001
1000
0020
0000
0100
0000
1030
0001
0100
0000
0001
0000
,
0020
0000
0001
1000
0030
0000
1000
0001
0200
0000
0001
1000
0300
0000
1000
0001
,
0020
0000
0001
1000
0030
0000
0100
0000
0001
0010
0001
0010
0100
1000
0001
1000
,
0200
0000
1000
0001
0300
0000
0020
0000
0100
0000
1030
0000
0200
0000
1000
0001
,
0300
0000
0001
1000
0020
0000
1000
0001
0030
0000
0001
1000
0100
1000
0001
0100
,
0001
0000
1000
0100
0010
0001
1000
0010
1000
0001
0100
0010
1000
0001
0010
0001
,
1000
0000
0010
0100
0001
1000
0100
0010
0001
0100
0010
1000
0001
1000
0100
0010
,
0200
0000
1000
0010
0000
0000
0010
1000
0000
0000
1000
0010
0300
0000
0001
1000
,
0020
0000
0100
0001
0030
0000
0100
1000
0010
0000
0100
0001
1000
0100
0010
0001
,
0200
0000
0001
0010
0300
0000
1000
0001
0100
0000
0001
1000
0020
0000
0100
0001
,
0030
0001
0010
0001
0010
1000
0010
1000
0010
0001
0010
0001
0010
0100
1000
0000
,
0001
0100
0010
1000
0001
1000
0100
0010
0001
1000
0001
0100
0010
1000
0001
1000
,
0100
0010
0001
0010
0100
1000
0001
1000
0100
0010
0001
0010
0100
1000
0001
1000
,
0001
0100
0010
0100
0001
0100
0010
0100
0001
0010
0100
0010
0001
0010
0100
0010
,
0001
0000
1000
0000
0100
0000
0010
0000
0001
0000
0010
0000
0100
0000
1000
0000
0020
0100
0000
0000
0000
0000
0000
0000
0000
0000
0000
0000
1030
0000
0001
0000
,
0020
0000
0001
1000
0000
0000
1000
0001
0000
0000
0001
1000
0000
0000
1000
0001
,
0000
0000
0001
1000
0000
0000
1000
0001
0000
0000
0001
1000
0000
0000
1000
0100
,
0000
0000
0001
0100
0000
0000
1000
0100
0000
0000
0001
0100
0000
0000
1000
0100
,
0000
0000
1000
0000
0100
0000
0001
0000
0100
0000
1000
0000
0130
1000
0001
1000
,
0001
0000
1000
0100
0000
1000
0010
1000
0001
0000
1000
0100
0000
0000
1000
0001
,
1000
0000
0001
0100
0000
0001
0010
0001
1000
0000
0001
0100
0000
0000
0001
1000
,
0001
0000
0101
0000
0110
0000
1000
0100
0010
0000
0110
0000
0100
1000
0001
0000
,
1000
0010
0100
0010
1000
0100
0010
0100
1000
0001
1000
0001
1000
0001
1000
0001
,
0200
0000
1000
1000
0310
0100
0101
0001
,
1000
0000
0100
0000
0110
0000
0110
0000
0100
0000
0001
0000
0100
0000
1000
0001
,
0100
0100
1000
0000
0010
0000
0210
0000
0000
0000
0301
0000
1001
0000
0100
0100
,
0010
0000
0100
0000
1001
0000
0001
0100
0001
0010
0100
1000
0100
0010
0001
1000
,
0001
0000
0100
0100
1000
0000
0100
0000
1100
0000
0100
0100
0001
0100
0010
1000
,
0001
0010
0001
0010
1000
0010
0100
0010
0001
0000
0100
0000
0110
0000
1002
0000
,
0000
0000
0103
0100
1000
0100
0010
0001
0100
0010
0100
0010
1000
0001
0010
0100
,
1000
0010
1000
0010
0001
0010
0001
0010
0100
0010
0100
0010
1000
0001
1000
0001
,
0020
0000
1000
0000
0100
0000
0000
0000
0031
0000
0100
0100
1000
0000
0000
0000
,
0001
0010
0001
0010
0100
0010
0100
0010
0001
0000
0100
0010
1000
0000
0100
0000
,
1000
0000
0010
1000
0010
0100
0010
0000
1000
0000
0100
0010
0001
0000
1000
0001
,
1000
0100
0100
0001
1000
0100
0100
0001
1000
0010
0010
0001
1000
0010
0010
0001
,
1000
0100
0200
0000
0301
0010
0020
0000
1030
0010
0020
0000
0031
0100
0200
0000
,
1300
0000
0010
1000
0001
0000
0010
0000
1000
0010
1000
0000
0010
0100
2000
0000
,
0010
0000
3001
0000
0200
0000
0010
0000
0301
1000
0100
1000
0001
0000
0100
0001
,
1000
0000
0100
0010
0001
1000
0010
0100
0010
1000
0001
0000
0010
0100
1000
0001
,
1000
0000
0010
0100
0010
0100
0001
0000
0010
0100
0010
0100
1000
0001
0100
0010
,
1000
0000
0010
0000
0100
0100
1000
0100
0020
0000
0130
0100
0001
0100
0020
0000
,
0130
0100
1000
0100
0020
0000
0130
0100
0001
0100
0010
0100
0001
1000
0100
1000
,
0010
0000
1000
1000
0100
0000
0001
0001
0010
1000
0001
0010
0001
0100
0010
1000
,
0001
0000
0010
0000
0001
0000
0010
0000
1000
0000
0010
0000
1000
0000
0010
0000
0002
1000
0000
0000
0100
0000
0000
0000
1000
0000
0000
0000
0013
0000
0000
0000
,
2001
0000
0000
0000
0000
0000
0000
0001
,
3001
0000
0000
0000
0000
0000
0000
0000
0000
0010
0010
0010
,
0010
0000
0000
0000
,
0101
0000
0000
0000
0100
0001
1000
0010
0100
0000
0010
0000
1010
0000
0000
0000
,
2001
0000
0000
3100
1001
0001
0100
0010
,
0200
1000
0320
0001
0230
0010
0302
0010
,
2003
0000
0000
0000
3100
0000
1001
0000
0100
0000
0100
0000
1001
0000
0100
0100
,
0010
0000
1002
0000
0000
0000
0103
0000
0001
0010
0001
0010
1000
0010
1000
0010
,
0001
0010
1000
0010
0001
0010
1000
0010
0002
0000
0100
0000
1003
0001
0010
0001
,
1000
0000
0001
0010
0000
0001
1000
0010
1000
0000
0100
0010
0001
1000
0001
1000
,
0200
0000
1000
0001
0000
0000
0001
1000
0300
0000
0010
0000
0001
0000
0100
0100
,
1000
0000
0100
0100
0001
0000
0010
0000
1001
0000
0001
0000
0101
0000
0001
1000
,
0020
0000
0100
0001
0000
0000
0100
1000
0030
0000
0100
0001
1000
0000
0200
0000
,
0010
0000
1000
0010
0000
0000
0010
1000
0300
0000
0010
0000
1001
0000
0001
0100
,
0020
0000
0100
0001
0000
0000
0100
1000
0030
0000
0100
0001
1000
0000
0010
0000
,
1010
0000
1000
0001
0010
0000
0200
0000
0001
0000
0010
0001
0300
0000
0000
0000
,
0020
0001
0100
2030
0010
0001
3200
0001
,
0310
0001
1000
0001
0010
0000
0001
0000
1000
0010
1000
0010
0100
0100
1000
0000
,
0002
0000
0010
0000
0103
0100
1000
0000
0100
0100
0001
0000
0100
0100
1000
0000
,
0200
0000
0001
0000
0310
0000
0001
1000
0100
0100
0001
0000
0100
0100
1000
0000
,
0020
0000
0001
0000
0130
0100
0010
0000
0100
0100
1000
0000
0100
0100
0001
0000
,
1000
0010
1000
0010
0001
0010
0001
0010
1000
0010
0001
0010
1000
0100
0010
0001
,
1000
0100
0100
0001
0010
0010
1000
0010
0010
0001
0100
0100
,
0010
0000
0000
0000
1000
0000
0000
0000
1000
0000
0000
0000
0100
0000
0000
0000
0001
0000
0000
0000
0001
0000
0000
0000
0010
0000
0000
0000
0100
0000
0000
0000
0100
0000
0000
0000
0001
0000
0000
0010
0000
0000
0100
0000
0000
1000
0000
0000
,
0001
0100
0001
0100
1000
0100
1000
0100
0010
0100
0010
0100
0001
0010
0100
1000
,
0100
0000
0001
0000
0100
0000
1000
0000
0100
0000
0010
0000
0100
0000
1000
0000
0001
0010
0000
0000
0000
0000
1000
0100
0000
0000
0000
0000
0001
1000
0000
0000
,
0000
0000
0000
0000
1010
0000
0010
1000
0100
0000
0100
0001
0010
0000
0010
1000
,
0001
0000
0001
0010
1000
0000
1000
0100
0010
0000
0010
0000
0001
1000
0010
0000
,
0101
0000
0100
0001
0010
0000
0010
1000
0100
0000
0100
0001
1000
0000
1000
0100
,
0001
0000
0001
0010
0100
0000
0100
1000
0001
0001
0010
1000
0100
0100
0001
0010
,
0010
1000
0001
0001
0100
0000
1100
0000
0000
0000
0110
0000
0000
0000
0100
0000
,
1001
0000
0000
0000
0100
0100
0100
0000
0110
0000
0110
0000
0000
0000
1001
0000
,
0000
0110
1001
0001
1000
0100
1001
0110
,
0000
0000
1001
0000
0001
1000
0001
0100
0100
1000
0010
0010
0001
0010
1000
0010
,
0001
0100
0100
0100
0020
0000
0000
0000
0000
0000
0000
0000
0000
0000
0000
0000
,
0000
0000
0000
0000
,
0000
0030
0000
0000
;

//---------------dance-double - t7r----------------
#NOTES:
     dance-double:
     t7r:
     Easy:
     12:
     :
00000000
00000000
00000000
00000000
,
00000000
00000000
00000000
00000000
,
00000000
00000000
00000000
00000000
,
00000000
00000000
00000000
00000000
,
00000000
00000000
00000000
00000000
,
00000000
00000000
00000000
00000000
,
00000000
00000000
00000000
00000000
,
01000000
00000000
00010000
00100000
00000000
00001000
00010000
00000000
,
00000000
00011000
00000000
00000000
00001000
00000000
00000100
00000000
,
00000001
00000000
00000010
00000100
00000000
00000010
00000001
00000000
,
00000000
00000100
00000000
00000000
00001000
00010000
00001000
00000000
,
00022000
00000000
00000000
00033000
,
00010000
00000000
01000000
00000000
10000000
00100000
10000000
00000000
,
00020000
00000000
00000000
00000000
00000000
10030000
01000000
00000000
,
00010000
00001000
00000100
00000001
,
00000010
00000100
00001000
00000000
00000010
00001000
00000001
00000000
,
00000100
00000000
00001000
00010000
00002000
00000000
00003000
00000000
,
00000200
00000000
00000000
00000000
00000000
00000310
00001000
00000000
,
00000001
00000010
00001000
00010000
,
00100000
10000000
00100000
00000000
01000000
00000000
00010000
00000000
,
10000000
01000000
00100000
00000000
00010000
00000000
01000000
00000000
,
00001000
00000000
00010000
00000000
00001000
00000100
00000000
00000020
,
00000000
00000130
00000001
00000000
00000000
00000000
00000010
00000100
,
00010000
00001000
00010000
01000000
,
10000000
00100000
10000000
00000000
00010000
00100000
00010000
00000000
,
20000000
00000000
00000000
00000000
00000000
31000000
00010000
00000000
,
00001000
00010000
00001000
00000100
,
00000001
00001001
00000001
00000010
,
00001000
00010000
00100000
00000000
20000000
00000000
00000000
00000000
,
30020000
00000000
00000000
00000000
00000000
00000000
10030000
01000000
,
10000000
00000000
00000000
00200000
00000000
00000000
00310000
00000000
,
00002000
00000000
00000000
00003100
00000002
00000000
00000000
00001003
,
00000200
00000000
00000000
00000310
00000001
00000000
00000100
00000000
,
00000020
00000000
00000000
00002030
00000000
00000000
00003001
00000010
,
00000001
00000200
00000310
00002000
,
00003100
00000000
00010000
00002000
00000000
00000000
00023000
00000000
,
02030000
00000000
00000000
00000000
13000000
00100000
01000000
00010000
,
20000000
01000000
00010000
30100000
,
10100000
00000000
01010000
00000000
11000000
00000000
01000000
00010000
,
00002000
00000000
00000000
00023000
00000000
00000000
00032000
00000000
,
00003010
00000000
00000001
00000100
00000010
00000000
00001000
00000000
,
00000001
00000110
00001000
00000001
,
00000100
00001001
00001000
00000100
,
00010000
00011000
00001000
01000000
,
00010000
00100000
00010000
00000000
20010000
00000000
00000000
00000000
,
30200000
00000000
00000000
00000000
,
00000000
00000000
00000000
00000000
,
00000000
00000000
00000000
00000000
,
00300000
00000000
00000000
00000000
,
10000000
00000000
00000000
10000000
00000000
00000000
10000000
00000000
00000000
00010000
00000000
00000000
00010000
00000000
00010000
00000000
,
00001000
00000000
00000000
00001000
00000000
00000000
00001000
00000000
00000000
00000001
00000000
00000000
00000001
00000000
00000001
00000000
,
00000100
00000000
00001000
00000000
00010000
00001000
00010000
00000000
,
00001000
00000000
01000000
00000000
00010000
10000000
00010000
10000000
,
00100000
00000000
00010000
00002000
00000000
00000000
00013000
00000000
,
00001000
00000000
00000010
00000010
00000000
00000000
00000001
00000000
,
00001001
00000000
00000000
00000101
00000000
00000000
00001100
00000000
,
00000100
00010000
00001000
00000000
00022000
00000000
00033000
00000000
,
00010000
01000000
00010000
00000000
00001000
00000100
00001000
00000000
,
00010000
00100000
00010000
00000000
00001000
00000000
00000010
00000200
,
00000000
00000310
00000001
00001000
,
00000001
00000000
00000100
00000000
00001000
00010000
00001000
00000000
,
00020000
00000000
00000000
01030000
,
10000000
00100000
10000000
10010000
,
10000000
01000000
00010000
00011000
,
00001000
00001000
00010000
00000000
00001000
00001000
00010000
00001000
,
02000000
03002000
00023000
00030200
,
00000300
00000000
00010000
00000000
00001000
00000100
00000000
00000002
,
00000000
00001003
00000010
00000000
00002000
00000000
00000000
00000000
,
00003001
00000010
00000000
00000200
00000000
00010300
00000000
00001000
,
00010000
00000000
01000000
00200000
00000000
00000000
00310000
00000000
,
10000000
00200000
00000000
10300000
00200000
00000000
00310000
00002000
,
00000000
00013000
00002000
00000000
00003020
00000000
00000031
00000000
,
00000100
00001001
00000100
00011000
,
00010000
00000000
01000000
10000000
00200000
00000000
00300000
00000000
,
20020000
00000000
00000000
00000000
,
00000000
00000000
00000000
00000000
30030000
00000000
00000000
10000000
,
10000000
00000000
00000000
00000000
,
10000000
00000000
01000000
00000000
00010000
00001000
00010000
00000000
,
00002000
00000000
00000000
00000000
00003100
00000000
00000010
00000100
,
00000001
00000000
00000010
00000000
00000100
00010000
00001000
00000000
,
00010000
00000000
01000000
10000000
00000000
01000000
00010000
00000000
,
00001000
00000100
00000000
00000001
00000100
00000000
00001000
00000000
,
00010000
00001000
00010000
00001000
00010000
00001000
00010000
00001000
,
00010000
00000000
00000000
01000000
00000000
00000000
00010000
00000000
00001000
00000000
00000000
00000100
00000000
00000000
00001000
00000000
,
00010000
01000000
10000000
11000000
,
10000000
00100000
10000000
00000000
00100000
01000000
00100000
00000000
,
02000000
00000000
00001000
00000000
03010000
00100000
00001000
00020000
,
00001000
00000000
00000000
00000000
00030100
00001000
00000001
00000000
,
00000200
00000000
00001000
00000000
00000010
00000000
00000301
00000010
,
00000001
00000000
00000010
00002000
00000000
00000000
00013000
00000000
,
00001000
00000000
00010000
00200000
00000000
00000000
10300000
00000000
,
01000000
00100000
01000000
00000000
00200000
00000000
00000000
00000000
,
00310000
10000000
00000000
00100000
00000000
10000000
00000000
01000000
,
00100000
00001000
00000000
00010000
00000000
00001000
00000000
00000100
,
00000001
00000010
00000000
00000002
00000000
00000000
00000023
00000000
,
00001030
00001000
00001000
00010000
00010000
00010000
00001000
00000000
,
00010000
00100000
01000000
01010000
,
00001000
00000010
00000100
00001100
,
00010000
01000000
00100000
00110000
,
00001000
00000000
00000000
00000000
00000100
00000000
00000000
00000000
00000010
00000000
00000000
00000010
00000000
00000000
00000020
00000000
,
00000000
00000030
00001001
00000000
00000001
00000100
00000001
00000000
,
00000010
00000100
00000010
00000000
00000100
00000000
00010000
00001000
,
00010000
00001000
00010000
00000000
00001000
01000000
00001000
00000000
,
00100000
00010000
00100000
00000000
00010000
00000000
01000000
00000000
,
10000000
00000000
01000000
01000000
00000000
00010000
00000000
00100000
,
00100000
00000000
00001000
00000000
00010000
00010000
00000000
00001000
,
00000000
00010000
00001000
00000000
00000010
00000000
00000100
00000110
,
00000000
00000010
00000001
00000100
00001000
00000000
00010000
01000000
,
10000000
00200000
00000000
00000000
,
00000000
00000000
00000000
00000000
,
00000000
00300000
00000000
00000000
;

//---------------dance-double - t7r----------------
#NOTES:
     dance-double:
     t7r:
     Medium:
     15:
     :
00000000
00000000
00000000
00000000
,
00000000
00000000
00000000
00000000
,
00000000
00000000
00000000
00000000
,
00000000
00000000
00000000
00000000
,
00000000
00000000
00000000
00000000
,
00000000
00000000
00000000
00000000
,
00000000
00000000
00000000
00000000
,
00000100
00010000
00010000
00001000
00010000
00010000
00000100
00010000
,
00010000
00001000
00000100
00000001
00001000
00000100
00010000
00000000
,
00001000
01000000
01000000
00010000
00100000
00100000
00010000
01000000
,
01000000
00100000
10000000
01000000
00010000
00000000
00001000
00000000
,
00022000
00000000
00000000
00033000
,
00001000
00000000
00010000
00000000
00010000
00000000
00000000
00000000
00001000
00000000
00010000
00001000
00010000
00000000
00001000
00000000
,
00000020
00000000
00000001
00000000
00000130
00000010
00000001
00000100
,
00001000
00010000
00010000
00001000
00001000
00010000
00100000
00000000
,
10000000
01000000
00010000
01000000
10000000
00100000
01000000
00010000
,
00100000
00000000
00001000
00010000
00001000
00000000
00010000
00000000
00021000
00000000
00000000
00000000
00000000
00000000
00031000
00000000
,
00000200
00000000
00001000
00000000
00000310
00000100
00000001
00001000
,
00000100
00010000
00010000
00001000
00010000
00010000
01000000
00000000
,
10000000
00100000
00010000
00100000
01000000
00010000
00100000
00001000
,
00010000
00000000
00001000
00010000
00001000
00000000
00000000
00000000
00000100
00000000
00000000
00000000
00000110
00000000
00000000
00000000
,
00001001
00000000
00000000
00000000
00000001
00000010
00000001
00000000
00000010
00000000
00000100
00000000
00000000
00000000
00000002
00000000
,
00000000
00000103
00020000
00000000
00000000
00000000
00031000
00010000
,
01000000
10000000
00100000
00010000
00100000
02000000
00000000
03001000
,
00010000
00001000
00001000
00000100
00000100
00000001
00001000
00000100
,
00020000
00001000
00000000
00000100
00000000
00031000
00010000
01000000
,
00100000
01000000
00010000
01000000
10000000
00100000
01000000
00010000
,
00100000
00001000
00011000
00000000
00001000
00010000
00010010
00000000
,
00000010
00000000
00000100
00000001
00000100
00000000
00000001
00000000
00002001
00000000
00000000
00000000
00000000
00000000
00000000
00000000
,
00003002
00000010
00000000
00001000
00000000
00000103
00000020
00000000
,
00002030
00000100
00000000
00003002
00000000
00000103
00002000
00000000
,
00023000
01000000
00000000
00031000
00000200
00000010
00000000
00000301
,
00000020
00001000
00000000
00000130
00000010
00000001
00000100
00000010
,
00002000
00000000
00003100
00020000
00000000
00031000
00010000
01000000
,
20000000
30100000
02000000
03020000
,
10030000
01000000
00100000
00010000
10000000
00100000
00020000
00000000
,
00031000
00000000
00010000
00001000
00010000
00000000
00001000
00000000
00000100
00000000
00000010
00000100
00000010
00000000
00000100
00000000
,
00000002
00000010
00000000
00001000
00000000
00000103
00000010
00001000
,
00001100
00000000
00011000
00000000
01010000
00010000
01000000
00100000
,
20000000
01000000
00000000
30020000
00000000
00130000
02000000
00000000
,
13000000
00100000
00010000
00001000
00000010
00000001
00002000
00000000
,
00003100
00000001
00000100
00010000
00011000
00000000
00011000
00000000
,
01000000
10000000
01000000
00001000
00011000
00000000
00012000
00000000
,
00013000
01000000
00100000
01000000
11000000
00000000
10010000
00000000
,
10000000
00000000
00100000
00000000
00010000
00000000
00001000
00010000
00002000
00000000
00000000
00000000
00003000
00000000
00000000
00000000
,
00021000
00001000
01000000
01000000
,
00001000
00001000
00000100
00000100
,
00001000
01000000
00001000
00000100
,
00031000
00000000
00011000
00000000
00001000
00010000
00010000
01000000
,
10000000
00000000
00000000
00100000
00000000
00000000
01000000
00000000
00000000
01000000
00000000
00000000
00010000
00000000
00100000
00000000
,
00100000
00000000
00000000
00001000
00000000
00000000
00010000
00000000
00000000
00010000
00000000
00000000
00000010
00000000
00000100
00000000
,
00000001
00000010
00000011
00000000
00000001
00000100
00001000
00010000
,
00001000
00000000
00000100
00000000
00000100
00000000
00000000
00000000
00000001
00000000
00000010
00000000
00001000
00010000
00001000
00000000
,
00020000
00000000
01030000
20000000
00000000
31000000
00100000
00000000
,
01000000
01000000
00010000
00001000
00010000
00010000
00001000
00000100
,
00000020
00000000
00001030
00000002
00000000
00000013
00000100
00000000
,
00010000
00001000
00010000
00000000
00022000
00000000
00033000
00000000
,
00010000
01000000
10000000
00010000
01000000
00100000
00010000
00001000
,
00000100
00000001
00001000
00000100
00000010
00000100
00010000
00002000
,
00000000
00013000
01000000
01000000
10000000
10000000
00100000
01000000
,
00010000
00001000
00001000
00000100
00000001
00000010
00000010
00001000
,
00001002
00000000
00000000
00000000
00000000
00000000
00000000
00000000
00000000
00000000
00001003
00000100
00001000
00000000
00000000
00000000
,
00000001
00000000
00000000
00000100
00000010
00000000
00000100
00000000
00000001
00000000
00000000
00001000
00000100
00000000
00010000
00000000
,
00001000
00000000
00000000
00010000
00001000
00000000
00010000
00000000
01000000
00000000
00000000
00000000
21000000
00000000
00000000
00000000
,
30100000
00100000
00010000
00010000
00001000
00001000
00010000
01000000
,
00200000
00302000
00023000
00030020
,
00001030
00000000
00000001
00000100
00000010
00000100
00000000
00000002
,
00000000
00000013
00001000
00010000
00200000
00000000
10300000
00000000
,
01000000
00100000
01000000
00020000
00000000
01030000
00000000
10000000
,
00100000
01000000
00100000
00020000
00000000
00031000
00020000
00000000
,
01030000
00000000
00100000
00000000
00000000
00001000
00010000
00000000
01000000
00000000
00100000
00000000
00000000
00001000
00010000
00000000
,
00001000
00000000
00000100
00000000
00000000
00000010
00001000
00000000
00000001
00000000
00000100
00000000
00000210
00000000
00000000
00000000
,
00001300
00010000
00010000
01000000
00001000
00010000
00010000
00100000
,
00010000
00000000
10000000
01000000
00100000
00000000
00010000
10000000
00200000
00000000
00000000
00000000
00300000
00000000
00000000
00000000
,
20020000
00000000
00000000
00000000
,
00000000
00000000
30030000
00000000
00000000
00000000
00000000
10000000
,
10000000
00000000
00000000
00000000
,
01000000
00000000
00100000
00010000
10010000
00010000
01000000
00000000
,
20100000
00000000
00000000
31000000
00010000
01000000
00100000
00001000
,
00010000
00001000
00000200
00000000
00000301
00000010
00000100
00000000
,
00001100
00000000
00000100
00010100
00000000
00010000
00001000
00000000
,
00010000
00011000
00000000
00000000
00010000
01000000
10000000
00000000
,
00100000
01000000
00010000
00010000
00100000
00001000
00010000
00010000
,
00001000
00000000
00000000
00000010
00000000
00000000
00000001
00000000
00000100
00000000
00000001
00001000
00000100
00000000
00001000
00000000
,
00001002
00000000
00000103
00000010
00000001
00000010
00000100
00000010
,
00001000
00000100
00010000
00001000
00010000
01000000
00100000
01000000
,
20000000
00000000
00100000
00000000
30010000
01000000
00100000
00200000
,
00010000
00000000
01300000
00100000
00100000
10000000
01000000
00010000
,
00012000
00000000
01000000
00000000
00003100
00000000
00000010
00000100
,
00000100
00000000
00000001
00000020
00000000
00001030
00000020
00000000
,
00000032
00000000
00000103
00002000
00000000
00013000
00002000
00000000
,
00013000
00000000
01000000
10000000
01000000
00000000
10000000
00000000
00100000
00000000
01000000
00000000
01100000
00000000
00000000
00000000
,
20000000
00100000
00000000
00010000
00000000
31000000
00010000
00001000
,
00020000
01000000
00000000
00031000
00001000
00000100
00000010
00000100
,
00000001
00000000
00000010
00000200
00000000
00000301
00000200
00000000
,
00010300
00000000
00001000
00010000
00001000
00000000
00010000
00000000
01000000
00000000
01000000
00000000
20000000
00000000
00000000
00000000
,
30100000
00010000
00011000
00000000
00001000
01000000
01001000
00000000
,
00001000
00010000
00011000
00000000
00010000
00000100
00010100
00000000
,
00000100
00000001
00000100
00010000
00001000
00010000
00011000
00000000
,
01000000
00000000
10000000
00000000
01000000
00000000
00001000
00000000
00010000
00000000
00000000
00011000
00000000
00000000
00022000
00000000
,
00000000
00033000
00001000
00000100
00000010
00001000
00000100
00000010
,
00000001
00000100
00001000
00020000
00032000
00013000
01000000
10000000
,
00010000
10000000
10010000
00000000
10000000
00100000
01000000
10000000
,
01000000
00100000
10000000
01000000
00010000
00001000
00000100
00000010
,
00001000
00000000
00000100
00010000
00001000
00000000
00001000
00000000
00000000
00000000
00011000
00000000
00000000
00000000
00001000
00000000
,
00001100
00000000
00000000
00000000
00000100
00000010
00000100
00000000
00000010
00000000
00000010
00000000
00000000
00000000
00000110
00000000
,
00000000
00000001
00000011
00000000
00000010
00000000
00001000
00011000
,
00000000
00000000
00010000
00000000
00001000
00000000
00010000
00000000
00010000
00000000
01000000
00000000
00001000
00010000
00000100
00000000
,
00010000
00001000
00010000
00000000
00022000
00000000
00000000
00000000
00000000
00000000
00000000
00000000
00000000
00000000
00000000
00000000
,
00000000
00000000
00000000
00000000
,
00000000
00033000
00000000
00000000
;

//---------------dance-double - t7r----------------
#NOTES:
     dance-double:
     t7r:
     Hard:
     18:
     :
00000000
00000000
00000000
00000000
,
00000000
00000000
00000000
00000000
,
00000000
00000000
00000000
00000000
,
00000000
00000000
00000000
00000000
,
00000000
00000000
00000000
00000000
,
00000000
00000000
00000000
00000000
,
00000000
00000000
00000000
00000000
,
00000001
00000000
00000100
00000001
00000100
00000000
00000001
00000000
00001000
00000100
00001000
00000000
00000100
00000000
00010000
00001000
,
00010000
00000000
00001000
00000000
01000000
00010000
01000000
00000000
00100000
10000000
00010000
00000000
00100000
00000000
00010000
00000000
,
10000000
00000000
01000000
10000000
01000000
00000000
10000000
00000000
00010000
01000000
00010000
00000000
01000000
00000000
00001000
00010000
,
00001000
00000000
00010000
00000000
00000100
00001000
00000100
00000000
00000010
00000001
00001000
00000000
00000010
00001000
00000001
00000000
,
00002002
00000000
00000000
00003003
,
00000001
00000000
00000100
00000010
00001000
00000000
00000100
00010000
00001000
00000000
00010000
00001000
00010000
00001000
00010000
00001000
,
00020000
00000100
00000000
01000000
00000000
00031000
00010000
01000000
,
10000000
00000000
00100000
01000000
00010000
00000000
10000000
01000000
00100000
00000000
00001000
00010000
00000010
00000000
00000100
00000000
,
00000001
00000010
00000100
00000001
00000100
00010000
00001000
00010000
,
01000000
10000000
00100000
01000000
00010000
10000000
01000000
00100000
00020000
00000000
00000000
00000000
01030000
00000000
00001000
00010000
,
00002000
01000000
00000000
00000100
00000000
00013000
00001000
00000100
,
00000010
00000000
00001000
00000100
00000010
00000000
00000001
00000100
00000010
00000000
00001000
00000001
00000010
00000000
00001000
00000000
,
00010000
01000000
00100000
00010000
00001000
00000010
00000100
00001000
,
00010000
00001000
01000000
00001000
00010000
00001000
00010000
00001000
00010000
00000000
00001000
00000000
00000100
00000000
00000001
00001000
,
00000001
00000000
00000000
00000000
00000010
00001000
00000010
00000000
00000001
00000000
00000100
00000000
00000000
00000000
00002000
00000000
,
00000000
00013000
00200000
00000000
00000000
00000000
00310000
00100000
,
10000000
00100000
01000000
00010000
10000000
01000000
00010000
00001000
,
00000010
00000001
00000010
00000001
00001000
00000100
00001000
00000100
00010000
00001000
00010000
00001000
01000000
00010000
01000000
00010000
,
00200000
00000000
00010000
10000000
00000000
00000000
10000000
00010000
00300000
00000000
00010000
00000000
01000000
00000000
00100000
00000000
,
10000000
01000000
00100000
10000000
00100000
00010000
01000000
00001000
,
00010000
00000000
00001000
00010000
00000100
00000000
00010000
00001000
01000000
00000000
00001000
00010000
00000100
00000000
00010000
00001000
,
01000000
00000000
00010000
00000000
10000000
00000000
01000000
00000000
00100000
00000000
00001000
00000000
00010000
00000000
00001000
00000000
00010000
00001000
00000000
00000000
00000000
00000000
00000000
00000000
00000000
00000000
00000000
00000000
00000000
00000000
00000000
00000000
,
02000000
00000000
10000000
00000000
00000000
00000000
00100000
00000000
00000000
00000000
03010000
00000000
00100000
00000000
00001000
00010000
,
00000200
00000010
00000000
00000302
00000000
00000103
00002000
00000000
,
00003002
00000000
00000010
00000000
00000000
00000000
00001003
00000100
00002000
00000000
00000001
00000000
00000000
00000000
00003010
00000100
,
00000020
00000000
00001000
00000000
00000000
00000000
00010030
00001000
00010000
00000000
01000000
10000000
00010000
00000000
01000000
00000000
,
00200000
00010000
00000000
20300000
00000000
30100000
01000000
10000000
,
01000000
00000000
00010000
00000000
00210000
00000000
00000000
00000000
00301000
00000000
00010000
00000000
00001000
00010000
00001000
00010000
,
00001000
00000000
00000100
00000010
00000100
00000000
00000001
00000010
00000001
00000010
00000100
00000010
00000001
00000000
00001000
00000010
,
00001000
00000010
00000100
00000010
00010000
00000000
00000100
00010000
00001000
00010000
00001000
01000000
00010000
00100000
01000000
10000000
,
00200000
00000000
10000000
00010000
00000000
00000000
00010000
10000000
00000000
00000000
10000000
00010000
00300000
00000000
01000000
10000000
,
00010000
00000000
00100000
00001000
00010000
00000000
00001000
00010000
00000010
00000000
00000100
00000000
00000001
00000010
00000100
00001000
,
00000010
00000000
00000100
00000001
00000100
00000000
00000010
00000000
00000100
00000000
00001000
00000100
00001000
00000000
00000100
00000000
,
00000001
00000010
00000001
00000010
00000100
00000000
00010000
00001000
00010000
00001000
01000000
00000000
00200000
00000000
00000000
00000000
,
10300000
01000000
00100000
00010000
01000000
00100000
10000000
00000000
01000000
00100000
00001000
00010000
00000100
00001000
00000010
00000000
,
00000100
00000001
00000010
00000100
00001000
00000010
00000100
00000000
00000001
00000010
00000100
00010000
00001000
01000000
00100000
00000000
,
10000000
01000000
10000000
01000000
00100000
01000000
00100000
01000000
00100000
00001000
00100000
00001000
00010000
00000010
00010000
00000010
,
00010000
00000000
00000100
00000000
00000010
00000000
00000001
00000000
00000100
00000000
00000010
00000000
00010000
00000000
00001000
00000000
00010000
00000100
00000000
00000000
00000000
00000000
00000000
00000000
00000000
00000000
00000000
00000000
00010000
00000000
00001000
00000000
,
02000000
00000000
00010000
10000000
00000000
00000000
10000000
00010000
00000000
00000000
00010000
10000000
00000000
00000000
10000000
00100000
,
00000000
00000000
00010000
00100000
00000000
00000000
10000000
00100000
00000000
00000000
00010000
00100000
00000000
00000000
00100000
00010000
,
00000000
00000000
00100000
10000000
00000000
00000000
00100000
00010000
00000000
00000000
00100000
10000000
03000000
00000000
00100000
00000000
,
00101000
00000000
00001000
00010000
00000100
00000000
00010000
00000000
00011000
00000000
00001000
00010000
00001000
00010000
00001000
00010000
,
00001000
00000000
00000000
00001100
00000000
00000000
00000100
00000000
00000000
00000101
00000000
00000000
00001001
00000000
00000001
00000000
,
00000011
00000000
00000000
00001010
00000000
00000000
00001000
00000000
00000000
00011000
00000000
00000000
00110000
00000000
00100000
00000000
,
01000000
00100000
01000000
00000000
10010000
00000000
10000000
01000000
00100000
00000000
00110000
00000000
00010000
00000000
10000000
00000000
,
00200000
00000000
00320000
00000000
00032000
00000000
00003200
00000000
00000310
00001000
00000001
00001000
00000001
00001000
00000001
00001000
,
00000200
00000000
00000301
00000100
00000010
00000010
00000001
00000100
,
00001000
00000000
00001000
00000000
00010000
00000000
00010000
00000000
00001000
00000000
00001000
00000000
00010000
00000000
01000000
10000000
,
00010000
00000000
01000000
00000000
00100000
00000000
20100000
00000000
00000000
00000000
31000000
00000000
11000000
00000000
01000000
00100000
,
00001000
00010000
00011000
00000000
00000220
00000000
00000330
00000000
,
00000001
00000000
00000010
00000000
00000011
00000000
00000001
00000100
00000010
00000000
00001000
00000000
00000100
00000000
00010000
00001000
,
01000000
00000000
00010000
00000000
10010000
00000000
00010000
00100000
01000000
00000000
00100000
00000000
00001000
00000000
00201000
00000000
,
00000000
00000000
00301000
00010000
00001000
00000000
00000100
00000010
00000100
00000000
00000001
00000000
00001000
00000100
00000010
00000000
,
00000001
00000000
00000100
00001000
00010000
00000000
00001000
00000000
00011000
00000000
00010000
01000000
10000000
00000000
00100000
01000000
,
00200000
00000000
00000000
00000000
00010000
00000000
00000000
00000000
01300000
00000000
00100000
10000000
00010000
00000000
00000000
00000000
,
02000000
00000000
00010000
10000000
00000000
00000000
10000000
00010000
03000000
00000000
00100000
10000000
00100000
00000000
10000000
00000000
,
01000000
00000000
00100000
00001000
00010000
00000000
00001000
00010000
00000010
00000000
00000100
00000000
00000101
00000000
00000000
00000000
,
00000001
00000010
00000100
00001000
00000001
00000010
00000100
00010000
00001000
00100000
01000000
10000000
00010000
00100000
01000000
10000000
,
00020000
00032000
00023000
00032000
,
00003010
00000000
00000000
00000000
00000100
00000001
00000100
00000000
00000010
00000100
00000001
00000000
00000010
00000000
00000200
00000000
,
00000000
00000000
00000301
00000000
00000100
00000000
00001000
00000000
00000010
00000000
00001000
00000100
00010000
00001000
00010000
00000000
,
00001000
00000000
00010000
00000000
01000000
00000000
00200000
00000000
00000000
00000000
00310000
00000000
01000000
00100000
01000000
00100000
,
01000000
00000000
00100000
00000000
10000000
01000000
00100000
00000000
00001000
00000000
00010000
00000010
00000100
00000000
00000010
00000000
,
00001000
00000000
00000100
00000000
00001000
00001000
00010000
00000000
00001000
00000000
01000000
00000000
00010000
00010000
00001000
00000000
,
00010000
00000000
00000100
00000000
00001000
00001000
00010000
00000000
00001000
00000000
01000000
00010000
00100000
01000000
10000000
00000000
,
00010000
00100000
00010000
00100000
01000000
00100000
01000000
00100000
00001000
00010000
00001000
00010000
00001000
00000100
00001000
00000100
,
00000001
00000000
00000000
00000000
00000010
00000000
00000100
00000000
00010000
00000000
00000000
00000000
00001000
00000000
01000000
00000000
00001000
00010000
00000000
00000000
00000100
00000000
00000000
00000000
00001000
00000000
00000000
00000000
00000010
00000000
00000000
00000000
,
00000220
00000000
00000000
00000000
,
00000000
00000000
00000000
00000000
00000330
00000000
00000000
00000001
,
00000001
00000000
00000000
00000000
,
00000100
00000000
00000000
00000000
00000010
00000000
00001000
00000100
00000010
00000000
00000001
00000000
00000100
00000000
00000000
00000000
,
00002010
00000000
00000000
00003001
00001001
00000001
00000010
00000100
,
00010100
00000100
00010000
00000000
00011000
00001000
00010000
00100000
,
01100000
00000000
01000000
00000000
00010000
00000000
10010000
00000000
10000000
00000000
01000000
00000000
11000000
00000000
01000000
00010000
,
00001000
00000000
00012000
00000000
00000000
00000000
00003100
00000000
00000001
00000010
00000001
00000010
00000100
00001000
00000100
00001000
,
00000002
00000000
00000100
00000100
00000100
00000100
00001000
00001003
,
00001001
00000000
00000000
00001001
00000000
00000000
00000001
00000000
00000010
00000000
00001000
00010000
00001000
00010000
00001000
00000000
,
00010000
01000000
10000000
00010000
01000000
00100000
00010000
00001000
,
00000100
00000010
00001000
00000100
00000001
00001000
00000010
00000001
,
00002000
00000000
00000100
00000000
00003001
00000100
00001000
00020000
,
00001000
00000000
00000000
00000000
01030000
00000000
00100000
01000000
00100000
00000000
01000000
00000000
11000000
00000000
10000000
00100000
,
02000000
00000000
10000000
00000000
00100000
00000000
03010000
00100000
,
00100000
00000000
10000000
00100000
00010000
01000000
00002000
00000000
,
00003200
00000000
00000310
00001000
00000100
00000010
00000002
00000000
,
00000103
00000000
00001000
00010000
00000100
00000000
00010000
00001000
00010000
00001000
01000000
00010000
00100000
01000000
10000000
00010000
,
20000000
00000000
00100000
00000000
00000000
00000000
00010000
00000000
00000000
00000000
31000000
10000000
01000000
00000000
10000000
00000000
,
00200000
00000000
01000000
00000000
00000000
00000000
00310000
00001000
00010000
00000000
00001000
00000000
00000010
00000000
00000100
00000000
,
00000010
00000001
00000100
00002000
00000000
00013000
00200000
00000000
,
10300000
00100000
10000000
00100000
10000000
00000000
00100000
00010000
00100000
00010000
00100000
00000000
00020000
00000000
00000000
00000000
,
00031000
00000000
00000100
00000001
00001000
00000000
00000100
00000010
00000001
00000000
00000010
00000000
00000110
00000000
00000100
00010000
,
00001000
00000000
00010000
01000000
10000000
00000000
00100000
01000000
00010000
00000000
00100000
00001000
00010000
00000000
00001000
00000100
,
00000010
00000100
00000010
00000100
00000001
00000000
00000010
00000100
00000010
00000100
00010000
00001000
00100000
00000000
00010000
01000000
,
00010000
00100000
01000000
10000000
00100000
01000000
00010000
00100000
00001000
00000000
00000000
01100000
00000000
00000000
00022000
00000000
,
00000000
00000000
00033000
00000000
00011000
00000000
00001000
00001000
00000100
00000000
00000010
00000000
00001010
00000000
00001000
00000000
,
00001100
00000000
00000100
00000000
00010100
00000000
00010000
00010000
02000000
00000000
03100000
00000000
10000000
01000000
00010000
00000000
,
00011000
00000000
00001000
00000000
00101000
00000000
00100000
00100000
00010000
00000000
00001000
00000000
00011000
00000000
00001000
00000000
,
00000100
00000000
00000001
00000000
00001000
00000000
00000100
00000010
00000001
00000000
00000100
00000010
00001000
00000100
00010000
00001000
,
01000000
00010000
00100000
01000000
10000000
00000000
10100000
00000000
00000000
00000000
10010000
00000000
00000000
00000000
10000000
00000000
,
11000000
00000000
00000000
00000000
01000000
01000000
00010000
00000000
01000000
00000000
01001000
00000000
00000000
00000000
00001000
00000000
,
00000000
00010000
00011000
00001000
00000100
00000100
00000010
00001001
,
00000000
00000000
00000001
00000000
00001000
00000000
00000010
00000100
00000001
00000010
00000100
00000000
00010000
00001000
00010000
00001000
,
00010000
01000000
00100000
01000000
20000000
00000000
00000000
00000000
00000000
00000000
00000000
00000000
00000000
00000000
00000000
00000000
,
00000000
00000000
00000000
00000000
,
00000000
30000000
00000000
00000000
;

//---------------dance-double - t7r----------------
#NOTES:
     dance-double:
     t7r:
     Challenge:
     19:
     :
00000000
00000000
00000000
00000000
,
00000000
00000000
00000000
00000000
,
00000000
00000000
00000000
00000000
,
00000000
00000000
00000000
00000000
,
00000000
00000000
00000000
00000000
,
00000000
00000000
00000000
00000000
,
00000000
00000000
00000000
00000000
,
00011000
00000000
00001000
01000000
00010000
00000000
01010000
00000000
00010000
10000000
01000000
00000000
11000000
00000000
10000000
00010000
,
01000000
00000000
01010000
00000000
00010000
01000000
00001000
00000000
00010000
00000100
00001000
00000001
00000100
00000010
00001000
00000001
,
00000010
00000000
00001000
00010000
00000100
00000000
00010100
00000000
00000100
00010000
00001000
00000000
00011000
00000000
00001000
01000000
,
00010000
00000000
10000000
00010000
10000000
00100000
10000000
00010000
01000000
00001000
00010000
00001000
00010000
00001000
00010000
00001000
,
00010000
00000010
00001000
00000001
00000010
00000100
00001000
00000100
00010000
00001000
01000000
00010000
10000000
00100000
10000000
00010000
,
01000000
00010000
10000000
00010000
10000000
00010000
10000000
01000000
00100000
00001000
00010000
00001000
00010000
00001000
00010000
00001000
,
02000000
00000000
00010000
10000000
00000000
00000000
10000000
00010000
03000000
00000000
00010000
00000000
01000000
00010000
10000000
00000000
,
01000000
00000000
00010000
00001000
00000100
00001000
00010000
00000000
00001000
00000000
00000100
00000001
00001000
00000001
00000100
00000000
,
00000001
00000000
00000010
00000000
00000100
00001000
00000001
00000000
00000100
00000000
00001000
00000000
01000000
00010000
10000000
00000000
,
00010000
00100000
01000000
10000000
01000000
00100000
00010000
10000000
00010000
00000000
01000000
00001000
00010000
00000000
00001000
00010000
,
00000200
00000000
00001000
00000001
00000000
00000000
00000001
00001000
00000300
00000000
00001000
00000000
00000100
00001000
00000001
00000000
,
00000100
00000000
00001000
00010000
01000000
00010000
00001000
00000000
00010000
00000000
01000000
10000000
00010000
10000000
01000000
00000000
,
10000000
00000000
00100000
01000000
00010000
00000000
00001000
00000000
00000001
00000000
00000010
00000100
00001000
00000000
00010000
00000000
,
10000000
01000000
00100000
00010000
00100000
01000000
10000000
00010000
00100000
00001000
00010000
00001000
00010000
00000010
00001000
00000001
,
00000100
00000000
00001000
00000000
00010000
00000100
00001000
00000000
00000001
00000010
00000100
00000000
00001000
00000100
00020000
00000000
,
00001000
00000000
00000100
00000000
00032000
00000000
00010000
00000000
01003000
00010000
10000000
00010000
00100000
00000000
00010000
00000000
,
10000000
00000000
00100000
00000000
00010000
00000000
00001000
00000000
00010000
00000000
01000000
00000000
10000000
00100000
10000000
00010000
,
10000000
00000000
01000000
00010000
00001000
00000000
00000100
00000001
00000010
00000000
00001000
00010000
01000000
10000000
00010000
10000000
,
00200000
00000000
10000000
00010000
00000000
00000000
00010000
10000000
00300000
00000000
10000000
00000000
00100000
01000000
00010000
00000000
,
10000000
00000000
00100000
00000000
00010000
00001000
01000000
00000000
00010000
00100000
00001000
00010000
00000100
00001000
00000001
00000010
,
00000001
00000000
00000100
00001000
00010000
00000000
00100000
10000000
01000000
00000000
00010000
00001000
00000100
00000000
00000001
00000010
,
00000100
00000000
00010000
00000000
00001000
00000000
01000000
00000000
00010000
00000000
00100000
00000000
00001000
00000000
01000000
00000000
00002000
00010000
00000000
00000000
00000000
00000000
00000000
00000000
01003000
00000000
00010000
00000000
10000000
00000000
00100000
00000000
,
02000000
00000000
00010000
10000000
00000000
00000000
10000000
00010000
03000000
00000000
00010000
10000000
01000000
00000000
00010000
00001000
,
00000200
00000000
00000001
00001000
00000300
00000000
00000020
00000000
00000100
00000000
00000031
00001000
00000100
00000000
00001000
00000001
,
00000200
00000000
00001300
00010000
00001000
00000000
00010000
00100000
20000000
00000000
31000000
00100000
00010000
00000000
10000000
00100000
,
20000000
00000000
31000000
00010000
00001000
00000000
00010000
00000000
00000010
00000000
00001000
00000001
00000100
00000010
00001000
00000001
,
00000020
00000000
00000001
00001000
00000030
00000000
00000200
00000000
00000010
00000000
00000301
00000000
00000010
00001000
00010000
00001000
,
00010000
00000000
00001000
01000000
00200000
00000000
10000000
00010000
00300000
00000000
00010000
10000000
00100000
10000000
00010000
01000000
,
00010000
00000000
10000000
01000000
00100000
00010000
10000000
00100000
10000000
00010000
00100000
00001000
00010000
00000010
00001000
00000001
,
00000010
00000000
00000001
00000100
00000010
00001000
00000001
00000100
00001000
00010000
00100000
01000000
00010000
10000000
00100000
01000000
,
00200000
00000000
10000000
01000000
00000000
00000000
01000000
10000000
00000000
00000000
10000000
01000000
00300000
00000000
00010000
01000000
,
00001000
00000000
00010000
00001000
00000100
00000000
00000001
00000010
00000100
00000000
00001000
00000001
00000100
00000010
00001000
00000001
,
00000200
00000000
00000010
00001000
00000300
00000000
00000010
00000001
00000100
00000000
00001000
00010000
00001000
00100000
00010000
00000000
,
10000000
00100000
00010000
00001000
00100000
01000000
00010000
00001000
00000010
00000100
00001000
00000001
00000100
00000010
00001000
00000000
,
00000001
00000010
00000100
00001000
00000001
00000100
00000010
00001000
00000100
00010000
00001000
01000000
00010000
10000000
00100000
10000000
,
00010000
00100000
01000000
00100000
00001000
00010000
00000010
00001000
00000001
00000100
00000010
00001000
00000001
00000010
00001000
00000000
,
00010000
00001000
00000100
00000010
00001000
00000100
00010000
00001000
00010000
01000000
00100000
00001000
00010000
00100000
01000000
00010000
,
10000000
00000000
01000000
00000000
00100000
00000000
00001000
00000000
00010000
00000000
00000010
00000000
00001000
00000000
00000100
00000000
00010000
00001000
00000000
00000000
00000000
00000000
00000000
00000000
00000000
00000000
00000000
00000000
00000000
00000000
00000000
00000000
,
00020000
00000000
00000100
01000000
00000000
00000000
01000000
00000100
00000000
00000000
00000100
01000000
00000000
00000000
01000000
00000100
,
00000000
00000000
00000100
01000000
00000000
00000000
01000000
00000100
00000000
00000000
00000100
01000000
00000000
00000000
01000000
00000100
,
00000000
00000000
00000100
01000000
00000000
00000000
01000000
00000100
00000000
00000000
00000100
01000000
00000000
00000000
01000000
00000100
,
00000000
00000000
00000100
01000000
00000000
00000000
00000100
00000000
00001000
00000000
01000000
00000000
10030000
00010000
10000000
00010000
,
10000000
00000000
00010000
01000000
00000000
00010000
00100000
00001000
00010000
00000000
00001000
01000000
00000000
00001000
00010000
00001000
,
00000010
00000000
00000100
00001000
00000000
00000001
00000100
00000001
00001000
00000000
00000010
00001000
00000000
00000001
00000010
00000001
,
00001000
00000000
00000100
00000000
00001100
00000000
00000100
00010000
00001000
00000000
00011000
00000000
00001000
01000000
00100000
00000000
,
10000000
01000000
10000000
01000000
00100000
00010000
00100000
00001000
00010000
00000100
00001000
00000100
00001000
00000001
00001000
00000001
,
00000200
00000000
00001000
00001000
00000310
00010000
00011000
00000000
,
00001000
00000000
01000000
00000000
01100000
00000000
01100000
00000000
01000000
00000000
00010000
00000000
10000000
00000000
01000000
00010000
,
00001000
00010000
00000100
00000000
00001000
00000000
00001002
00000000
00000000
00000000
00000103
00000000
00001000
00000000
00010000
00010000
,
01000000
00000000
00100000
00000000
10010000
00000000
10000000
01000000
10000000
00100000
01000000
00010000
01000000
00001000
00010000
00000100
,
00010000
00000000
00001000
00001000
00000100
00000000
00001000
00001000
00010000
00000000
00001000
00001000
00000100
00001000
00000001
00000100
,
00000001
00000010
00000001
00000010
00001000
00010000
00001000
00010000
00001000
00000000
01000000
00000000
00100000
00000000
20010000
00000000
,
00000000
00000000
31000000
01000000
00010000
00100000
00001000
00010000
00000100
00001000
00000100
00000010
00000001
00001000
00000010
00000100
,
00000001
00000010
00000001
00000010
00001000
00010000
00001000
00010000
00100000
10000000
00100000
10000000
00010000
00100000
00001000
00010000
,
00002000
00000000
00000100
00000000
00010000
00000000
00000000
00000000
01003000
00000000
00001000
00001000
00000100
00000000
00000000
00000000
,
00010000
00000000
00001000
00000100
00000001
00000000
00000010
00000100
00001000
00000000
00000010
00010000
00001000
00000000
00010000
01000000
,
10000000
00000000
00100000
01000000
00010000
00000000
01000000
00001000
00010000
00000000
00001000
00000100
00000001
00000000
00001000
00000010
,
00010000
00001000
00001000
00000100
00010000
00001000
00001000
00000100
00010000
00001000
00001000
00000010
00010000
00001000
00001000
00000010
,
00010000
00001000
00002000
00000000
00003001
00000100
00000200
00000000
00001300
00010000
00020000
00000000
01030000
00100000
00200000
00000000
,
10300000
00000000
00100000
10000000
00010000
00000000
10000000
00000000
01000000
00010000
00001000
00000000
01000000
00001000
00020000
00000000
,
01000000
00000000
00031000
00010000
00000100
00000000
00001000
00000010
00010000
00001000
00010000
00000100
00001000
00000001
00000100
00000010
,
00001000
00000000
00000001
00000010
00000100
00000010
00000001
00001000
00000010
00010000
00001000
00100000
00010000
10000000
00010000
00100000
,
01000000
00000000
10000000
00100000
01000000
00010000
10000000
00000000
01000000
00010000
00001000
01000000
00010000
00000000
01000000
00001000
,
00010000
00000000
00000100
00000000
00001000
00001000
00010000
00000100
00002000
00000000
00003010
00000010
00000001
00000100
00002000
00000000
,
00013000
00010000
01000000
00010000
20000000
00000000
31000000
01000000
00010000
00100000
00002000
00000000
00010000
00000000
01003000
00001000
,
00010000
00000000
00001000
00001000
00000010
00000000
00001000
00001000
00100000
00010000
10000000
00100000
01000000
00000000
00010000
10000000
,
01000000
00000000
00010000
00000000
01000000
00000000
00010000
00000000
00001000
00000000
00000010
00000000
00000100
00000000
00001000
00000000
00000001
00000100
00000000
00000000
00001000
00000000
00000000
00000000
00010000
00000000
00000000
00000000
00001000
00000000
00000000
00000000
,
00021000
00000000
00000000
00000000
00000000
00000000
00000000
00000010
,
00030010
00000000
00000000
00000000
00000000
00000000
00000000
00000000
00000000
00010000
00001000
00001000
,
00001000
00000000
00000000
00000000
,
00011000
00000000
00000000
00000000
01000000
00010000
10000000
00100000
01000000
00000000
00100000
00000000
10100000
00000000
00000000
00000000
,
20010000
00000000
00000000
31000000
10010000
10000000
01000000
00010000
,
00002000
01000000
00023000
00000100
00032000
00100000
00023000
00000010
,
00032000
00000000
00000000
00000000
00003100
00000000
00001001
00000000
00000100
00000000
00000100
00000000
00001001
00000000
00000001
00000100
,
00001000
00000000
00021000
00000000
00000000
00000000
00031000
00000000
00100000
00010000
00100000
00010000
10000000
00100000
10000000
00100000
,
00010000
00001000
00000010
00001000
00010000
00100000
00010000
00001000
00000020
00000000
00000000
00000000
00000031
00000000
00000100
00001000
,
00010000
00000000
00000100
00010000
00000000
00001000
00010000
00001000
01000000
00000000
00010000
00100000
00010000
10000000
00010000
10000000
,
02000000
00000000
10000000
00010000
00000000
00000000
00010000
10000000
03000000
00000000
10000000
00000000
00100000
00000000
00010000
00001000
,
00000100
00000000
00000001
00000010
00000100
00000000
00001000
00000100
00010000
00000000
00001000
00010000
00100000
00000000
10000000
01000000
,
00200000
00000000
00010000
01000000
00000000
00000000
01000000
00010000
00300000
00000000
00010000
01000000
00001000
00000000
00020000
00000000
,
00001000
00000000
00030100
00001000
00000001
00000000
00000100
00001000
00010000
00000000
00001000
00000010
00000001
00000000
00000100
00001000
,
00020000
00000000
00001000
01000000
00000000
00000000
01000000
00001000
00030000
00000000
00001000
00010000
00000100
00000000
00001000
00000000
,
00001001
00000000
00000001
00001000
00000100
00000000
00002000
00000000
00000001
00000000
00000100
00010000
00003000
00000000
00000000
00000000
,
00020000
00001000
00000100
00032000
00010000
00100000
00013000
01000000
,
10000000
00100000
01000000
00010000
10000000
00000000
01000000
00000000
00010000
00001000
00010000
00001000
00010000
00010000
00100000
00000000
,
01000000
00000000
10000000
00000000
00100000
00100000
00010000
00000000
00001000
00001000
01000000
00000000
00100000
00010000
00001000
00000000
,
00020000
00000000
00001000
00000000
00030010
00000000
00001000
00000100
00010000
00010000
01000000
00000000
00010000
00010000
00000100
00000000
,
00001000
00000000
00000010
00000000
00000100
00000001
00002000
00000000
00000100
00000000
00003001
00000000
00000100
00000100
00001000
00000000
,
00000001
00000010
00000001
00000010
00001000
00010000
00001000
00010000
00100000
10000000
01000000
00100000
00010000
01000000
00010000
10000000
,
00010000
00100000
00100000
10000000
01000000
01000000
00010000
00100000
00100000
01000000
00001000
00001000
,
00000100
00000000
00000000
00000000
00000010
00000000
00000000
00000000
00000010
00000000
00000000
00000000
00001000
00000000
00000000
00000000
00000100
00000000
00000000
00000000
00000100
00000000
00000000
00000000
00000001
00000000
00000000
00000000
00000010
00000000
00000000
00000000
00000010
00000000
00000000
00000000
00010000
00000000
00000000
00000100
00000000
00000000
00001000
00000000
00000000
00000001
00000000
00000000
,
00000100
00000000
00001000
00010000
00100000
01000000
00100000
10000000
00010000
10000000
01000000
00100000
00001000
00010000
00001000
00000010
,
00000100
00000000
00000010
00000000
00000001
00000000
00000100
00000000
00000010
00000000
00001000
00000000
00000100
00000000
00010000
00000000
00001000
00010000
00000000
00000000
00000000
00000000
00001000
01000000
00000000
00000000
00000000
00000000
00001000
00010000
00000000
00000000
,
00000000
00000000
00000000
00000000
00101000
00000000
00001000
00100000
00010000
00000000
00010000
00000010
00001000
00000000
00001000
01000000
,
00010000
00000000
00010000
00000100
00001000
00000000
00001000
00100000
00010000
00000000
00010000
00000000
00001000
01000000
00010000
00000000
,
10010000
00000000
10000000
01000000
00010000
00000000
00010000
00100000
00001000
00000000
00001000
00000100
00000010
00000000
00000010
00001000
,
00000100
00000000
00000100
00000001
00001000
00000000
00001000
00010000
00000100
00000100
00001000
00010000
00001000
00001000
00000100
00010000
,
00010000
10000000
01000000
01000000
00010000
00000000
01010000
00000000
00000000
00000000
00011000
00000000
00000000
00000000
00000100
00000000
,
00011000
00000000
00000000
00000000
00001000
00001000
00001000
00000000
00010000
00000000
00011000
00000000
00000000
00000000
01001000
00000000
,
00000000
01000000
01100000
10000000
01000000
00010000
00011000
00010010
,
00000000
00000000
00000110
00000000
00000001
00000100
00001000
00010000
00100000
10000000
01000000
00010000
00001000
00010000
00001000
00010000
,
00000100
00001000
00001000
00001000
00000200
00000000
00000000
00000000
00000000
00000000
00000000
00000000
00000000
00000000
00000000
00000000
,
00000000
00000000
00000000
00000000
,
00000000
00000300
00000000
00000000
;
