#TITLE:透明はまだらに世界を告げて;
#ARTIST:あさき×剣;
#TITLETRANSLIT:Toumei wa madara ni sekai wo tsugete;
#ARTISTTRANSLIT:Asaki×Tsurugi;
#BANNER:Toumei wa madara ni sekai wo tsugete.png;
#BACKGROUND:Toumei wa madara ni sekai wo tsugete-bg.png;
#JACKET:Toumei wa madara ni sekai wo tsugete-jacket.png;
#CDTITLE:./CDTITLES/GITADORA.PNG;
#MUSIC:Toumei wa madara ni sekai wo tsugete.ogg;
#SAMPLESTART:61.857;
#SAMPLELENGTH:15;
#BPMS:0=210;
#BGCHANGES:0=../../../BGAs/tm0004.mp4=1=0=0=1=====;

//---------------dance-single - t7r----------------
#NOTES:
     dance-single:
     t7r:
     Beginner:
     6:
     :
0000
0000
0000
0000
,
0000
0000
0000
0000
,
0000
0000
0000
0000
,
0000
0000
0000
0000
,
0000
0000
0000
0000
,
0000
0000
0000
0000
,
0000
0000
0000
0000
0000
0000
0000
1000
,
0000
0000
0000
0000
,
0000
0000
0000
0000
0000
0000
0000
0001
,
0000
0000
0010
0000
,
0100
0000
0000
0000
0000
0000
0000
1000
,
0000
0000
0000
0000
0000
0000
0000
0010
,
0000
0000
0000
0000
0100
0000
0000
0001
,
0000
0000
0000
0000
0000
0000
0000
0010
,
0000
0000
0100
0000
0100
0000
0000
1000
,
0000
0000
0000
0000
,
0000
0000
0000
0000
0010
0000
0000
0100
,
0000
0000
0000
0000
0000
0000
0000
0001
,
0000
0000
0000
0000
0000
0000
0000
1000
,
0000
0000
0001
0000
,
0010
0000
0000
0000
0001
0000
0000
1000
,
0000
0000
0000
0000
0001
0000
0000
0100
,
0000
0000
0001
0000
0001
0000
0000
1000
,
0000
0000
0100
0000
,
0010
0000
0000
0000
0100
0000
0000
1000
,
0000
0000
0001
0000
0001
0000
0000
0100
,
0000
0010
0010
0000
,
1001
0000
0000
0000
,
1000
0000
0000
0000
,
0100
0000
0000
0000
,
0010
0000
0000
0000
,
0001
0000
0000
0000
,
0100
0000
0000
0000
0000
0000
0000
0010
,
0000
0000
0000
0000
0000
0000
0000
1000
,
0000
0000
0000
0000
0000
0000
0000
0001
,
0000
0000
0010
0000
,
0001
0000
0000
0000
0000
0000
0000
1000
,
0000
0000
0010
0000
,
1000
0000
0000
0000
0000
0000
0000
0001
,
0000
0000
0100
0000
,
0001
0000
0000
0000
0000
0000
0000
1000
,
0000
0000
0100
0000
,
1000
0000
0000
0000
,
0010
0000
0010
0000
,
1000
0000
1000
0000
,
0100
0000
0100
0000
,
0001
0000
0001
0000
,
0010
0000
0000
0000
,
0001
0000
0000
0000
,
0100
0000
0100
0000
,
1000
0000
0000
0000
,
0000
0010
0000
0010
,
0000
0010
0000
0010
,
0010
0000
0000
0000
0000
0000
0000
0100
,
0000
0000
0000
0000
0000
0000
0000
1001
,
0000
0000
0000
0000
,
1000
0000
0000
0000
0100
0000
0000
0010
,
0000
0000
0000
0000
,
0001
0000
0000
0000
0100
0000
0000
0010
,
0000
0000
0000
0000
1000
0000
0000
0001
,
0000
0000
0000
0000
0010
0000
0000
0100
,
0000
0000
0000
0000
1000
0000
0000
0001
,
0000
0000
0000
0000
,
0100
0000
0100
0000
,
0100
0000
0000
0000
,
0010
0000
0010
0000
,
0010
0000
0000
0000
0000
0000
0000
1001
,
0000
0000
0000
0000
,
1000
0000
0000
0000
0100
0000
0000
0010
,
0000
0000
0000
0000
,
0001
0000
0000
0000
1000
0000
0000
0010
,
0000
0000
0100
0000
0100
0000
0000
0001
,
0000
0000
0010
0000
0010
0000
0000
0100
,
0000
0000
1000
0000
1000
0000
0000
0001
,
0000
0000
0100
0000
0100
0000
0000
0010
,
0000
0000
0000
0000
,
1000
0000
0000
0000
,
0100
0000
0000
0000
,
0010
0000
0000
0000
,
0001
0000
1000
0000
,
0010
0000
0100
0000
,
0001
0000
0000
0000
,
0000
0000
1000
0000
,
1000
0000
0000
0000
0000
0000
0000
0100
,
0000
0000
0000
0000
0000
0000
0000
0010
,
0000
0000
0000
0000
0000
0000
0000
0001
,
0000
0000
0000
0000
0100
0000
0000
0010
,
0000
0000
0000
0000
0000
0000
0000
1000
,
0000
0000
0010
0000
0010
0000
0000
0100
,
0000
0000
0000
0000
,
0000
0000
0000
0000
0001
0000
0000
1000
,
0000
0000
0000
0000
0000
0000
0000
0100
,
0000
0000
0000
0000
,
0001
0000
0100
0000
,
1000
1000
0000
0000
;

//---------------dance-single - t7r----------------
#NOTES:
     dance-single:
     t7r:
     Easy:
     8:
     :
0000
0000
0000
0000
,
0000
0000
0000
0000
,
0000
0000
0000
0000
,
0000
0000
0000
0000
,
0000
0000
0000
0000
,
0000
0000
0000
0000
,
0000
0000
0000
0000
0000
0000
0000
0020
,
0000
1030
0001
0100
,
0001
0000
1000
0000
0100
0000
0000
0020
,
0000
0031
1000
0010
,
0100
0000
0000
0000
0010
0000
0000
2000
,
0000
0000
3001
0000
0010
0000
0000
0002
,
0000
0000
1003
0000
0100
0000
0000
0020
,
0000
0000
0130
0000
1000
0000
0000
0002
,
0000
0000
0103
0000
0010
0000
0000
0200
,
0000
0000
0301
0000
1000
0000
0000
0200
,
0000
0000
0310
0000
0001
0000
0000
2000
,
0000
0000
3010
0000
0100
0000
0000
0001
,
0000
0010
0000
1001
0000
0000
0000
2000
,
0000
3100
0010
0001
,
1000
0000
0010
0000
0100
0000
0000
0020
,
0000
0000
1030
0000
0001
0000
0100
0001
,
0000
0000
1000
0000
0010
0000
0000
0200
,
0000
0310
1000
0001
,
0010
0000
0001
0000
1000
0000
0000
0200
,
0000
0000
0310
0000
0001
0000
0000
2001
,
0000
3010
0100
0001
,
1000
1000
1000
1000
,
1000
1000
1000
1000
,
0100
0100
0100
0100
,
0100
0100
0010
0001
,
0100
0100
0100
0100
,
0100
0000
0100
0000
0010
0000
0000
2000
,
0000
0000
3001
0000
0010
0000
0000
0002
,
0000
0000
1003
0000
0010
0000
0000
0120
,
0000
0000
1030
0000
0010
0000
0000
1000
,
0000
0000
0100
0000
0010
0000
0000
0001
,
0000
0000
0100
0000
0010
0000
0000
1000
,
0000
0000
0000
0001
0000
0010
0000
0002
,
0000
0000
1003
0000
0010
0000
0000
0200
,
0000
0000
0310
0000
1000
0000
0000
0002
,
0000
0013
0100
1000
,
0010
0100
0001
1000
,
0100
0001
0200
0310
,
0100
0001
0200
1300
,
0001
0100
0020
0130
,
1000
0100
0020
0130
,
0010
1000
0200
0310
,
0100
0001
0200
0310
,
0001
1000
0010
0100
,
0002
0000
0010
0000
1003
0000
0000
2001
,
0000
3100
0010
0100
,
0001
0100
0010
0100
,
1000
1000
0000
0001
0001
0000
0100
0100
,
0000
0000
0000
0000
0000
0000
0000
2010
,
0000
0000
3001
0000
0010
0000
0000
0002
,
0000
0000
1003
0000
0100
0000
0000
0020
,
0000
0000
0130
0000
1000
0000
0000
0002
,
0000
0000
0103
0000
0010
0000
0000
0200
,
0000
0000
0301
0000
0010
0000
0000
0200
,
0000
0000
1300
0000
0010
0000
0000
0200
,
0000
0000
0310
0000
1000
0000
0000
0200
,
0000
0000
0310
0000
0001
0000
0000
2000
,
0000
3100
0001
0100
,
0010
0000
0100
0000
1000
0000
0000
0002
,
0000
0000
0103
0000
0010
0000
0000
1001
,
0000
0000
0100
0000
0010
0100
0000
1002
,
0000
0000
0103
0000
1000
0000
0000
0200
,
0000
0000
0301
0000
0010
0000
0000
2000
,
0000
0000
3010
0000
0100
0000
0000
2000
,
0000
0000
3010
0000
0001
0000
0000
0020
,
0000
0000
0130
0000
0001
0000
0000
0020
,
0000
0000
0130
0000
1000
0000
0000
0020
,
0000
0000
1030
0000
0100
0000
0000
0020
,
0000
0000
0031
0000
0100
0000
0000
0002
,
0000
0000
1003
0000
0100
0000
0000
2100
,
0000
0000
3001
0000
0100
0000
0000
1020
,
0000
0000
1030
0001
0000
0010
0000
0021
,
0000
0000
0031
0000
1000
0000
0010
0200
,
0000
0000
1000
0000
0010
0000
0301
0020
,
0000
0000
1000
0000
0100
0000
0031
2000
,
0000
3010
0100
0001
,
0100
0000
0100
0000
0010
0000
0000
2000
,
0000
0000
3100
0000
0010
0100
0000
0021
,
0000
0000
0031
0000
1000
0001
0000
0200
,
0000
0000
1300
0000
0100
0000
0000
0020
,
0000
0000
0130
0000
0001
0000
0000
0020
,
0000
0000
0130
0000
0010
0000
0000
2000
,
0000
0000
3010
0000
0100
0000
0000
1002
,
0000
0000
0103
0000
0010
0000
0000
0200
,
0000
0000
1300
0000
0100
0000
0000
0002
,
0000
0000
0010
0000
1003
0000
0001
2000
,
0000
0010
3001
0100
,
0010
0000
0000
0000
,
0000
2002
0000
0000
,
0000
0000
0000
0000
,
0000
0000
0000
0000
,
0000
0000
0000
0000
,
3003
0000
0000
0000
;

//---------------dance-single - t7r----------------
#NOTES:
     dance-single:
     t7r:
     Medium:
     11:
     :
0000
0000
0000
0000
,
0000
0000
0000
0000
,
0000
0000
0000
0000
,
0000
0000
0000
0000
,
0000
0000
0000
0000
,
0000
0000
0000
0000
,
0000
0000
0000
0000
0000
0000
0000
0200
,
0000
0301
1000
0010
,
0100
0000
0100
0000
0001
0000
0000
2000
,
0000
3100
0010
0001
,
1000
1000
0000
0000
0001
0001
0000
0200
,
0000
0000
0310
0000
1000
0000
0001
2000
,
0000
0000
3100
0000
0010
0000
0001
0020
,
0000
0000
0031
0000
1000
0000
0010
0200
,
0000
0000
0310
0000
1000
0000
0100
0020
,
0000
0000
0130
0000
1000
0000
0001
0200
,
0000
0000
0310
0000
1000
0000
0001
0020
,
0000
0000
0031
0000
1000
0000
0010
2000
,
0000
3100
0000
1100
0000
1000
0000
1002
,
0000
0103
0010
0000
0100
0001
1000
0000
,
0100
0000
1000
0000
0001
0000
0100
0020
,
0000
0130
0001
0000
0010
0100
1000
0020
,
0000
0000
0130
0000
0001
0000
0100
0020
,
0000
1030
0001
0000
0010
0001
1000
0000
,
0010
0000
1000
0000
0001
0000
0010
0200
,
0000
0310
0001
0000
0100
0000
0001
2000
,
0000
3010
0100
0000
0001
1000
0001
0000
,
1000
0000
0100
0000
0001
0000
0100
0010
,
0000
0010
0000
0000
0100
0000
1000
0000
,
0001
0000
0100
0000
1000
0000
0100
0010
,
0000
0010
0000
0000
0100
0000
0001
0000
,
1000
0000
0010
0000
0001
0000
0010
0100
,
0000
0100
0000
0000
0001
1000
0000
1002
,
0000
0000
0103
0000
0010
1000
0000
0200
,
0000
0000
0310
0000
0001
0001
0000
2001
,
0000
0000
3100
0000
0010
0000
0001
1000
,
0000
0010
0000
0100
0000
0001
0000
0020
,
0000
0130
1000
0000
0001
1000
0000
0100
,
0000
0010
0000
0001
0000
0100
0000
0020
,
0000
0130
0001
0000
0010
0000
1000
0020
,
0000
0130
0000
1000
0000
0001
0000
0200
,
0000
0310
0100
0000
0001
0000
1000
0200
,
0000
0310
0001
0000
0100
0010
1000
0000
,
0001
0010
0200
0001
,
0310
0001
0200
0010
,
0301
1000
0020
0100
,
1030
0000
0100
0000
0010
0100
1000
0000
,
0010
0100
0020
0001
,
0130
0001
0020
1000
,
0130
0010
0000
0010
0001
0000
0100
0000
,
0020
0000
0100
0000
1030
0001
1000
0200
,
0000
0310
0100
0000
0001
0000
0100
0000
,
1000
0010
0100
0010
,
0001
0001
0000
0010
0010
0000
1000
1000
,
0000
0000
0000
0000
0000
0000
0000
2001
,
0000
3100
0010
0000
0100
0000
1000
0001
,
0000
0100
0010
0000
0100
0000
0001
0020
,
0000
0130
1000
0000
0001
0000
0100
0010
,
0000
0100
0001
0000
1000
0000
0100
0020
,
0000
0000
0130
0000
0001
0100
0000
0020
,
0000
0000
0130
0000
1000
0000
0001
0200
,
0000
0000
0310
0000
0100
1000
0000
0200
,
0000
0000
0310
0000
1000
0000
0001
0020
,
0000
0031
0100
1000
,
0100
0000
0010
0000
0100
0000
0001
2000
,
0000
0000
3100
0000
0010
0100
0000
0001
,
0000
0100
0010
0000
0001
1000
0000
0020
,
0000
1030
0001
0000
1000
0100
0000
2000
,
0000
3001
0100
0000
0001
1000
0000
0020
,
0000
0130
0001
0000
1000
0100
0000
0020
,
0000
0130
1000
0000
0001
0010
0000
2100
,
0000
0000
0001
0000
3010
0000
0000
0102
,
0000
0000
1000
0000
0013
0000
0000
2010
,
0000
0000
0001
0000
3100
0000
0000
0012
,
0000
0000
1000
0000
0103
0010
0000
2000
,
0000
3001
0010
0000
1000
0010
0000
0002
,
0000
1003
0010
0000
0001
0010
0000
0200
,
0000
0301
1000
0010
0000
1010
0000
1200
,
0000
1300
0001
0000
0010
0001
0000
0200
,
0000
0000
1000
0000
0310
0000
1000
0200
,
0000
0000
0001
0000
0310
0000
0001
2000
,
0000
0010
0001
0000
,
0100
0000
0100
0000
0001
0000
0000
3020
,
0000
0000
0001
0000
0130
0001
0000
0020
,
0000
1000
1000
0000
0130
0000
0000
0020
,
0000
0031
1000
0000
0001
0100
0000
0002
,
0000
1003
0100
0000
1000
0001
0000
0020
,
0000
0130
1000
0000
0010
0100
0000
0002
,
0000
0103
0010
0000
0100
0000
0001
2000
,
0000
3100
0001
0000
0100
0010
0000
0002
,
0000
0103
1000
0000
0100
0010
0000
0200
,
0000
0301
1000
0000
0100
0010
0001
2000
,
0000
3010
0100
0000
0001
1000
0010
1000
,
0001
0000
0000
0000
,
0000
2002
0000
0000
,
0000
0000
0000
0000
,
0000
0000
0000
0000
,
0000
0000
0000
0000
,
3003
0000
0000
0000
;

//---------------dance-single - t7r----------------
#NOTES:
     dance-single:
     t7r:
     Hard:
     14:
     :
0000
0000
0000
0000
,
0000
0000
0000
0000
,
0000
0000
0000
0000
,
0000
0000
0000
0000
,
0000
0000
0000
0000
,
0000
0000
0000
0000
,
0000
0000
0000
0000
0000
0000
0000
2000
,
0000
3100
1000
0000
1010
0000
1010
0000
,
1001
0000
1001
0000
0101
0000
0100
0002
,
0000
0013
0100
1000
0010
0100
0001
1000
,
0001
0001
0000
0000
1000
1000
0000
0002
,
0000
0103
0010
0000
0100
0100
1000
0200
,
0000
0310
1000
0000
0100
0100
0010
0200
,
0000
0301
0100
0000
0010
0010
0100
2000
,
0000
3001
0100
0000
0010
0100
0001
2000
,
0000
3010
0100
0000
0010
0010
0001
0020
,
0000
0130
0001
0000
0010
0010
0100
0020
,
0000
1030
0010
0000
0100
0100
1000
0002
,
0000
0103
0010
2000
0000
3100
0010
0002
,
0000
1003
0100
0000
0001
0100
1000
0000
,
0100
0001
0100
0000
1000
0000
0001
0020
,
0000
0031
1000
0000
0001
0100
1000
0200
,
0000
0310
1000
0000
0001
0010
0100
2000
,
0000
3010
0001
0000
0010
1000
0010
0000
,
0001
0010
1000
0000
0100
0000
0001
0200
,
0000
0310
0001
1000
0001
0100
0010
2000
,
0000
3001
0010
0001
1000
0010
0100
0000
,
0001
0000
0001
0000
0001
0000
1000
0010
,
0100
0010
1000
0000
0100
1000
0001
1000
,
0010
0000
0010
0000
0010
0100
0001
0100
,
0010
0100
0001
0000
0010
0100
1000
0100
,
0010
0000
0010
0000
0010
0000
0010
0001
,
1000
0001
0010
0001
0100
0010
0000
2001
,
0000
3100
0010
0000
0001
0100
0010
2000
,
0000
3100
0010
0000
0001
0001
0000
1002
,
0000
1003
0010
0000
0100
0100
0010
0200
,
0000
0301
1000
0000
0100
0100
0010
0200
,
0000
1300
0001
0000
0010
0010
0001
2000
,
0000
3010
0100
0001
0000
0010
0100
2000
,
0000
3100
0010
0000
0100
0100
1000
0002
,
0000
0103
0001
0000
0100
0100
0010
2000
,
0000
3100
0010
0100
1000
0010
0100
0001
,
0010
1000
0010
0100
0010
0001
1000
0001
,
0200
0000
1000
0000
0310
0000
0100
0002
,
0010
0000
1000
0000
0103
0000
0001
1000
,
0200
0000
0001
0000
0310
0000
0100
2000
,
0010
0000
0001
0000
3100
1000
0010
0010
,
0200
0000
1000
0000
0310
0000
0100
0002
,
0010
0000
1000
0000
0103
0000
0001
1000
,
0200
0001
0000
0010
1300
0010
0100
0000
,
0020
0000
0001
0000
0130
0010
1000
0002
,
0000
1003
0100
0001
0100
0010
0100
1000
,
0100
0010
0100
0001
0100
1000
0001
0100
,
0010
0010
0000
0100
0100
0000
0001
0001
,
0000
0000
0000
0000
0000
0000
0000
2001
,
0000
3100
0010
0000
0100
0100
0001
0200
,
0000
0310
0001
0000
0100
0100
0010
0200
,
0000
1300
0100
0000
0010
0010
0100
0002
,
0000
0013
0100
0000
1000
1000
0001
0200
,
0000
0301
0010
0000
1000
1000
0010
0200
,
0000
0310
0001
0000
1000
1000
0010
0200
,
0000
0310
0001
0000
1000
1000
0100
0020
,
0000
0130
0001
0000
1000
0100
1000
0002
,
0000
0103
0010
0100
1000
0100
0010
0100
,
0001
0100
0010
0100
0001
1000
0100
0020
,
0000
1030
0010
0000
0100
0010
0001
2000
,
0000
3010
0100
0000
0001
1000
0000
1002
,
0000
0103
1000
0000
0100
0100
0001
2000
,
0000
3100
0001
0000
0100
0100
1000
0020
,
0000
0031
0010
0000
0100
0100
0001
0020
,
0000
1030
0010
0000
0100
0100
1000
0002
,
0000
1003
1000
0100
0010
0001
0100
0020
,
0000
0031
0001
0010
0100
0010
1000
0200
,
0000
0301
0001
0100
0010
0100
1000
0002
,
0000
1003
0010
0000
0100
0001
1000
0200
,
0000
0001
0001
0000
0310
0001
1000
0020
,
0000
0001
0001
0000
0130
0010
1000
0200
,
0000
0010
0010
1300
0000
1001
0000
1020
,
0000
0001
0031
0010
0100
0010
1000
0200
,
0000
0310
1000
0000
0010
0010
0001
0200
,
0000
0310
0001
0000
0010
0010
1000
0002
,
0000
0000
0010
0000
1003
0000
0010
0100
,
0000
0000
0001
0000
1000
0100
0000
0010
,
0000
0000
0100
0000
1000
0101
0000
2001
,
0000
3001
1000
0001
1000
0001
1000
0020
,
0000
0031
0010
0000
0100
0100
0010
2000
,
0100
0000
3001
1000
0100
0100
0010
0002
,
0100
0000
1003
0001
0100
0100
0010
2000
,
0000
3100
0011
0000
0100
0100
0010
1002
,
0000
0013
0201
0000
1300
1000
0100
0010
,
0200
0000
1000
0000
0310
0010
0100
0001
,
0020
0000
1000
1000
0130
1000
0010
0002
,
0000
1003
0100
0001
0010
0100
1000
0001
,
0000
0000
0000
0000
0000
0000
0000
0000
0000
0000
0000
0000
0000
0000
0100
0010
,
0100
0010
0000
0000
2002
0000
0000
0000
0000
0000
0000
0000
0000
0000
0000
0000
,
0000
0000
0000
0000
,
0000
0000
0000
0000
,
0000
0000
0000
0000
,
3003
0000
0000
0000
;

//---------------dance-single - t7r----------------
#NOTES:
     dance-single:
     t7r:
     Challenge:
     17:
     :
0000
0000
0000
0000
,
0000
0000
0000
0000
,
0000
0000
0000
0000
,
0000
0000
0000
0000
,
0000
0000
0000
0000
,
0000
0000
0000
0000
,
0000
0000
0000
0000
0000
0000
0000
2001
,
0000
3100
0001
0100
1000
0100
0001
0100
,
0010
0000
0100
0000
0001
0000
0100
0000
1000
0000
0010
0100
0010
0000
2010
0000
,
0000
0000
3001
0000
1000
0100
1000
0001
0100
0010
0100
0010
1000
0001
0100
0001
,
1000
1001
0000
0000
0001
1001
0000
2010
,
0000
0100
3001
1000
0100
0100
0010
0002
,
0000
0100
1003
0001
0100
0100
0001
2000
,
0000
0100
3001
1000
0100
0100
0010
0200
,
0000
0000
0001
0000
0310
0000
0001
1000
0100
0000
0100
0000
1000
0000
1020
0000
,
0000
0001
0130
0010
0100
0100
0001
0020
,
0000
1000
0130
0010
0100
0100
0010
0012
,
0000
1000
0013
0001
0100
0100
0010
1020
,
0000
0130
0001
0021
0000
0130
1000
1002
,
0000
0000
0103
0010
1000
0000
0001
0000
0010
0000
1000
0000
0010
0000
0001
0000
,
1000
0010
0001
0010
1000
0001
0010
1020
,
0000
0130
0001
0100
1000
0010
0001
0021
,
0000
0000
0130
0001
1000
0000
0100
0000
0010
0000
0100
0000
0001
0000
0201
0000
,
0000
0001
0310
0000
0001
0100
1000
0100
,
0001
1000
0100
0001
0100
1000
0001
0201
,
0000
1300
0100
0001
0010
0100
1000
1020
,
0000
0000
0130
0001
1000
0000
0001
0010
0100
1000
0100
1000
0001
0100
0001
0100
,
0010
1000
0010
1000
0010
1000
0001
1100
,
0001
0000
1100
0000
0010
0000
1000
0000
0010
0000
1100
0000
0010
0100
0000
0100
,
0010
0001
0010
0001
1000
0101
1000
0101
,
0010
0000
0001
0000
1000
0001
0100
0001
1000
0000
0101
0000
1000
0000
0101
0000
,
1000
0000
0100
0010
0001
0000
0100
0010
1000
0000
0100
0010
0001
0000
1100
0000
,
0001
0000
1100
0000
1000
0010
1000
0010
0100
0001
0100
0001
1000
0001
0020
0000
,
0000
0000
0130
0000
0011
0000
0000
0000
0101
0000
0001
1000
0100
0000
1200
0000
,
0000
0000
1300
0000
0001
1000
0001
1000
0010
0000
0110
0000
0000
0000
2001
0000
,
0000
0000
3100
0000
0010
0000
0100
1000
0001
0000
0100
0000
0010
0000
0200
0000
,
0000
0000
0301
0000
1000
0000
0001
0010
0100
0000
1000
0000
0010
0000
0200
0000
,
0000
0000
0310
0000
1000
0000
0001
1000
0010
0000
1000
0000
0100
0000
0102
0000
,
0000
1003
0010
0012
0000
1003
0010
0210
,
0000
0000
0310
0000
1000
0000
0001
0010
0100
0000
1000
0000
0001
0000
0200
0000
,
0000
0000
0310
0000
1000
0000
0001
1000
0100
0000
0010
0000
0001
0000
2001
0000
,
0000
3010
1010
1000
0100
0100
0001
0201
,
0000
0000
0310
0000
0001
0000
1000
0001
0100
0000
1000
0000
0100
0000
0100
0000
,
0120
0000
0001
0100
2030
0000
3100
0020
,
0100
0000
1000
0100
0032
0000
0103
0020
,
0100
0000
0001
0100
2030
0000
3100
0020
,
0100
0000
1000
0100
0031
0001
0100
0100
,
0210
0000
1000
0010
0302
0000
0013
0200
,
0010
0000
0000
0000
0001
0000
0010
0000
1300
0000
0001
0000
0100
0000
0010
1000
,
0001
0100
0010
0100
1100
0100
0001
1000
,
0200
0000
0001
0000
0010
0000
0000
0000
1300
0001
1000
0010
0100
0001
2000
0000
,
0000
3100
0010
0100
0100
0100
0001
0100
,
0100
0000
0100
0000
0010
0000
0100
0000
0100
0000
0100
0000
1100
0000
1000
0001
,
0100
1100
0000
0100
0101
0000
1001
1001
,
0000
0000
0000
0000
0000
0000
0000
1020
,
0000
0000
1030
0000
0100
0000
1000
0001
0100
0000
0100
0000
0010
0000
0100
0000
,
1000
0000
0100
0000
0010
0000
1000
0001
0100
0000
0100
0000
0010
0000
2000
0000
,
0000
0000
3001
0000
0100
0000
0001
1000
0100
0000
0100
0000
0010
0000
0100
0000
,
0001
0000
0100
0000
0010
0000
0001
1000
0100
0000
0100
0000
0010
0000
1002
0000
,
0000
0000
0100
0000
1003
0000
0001
1000
0100
0000
0100
0000
1000
0000
2010
0000
,
0000
0000
0100
0000
3001
0000
1000
0001
0100
0000
0100
0000
0010
0000
0210
0000
,
0000
0000
1000
0000
0310
0000
1000
0001
0100
0000
0100
0000
0001
0000
0021
0000
,
0000
0000
0001
0000
0130
0000
1000
0001
0100
0000
0100
0000
0010
0000
0120
0000
,
0000
0000
0130
1000
0100
0000
0100
0000
0010
0000
0010
0000
1000
0000
0100
0001
,
0100
0000
0100
0000
0010
0000
0010
0000
0001
1000
0100
0000
1000
0000
1020
0000
,
0000
0130
0001
1000
0002
0023
0130
0011
,
0000
0000
1000
0000
0010
0000
1000
0001
1000
0001
1000
0001
1000
0001
0020
0000
,
0000
0000
0031
0000
0100
0000
0010
1000
0100
0000
0100
0000
0001
0000
0100
0000
,
1000
0000
0010
0000
0001
0000
0010
1000
0100
0000
0100
0000
0010
0000
0012
0000
,
0000
0000
1003
0000
0001
0000
0010
0001
0100
0000
0100
0000
1000
0000
0100
0000
,
0001
0000
0010
0000
1000
0000
0010
0001
0100
0000
0100
0000
0010
0000
2010
0000
,
0000
0000
0100
0000
3001
0000
0010
0001
0100
0000
0100
0000
0001
0000
0012
0000
,
0000
0000
0100
0000
1003
0000
0010
1000
0100
0000
0100
0000
0010
0000
0120
0000
,
0000
0000
1000
0000
0130
0000
0010
0001
0100
0000
0100
0000
0010
0000
0120
0000
,
0000
0000
0001
0000
0130
0000
0010
1000
0100
0000
0100
1000
0001
0000
0201
0000
,
0000
1300
0100
0001
0020
2030
3001
0201
,
0000
0301
0100
1000
0020
0032
1003
1200
,
0000
0310
1000
1001
0000
0101
0000
2001
,
0000
0000
3100
0000
0010
0000
0001
1000
0010
0100
0010
0100
0001
1000
0200
0000
,
0000
0001
0310
0000
0011
0001
1000
1020
,
0000
0000
0001
0000
0130
0000
0001
1000
0100
0000
0100
0000
0010
0000
0021
0000
,
0000
0000
1000
0000
0100
0000
0001
0100
,
1000
0100
0031
0000
1000
0001
0100
0020
,
0000
0000
0001
0000
0100
1030
0000
2001
,
0000
0000
3001
0010
0001
0000
1000
0000
0001
0000
0001
0000
1000
0000
2001
0000
,
0000
0000
3100
0000
1010
0000
1000
0001
0100
0000
0100
0000
1000
0000
0100
0000
,
0010
0000
0100
0001
1000
0000
0001
1000
0100
0000
0100
0000
0010
0000
0021
0000
,
0000
0000
0130
1000
0001
0000
1000
0001
0100
0000
0100
0000
0010
0000
0201
0000
,
0000
0000
1300
0100
0010
0000
1000
0001
0100
0000
0100
0000
0001
0000
2001
0000
,
0000
0000
3100
0000
0011
0000
0001
1000
0100
0000
0100
0000
0001
0000
0100
0000
,
0010
0000
0100
1000
0001
0000
1000
0010
0100
0000
0100
0000
1000
0000
1200
0000
,
0000
0310
1001
1000
0100
0100
0010
1002
,
0000
0000
1003
0010
1000
0000
0001
0010
0001
1000
0100
0010
0001
0100
0010
1000
,
0001
0000
0000
0000
0000
0000
0000
0000
0200
0300
0000
0000
0000
0000
0000
0000
0200
0300
0000
0000
0000
0000
0000
0000
1000
0000
0000
0000
0000
0000
0000
0000
0020
0030
0000
0000
0000
0000
0000
0000
0020
0030
0000
0000
0000
0000
0000
0000
0001
0000
0000
0000
0000
0000
0000
0000
0100
0000
0000
0000
0010
0000
0000
0000
,
1000
0001
0100
0000
2020
0000
0000
0000
0000
0000
0000
0000
0000
0000
0000
0000
,
0000
0000
0000
0000
,
0000
0030
0002
0000
,
0000
0000
0000
0000
,
3003
0000
0000
0000
;

//---------------dance-double - t7r----------------
#NOTES:
     dance-double:
     t7r:
     Easy:
     8:
     :
00000000
00000000
00000000
00000000
,
00000000
00000000
00000000
00000000
,
00000000
00000000
00000000
00000000
,
00000000
00000000
00000000
00000000
,
00000000
00000000
00000000
00000000
,
00000000
00000000
00000000
00000000
,
00000000
00000000
00000000
00000000
00000000
00000000
00000000
00020000
,
00000000
00030100
00001000
00000001
,
00000100
00000000
00000010
00000000
00001000
00000000
00000000
00000200
,
00000000
00010300
00001000
00000000
,
01000000
00000000
00000000
00000000
00100000
00000000
00000000
20000000
,
00000000
00000000
31000000
00000000
00100000
00000000
00000000
00002000
,
00000000
00000000
00013000
00000000
00000100
00000000
00000000
00002000
,
00000000
00000000
00003001
00000000
00000100
00000000
00000000
00000002
,
00000000
00000000
00000013
00000000
00001000
00000000
00000000
00020000
,
00000000
00000000
00031000
00000000
01000000
00000000
00000000
00200000
,
00000000
00000000
01300000
00000000
00010000
00000000
00000000
20000000
,
00000000
00000000
31000000
00000000
00010000
00000000
00000000
00002000
,
00000000
00000000
00003100
00000000
00000010
00000000
00000000
00002000
,
00000000
00003001
00000010
00000100
,
00001000
00000000
00000001
00000000
00000100
00000000
00000000
00002000
,
00000000
00013000
01000000
00100000
,
00010000
00000000
10000000
00000000
00100000
00000000
00000000
20000000
,
00000000
30100000
01000000
00010000
,
10000000
00000000
01000000
00000000
00010000
00000000
00000000
00002000
,
00000000
00000000
00003010
00000000
00000100
00000000
00000000
00000020
,
00000000
00000031
00001000
00000010
,
00010000
00010000
00010000
00001000
,
01000000
01000000
01000000
00100000
,
10000000
10000000
10000000
01000000
,
00010000
00001000
00000100
00000001
,
00001000
00001000
00001000
00000100
,
00010000
00000000
00010000
00000000
00001000
00000000
00000000
00012000
,
00000000
00000000
01003000
00000000
00010000
00000000
00000000
20000000
,
00000000
00000000
31000000
00000000
00100000
00000000
00000000
00002000
,
00000000
00000000
00013000
00000000
00000010
00000000
00000000
00002000
,
00000000
00000000
00003001
00000000
00000100
00000000
00000000
00000020
,
00000000
00000000
00001030
00000000
00000100
00000000
00000000
00010000
,
00000000
00001000
00000000
00100000
00000000
00010000
00000000
20000000
,
00000000
00000000
30100000
00000000
01000000
00000000
00000000
00020000
,
00000000
00000000
00130000
00000000
00001000
00000000
00000000
00020000
,
00000000
00030010
00001000
00000001
,
00000010
00001000
00010000
01000000
,
10000000
00100000
02000000
03000000
,
00010000
00100000
00002000
00003000
,
00010000
00000010
00000200
00000300
,
00000001
00000010
00000100
00000100
,
00010000
00001000
00200000
00300000
,
00001000
00010000
00000020
00000030
,
00010000
00001000
00010000
00100000
,
10000000
00000000
01000000
00000000
00010000
00000000
00000000
00002000
,
00000000
00013000
00000100
00001000
,
00000001
00000100
00000010
00001000
,
00010000
00000000
00000000
00100000
00000000
00000000
01000000
00000000
,
00000000
00000000
00000000
00000000
00000000
00000000
00000000
20010000
,
00000000
00000000
31000000
00000000
00100000
00000000
00000000
00020000
,
00000000
00000000
00130000
00000000
00001000
00000000
00000000
00020000
,
00000000
00000000
00030010
00000000
00001000
00000000
00000000
00000002
,
00000000
00000000
00000013
00000000
00000100
00000000
00000000
00000020
,
00000000
00000000
00000031
00000000
00000100
00000000
00000000
00002000
,
00000000
00000000
00013000
00000000
01000000
00000000
00000000
00200000
,
00000000
00000000
00310000
00000000
10000000
00000000
00000000
00200000
,
00000000
00000000
00310000
00000000
00001000
00000000
00000000
00020000
,
00000000
00030100
00001000
00000100
,
00000010
00000000
00000001
00000000
00000100
00000000
00000000
00002000
,
00000000
00000000
00013000
00000000
00100000
00000000
00000000
02000000
,
00000000
00000000
03010000
00000000
10000000
00000000
00000000
20010000
,
00000000
00000000
31000000
00000000
00010000
00000000
00000000
00002000
,
00000000
00000000
00003010
00000000
00000100
00000000
00000000
00000020
,
00000000
00000000
00000031
00000000
00001000
00000000
00000000
00000002
,
00000000
00000000
00000103
00000000
00001000
00000000
00000000
00020000
,
00000000
00000000
00130000
00000000
10000000
00000000
00000000
02000000
,
00000000
00000000
03010000
00000000
00001000
00000000
00000000
00200000
,
00000000
00000000
00301000
00000000
00010000
00000000
00000000
00002000
,
00000000
00000000
00003010
00000000
00000100
00000000
00000000
00000020
,
00000000
00000000
00000031
00000000
00000100
00000000
00000000
00002000
,
00000000
00000000
00013000
00000000
00001000
00000000
00000000
00020000
,
00000000
00000000
00000000
01030000
00000000
11000000
00000000
10200000
,
00000000
00000000
01300000
00000000
00010000
00000000
00000000
20000000
,
00000000
00000000
31000000
00000000
00100000
00000000
00000000
00002000
,
00000000
00000000
00013000
00000000
00000010
00000000
00000000
00000200
,
00000000
00000000
00001000
00000000
00000010
00000000
00000000
00000301
,
00000000
00000000
00000010
00000000
00001000
00000000
00000000
00020000
,
00000000
00000000
00001000
00000000
00030100
00000000
00000000
00010200
,
00000000
00000000
00010300
00000000
00001000
00000000
00010000
00002000
,
00000000
00000000
01003000
00000000
00010000
00000000
00000000
20000000
,
00000000
00000000
30100000
00000000
00010000
00000000
00000000
00002000
,
00000000
00000000
00003010
00000000
00000001
00000000
00000000
00000020
,
00000000
00000000
00000130
00000000
00001000
00000000
00000000
00000002
,
00000000
00000000
00000103
00000000
00001000
00000000
00000000
00020000
,
00000000
00000000
01030000
00000000
10000000
00000000
00000000
00200000
,
00000000
00000000
00310000
00000000
00100000
00000000
01000000
00020000
,
00000000
00130000
00001000
00010000
,
00000100
00000000
00000000
00000000
,
00000000
00022000
00000000
00000000
,
00000000
00000000
00000000
00000000
,
00000000
00000000
00000000
00000000
,
00000000
00000000
00000000
00000000
,
00033000
00000000
00000000
00000000
;

//---------------dance-double - t7r----------------
#NOTES:
     dance-double:
     t7r:
     Medium:
     11:
     :
00000000
00000000
00000000
00000000
,
00000000
00000000
00000000
00000000
,
00000000
00000000
00000000
00000000
,
00000000
00000000
00000000
00000000
,
00000000
00000000
00000000
00000000
,
00000000
00000000
00000000
00000000
,
00000000
00000000
00000000
00000000
00000000
00000000
00000000
02000000
,
00000000
03010000
10000000
01000000
,
00100000
00000000
00001000
00000000
00010000
00000000
00000000
00000020
,
00000000
00000130
00000001
00001000
,
00000100
00000100
00000000
00000000
00010000
00010000
00000000
00002000
,
00000000
00000000
01003000
00000000
00010000
00000000
10000000
02000000
,
00000000
00000000
03100000
00000000
00010000
00000000
00000000
20000000
,
00000000
00000000
30100000
00000000
00010000
00000000
00001000
00020000
,
00000000
00000000
00031000
00000000
00000010
00000000
00000100
00000020
,
00000000
00000000
00000031
00000000
00001000
00000000
00000001
00000020
,
00000000
00000000
00001030
00000000
00010000
00000000
00000000
00000200
,
00000000
00000000
00010300
00000000
00001000
00000000
00000000
02000000
,
00000000
03010000
00000000
10010000
00000000
10000000
00000000
02000000
,
00000000
03010000
00001000
00000000
00000010
00000000
00001000
00000000
,
00010000
00000000
00100000
00000000
00010000
00000000
00001000
00000200
,
00000000
00000000
00001300
00000000
00010000
00000000
01000000
00020000
,
00000000
00000000
00031000
00000000
00000100
00000000
00001000
00020000
,
00000000
00130000
10000000
01000000
,
00100000
00000000
00001000
00000000
00010000
00000000
00001000
00000020
,
00000000
00000000
00000031
00000000
00000100
00000000
00000000
00002000
,
00000000
00000000
00013000
00000000
00001000
01000000
00010000
00000000
,
10000000
00000000
10000000
00000000
10000000
00000000
01000000
00100000
,
00000000
00100000
00000000
00000000
00001000
00000000
00010000
00000000
,
00000100
00000000
00000100
00000000
00000100
00000000
00001000
00000010
,
00000000
00000010
00000000
00000000
00000100
00000000
00000001
00000000
,
00000010
00000000
00000010
00000000
00000010
00000000
00001000
00010000
,
00000000
00010000
00000000
00000000
00001000
01000000
00000000
00200000
,
00000000
00000000
01300000
00000000
00010000
10000000
00000000
02000000
,
00000000
00000000
03010000
00000000
00001000
01000000
00000000
00200000
,
00000000
00000000
00310000
00000000
00001000
00000000
00000010
00000100
,
00000000
00001000
00000000
00000001
00000000
00000100
00000000
00002000
,
00000000
00000000
00013000
00000000
01000000
00100000
00000000
00010000
,
00000000
10000000
00000000
00100000
00000000
00010000
00000000
00002000
,
00000000
00000000
00003010
00000000
00000100
00000000
00001000
00000002
,
00000000
00000103
00000000
00001000
00000000
00010000
00000000
00200000
,
00000000
01300000
00010000
00000000
10000000
00000000
01000000
00100000
,
00010000
00000000
00001000
00000000
00000010
00000100
00000010
00000000
,
00001000
00000001
00000020
00001030
,
00010000
00001000
00000020
00000031
,
00000100
00001000
00020000
00130000
,
10000000
00000000
00100000
00000000
00010000
00001000
00010000
00000000
,
00001000
00010000
02000000
13000000
,
01000000
00010000
00002000
01003000
,
00100000
00010000
00000000
00010000
00001000
00000000
00000010
00000000
,
00000200
00000000
00000001
00000000
00000310
00000001
00001000
00000002
,
00000000
00000103
00000010
00000000
00001000
00000000
00000100
00000000
,
00010000
00001000
01000000
00010000
,
00100000
00100000
00000000
00001000
00001000
00000000
00010000
00010000
,
00000000
00000000
00000000
00000000
00000000
00000000
00000000
00021000
,
00000000
00000000
00030100
00000000
00001000
00000000
00000001
00000100
,
00000000
00000000
00001000
00000000
00010000
00000000
00000100
00002000
,
00000000
00000000
00003100
00000000
00010000
00000000
00001000
00010000
,
00000000
00000000
00100000
00000000
01000000
00000000
00010000
20000000
,
00000000
00000000
31000000
00000000
00100000
00010000
00000000
00200000
,
00000000
00000000
00301000
00000000
00010000
00000000
00001000
00000020
,
00000000
00000000
00000130
00000000
00001000
00000001
00000000
00000200
,
00000000
00000000
00001300
00000000
00010000
00000000
00000100
00002000
,
00000000
00000000
00003100
00000000
00010000
00001000
00010000
00000000
,
00001000
00010000
00001000
00000000
00010000
00000000
00001000
02000000
,
00000000
00000000
03010000
00000000
10000000
00100000
00000000
02000000
,
00000000
00000000
03100000
00000000
10000000
01000000
00000000
00020000
,
00000000
00031000
00010000
00000000
00000100
00000000
00001000
00000002
,
00000000
00000103
00000010
00000000
00000100
00000000
00000001
00000020
,
00000000
00000000
00001030
00000000
00010000
00000000
00000100
00002000
,
00000000
00003001
00001000
00000000
00000001
00000000
00000100
00000020
,
00000000
00000000
00010030
00000000
00001000
00100000
00000000
00002000
,
00000000
00000000
01003000
00000000
00010000
10000000
00000000
02000000
,
00000000
00000000
03010000
00000000
00001000
00000010
00000000
00000200
,
00000000
00000310
00000001
00000000
00000100
00000000
00000001
00002000
,
00000000
00003100
00010000
00000000
00001000
00010000
00000000
00002000
,
00000000
01003000
00010000
00000000
10000000
01000000
00000000
00200000
,
00000000
00301000
00010000
00001000
00000000
00010000
00000000
00000020
,
00000000
00000130
00000001
00000000
00001000
00000000
00000100
00000020
,
00000000
00000000
00000130
00010000
00000000
00001000
00000000
02000000
,
00000000
00000000
03010000
00000000
10000000
01000000
00100000
00020000
,
00000000
00000000
01000000
00000000
,
10000000
00000000
00000000
00000000
00100000
00000000
00000000
00032000
,
00000000
00000000
00000000
00000000
00000100
00000100
00000000
00003002
,
00000000
00000000
00000103
00000000
00001000
00000000
00010000
00002000
,
00000000
01003000
00010000
00000000
10000000
01000000
00000000
00200000
,
00000000
00301000
00010000
00000000
00001000
00000100
00000000
00000020
,
00000000
00001030
00000001
00000000
00000010
00000100
00000000
00020000
,
00000000
00031000
00000010
00000000
00000100
00000000
00010000
00002000
,
00000000
01003000
00010000
00000000
10000000
00100000
00000000
02000000
,
00000000
03100000
10000000
00000000
01000000
00010000
00000000
00002000
,
00000000
00003010
00000100
00000000
00001000
00000000
00000001
00000200
,
00000000
00001300
00010000
00000000
00100000
10000000
01000000
00000000
,
00010000
00000000
00000000
00000000
,
00000000
00022000
00000000
00000000
,
00000000
00000000
00000000
00000000
,
00000000
00000000
00000000
00000000
,
00000000
00000000
00000000
00000000
,
00033000
00000000
00000000
00000000
;

//---------------dance-double - t7r----------------
#NOTES:
     dance-double:
     t7r:
     Hard:
     14:
     :
00000000
00000000
00000000
00000000
,
00000000
00000000
00000000
00000000
,
00000000
00000000
00000000
00000000
,
00000000
00000000
00000000
00000000
,
00000000
00000000
00000000
00000000
,
00000000
00000000
00000000
00000000
,
00000000
00000000
00000000
00000000
00000000
00000000
00000000
00002000
,
00000000
00103000
00010000
00000000
00110000
00000000
00110000
00000000
,
10010000
00000000
10010000
00000000
10100000
00000000
00100000
00020000
,
00000000
00031000
00000010
00000000
00000100
00001000
00000001
00000000
,
00000100
00000100
00000000
00000000
00001000
00001000
00000000
00020000
,
00000000
00030100
00001000
00000000
00000100
00000100
00010000
00002000
,
00000000
01003000
00010000
00000000
10000000
10000000
01000000
00200000
,
00000000
00301000
00010000
00000000
00000010
00000010
00001000
00000002
,
00000000
00000103
00001000
00000000
00010000
00000000
01000000
00200000
,
00000000
00310000
10000000
00000000
00100000
00100000
01000000
00020000
,
00000000
10030000
01000000
00000000
00010000
00010000
00001000
00020000
,
00000000
00031000
00000100
00000000
00000001
00000001
00000010
00000200
,
00000000
00001300
00000001
00000200
00000000
00001300
00010000
00002000
,
00000000
00013000
01000000
00000000
00100000
00010000
10000000
00000000
,
00100000
01000000
00010000
00000000
10000000
00000000
00100000
00020000
,
00000000
00031000
00000100
00000000
00000010
00001000
00000001
00000020
,
00000000
00000130
00001000
00000000
00000001
00000000
00000100
00002000
,
00000000
00013000
00000100
00000000
00010000
00001000
01000000
00000000
,
00001000
00010000
00000100
00000000
00010000
00000000
00001000
00020000
,
00000000
00130000
10000000
00000000
01000000
00100000
00001000
00020000
,
00000000
00030010
00001000
00000000
00000010
00000100
00000001
00000000
,
00000010
00000000
00000010
00000000
00000010
00000000
00000010
00001000
,
00010000
00000000
00010000
00000000
00010000
00000000
00010000
00001000
,
01000000
00000000
01000000
00000000
01000000
00000000
01000000
00100000
,
10000000
01000000
10000000
00000000
01000000
00100000
00001000
00010000
,
00001000
00000000
00001000
00000000
00001000
00000000
00001000
00010000
,
00000010
00000000
00000110
00000000
00000100
00000001
00001000
00000200
,
00000000
00010300
00001000
00000000
00010000
01000000
00000000
00200000
,
00000000
00310000
10000000
00000000
00010000
00010000
00000000
20010000
,
00000000
31000000
00100000
00000000
01000000
01000000
10000000
00200000
,
00000000
00310000
00001000
00000000
00010000
00000100
00001000
00000002
,
00000000
00000103
00000010
00000000
00000100
00000100
00000001
00000020
,
00000000
00001030
00010000
00000100
00000000
00010000
00001000
02000000
,
00000000
03100000
10000000
00000000
01000000
01000000
00010000
00002000
,
00000000
00003100
00000010
00000000
00000100
00000100
00000001
00002000
,
00000000
00003100
00010000
00000000
00001000
00000000
00010000
00100000
,
01000000
00000000
00010000
00100000
01000000
10000000
00010000
00100000
,
00001000
00000000
00000100
00000000
00000001
00000000
00000010
00000200
,
00000001
00000010
00001300
00000001
,
00000100
00000000
00001000
00000000
00010000
00000000
00100000
02000000
,
10000000
00000000
00100000
00000000
03010000
10000000
01000000
01000000
,
00010000
00000000
00001000
00000000
00100000
00000000
00001000
00020000
,
00001000
00000010
00030100
00001000
,
00000001
00000100
00000000
00000100
00001000
00010000
00000000
00001000
,
02000000
00000000
00100000
00000000
03010000
10000000
00010000
00200000
,
00000000
00301000
00010000
00000000
00000010
00001000
00000100
00000000
,
00000010
00000001
00000100
00000000
00001000
01000000
00010000
00000000
,
00100000
00100000
00000000
00001000
00001000
00000000
00010000
00010000
,
00000000
00000000
00000000
00000000
00000000
00000000
00000000
00021000
,
00000000
00030100
00001000
00000000
00000100
00000100
00000010
00000002
,
00000000
00000103
00000010
00000000
00000100
00000100
00001000
00020000
,
00000000
00031000
00100000
00000000
01000000
01000000
00100000
00020000
,
00000000
10030000
00100000
00000000
01000000
01000000
00010000
20000000
,
00000000
31000000
00010000
00000000
00001000
00001000
00010000
00000020
,
00000000
00000130
00000001
00000000
00000010
00000010
00000100
00020000
,
00000000
00031000
00010000
00000000
00001000
00001000
01000000
00200000
,
00000000
10300000
00010000
00000000
00100000
00001000
00010000
00000200
,
00000000
00010300
00001000
00000000
00000100
00000001
00000010
00000000
,
00000100
00010000
00001000
00000000
01000000
00010000
00100000
00020000
,
00000000
10030000
00100000
00000000
01000000
00010000
00000000
00200000
,
00000000
00301000
00010000
00000000
00001000
00000010
00000000
00012000
,
00000000
01003000
00010000
00000000
01000000
01000000
00100000
20000000
,
00000000
31000000
00100000
00000000
01000000
01000000
00010000
00002000
,
00000000
00013000
00000010
00000000
00000100
00000100
00000010
00002000
,
00000000
00003001
00000010
00000000
00000100
00000100
00000010
00002000
,
00000000
00013000
01000000
00000000
10000000
10000000
00100000
02000000
,
00000000
03100000
00010000
00000000
00001000
00001000
00010000
00002000
,
00000000
00003010
00000100
00000000
00001000
00001000
00000001
00000200
,
00000000
00001300
00010000
00000000
00001000
01000000
00010000
00200000
,
00000000
10000000
10000000
00000000
01300000
00100000
00000000
00002000
,
00000000
00000100
00000100
00000000
00013000
00001000
00000000
00000020
,
00000000
00000130
00001000
00000001
00000000
00001001
00000000
00002100
,
00000000
00003100
00010000
00000000
00001000
01000000
00010000
00200000
,
00000000
00310000
10000000
00000000
00100000
00010000
00001000
00020000
,
00000000
00031000
00000010
00000000
00000001
00000001
00000100
00002000
,
00000000
00000000
00000100
00000000
00013000
00000000
00001000
00010000
,
00000000
00000000
01000000
00000000
00100000
00010000
00000000
10000000
,
00000000
00000000
00100000
00000000
01000000
00011000
00000000
00010200
,
00000000
00010300
00001000
00010000
00001000
00010000
00001000
00000200
,
00000000
00000310
00001000
00000000
00000001
00000001
00000010
00000200
,
00000010
00000000
00001300
00000000
00000100
00000100
00010000
00002000
,
00010000
00000000
00103000
00000000
01000000
01000000
10000000
00200000
,
00000000
00310000
00001000
00000000
00010000
00010000
00100000
02000000
,
00100000
00000000
03010000
00000000
00100000
00100000
00001000
00020000
,
00001000
00000000
00030010
00000000
00001000
00001000
00000100
00000020
,
00001000
00000000
00000130
00000000
00001000
00000001
00000100
00002000
,
00000000
00013000
00100000
00000000
10000000
01000000
00100000
00001000
,
00010000
00000000
00000000
00000000
00000000
00000000
00000000
00000000
00000000
00000000
00000000
00000000
00000000
00000000
00000100
00001000
,
00000100
00001000
00000000
00000000
00020200
00000000
00000000
00000000
00000000
00000000
00000000
00000000
00000000
00000000
00000000
00000000
,
00000000
00000000
00000000
00000000
,
00000000
00000000
00000000
00000000
,
00000000
00000000
00000000
00000000
,
00030300
00000000
00000000
00000000
;

//---------------dance-double - t7r----------------
#NOTES:
     dance-double:
     t7r:
     Challenge:
     17:
     :
00000000
00000000
00000000
00000000
,
00000000
00000000
00000000
00000000
,
00000000
00000000
00000000
00000000
,
00000000
00000000
00000000
00000000
,
00000000
00000000
00000000
00000000
,
00000000
00000000
00000000
00000000
,
00000000
00000000
00000000
00000000
00000000
00000000
00000000
00021000
,
00000000
00031000
00000100
00000001
00001000
00000100
00010000
00000000
,
00001000
00000000
00010000
00000000
01000000
00000000
10000000
00000000
00010000
00000000
01000000
00100000
10000000
00000000
20100000
00000000
,
00000000
00000000
30010000
00000000
10000000
01000000
10000000
00000000
00010000
00100000
00001000
00010000
00001000
00010000
00001000
00000000
,
00010000
00010100
00000000
00000000
00001000
01001000
00000000
00012000
,
00000000
00010000
01003000
00100000
01000000
01000000
00001000
00020000
,
00000000
00000100
00031000
00010000
00000100
00000100
00001000
00000020
,
00000000
00000100
00001030
00000001
00000100
00000100
00001000
00020000
,
00000000
00001000
00030010
00001000
00000100
00000100
00010000
00002000
,
00000000
00010000
00103000
00010000
01000000
01000000
00001000
00020000
,
00000000
00001000
00030100
00010000
00001000
00001000
01000000
02100000
,
00000000
00100000
03010000
10000000
01000000
01000000
00010000
00012000
,
00000000
00003010
00000100
00002100
00000000
00003001
00000100
00002000
,
00000000
00000000
00013000
00000100
00001000
00000000
00000001
00000000
00000010
00000000
00001000
00000000
00010000
00000000
00000010
00000000
,
00000100
00001000
00010000
00000100
00001000
00010000
00100000
00120000
,
00000000
10030000
00100000
00010000
00001000
00100000
01000000
01020000
,
00000000
00031000
00011000
00000000
00001100
00000100
00000010
00002010
,
00000000
00003001
00000100
00001000
00010000
00000100
00000010
00001000
,
00010000
00000010
00001000
00010000
01000000
00100000
10000000
20010000
,
00000000
31000000
00010000
00001000
00000010
00000001
00001000
00001002
,
00000000
00000000
00000103
00000010
00001000
00000000
00000100
00010000
00001000
00010000
00001000
00010000
00001000
01000000
00010000
10000000
,
00010000
01000000
00010000
01000000
00010000
01000000
00100000
00011000
,
00000000
00000000
00011000
00000000
00000100
00000000
00001000
00000000
00000100
00000000
00011000
00000000
00000100
00001000
00000000
00001000
,
00000001
00000100
00000001
00000100
00000001
00000100
00000001
00000010
,
00001000
00000000
00010000
00000000
01000000
00000000
10000000
00100000
01000000
00000000
00010000
00100000
00001000
00000000
00010000
00000010
,
00001000
00000000
00000010
00001000
00000001
00000000
00000010
00000100
00001000
00000000
00000001
00000100
00000010
00000000
00011000
00000000
,
00000000
00000000
00011000
00000000
01000000
00010000
01000000
00010000
10000000
00100000
10000000
00100000
01000000
00010000
20000000
00000000
,
00000000
00000000
31000000
00000000
00110000
00000000
00000000
00000000
00101000
00000000
00001000
00010000
00000010
00000000
00001020
00000000
,
00000000
00000000
00000130
00000000
00000001
00001000
00000001
00001000
00000010
00000000
00000110
00000000
00000000
00000000
00020010
00000000
,
00000000
00031000
00010000
00100000
10000000
00010000
00100000
00002000
,
00000000
00013000
00001000
00000010
00000002
00000203
00002300
00203000
,
00000000
00310000
10000000
00100000
00010000
00000100
00001000
00001200
,
00000000
00010300
00001000
00021000
00000000
00031000
01000000
02010000
,
00000000
03010000
10000000
01000000
00010000
00000010
00000100
00000210
,
00000000
00001300
00000001
00000100
00001000
00100000
00010000
20010000
,
00000000
30010000
00110000
00100000
00001000
00001000
00010000
00021000
,
00000000
00000000
00031000
00000000
00000100
00000000
00000001
00000010
00000100
00000000
00001000
00000000
00010000
00000000
01000000
00000000
,
01200000
00000000
00010000
01000000
20300000
00000000
31000000
00020000
,
00001000
00000000
01000000
00001000
00030200
00000000
00001300
00000020
,
00000100
00000000
00000001
00000100
00002030
00000000
00003001
00000010
,
00002000
00000000
00013000
01000000
10000000
00100000
01000000
01000000
,
02100000
00000000
10000000
00100000
03020000
00000000
00130000
00002000
,
00010000
00000000
00000010
00010000
00203000
00000000
00302000
00000000
,
00013000
00001000
00000010
00000001
00000101
00000001
00001000
00000100
,
00000020
00000000
00001000
00000000
00000100
00000000
00000000
00000000
00000031
00001000
00000010
00001000
00000010
00000000
00020000
00000000
,
00000000
01030000
00100000
01000000
01000000
01000000
00010000
00001000
,
00001000
00000000
00001000
00000000
00000100
00000000
00000010
00000000
00000010
00000000
00000010
00000000
00011000
00000000
00010000
00001000
,
01000000
01100000
00000000
00001000
00011000
00000000
00000100
00000110
,
00000000
00000000
00010000
00000000
00001000
01000000
00000000
10020000
,
00000000
00000000
10030000
00000000
01000000
00000000
10000000
00010000
01000000
00000000
01000000
00000000
00100000
00000000
00010000
00000000
,
00001000
00000000
00010000
00000000
00000100
00000000
00001000
00000001
00000100
00000000
00000100
00000000
00000001
00000000
00000020
00000000
,
00000000
00000000
00000031
00000000
00000100
00000000
00000001
00001000
00000100
00000000
00000100
00000000
00000010
00000000
00001000
00000000
,
00010000
00000000
00001000
00000000
01000000
00000000
00010000
10000000
01000000
00000000
01000000
00000000
00100000
00000000
00120000
00000000
,
00000000
00000000
00100000
00000000
10030000
00000000
01000000
00100000
01000000
00000000
01000000
00000000
00010000
00000000
00021000
00000000
,
00000000
00000000
00001000
00000000
00030010
00000000
00000100
00000010
00000100
00000000
00000100
00000000
00001000
00000000
00012000
00000000
,
00000000
00000000
00010000
00000000
00103000
00000000
01000000
00100000
01000000
00000000
01000000
00000000
00010000
00000000
00021000
00000000
,
00000000
00000000
00001000
00000000
00030100
00000000
00001000
00000001
00000100
00000000
00000001
00001000
00000100
00000000
00020100
00000000
,
00000000
00000000
00030100
00001000
00000001
00000000
00000100
00000000
00001000
00000000
00010000
00000000
00000100
00000000
00000010
00000000
,
00001000
00000000
00010000
00000000
01000000
00000000
01000000
00100000
00010000
00000000
00010000
00000000
10000000
00000000
10200000
00000000
,
00000000
00310000
00001000
00000100
00000002
00000023
00000130
00011000
,
00000000
00000000
00010000
00000000
00000100
00000000
00010000
00001000
00010000
00001000
00010000
00001000
00010000
00001000
00200000
00000000
,
00000000
00000000
00310000
00000000
10000000
00000000
00100000
10000000
01000000
00000000
01000000
00000000
00010000
00000000
00002000
00000000
,
00000000
00000000
00003010
00000000
00000100
00000000
00000010
00000001
00000100
00000000
00000100
00000000
00001000
00000000
00021000
00000000
,
00000000
00000000
00130000
00000000
00010000
00000000
00100000
10000000
01000000
00000000
01000000
00000000
00010000
00000000
00002000
00000000
,
00000000
00000000
00003010
00000000
00001000
00000000
00000010
00000001
00000100
00000000
00000100
00000000
00000010
00000000
00001002
00000000
,
00000000
00000000
00000013
00000000
00001000
00000000
00010000
00000010
00000100
00000000
00000100
00000000
00001000
00000000
00021000
00000000
,
00000000
00000000
00130000
00000000
01000000
00000000
00001000
00100000
01000000
00000000
01000000
00000000
10000000
00000000
20010000
00000000
,
00000000
00000000
30100000
00000000
00010000
00000000
00001000
00100000
01000000
00000000
01000000
00000000
00010000
00000000
00012000
00000000
,
00000000
00000000
00003010
00000000
00001000
00000000
00010000
00000010
00000100
00000000
00000100
00000000
00000001
00000000
00001002
00000000
,
00000000
00000103
00001000
00010000
00000020
00000230
00002300
00023000
,
00000000
00000000
00031000
01000000
00100000
00000000
10000000
00000000
02000000
00000000
03020000
00000000
00031000
00000000
00201000
00000000
,
00000000
00310000
00001000
00001010
00000000
00000110
00000000
00001002
,
00000000
00000000
00000103
00000000
00000010
00000000
00001000
00000100
00010000
00001000
00010000
00001000
01000000
00000000
00200000
00000000
,
00000000
00010000
01300000
00000000
10100000
10000000
01000000
00020000
,
00000000
01000000
00031000
00000000
00011000
00001000
00000010
00000120
,
00000000
00000000
00001000
00000000
00000100
00000000
00000001
00000100
,
00001000
00000100
00000031
00000000
00000100
00001000
00010000
00002000
,
00000000
00000000
00000100
00000000
00010000
01003000
00000000
01200000
,
00000000
00000000
10300000
00100000
10000000
00000000
00010000
00000000
00100000
00000000
00100000
00000000
00001000
00000000
00021000
00000000
,
00000000
00030100
00001010
00000010
00000100
00000100
00000001
00001000
,
00000100
00000000
00010000
00001000
01000000
00000000
00010000
10000000
01000000
00000000
01000000
00000000
00100000
00000000
00210000
00000000
,
00000000
00000000
00301000
00010000
00000010
00000000
00001000
00000001
00000100
00000000
00000100
00000000
00001000
00000000
00021000
00000000
,
00000000
00030100
00001010
00000000
00001100
00000100
00010000
00012000
,
00000000
00000000
01003000
00000000
00110000
00000000
00010000
10000000
01000000
00000000
01000000
00000000
00010000
00000000
00001000
00000000
,
01000000
00000000
00100000
00010000
00001000
00000000
00010000
00000010
00001000
00000000
00000001
00000000
00000010
00000000
00000210
00000000
,
00000000
00000310
00001001
00000001
00000100
00001000
00010000
00000020
,
00000000
00000000
00000130
00001000
00010000
00000000
00100000
10000000
01000000
00000000
00010000
00001000
00010000
00000010
00001000
00000001
,
00001000
00000000
00000010
00000000
00000100
00000000
00001000
00000000
00010000
00000000
01000000
00000000
00100000
00000000
00001000
00010000
,
00000100
00010000
00001000
00000000
00022000
00000000
00000000
00000000
00000000
00000000
00000000
00000000
00000000
00000000
00000000
00000000
,
00000000
00000000
00000000
00000000
,
00000000
00003000
00000020
00000000
,
00000000
00000000
00000000
00000000
,
00030030
00000000
00000000
00000000
;
