#TITLE:The Time Is Now;
#ARTIST:John Cena & The Trademarc;
#BANNER:The Time Is Now.png;
#BACKGROUND:The Time Is Now-bg.png;
#JACKET:The Time Is Now-jacket.png;
#CDTITLE:./CDTITLES/NONE.PNG;
#MUSIC:The Time Is Now.ogg;
#SAMPLESTART:24.827;
#SAMPLELENGTH:15;
#BPMS:0=87;

//---------------dance-single - t7r----------------
#NOTES:
     dance-single:
     t7r:
     Beginner:
     1:
     :
0000
0000
0000
0000
,
0000
0000
0000
0000
,
0000
0000
0000
0000
,
0000
0000
0000
0000
,
0000
0000
0000
0000
,
0001
0000
0000
0000
,
1000
0000
0000
0000
,
0010
0000
0000
0000
,
0100
0000
0000
0000
,
1000
0000
1000
0000
,
0001
0000
0001
0000
,
0100
0000
0100
0000
,
0010
0000
0010
0000
,
1000
0000
0000
0000
,
0001
0000
0000
0000
,
0010
0000
0000
0000
,
0100
0000
0000
0000
,
1000
0000
1000
0000
,
0001
0000
0001
0000
,
0100
0000
0100
0000
,
0010
0000
0010
0000
,
1000
0000
1000
1000
,
1000
0000
0001
0001
,
0001
0000
0100
0100
,
0100
0000
0010
0010
,
0010
0000
1000
0000
,
0001
0000
0100
0000
,
0001
0000
0010
0000
,
0100
0000
1000
0000
,
0000
0001
0001
0000
,
0000
1000
1000
0000
,
0000
0010
0010
0000
,
0000
0100
0100
0000
,
0000
0010
0000
0010
,
0000
1000
0000
1000
,
0000
0001
0000
0001
,
0000
0010
0000
0010
,
0010
0000
0000
0000
,
0001
0000
0000
0000
,
1000
0000
0000
0000
,
0010
0000
0000
0000
,
0100
0000
0000
0000
;

//---------------dance-single - t7r----------------
#NOTES:
     dance-single:
     t7r:
     Easy:
     5:
     :
0000
0000
0000
0000
,
0000
0000
0000
0000
,
0000
0000
0000
0000
,
0002
0000
2003
0000
,
3020
0000
0230
0000
,
0310
1000
2000
3000
,
0001
0010
0020
0030
,
0100
1000
2000
3000
,
0010
0100
0200
0300
,
0001
0001
0001
0000
,
1000
0010
1000
0000
,
1000
1000
1000
0000
,
0001
0010
0001
0000
,
1000
0100
0010
0010
,
0001
0100
0010
0010
,
1000
0001
0100
0100
,
0001
1000
0100
0100
,
2000
3010
1000
1100
,
0001
0100
0010
0100
,
0001
0010
0100
0110
,
0001
1000
0010
0110
,
1000
1100
1000
1001
,
0001
0101
0001
1001
,
2000
3100
0010
0001
,
0200
0310
1000
0001
,
2000
3100
0002
0103
,
2000
3010
0002
0013
,
2000
3100
0020
1030
,
0002
0103
0020
0031
,
1000
0001
1000
0000
,
0001
0010
0001
0000
,
0001
1000
0001
0000
,
1000
0010
1000
0000
,
0001
1000
1001
0000
,
1000
0100
1100
0000
,
0010
0100
0110
0000
,
0100
0001
1001
0000
,
0020
1030
0200
0310
,
0002
0103
0020
1030
,
0002
0013
0200
0301
,
2000
3010
0200
1300
,
2002
0000
0000
0000
,
0000
0000
0000
0000
,
3003
0000
0000
0000
;

//---------------dance-single - t7r----------------
#NOTES:
     dance-single:
     t7r:
     Medium:
     7:
     :
0000
0000
0000
0000
,
0000
0000
0000
0000
,
0000
0000
0000
0000
,
0002
0000
0203
0000
,
0320
0000
2030
0000
,
3001
0010
0001
0000
2000
0000
3100
0000
,
1000
0010
1000
0000
0002
0000
0103
0000
,
0001
0010
0100
0000
0020
0000
0031
0000
,
1000
0010
0100
0000
0020
0000
1030
0000
,
0000
0001
0001
0000
0001
0000
0001
0000
,
0000
0100
0010
0000
0100
0000
0110
0000
,
0000
1000
1000
0000
1000
0000
1000
0000
,
0000
0010
0100
0000
0010
0000
0110
0000
,
1000
0000
0100
0000
1000
0001
0100
0000
,
0001
0000
0010
0000
0001
0100
0010
0000
,
1000
0000
0100
0000
0010
0100
1000
0000
,
0001
0000
0100
0000
0010
0100
0001
0000
,
2000
0000
3100
0000
1000
0010
0110
0000
,
0001
0010
0100
0000
0010
0001
1000
0000
,
0010
0100
0001
0000
1000
0100
0010
0000
,
0100
1000
0010
0000
0100
0010
1000
0000
,
0001
0000
0011
0000
0001
0100
0110
0000
,
1000
0000
1010
0000
1000
0100
0110
0000
,
0001
0100
1000
0000
0100
0100
0010
0000
,
1000
0100
0000
0001
0100
0000
1000
1000
,
0020
0000
1030
0000
0001
0010
0011
0000
,
2000
0000
3100
0000
0010
0001
1001
0000
,
0200
0000
0310
0000
1000
0001
0101
0000
,
0020
0000
0130
0000
1000
0010
0000
1000
,
0000
0001
0001
0000
1000
0001
1000
0000
,
0010
0100
0001
0000
0010
0100
0110
0000
,
0000
1000
1000
0000
0001
1000
0001
0000
,
1000
0100
0010
0000
0001
0100
0010
0000
,
0100
0000
0110
0000
0100
0010
0110
0000
,
1000
0100
0001
0000
0100
1000
0001
0000
,
0100
0000
0101
0000
0010
1000
1010
0000
,
1000
0000
1100
0000
0010
0001
2001
0000
,
3010
0100
0001
0000
0020
0000
0130
1000
,
0010
0100
0001
0000
0020
0000
0031
0100
,
0010
1000
0100
0000
0010
0001
0100
1000
,
0100
0001
0010
0000
0100
0001
0100
1000
,
2002
0000
0000
0000
,
0000
0000
0000
0000
,
3003
0000
0000
0000
;

//---------------dance-single - t7r----------------
#NOTES:
     dance-single:
     t7r:
     Hard:
     11:
     :
0000
0000
0000
0000
,
0000
0000
0000
0000
,
0000
0000
0000
0000
,
0002
0000
2003
0000
,
3020
0000
0000
0000
0230
0000
0000
0310
,
1000
0000
0000
0000
0000
0000
0001
0000
0000
0000
0000
0000
0010
0000
0000
0000
0100
0000
0000
0000
0000
0020
0000
0000
0001
0000
0000
0000
0000
0000
0000
0000
0000
0000
0000
0000
0130
0000
0000
0000
0000
0000
0000
0000
0000
0000
0000
0000
,
1000
0000
0000
0000
0000
0000
0010
0000
0000
0000
0000
0000
0100
0000
0000
0000
0001
0000
0000
0000
0000
2000
0000
0000
0100
0000
0000
0000
0000
0000
0000
0000
0000
0000
0000
0000
3001
0000
0000
0000
0000
0000
0000
0000
0000
0000
0000
0000
,
0100
0000
0000
0000
0000
0000
0010
0000
0000
0000
0000
0000
1000
0000
0000
0000
0001
0000
0000
0000
0000
0020
0000
0000
0100
0000
0000
0000
0000
0000
0000
0000
0000
0000
0000
0000
0031
0000
0000
0000
0000
0000
0000
0000
0000
0000
0000
0000
,
0100
0000
0000
0000
0000
0000
0010
0000
0000
0000
0000
0000
1000
0000
0000
0000
0010
0000
0000
0000
0000
0200
0000
0000
0010
0000
0000
0000
0000
0000
0000
0000
0000
0000
0000
0000
0301
0000
0000
0000
0000
0000
0000
0000
0000
0000
0000
0000
,
0000
0010
0100
0000
0010
0100
0000
1000
0001
0000
1000
0001
0000
0000
0000
0000
,
0000
0100
0100
0000
0010
0010
0000
1000
0100
0000
1000
0001
0000
0001
0000
0000
,
0100
0000
0001
0000
0010
0000
1000
0000
0010
0000
0001
0100
0000
0001
0000
1000
,
0000
0001
0001
0000
1000
1000
0000
0010
0100
0000
0010
0200
0000
0000
0310
0000
,
1000
0000
0100
0000
1100
0000
0000
0001
1000
0000
0100
0000
1100
0000
1000
0001
,
0100
0000
0010
0000
1010
0000
0000
0001
0100
0000
0010
0000
1010
0000
0000
0000
,
1000
0000
0000
0000
0000
0000
0100
0000
0000
0000
0000
0000
0010
0000
0000
0000
0100
0000
0000
0000
0000
2000
0000
0000
0010
0000
0000
0000
0000
0000
3001
0000
0000
0000
0000
0000
1000
0000
0000
0000
0000
0000
0000
0000
0000
0000
0000
0000
,
0001
0000
0000
0000
0000
0000
0100
0000
0000
0000
0000
0000
0010
0000
0000
0000
0100
0000
0000
0000
0000
0002
0000
0000
0010
0000
0000
0000
0000
0000
1003
0000
0000
0000
0000
0000
0001
0000
0000
0000
0000
0000
0000
0000
0000
0000
0000
0000
,
1000
0000
0100
0000
1100
0000
0000
1000
0010
0100
0010
0000
1000
0000
0001
0010
,
0001
0000
0100
0000
0101
0000
0000
0001
0010
0100
0010
0000
0001
0000
0000
0000
,
1000
0000
0100
0001
0100
1000
0000
0100
0001
0000
0100
1000
0000
0000
0001
0100
,
0001
0100
1000
0000
0100
0000
0001
0100
1000
0000
0100
0001
0000
0100
1000
0000
,
0100
0000
0010
0000
1001
0000
0000
0010
0100
0000
0010
0000
1001
0000
0000
1000
,
0100
0000
1000
0000
0110
0000
0000
0001
0100
0000
0001
0000
0110
0000
0010
0000
,
1001
0000
0000
0000
0000
0000
0001
0000
0000
0000
0000
0000
0011
0000
0000
0000
0000
0000
0001
0000
0000
0100
0000
0000
0010
0000
0000
0000
0010
0000
0000
0000
0000
0010
0000
0000
0000
0000
0000
0000
0000
0000
1000
0000
0000
0100
0000
0000
,
1000
0000
1001
0000
0000
0000
0001
0100
0010
0000
0100
0000
0110
0000
1010
0000
,
2000
0000
0100
0000
3001
0000
0000
1000
0100
0000
1000
0000
1001
0000
0000
0000
,
0002
0000
0010
0000
1003
0000
0000
0001
0100
0000
0001
0000
1001
0000
0000
0001
,
0020
0001
0130
0000
2000
0010
3001
0000
,
0200
0000
1000
0000
0310
0000
0000
0000
2000
0000
0100
0000
3001
0000
1000
0001
,
0000
0010
0100
0000
0010
0001
0000
0010
0100
0000
0010
0001
0000
1000
0000
0001
,
0100
0010
0010
0000
0010
0010
0000
1000
0100
0000
0010
0001
0000
1000
0000
1000
,
0001
0100
0001
0000
1000
0000
0001
0010
0001
0000
1000
0100
0000
1000
0000
0001
,
1000
0010
0010
0000
0010
0010
0000
0100
0001
0000
1000
0010
0000
0010
0000
0010
,
1000
0000
0100
0000
1001
0000
0000
0001
0100
0000
1100
0000
0110
0000
0010
1000
,
0001
0000
0010
0000
1001
0000
0000
1000
0100
0000
0101
0000
0110
0000
0010
0000
,
0001
0100
1000
0000
0001
0000
0010
1000
0001
0000
1000
0100
0000
0001
0000
0100
,
0010
0001
0001
0000
1000
1000
0000
0010
0010
0000
0110
2001
0000
0000
0000
0000
,
3001
0000
0000
0000
0000
0000
0010
0000
0000
0000
0000
0000
0001
0000
0000
0000
0100
0000
0000
0000
0000
1000
0000
0000
0100
0000
0000
0000
0000
0000
0001
0000
0000
0000
0000
0000
0101
0000
0000
0000
0000
0000
0001
0000
0000
0000
0000
0000
,
1000
0000
0000
0000
0000
0000
0100
0000
0000
0000
0000
0000
0001
0000
0000
0000
0100
0000
0000
0000
0000
2000
0000
0000
0000
0000
0000
3010
0000
0000
0100
0000
0000
0000
0000
0000
0110
0000
0000
0000
0000
0000
0010
0000
0000
0000
0000
0000
,
1000
0000
0000
0000
0000
0000
0100
0000
0000
0000
0000
0000
0010
0000
0000
0000
1000
0000
0000
0000
0000
0010
0000
0000
0001
0000
0000
0000
0000
0000
0100
0000
0000
0000
0000
0000
1100
0000
0000
0000
0000
0000
0100
0000
0000
0000
0000
0000
,
0001
0000
0000
0000
0000
0000
0010
0000
0000
0000
0000
0000
0100
0000
0000
0000
0001
0000
0000
0000
0000
0200
0000
0000
0000
0000
0000
1300
0000
0000
0001
0000
0000
0000
0000
0000
1001
0000
0000
0000
0000
0000
1000
0000
0000
0010
0000
0000
,
0200
0000
0000
0000
,
0000
0000
0000
0000
,
0300
0000
0000
0000
;

//---------------dance-single - t7r----------------
#NOTES:
     dance-single:
     t7r:
     Challenge:
     14:
     :
0000
0000
0000
0000
,
0000
0000
0000
0000
,
0000
0000
0000
0000
,
2000
0000
3002
0000
,
0203
0000
0000
0000
0000
0000
0000
0000
0320
0000
0000
0000
0000
0000
1030
0100
,
1000
0000
0000
0000
0000
0000
0000
0000
0000
0000
0000
0000
0001
0000
0000
0000
0000
0000
0000
0000
0000
0000
0000
0000
0100
0000
0000
0000
0000
0000
0000
0000
0010
0000
0000
0000
0000
0000
0000
0000
0000
0000
0000
1000
0000
0000
0000
0000
0100
0000
0000
0000
0000
0000
0000
0000
0000
0000
0000
0000
1000
0000
0000
0000
0000
0000
0000
0000
0000
0000
0000
0000
1001
0000
0000
0000
0000
0000
0000
0000
0000
0000
0000
0000
0001
0000
0000
0000
0000
0000
0000
1000
0000
0000
0000
0000
,
0010
0000
0000
0000
0000
0000
0000
0000
0000
0000
0000
0000
0100
0000
0000
0000
0000
0000
0000
0000
0000
0000
0000
0000
0001
0000
0000
0000
0000
0000
0000
0000
0010
0000
0000
0000
0000
0000
0000
0000
0000
0000
0000
0001
0000
0000
0000
0000
0000
0000
0000
0000
0000
0000
0100
0000
0000
0000
0000
0000
0100
0000
0000
0000
0000
0000
0000
0000
0000
0000
0000
0000
0010
0000
0000
0000
0000
0000
0000
0000
0000
0000
0000
0000
1000
0000
0000
0000
0000
0000
0000
0001
0000
0000
0000
0000
,
0100
0000
0000
0000
0000
0000
0000
0000
0000
0000
0000
0000
0010
0000
0000
0000
0000
0000
0000
0000
0000
0000
0000
0000
1000
0000
0000
0000
0000
0000
0000
0000
0100
0000
0000
0000
0000
0000
0000
0000
0000
0000
0000
0010
0000
0000
0000
0000
0000
0000
0000
0000
0000
0000
0100
0000
0000
0000
0000
0000
0100
0000
0000
0000
0000
0000
0000
0000
0000
0000
0000
0000
1000
0000
0000
0000
0000
0000
0000
0000
0000
0000
0000
0000
0001
0000
0000
0000
0000
0000
0000
0100
0000
0000
0000
0000
,
0010
0000
0000
0000
0000
0000
0000
0000
0000
0000
0000
0000
0100
0000
0000
0000
0000
0000
0000
0000
0000
0000
0000
0000
0001
0000
0000
0000
0000
0000
0000
0000
0100
0000
0000
0000
0000
0000
0000
0000
0000
0000
0000
1000
0000
0000
0000
0000
0000
0000
0000
0000
0000
0000
0100
0000
0000
0000
0000
0000
0100
0000
0000
0000
0000
0000
0000
0000
0000
0000
0000
0000
0010
0000
0000
0000
0000
0000
0000
0000
0000
0000
0000
0000
1000
0000
0000
0000
0000
0000
0000
0001
0000
0000
0000
0000
,
1000
0100
0010
0000
0001
0100
0000
1000
0100
0000
0001
0010
0000
0010
0000
0010
,
0100
1000
1000
0000
0001
0001
0000
0100
0100
0000
0010
1000
0000
1000
0000
1000
,
0001
0010
0001
0000
1000
0000
0100
0001
0100
0000
0010
0001
0000
0001
0000
0001
,
1000
0010
0010
0000
0100
0100
0000
0010
0010
0000
1000
0001
1000
0100
1000
0001
,
0100
0000
0000
0000
0000
0000
1000
0000
0000
0000
0000
0000
0100
0000
0000
0000
0000
0000
0001
0000
0000
0000
0000
0000
1000
0000
0000
0000
0000
0000
0100
0000
0000
0000
0000
0000
0010
0000
0000
0000
0000
0000
0000
0000
0000
0000
0000
0000
0011
0000
0000
0000
0000
0000
0000
0000
0000
0000
0000
0000
0001
0000
0000
0000
0000
0000
0010
0000
0000
0000
0000
0000
0100
0000
0000
0000
0000
0000
0010
0000
0000
0000
0000
0000
0000
0000
0000
0000
0000
0000
0000
1000
0000
0000
0000
0000
,
0010
0001
0100
0000
1010
0000
0001
0100
0010
0000
0001
0010
0100
0001
0000
0001
,
1000
0000
0100
0000
0001
0100
1000
0000
0001
0100
0010
0100
0001
0100
1000
0100
,
0010
0100
0001
0100
0010
0100
1000
0100
0010
1000
0100
0010
0001
0001
0000
1000
,
0001
0000
0100
0000
1001
0001
1000
0100
0010
0100
0001
0100
1000
0000
0001
0001
,
1000
0000
0000
0000
0010
0000
0100
0000
0000
0010
0000
0000
1000
0000
0000
0000
0000
0000
0001
0000
0000
0001
0000
0000
1000
0000
0000
0100
0000
0000
0010
0000
0000
1000
0000
0000
0010
0000
0000
0000
0000
0000
0001
0000
0000
0100
0000
0000
,
0010
1000
0100
0010
0001
0100
0000
0010
0010
1000
0100
1000
0000
0000
0001
0100
,
0010
0001
0010
0000
0110
0000
1000
0001
0100
0010
1000
0100
0000
1000
0001
0100
,
1000
0100
0000
0000
0010
1000
0100
0001
0100
1000
0001
0100
1000
0000
0110
0000
,
0001
0000
0000
0000
0000
0000
0010
0000
0000
0000
0000
0000
0100
0000
0000
0000
0000
0000
0001
0000
0000
0000
0000
0000
0100
0000
0000
0000
0000
0000
0010
0000
0000
0000
0000
0000
0001
0000
0000
0000
0000
0000
0100
0000
0000
0000
0000
0000
0010
0000
0000
0000
0000
0000
0001
0000
0000
0000
0000
0000
0010
0000
0000
0000
0000
0000
0100
0000
0000
0000
0000
0000
2000
0000
0000
0000
0000
0000
0000
0000
0000
0000
0000
0000
3100
0000
0000
0000
0000
0000
0000
0001
0000
0000
0000
0000
,
1000
0000
0000
0100
0000
0000
1000
0000
0000
0000
0000
0000
1001
0000
0000
0000
0000
0000
0001
0000
0000
0100
0000
0000
0010
0000
0000
0000
0010
0000
0000
0000
0000
0010
0000
0000
0000
0000
0000
1000
0000
0000
0001
0000
0000
0100
0000
0000
,
0010
0000
1010
0000
0000
1000
0100
0010
0001
0100
0101
0000
1010
0000
1001
0000
,
1200
0000
0301
0100
1000
0001
0100
0010
1000
0010
0001
1000
0100
0001
1000
0100
,
0000
0010
0001
0100
1000
0001
0010
0100
0001
0010
0010
0000
1001
1000
0100
1000
,
1002
0000
0013
1000
0001
0000
1000
0010
0001
1000
0010
0000
0110
0000
0000
0000
,
0001
0100
0010
0000
1001
0000
1000
0100
0020
0000
0000
0000
0000
0000
0031
1000
,
0010
1000
0100
0000
0010
1000
0000
0010
0100
0000
0010
0001
0000
0001
0000
0001
,
1000
0010
0100
0000
1000
0100
0000
0001
0100
0010
0010
1000
0000
1000
0000
1000
,
0001
0010
0100
0000
0001
0000
0100
0010
0001
0100
0100
1000
0000
1000
0000
1000
,
0100
0010
0010
0000
1000
1000
0000
0001
0001
0010
0100
0110
0000
0001
1000
0001
,
0100
0010
1010
0000
1000
1100
0000
0001
0101
0000
1000
1010
0000
1000
0010
1000
,
0001
0010
0011
0000
1000
1100
0000
0001
0101
0000
1000
1010
0000
0010
1000
0001
,
0100
1000
1100
0000
0101
0000
0001
0010
0011
0010
1000
0001
0000
0001
0100
1000
,
0010
0100
0110
0000
0101
0101
0000
1010
1010
0010
0110
1001
0000
0001
1000
0001
,
0100
0000
0000
0000
0000
0000
0000
0000
0000
0000
0000
0000
0001
0000
0000
0000
0000
0000
0000
0000
0000
0000
0000
0000
0010
0000
0000
0000
0000
0000
0000
0000
0100
0000
0000
0000
0000
0000
0000
0000
0000
0000
0000
1000
0000
0000
0000
0000
0010
0000
0000
0000
0000
0000
0000
0000
0000
0000
0000
0000
1000
0000
0000
0000
0000
0000
0000
0000
0000
0000
0000
0000
1001
0000
0000
0000
0000
0000
0000
0000
0000
0000
0000
0000
0001
0000
0000
0000
0000
0000
0000
1000
0000
0000
0000
0000
,
0100
0000
0000
0000
0000
0000
0000
0000
0000
0000
0000
0000
0010
0000
0000
0000
0000
0000
0000
0000
0000
0000
0000
0000
0001
0000
0000
0000
0000
0000
0000
0000
0100
0000
0000
0000
0000
0000
0000
0000
0000
0000
0000
0001
0000
0000
0000
0000
0000
0000
0000
0000
0000
0000
0010
0000
0000
0000
0000
0000
0010
0000
0000
0000
0000
0000
0000
0000
0000
0000
0000
0000
0100
0000
0000
0000
0000
0000
0000
0000
0000
0000
0000
0000
1000
0000
0000
0000
0000
0000
0000
0001
0000
0000
0000
0000
,
0010
0000
0000
0000
0000
0000
0000
0000
0000
0000
0000
0000
0001
0000
0000
0000
0000
0000
0000
0000
0000
0000
0000
0000
1000
0000
0000
0000
0000
0000
0000
0000
0010
0000
0000
0000
0000
0000
0000
0000
0000
0000
0000
0001
0000
0000
0000
0000
0000
0000
0000
0000
0000
0000
0010
0000
0000
0000
0000
0000
0010
0000
0000
0000
0000
0000
0000
0000
0000
0000
0000
0000
1000
0000
0000
0000
0000
0000
0000
0000
0000
0000
0000
0000
0001
0000
0000
0000
0000
0000
0000
0010
0000
0000
0000
0000
,
0100
0000
0000
0000
0000
0000
0000
0000
0000
0000
0000
0000
0010
0000
0000
0000
0000
0000
0000
0000
0000
0000
0000
0000
0001
0000
0000
0000
0000
0000
0000
0000
0010
0000
0000
0000
0000
0000
0000
0000
0000
0000
0000
1000
0000
0000
0000
0000
0000
0000
0000
0000
0000
0000
0010
0000
0000
0000
0000
0000
0010
0000
0000
0000
0000
0000
0000
0000
0000
0000
0000
0000
0100
0000
0000
0000
0000
0000
0000
0000
0000
0000
0000
0000
1000
0000
0000
0000
0000
0000
0000
0001
0000
0000
0000
0000
,
0200
0000
0000
0000
,
0000
0000
0000
0000
,
0300
0000
0000
0000
;

//---------------dance-double - t7r----------------
#NOTES:
     dance-double:
     t7r:
     Easy:
     4:
     :
00000000
00000000
00000000
00000000
,
00000000
00000000
00000000
00000000
,
00000000
00000000
00000000
00000000
,
00000000
00000000
00000000
00000000
,
00000000
00000000
00000000
00000000
,
00010000
00000000
00000000
00000000
,
00001000
00000000
00000000
00000000
,
00010000
00000000
00000000
00000000
,
00000100
00000000
00000000
00000000
,
00001000
00000001
00000100
00000000
,
00001000
00010000
00100000
00000000
,
10000000
00010000
01000000
00000000
,
00010000
00100000
00001000
00000000
,
00010000
00000000
00000100
00000000
,
00001000
00000001
00001000
00000000
,
00000001
00000000
00000100
00000000
,
00001000
00010000
00001000
00000000
,
00010000
00000000
01000000
00000000
,
10000000
00100000
01000000
00000000
,
00010000
00000000
10000000
00100000
,
00010000
00000000
00001000
00000000
,
00010000
00001000
00000010
00000000
,
00000100
00001000
00000001
00000000
,
00000100
00000000
00000010
00000000
,
00001000
00000000
00000000
00000000
00000100
00000000
00010000
00010000
,
00000000
00001000
00000000
00010000
,
00000000
01000000
00000000
00100000
,
00020000
00000000
20030000
00000000
,
30200000
00000000
00320000
00000000
,
00031000
00010000
00001000
00000000
,
00010000
00000100
00001000
00000000
,
00000001
00000100
00000010
00000000
,
00010000
00001000
00011000
00000000
,
00010000
00000000
00100000
00000000
,
10000000
00000000
01000000
00000000
,
00010000
00001000
00000010
00000000
,
00000001
00000100
00001000
00000000
,
00000000
00011000
00010000
01000000
,
00000000
00110000
00100000
00001000
,
00000000
00011000
00010000
00000010
,
00000000
00000110
00000100
00000001
,
00002000
00000000
00000000
00000000
,
00000000
00000000
00000000
00000000
,
00003000
00000000
00000000
00000000
;

//---------------dance-double - t7r----------------
#NOTES:
     dance-double:
     t7r:
     Medium:
     7:
     :
00000000
00000000
00000000
00000000
,
00000000
00000000
00000000
00000000
,
00000000
00000000
00000000
00000000
,
00020000
00000000
00030200
00000000
,
00002300
00000000
00003002
00000000
,
00000103
00000000
00000001
00000010
00000001
00000000
00001000
00000000
,
00000100
00000000
00010000
00001000
00010000
00000000
00001000
00000000
,
01000000
00000000
00010000
10000000
00010000
00000000
00100000
00000000
,
00010000
00000000
10000000
01000000
10000000
00000000
00010000
00000000
,
00000000
00100000
00100000
00000000
00001000
00000000
00010000
00000000
,
00000000
00000010
00000010
00000000
00001000
00000000
00000001
00000000
,
00000100
00001000
00010000
01000000
,
00000000
10000000
10000000
00000000
00010000
00000000
00100000
00000000
,
00001000
00000000
00011000
00000000
00010000
00000100
00001000
00000000
,
00000001
00000000
00001001
00000000
00000001
00000100
00000001
00000000
,
00001000
00000000
00000010
00000000
00010000
00001000
01000000
00000000
,
00010000
00000000
00100000
00000000
00010000
10000000
00100000
00000000
,
10000000
10000000
00000000
00000000
01000000
00000000
00010000
00000000
,
00001000
00000100
00000010
00001000
,
00000001
00000010
00000100
00000000
00001000
00000000
00010000
00000000
,
00100000
00010000
10000000
00000000
00100000
00000000
01000000
00000000
,
00010000
00000000
10010000
00000000
10000000
01000000
01000000
00000000
,
00010000
00000000
00001000
00000000
00000100
00000010
00000010
00000000
,
00000000
00001000
00000001
00000000
00000010
00000001
00001000
00000000
,
00000001
00000001
00000000
00000100
00001000
00000000
00011000
00000000
,
00020000
00000100
00032000
01000000
,
00023000
00000010
00032000
00100000
,
00013000
00000000
01000000
00000000
10000000
00010000
10000000
00000000
,
00100000
00000000
00010000
00000000
00001000
00000010
00000100
00000000
,
00000000
00000010
00000010
00000000
00000001
00000000
00001000
00000000
,
00000000
00000001
00000001
00000000
00000100
00000000
00001000
00000000
,
00010000
00000000
00001000
00000000
00010000
00010000
00010000
00000000
,
00000000
00001000
00001000
00000000
00010000
00000000
00100000
00000000
,
10000000
00000000
10010000
00000000
10000000
01000000
00100000
00000000
,
00010000
00000000
00001000
00000000
00000010
00000100
00000001
00000000
,
00000010
00000000
00000100
00000000
00001000
00010000
00100000
00000000
,
00000000
01000000
01000000
00000000
00011000
00000000
00000010
00000000
,
00000100
00000000
00000001
00000000
00002000
00000000
00003100
00010000
,
00001000
00000000
01000000
00000000
00020000
00000000
10030000
00100000
,
01000000
00000000
00010000
00000000
00200000
00000000
00301000
00010000
,
00000010
00000000
00000100
00000000
00000001
00000010
00001000
00000000
,
00022000
00000000
00000000
00000000
,
00000000
00000000
00000000
00000000
,
00033000
00000000
00000000
00000000
;

//---------------dance-double - t7r----------------
#NOTES:
     dance-double:
     t7r:
     Hard:
     11:
     :
00000000
00000000
00000000
00000000
,
00000000
00000000
00000000
00000000
,
00000000
00000000
00000000
00000000
,
00000000
00000000
00000000
00000000
,
00000000
00000000
00000000
00000000
,
00001000
00000000
00000000
00000000
00000000
00000000
01000000
00000000
00000000
00000000
00000000
00000000
00010000
00000000
00000000
00000000
10000000
00000000
00000000
00000000
00000000
02000000
00000000
00000000
00010000
00000000
00000000
00000000
00000000
00000000
00000000
00000000
00000000
00000000
00000000
00000000
03100000
00000000
00000000
00000000
00000000
00000000
00000000
00000000
00000000
00000000
00000000
00000000
,
00010000
00000000
00000000
00000000
00000000
00000000
10000000
00000000
00000000
00000000
00000000
00000000
00100000
00000000
00000000
00000000
00010000
00000000
00000000
00000000
00000000
00002000
00000000
00000000
00010000
00000000
00000000
00000000
00000000
00000000
00000000
00000000
00000000
00000000
00000000
00000000
01003000
00000000
00000000
00000000
00000000
00000000
00000000
00000000
00000000
00000000
00000000
00000000
,
00001000
00000000
00000000
00000000
00000000
00000000
00010000
00000000
00000000
00000000
00000000
00000000
00000100
00000000
00000000
00000000
00000010
00000000
00000000
00000000
00000000
00000002
00000000
00000000
00000100
00000000
00000000
00000000
00000000
00000000
00000000
00000000
00000000
00000000
00000000
00000000
00001003
00000000
00000000
00000000
00000000
00000000
00000000
00000000
00000000
00000000
00000000
00000000
,
00000001
00000000
00000000
00000000
00000000
00000000
00000100
00000000
00000000
00000000
00000000
00000000
00001000
00000000
00000000
00000000
00010000
00000000
00000000
00000000
00000000
00002000
00000000
00000000
00010000
00000000
00000000
00000000
00000000
00000000
00000000
00000000
00000000
00000000
00000000
00000000
01003000
00000000
00000000
00000000
00000000
00000000
00000000
00000000
00000000
00000000
00000000
00000000
,
00000000
00010000
00100000
00000000
00010000
00100000
00000000
01000000
10000000
00000000
01000000
10000000
00000000
00000000
00000000
00000000
,
00000000
01000000
00010000
00000000
00001000
00010000
00000000
00001000
00000100
00000000
00000010
00000100
00000000
00000100
00000000
00000000
,
00000001
00000000
00000010
00000000
00000100
00000000
00001000
00000000
00010000
00000000
10000000
01000000
00000000
01000000
00000000
00000000
,
00000000
10000000
00100000
00000000
00010000
00001000
00000000
00000010
00000001
00000000
00001000
00000001
00000000
00000000
00000100
00000000
,
00001000
00000000
00011000
00000000
00001000
01000000
01010000
00000000
,
00010000
00000000
10000000
00000000
10010000
00000000
00000000
10000000
01000000
00000000
00100000
00000000
00010000
00000000
00000000
00000000
,
00001000
00000000
00000000
00000000
00000000
00000000
00000010
00000000
00000000
00000000
00000000
00000000
00000100
00000000
00000000
00000000
00000001
00000000
00000000
00000000
00000000
00002000
00000000
00000000
00000100
00000000
00000000
00000000
00000000
00000000
00000000
00000000
00000000
00000000
00000000
00000000
00003001
00000000
00000000
00000000
00000000
00000000
00000000
00000000
00000000
00000000
00000000
00000000
,
00000010
00000000
00001000
00000000
00010000
00000000
00000100
00000000
00001000
00000000
00010000
00000000
10000000
01000000
00000000
00000000
,
00100000
00000000
00001000
00000000
00011000
00000000
00000000
00001000
00000100
00000000
00000001
00000000
00001001
00000000
00000000
00000000
,
00000001
00000010
00001000
00010000
00000100
00001000
00001001
00000000
,
00000001
00000000
00000100
00000000
00000110
00000000
00000000
00001000
00000100
00000000
00010000
00000000
00011000
00000000
00000000
00001000
,
00100000
00000000
00010000
00000000
00001000
00000000
00000100
00000000
00010000
00000000
00001000
00000000
00011000
00000000
00000000
00001000
,
00000010
00000000
00000001
00000000
00000100
00000000
00000000
00001000
00010000
00000000
00100000
00000000
10000000
00000000
00000000
01000000
,
00010000
00000000
00000000
00000000
00000000
00000000
00001000
00000000
00000000
00000000
00000000
00000000
01000000
00000000
00000000
00000000
00010000
00000000
00000000
00000000
00000000
20000000
00000000
00000000
00100000
00000000
00000000
00000000
00000000
00000000
00010000
00000000
00000000
00000000
00000000
00000000
31000000
00000000
00000000
00000000
00000000
00000000
00000000
00000000
00000000
00000000
00000000
00000000
,
10000000
00000000
00000000
00000000
00000000
00000000
00100000
00000000
00000000
00000000
00000000
00000000
00010000
00000000
00000000
00000000
00001000
00000000
00000000
00000000
00000000
02000000
00000000
00000000
00010000
00000000
00000000
00000000
00000000
00000000
00100000
00000000
00000000
00000000
00000000
00000000
03001000
00000000
00000000
00000000
00000000
00000000
00000000
00000000
00000000
00000000
00000000
00000000
,
00010000
00000000
00000000
00000000
00000000
00000000
00001000
00000000
00000000
00000000
00000000
00000000
00000010
00000000
00000000
00000000
00000001
00000000
00000000
00000000
00000000
00000200
00000000
00000000
00001000
00000000
00000000
00000000
00000000
00000000
00000010
00000000
00000000
00000000
00000000
00000000
00000301
00000000
00000000
00000000
00000000
00000000
00001001
00000000
00000000
00000000
00000000
00000000
,
00000002
00000100
00001003
00000000
00000200
00001000
00010300
00000000
,
00002000
00010000
01003000
00000000
00020000
00100000
10030000
00000000
,
00010000
10000000
01000000
00010000
00001000
00000100
00000110
00000000
,
00000001
00000100
00001000
00010000
01000000
00100000
00000000
10010000
,
00000000
00010000
01000000
00000000
00010000
01000000
00000000
00100000
10000000
00000000
00100000
10000000
00000000
00000000
00000000
00000000
,
00000000
00100000
00010000
00000000
00001000
00010000
00000000
00001000
00000010
00000000
00000100
00000010
00000000
00000010
00000000
00000000
,
00000001
00000000
00000100
00000000
00000010
00000000
00001000
00000000
00010000
00000000
10000000
00100000
00000000
00100000
00000000
00000000
,
00000000
10000000
01000000
00000000
00010000
00001000
00000000
00000100
00000001
00000000
00001000
00000001
00000000
00000001
00000000
00001000
,
00000001
00001000
00000100
00000000
00001000
00000100
00000000
00000010
00000001
00000000
00000010
00000001
00000000
00000001
00000000
00000000
,
00000000
00000010
00001000
00000000
00010000
00001000
00000000
00010000
00100000
00000000
01000000
00100000
00000000
00100000
00000000
00000000
,
10000000
01000000
00100000
00000000
00010000
00000000
00001000
00000010
00000100
00000000
00000001
00000010
00000000
00000010
00000000
00000000
,
00000000
00000001
00000100
00000000
00001000
00010000
00000000
01000000
10000000
00000000
00010000
10000000
00000000
10000000
00000000
00100000
,
01000000
00000000
00010000
00000000
10010000
00000000
00000000
10000000
01000000
00000000
00010000
00000000
00001000
00000000
01000000
00100000
,
10000000
00000000
00000000
00000000
00000000
00000000
00010000
00000000
00000000
00000000
00000000
00000000
00100000
00000000
00000000
00000000
00001000
00000000
00000000
00000000
00000000
00020000
00000000
00000000
00001000
00000000
00000000
00000000
00000000
00000000
00000100
00000000
00000000
00000000
00000000
00000000
00031000
00000000
00000000
00000000
00000000
00000000
00000000
00000000
00000000
00010000
00000000
00000000
,
00001000
00000000
00000010
00000000
00000110
00000000
00000000
00000010
00000001
00000000
00000100
00000000
00000010
00000000
00001000
00000000
,
00010000
00000000
00000000
00000000
00000000
00000000
00100000
00000000
00000000
00000000
00000000
00000000
00001000
00000000
00000000
00000000
01000000
00000000
00000000
00000000
00000000
00200000
00000000
00000000
00010000
00000000
00000000
00000000
00000000
00000000
01000000
00000000
00000000
00000000
00000000
00000000
10300000
00000000
00000000
00000000
00000000
00000000
00010000
00000000
00000000
10000000
00000000
00000000
,
00020000
00000000
00000000
00000000
,
00000000
00000000
00000000
00000000
,
00030000
00000000
00000000
00000000
;

//---------------dance-double - t7r----------------
#NOTES:
     dance-double:
     t7r:
     Challenge:
     14:
     :
00000000
00000000
00000000
00000000
,
00000000
00000000
00000000
00000000
,
00000000
00000000
00000000
00000000
,
00020000
00000000
00032000
00000000
,
02003000
00000000
00000000
00000000
00000000
00000000
00000000
00000000
03200000
00000000
00000000
00000000
00000000
00000000
10300000
01000000
,
10000000
00000000
00000000
00000000
00000000
00000000
00000000
00000000
00000000
00000000
00000000
00000000
00010000
00000000
00000000
00000000
00000000
00000000
00000000
00000000
00000000
00000000
00000000
00000000
01000000
00000000
00000000
00000000
00000000
00000000
00000000
00000000
00100000
00000000
00000000
00000000
00000000
00000000
00000000
00000000
00000000
00000000
00000000
10000000
00000000
00000000
00000000
00000000
01000000
00000000
00000000
00000000
00000000
00000000
00000000
00000000
00000000
00000000
00000000
00000000
00010000
00000000
00000000
00000000
00000000
00000000
00000000
00000000
00000000
00000000
00000000
00000000
00011000
00000000
00000000
00000000
00000000
00000000
00000000
00000000
00000000
00000000
00000000
00000000
00000000
00000000
00000000
00000000
00000000
00000000
00000000
00001000
00000000
00000000
00000000
00000000
,
00000100
00000000
00000000
00000000
00000000
00000000
00000000
00000000
00000000
00000000
00000000
00000000
00000001
00000000
00000000
00000000
00000000
00000000
00000000
00000000
00000000
00000000
00000000
00000000
00000010
00000000
00000000
00000000
00000000
00000000
00000000
00000000
00000001
00000000
00000000
00000000
00000000
00000000
00000000
00000000
00000000
00000000
00000000
00001000
00000000
00000000
00000000
00000000
00000000
00000000
00000000
00000000
00000000
00000000
00000001
00000000
00000000
00000000
00000000
00000000
00000100
00000000
00000000
00000000
00000000
00000000
00000000
00000000
00000000
00000000
00000000
00000000
00001000
00000000
00000000
00000000
00000000
00000000
00000000
00000000
00000000
00000000
00000000
00000000
00010000
00000000
00000000
00000000
00000000
00000000
00000000
01000000
00000000
00000000
00000000
00000000
,
10000000
00000000
00000000
00000000
00000000
00000000
00000000
00000000
00000000
00000000
00000000
00000000
00100000
00000000
00000000
00000000
00000000
00000000
00000000
00000000
00000000
00000000
00000000
00000000
01000000
00000000
00000000
00000000
00000000
00000000
00000000
00000000
00100000
00000000
00000000
00000000
00000000
00000000
00000000
00000000
00000000
00000000
00000000
10000000
00000000
00000000
00000000
00000000
00000000
00000000
00000000
00000000
00000000
00000000
01000000
00000000
00000000
00000000
00000000
00000000
00100000
00000000
00000000
00000000
00000000
00000000
00000000
00000000
00000000
00000000
00000000
00000000
00010000
00000000
00000000
00000000
00000000
00000000
00000000
00000000
00000000
00000000
00000000
00000000
00001000
00000000
00000000
00000000
00000000
00000000
00000000
00000010
00000000
00000000
00000000
00000000
,
00000100
00000000
00000000
00000000
00000000
00000000
00000000
00000000
00000000
00000000
00000000
00000000
00000001
00000000
00000000
00000000
00000000
00000000
00000000
00000000
00000000
00000000
00000000
00000000
00000010
00000000
00000000
00000000
00000000
00000000
00000000
00000000
00001000
00000000
00000000
00000000
00000000
00000000
00000000
00000000
00000000
00000000
00000000
00010000
00000000
00000000
00000000
00000000
00000000
00000000
00000000
00000000
00000000
00000000
00100000
00000000
00000000
00000000
00000000
00000000
10000000
00000000
00000000
00000000
00000000
00000000
00000000
00000000
00000000
00000000
00000000
00000000
00010000
00000000
00000000
00000000
00000000
00000000
00000000
00000000
00000000
00000000
00000000
00000000
10000000
00000000
00000000
00000000
00000000
00000000
00000000
00010000
00000000
00000000
00000000
00000000
,
10000000
01000000
00100000
00000000
00010000
10000000
00000000
00010000
00100000
00000000
00001000
00010000
00000000
00010000
00000000
00010000
,
00000100
00001000
00001000
00000000
00000001
00000001
00000000
00000100
00000100
00000000
00001000
00010000
00000000
00010000
00000000
00010000
,
00100000
10000000
00010000
00000000
10000000
00000000
00100000
01000000
00100000
00000000
00010000
00001000
00000000
00001000
00000000
00001000
,
01000000
00010000
00010000
00000000
00100000
00100000
00000000
00001000
00001000
00000000
00010000
00011000
00000000
00000000
00001000
00000100
,
00000001
00000000
00000000
00000000
00000000
00000000
00000010
00000000
00000000
00000000
00000000
00000000
00000100
00000000
00000000
00000000
00000000
00000000
00001000
00000000
00000000
00000000
00000000
00000000
00000001
00000000
00000000
00000000
00000000
00000000
00000100
00000000
00000000
00000000
00000000
00000000
00000010
00000000
00000000
00000000
00000000
00000000
00000000
00000000
00000000
00000000
00000000
00000000
00001010
00000000
00000000
00000000
00000000
00000000
00000000
00000000
00000000
00000000
00000000
00000000
00001000
00000000
00000000
00000000
00000000
00000000
00000100
00000000
00000000
00000000
00000000
00000000
00010000
00000000
00000000
00000000
00000000
00000000
00001000
00000000
00000000
00000000
00000000
00000000
00000000
00000000
00000000
00000000
00000000
00000000
00000000
00010000
00000000
00000000
00000000
00000000
,
01000000
10000000
00100000
00000000
10100000
00000000
10000000
00100000
01000000
00000000
00010000
00100000
01000000
00010000
00000000
00010000
,
00001000
00000000
00000100
00000000
00000010
00001000
00000001
00000000
00000010
00000100
00001000
00000100
00000010
00000100
00001000
00010000
,
00100000
01000000
10000000
01000000
00100000
01000000
10000000
00100000
00010000
00001000
00010000
00000000
00001000
00001000
00000000
00010000
,
00001000
00000000
00000100
00000000
00001001
00000001
00000000
00000010
00000100
00010000
00001000
01000000
00010000
00000000
10000000
00010000
,
10000000
00000000
00000000
00000000
00100000
00000000
01000000
00000000
00000000
00100000
00000000
00000000
10000000
00000000
00000000
00000000
00000000
00000000
00010000
00000000
00000000
00100000
00000000
00000000
00001000
00000000
00000000
00010000
00000000
00000000
00000010
00000000
00000000
00001000
00000000
00000000
00000001
00000000
00000000
00000000
00000000
00000000
00000100
00000000
00000000
00001000
00000000
00000000
,
00010000
00000100
00001000
00000001
00000100
00001000
00000000
00010000
00001000
01000000
00010000
20000000
00000000
00000000
31000000
00010000
,
00001000
01000000
00010000
10000000
01000000
00000000
00010000
00001000
00000100
00000001
00001000
00000200
00000000
00000000
00010300
00001000
,
01000000
00010000
00000000
00000000
00100000
00001000
00010000
00000100
00001000
00000001
00000100
00000010
00001000
00000000
00001001
00000000
,
00000001
00000000
00000000
00000000
00000000
00000000
00000010
00000000
00000000
00000000
00000000
00000000
00001000
00000000
00000000
00000000
00000000
00000000
00000000
00000000
00000000
00000000
00000000
00000000
00010000
00000000
00000000
00000000
00000000
00000000
00100000
00000000
00000000
00000000
00000000
00000000
10000000
00000000
00000000
00000000
00000000
00000000
01000000
00000000
00000000
00000000
00000000
00000000
00100000
00000000
00000000
00000000
00000000
00000000
00000000
00000000
00000000
00000000
00000000
00000000
00001000
00000000
00000000
00000000
00000000
00000000
00010000
00000000
00000000
00000000
00000000
00000000
00000200
00000000
00000000
00000000
00000000
00000000
00000000
00000000
00000000
00000000
00000000
00000000
00001300
00000000
00000000
00000000
00000000
00000000
00000000
00000001
00000000
00000000
00000000
00000000
,
00000100
00000000
00000000
00001000
00000000
00000000
00010000
00000000
00000000
00000000
00000000
00000000
00011000
00000000
00000000
00000000
00000000
00000000
00001000
00000000
00000000
01000000
00000000
00000000
00100000
00000000
00000000
00000000
00100000
00000000
00000000
00000000
00000000
00100000
00000000
00000000
00000000
00000000
00000000
10000000
00000000
00000000
00010000
00000000
00000000
01000000
00000000
00000000
,
00100000
00000000
10100000
00000000
00000000
10000000
01000000
00010000
00001000
00000000
00000110
00000000
00001001
00000000
00011000
00000000
,
02001000
00000000
03010000
01000000
00100000
10000000
01000000
00100000
00000000
00001000
00010000
00000100
00001000
00000001
00000100
00000010
,
00000000
00010000
00001000
01000000
00010000
10000000
00100000
01000000
00010000
00100000
00100000
00000000
00011000
00000000
00010000
00000100
,
00002000
00000000
00003010
00000100
00000001
00000000
00000010
00001000
00010000
00001000
01000000
00000000
01100000
00000000
00000000
00000000
,
10000000
00100000
01000000
00000000
10010000
00000000
10000000
01000000
00020000
00000000
00000000
00000000
00000000
00000000
00031000
00010000
,
00000100
00001000
00000010
00000000
00000100
00000001
00000000
00000100
00001000
00000000
00100000
00010000
00000000
00010000
00000000
00010000
,
10000000
01000000
00010000
00000000
00001000
00000100
00000000
00000001
00000010
00000100
00000100
00010000
00000000
00010000
00000000
00010000
,
01000000
10000000
00100000
00000000
00010000
00000000
00001000
00010000
00000100
00001000
00001000
00000001
00000000
00000001
00000000
00000001
,
00000100
00001000
00001000
00000000
00010000
00010000
00000000
00100000
00100000
10000000
01000000
01100000
00000000
10000000
00010000
01000000
,
00001000
00010000
00011000
00000000
00001000
01001000
00000000
00010000
00010100
00000000
00001000
00101000
00000000
00100000
00001000
00010000
,
00001000
01000000
01001000
00000000
00001000
00011000
00000000
00010000
00010100
00000000
00000100
00001100
00000000
00001000
00000001
00000100
,
00001000
00010000
00011000
00000000
00101000
00000000
00100000
00001000
00011000
00000000
00010000
00010010
00000000
00000010
00001000
00000001
,
00000010
00001000
00011000
00000000
01001000
01001000
00000000
00010010
00010010
00000000
00011000
00011000
00000000
00001000
00010000
00100000
,
10000000
00000000
00000000
00000000
00000000
00000000
00000000
00000000
00000000
00000000
00000000
00000000
00010000
00000000
00000000
00000000
00000000
00000000
00000000
00000000
00000000
00000000
00000000
00000000
00100000
00000000
00000000
00000000
00000000
00000000
00000000
00000000
00001000
00000000
00000000
00000000
00000000
00000000
00000000
00000000
00000000
00000000
00000000
00010000
00000000
00000000
00000000
00000000
00000100
00000000
00000000
00000000
00000000
00000000
00000000
00000000
00000000
00000000
00000000
00000000
00001000
00000000
00000000
00000000
00000000
00000000
00000000
00000000
00000000
00000000
00000000
00000000
00001001
00000000
00000000
00000000
00000000
00000000
00000000
00000000
00000000
00000000
00000000
00000000
00000001
00000000
00000000
00000000
00000000
00000000
00000000
00000100
00000000
00000000
00000000
00000000
,
00001000
00000000
00000000
00000000
00000000
00000000
00000000
00000000
00000000
00000000
00000000
00000000
01000000
00000000
00000000
00000000
00000000
00000000
00000000
00000000
00000000
00000000
00000000
00000000
00010000
00000000
00000000
00000000
00000000
00000000
00000000
00000000
00100000
00000000
00000000
00000000
00000000
00000000
00000000
00000000
00000000
00000000
00000000
00001000
00000000
00000000
00000000
00000000
00000000
00000000
00000000
00000000
00000000
00000000
00010000
00000000
00000000
00000000
00000000
00000000
00010000
00000000
00000000
00000000
00000000
00000000
00000000
00000000
00000000
00000000
00000000
00000000
00001000
00000000
00000000
00000000
00000000
00000000
00000000
00000000
00000000
00000000
00000000
00000000
00010000
00000000
00000000
00000000
00000000
00000000
00000000
00000010
00000000
00000000
00000000
00000000
,
00001000
00000000
00000000
00000000
00000000
00000000
00000000
00000000
00000000
00000000
00000000
00000000
00000001
00000000
00000000
00000000
00000000
00000000
00000000
00000000
00000000
00000000
00000000
00000000
00000010
00000000
00000000
00000000
00000000
00000000
00000000
00000000
00000100
00000000
00000000
00000000
00000000
00000000
00000000
00000000
00000000
00000000
00000000
00001000
00000000
00000000
00000000
00000000
00000000
00000000
00000000
00000000
00000000
00000000
00000001
00000000
00000000
00000000
00000000
00000000
00000001
00000000
00000000
00000000
00000000
00000000
00000000
00000000
00000000
00000000
00000000
00000000
00000100
00000000
00000000
00000000
00000000
00000000
00000000
00000000
00000000
00000000
00000000
00000000
00001000
00000000
00000000
00000000
00000000
00000000
00000000
00010000
00000000
00000000
00000000
00000000
,
00100000
00000000
00000000
00000000
00000000
00000000
00000000
00000000
00000000
00000000
00000000
00000000
10000000
00000000
00000000
00000000
00000000
00000000
00000000
00000000
00000000
00000000
00000000
00000000
00010000
00000000
00000000
00000000
00000000
00000000
00000000
00000000
00100000
00000000
00000000
00000000
00000000
00000000
00000000
00000000
00000000
00000000
00000000
00001000
00000000
00000000
00000000
00000000
00000000
00000000
00000000
00000000
00000000
00000000
00010000
00000000
00000000
00000000
00000000
00000000
00010000
00000000
00000000
00000000
00000000
00000000
00000000
00000000
00000000
00000000
00000000
00000000
00001000
00000000
00000000
00000000
00000000
00000000
00000000
00000000
00000000
00000000
00000000
00000000
00010000
00000000
00000000
00000000
00000000
00000000
00000000
00000010
00000000
00000000
00000000
00000000
,
00002000
00000000
00000000
00000000
,
00000000
00000000
00000000
00000000
,
00003000
00000000
00000000
00000000
;
