#VERSION:0.83;
#TITLE:遊戯大熊猫;
#SUBTITLE:;
#ARTIST:98;
#TITLETRANSLIT:Tawamure panda;
#SUBTITLETRANSLIT:;
#ARTISTTRANSLIT:;
#GENRE:;
#CREDIT:;
#MUSIC:Tawamure panda.ogg;
#BANNER:Tawamure panda.png;
#BACKGROUND:Tawamure panda-bg.png;
#CDTITLE:./CDTITLES/GITADORA.PNG;
#SAMPLESTART:69.931;
#SAMPLELENGTH:15.000;
#SELECTABLE:YES;
#OFFSET:0.000;
#BPMS:0.000=145.000;
#STOPS:;
#TIMESIGNATURES:0.000=4=4,
164.000=3=4,
173.000=4=4,
185.000=3=4,
191.000=4=4,
199.000=3=4,
202.000=4=4,
214.000=3=4,
220.000=4=4;
#LABELS:4.000=Intro,
20.000=Phrase A,
68.000=Phrase B,
84.000=Phrase C,
116.500=Phrase D,
148.500=Phrase A2,
170.500=Special 1,
199.500=Special 2,
232.500=Phrase B2,
240.500=Phrase A3;
#BGCHANGES:;
#FGCHANGES:;

//--------------- dance-single - t7r ----------------
#NOTEDATA:;
#STEPSTYPE:dance-single;
#DESCRIPTION:t7r;
#DIFFICULTY:Beginner;
#METER:3;
#RADARVALUES:0,0,0,0,0;
#NOTES:
0000
0000
0000
0000
,
0000
0000
0000
0000
,
0000
0000
0000
0000
,
0000
0000
0000
0000
,
0000
0000
0000
0000
,
1000
0000
0000
0000
,
0001
0000
0000
0000
,
0100
0000
0000
0000
,
0010
0000
0000
0000
,
1000
0000
1000
0000
,
0000
0000
0000
0000
,
0001
0000
0001
0000
,
0000
0000
0000
0000
,
0010
0010
0010
0000
,
0000
0000
0000
0000
,
0100
0100
0100
0000
,
0000
0000
0000
0000
,
0001
0000
0000
1000
,
0000
0000
0000
0000
,
0010
0000
0000
0000
,
0000
0000
0000
0000
,
0100
0000
0100
0000
,
0010
0000
0010
0000
,
1000
0000
1000
0000
,
0001
0000
0001
0000
,
0010
0010
0010
0000
,
0001
0000
0001
0000
,
1000
1000
1000
0000
,
0010
0000
0010
0000
,
1000
0000
0000
0000
,
0001
0000
0000
0000
,
0100
0000
0000
0000
,
0010
0000
0000
0000
,
1000
1000
1000
0000
,
0100
0100
0100
0000
,
0010
0000
0010
0000
,
0001
0000
0001
0000
,
1000
0000
0000
0000
,
0000
0000
0000
0000
,
0010
0000
0000
0000
,
0010
0000
0000
0000
,
0000
0000
0000
0000
,
0000
0100
0100
0000
,
0100
0100
0000
0010
,
0000
0010
0000
1000
,
0000
0001
0000
0010
,
0000
0001
0000
0000
,
1000
0000
0000
0010
,
0000
0010
0000
1000
,
0000
0100
0000
0010
,
0000
0000
0001
0000
,
0000
0100
0100
0000
,
0010
0000
1000
0000
,
0001
0000
1000
0000
,
1000
1000
0000
0001
,
0001
0000
0010
0000
,
0001
0000
0100
0000
,
0010
0000
1000
0000
,
0001
0000
0010
0010
,
0000
1000
0000
0010
,
0010
0000
0000
0000
,
0001
0000
0000
0000
,
1000
0000
0000
0000
,
0010
0000
0000
0000
,
0100
0000
0000
0010
,
0010
0000
0010
0000
0000
0100
0000
0000
;

//--------------- dance-single - Aki ----------------
#NOTEDATA:;
#STEPSTYPE:dance-single;
#DESCRIPTION:Aki;
#DIFFICULTY:Easy;
#METER:7;
#RADARVALUES:0,0,0,0,0;
#NOTES:
0000
0000
0000
0000
,
0000
0000
0000
0000
,
0000
0000
0000
0000
,
0000
0000
0000
0000
,
0000
0000
0000
0000
,
1000
0000
1000
0000
,
0010
0000
0010
0000
,
1000
0000
0001
0000
,
0010
0000
0010
0000
,
0100
0000
0000
0100
0000
0000
0100
0000
,
0010
0000
0000
0010
0000
0000
0100
0000
,
1000
0001
1001
0000
,
0010
0100
0110
0000
,
0010
0000
0000
0010
0000
0000
1000
0000
,
0001
0000
0000
0001
0000
0000
1000
0000
,
0010
0000
0000
0010
0000
0000
1000
0000
,
0001
0000
0000
1000
0000
0000
2002
0000
0000
0000
0000
0000
3003
0000
0000
0000
,
0010
0000
0010
0000
0000
0010
0000
0010
0000
0000
0000
0000
0100
0000
0100
0000
,
0000
0100
0000
0100
0000
0000
0000
0000
0000
0000
0000
0000
0000
0000
0000
0000
,
0010
0001
0100
0001
,
0010
0010
0100
0000
,
0010
0010
0100
0100
,
0010
0000
0001
0000
1000
0000
0001
0001
,
0010
0100
0010
0001
,
1000
1000
0001
1001
,
0020
2030
3200
2300
,
3020
2030
3200
0310
,
0002
0023
0032
0203
,
0302
0023
0230
0310
,
0110
1001
0110
0000
,
1001
0110
1001
0000
,
0100
0010
0100
0110
,
0010
0100
0010
0000
0100
0100
0100
0000
,
0010
0000
0000
0010
0000
0000
0010
0000
0000
0000
0000
0000
0000
0000
0000
0000
,
0100
0000
0000
0100
0000
0000
0100
0000
0000
0000
0000
0000
0000
0000
0000
0000
,
0001
1000
0100
1000
,
0001
0001
0010
0000
,
0010
0000
0010
0000
,
0100
0100
0200
0300
,
0010
0000
0010
0000
,
0010
0000
0000
1000
0000
0000
0001
0000
0000
1000
0000
0000
0100
0000
0000
0000
,
0010
0010
1001
0100
,
0100
0110
1000
0001
,
1001
0100
0100
0010
,
1000
0001
0010
0001
,
0100
0000
0000
0000
1000
0000
0000
0000
0100
0000
0000
0000
0001
0000
0000
0001
,
0000
0000
0000
0000
0010
0000
0000
0010
0000
0000
0010
0000
0000
0000
0000
0000
,
0100
0000
0000
0100
0000
0000
0100
0000
0000
0000
0000
0000
1000
0000
0000
0000
,
0100
0000
0000
1000
0000
0000
0020
0000
0000
0130
0000
0001
,
0000
1000
0000
0100
0000
0100
0000
0010
0000
0100
0000
0000
,
0010
0110
1000
0001
,
1001
0100
0010
1000
,
0001
0001
0001
0000
0010
0000
0001
0000
,
1000
0000
1000
0000
1000
0000
0000
0000
0010
0000
0000
0010
0000
0000
0010
0000
,
0000
0000
0000
0000
0100
0000
0000
0100
0000
0000
0100
0000
0000
0000
0000
0000
,
0001
1000
0100
0100
,
0010
0000
0001
0000
0010
0000
0100
0000
0100
0000
0100
0000
,
1000
0000
0010
0000
1000
0000
0010
0000
0010
0000
0010
0000
,
0100
0000
0100
0000
0000
0010
0000
0010
0000
0000
0000
0000
1000
0000
1000
0000
,
0000
0001
0000
0001
0000
0000
0000
0000
0000
0000
0000
0000
0000
0000
0010
0000
,
0020
0000
0000
0030
,
0100
0000
0000
0100
0000
0000
0100
0000
,
0010
0000
0000
0010
0000
0000
0010
0000
,
0100
0000
0000
0010
0000
0000
0100
0000
0000
1000
0000
0000
0001
0000
0001
0000
,
1000
0100
1000
0001
,
0001
0000
1000
0000
0010
0000
0000
0100
0000
0000
0110
0000
0000
1001
0000
0000
;

//--------------- dance-single - t7r ----------------
#NOTEDATA:;
#STEPSTYPE:dance-single;
#DESCRIPTION:t7r;
#DIFFICULTY:Medium;
#METER:12;
#RADARVALUES:0,0,0,0,0;
#NOTES:
0000
0000
0000
0000
,
0000
0000
0000
0000
,
0000
0000
0000
0000
,
0000
0000
0000
0000
,
0000
0000
0000
0000
,
0001
0000
0000
0010
0000
0000
0100
0000
0000
1000
0000
0000
0010
0000
0000
0000
,
1000
0000
0000
0100
0000
0000
0010
0000
0000
0001
0000
0000
1000
0000
0010
0000
,
1000
0000
0000
0001
0000
0000
0100
0000
0000
0010
0000
0000
1000
0000
0000
0000
,
0001
0000
0000
0001
0010
0000
0000
0000
0001
0000
2000
0000
0000
0000
0000
0000
,
3010
0000
0000
0010
0100
0000
0001
0000
0000
0001
0000
0000
0001
0000
0000
0000
,
0010
0000
0000
0010
0100
0000
1000
0000
0000
1000
0000
0000
1000
0000
0000
0000
,
0010
0000
0000
1000
0100
0000
1000
0000
0000
0010
0000
0000
1000
0000
0000
0000
,
0001
0000
0000
0010
0001
0000
0100
0000
0000
0010
0000
0000
1000
0000
0000
0000
,
0001
0100
0001
0010
1000
0000
0000
0010
,
0001
2000
0000
3010
0100
0000
0010
0000
,
1000
0100
1000
0010
0001
0000
0000
0010
,
1000
0001
0000
1000
0001
0000
1000
0002
0000
0000
0103
0000
0010
0000
0000
0000
,
1000
0000
1000
0000
0000
0010
0000
0110
0000
0000
0000
0000
0001
0000
0001
0000
,
0000
0010
0000
0110
0000
0000
0000
0000
1000
0000
0001
0000
1000
0000
0010
0000
,
2000
0000
0000
0100
0000
0000
0001
0000
3001
0000
0000
0000
0000
0000
0100
0000
,
0200
0000
0000
1000
0000
0000
0310
0000
0110
0000
0000
0000
0000
0000
1000
0000
,
0001
0000
0000
0001
0100
0000
0010
0000
1000
0000
0100
0000
0001
0000
0100
0000
,
1000
0010
1000
0000
0001
0010
0001
0001
,
1000
0000
0000
1000
0100
0000
0010
0000
0001
0000
0100
0000
1000
0000
0100
0000
,
0001
0010
0001
0000
1000
0010
1000
1000
,
0001
0100
0001
0100
1000
0100
0010
1000
,
0001
0010
0200
0000
1300
0010
1000
1000
,
0010
1000
0010
0001
0010
0100
0010
1000
,
0001
0010
2000
0000
3001
0100
0010
0010
,
0001
0000
0000
0000
1001
0000
0000
0000
0101
0000
0001
1000
0000
0001
0010
0000
,
0011
1100
0202
0303
,
1000
0100
0001
0100
0010
1000
0001
0100
,
1000
0000
0000
1000
0010
0000
0100
0000
0010
0000
0010
0000
0000
1001
0000
0000
,
0001
0000
0100
1000
0000
0100
2000
0000
0000
0000
0000
0000
3100
0000
0010
0000
,
1000
0000
0100
0001
0000
0100
0002
0000
0000
0000
0000
0000
0103
0000
0010
0000
,
0001
0000
0000
0101
0000
0000
0010
0000
0000
1010
0000
0000
1000
0000
0000
1100
,
0000
0000
0010
0000
0000
0011
0000
0000
1001
0000
0000
0000
0001
0000
1000
0000
,
0020
0000
0000
0000
,
0030
0000
0000
0000
,
1000
0100
0000
1000
0100
0000
1000
0100
0000
0010
0100
0000
1000
0000
0000
0000
,
0001
0000
0000
0101
0000
0000
1000
0000
0000
1100
0000
0000
0001
0000
1000
0000
,
0020
0000
0000
0030
,
0000
0000
1000
1000
0001
0010
0001
0010
,
0011
0000
1000
0010
1000
0010
1010
0010
,
0100
0000
0001
0000
1000
0000
0100
0010
0000
0100
0010
0000
0001
0000
0100
0010
,
0000
0100
0010
0000
1000
0000
0010
0000
0001
0000
0010
0000
0100
0000
0000
0110
,
0000
0001
1000
0000
0001
0000
0000
0110
0000
0000
1001
0000
0000
0000
0000
0000
,
1000
0000
0000
0110
0000
0000
1001
0000
0000
0000
0001
0000
1000
0000
0100
0000
,
0001
0000
0000
0000
0000
0000
1000
0000
0000
0000
0000
0000
0010
0000
0000
0000
0000
0000
0001
0000
0000
0200
0000
0000
0000
0000
0000
0000
0000
0000
0000
0000
0000
0000
0000
0000
0310
0000
0000
0000
0000
0000
0000
0000
0010
0000
0000
0000
,
0000
0000
0000
0000
0010
0000
0000
0000
0000
0000
0000
0000
0100
0000
0000
0000
0000
0000
0000
0000
0100
0000
0000
0000
0000
0000
0000
0000
0100
0000
0000
0000
0000
0000
0000
0000
0001
0000
0000
0000
0000
0000
0000
0000
0000
1000
0000
0000
,
0001
0000
0100
0000
0101
0000
0000
0000
1000
0000
0000
0001
1000
0000
0100
0000
,
1000
0000
0010
0000
0001
0000
1000
0000
0100
0000
0001
0100
0000
0001
0100
0000
,
0010
0000
1000
0010
0000
1000
0010
0000
0001
0000
0010
0100
0010
0000
2000
0000
,
0000
0000
3002
0000
0000
0000
1003
0000
0100
0000
0000
1100
0000
0000
0011
0000
,
0000
0001
0000
0001
0100
0000
0000
1010
0000
0000
1001
0000
0000
0000
0001
0000
,
1000
0000
0100
0000
0010
0000
1000
0000
0001
0000
0100
2000
0000
0000
0000
0000
,
3010
0000
0010
0100
0010
0000
0100
0000
0100
0001
0100
0000
,
0001
1000
0001
1000
0001
0000
1000
0100
0010
0001
1000
0000
,
0001
0000
0001
0000
0000
0110
0000
0110
0000
0000
0000
0000
1000
0000
1000
0000
,
0000
0110
0000
0110
0000
0000
0001
0000
1000
0000
0000
0001
0010
0000
0001
0000
,
2000
0000
0000
0100
0000
0000
0010
0000
0000
0001
0000
0000
3100
0000
0000
0000
,
0002
0000
0000
0100
0000
0000
1000
0000
0000
0010
0000
0000
0103
0000
0000
0000
,
2000
0000
0000
0010
0000
0000
0001
0000
0000
0100
0000
0000
3010
0000
0000
0000
,
0001
0000
0000
1001
0000
0000
0110
0000
0000
1010
0000
0000
1000
0000
1000
0000
,
0020
0000
0000
0000
0000
0000
0130
0001
,
0100
0000
1000
0000
0100
0000
0000
0110
0000
0000
1001
0000
0000
1100
0000
0000
;

//--------------- dance-single - Aki & t7r ----------------
#NOTEDATA:;
#STEPSTYPE:dance-single;
#DESCRIPTION:Aki & t7r;
#DIFFICULTY:Hard;
#METER:14;
#RADARVALUES:0,0,0,0,0;
#NOTES:
0000
0000
0000
0000
,
0000
0000
0000
0000
,
0000
0000
0000
0000
,
0000
0000
0000
0000
,
0000
0000
0000
0000
,
0010
0000
0000
1000
0000
0000
0010
0000
0000
0100
0000
0000
0010
0000
1000
0000
,
0001
0001
0010
0010
0100
1000
0001
0100
,
0010
0000
0000
1000
0000
0000
0010
0000
0000
1000
0000
0000
0001
0000
0010
0000
,
0100
0100
0010
0010
0001
1000
0010
1000
,
0100
0010
0000
0001
0000
0000
0100
0001
0000
0010
0000
0000
0100
0000
1000
0000
,
0001
0100
0000
0010
0000
0000
1000
0100
0000
0010
0000
0000
0001
0000
0100
0000
,
0001
0010
0000
0100
0000
0000
1000
0010
0000
0100
0000
0000
0010
0000
1000
0000
,
0001
0010
0000
0100
0000
0000
1000
0010
0000
0100
0000
0000
0001
0000
0100
0000
,
1000
0100
0001
0010
0001
1000
0100
0001
,
0100
0000
0000
1100
0000
0000
0010
0000
0000
1001
0000
0000
0100
0000
0100
0000
,
0010
1000
0001
0010
0100
0010
0100
1000
,
0001
0010
0000
0001
0100
0000
1000
0100
0000
0000
0001
0000
0001
0000
1000
0000
,
0100
0000
1100
0000
0000
0010
0000
0011
0000
0000
0000
0000
0100
0000
0101
0000
,
0000
0010
0000
1010
0000
0000
0000
0000
1000
0000
0000
1000
0100
0000
0010
0000
,
0002
0000
0000
0100
0000
0000
0010
0000
0010
0000
0000
0000
0000
0000
1003
0000
,
2000
0000
0000
0100
0000
0000
0010
0000
3010
0000
0000
0000
0000
0000
0001
0000
,
0001
0010
0001
0100
1000
0100
0001
1000
,
0010
1000
0001
0100
1000
0100
0001
0010
,
0100
1000
0001
0010
1000
0001
0100
0001
,
0100
1000
0010
0100
0001
1000
0100
1000
,
1000
0100
0001
1000
1000
0010
0001
0010
,
0100
1000
0100
0010
0100
1000
0001
0100
,
0100
0010
1000
0001
0100
1000
0001
0010
,
1000
0100
0010
0100
1000
0001
0100
0000
,
2010
0000
0000
0000
0001
0000
0000
0000
3010
0000
0100
0010
0000
0010
0100
0000
,
0012
0000
0000
0000
1000
0000
0000
0000
0013
0000
0001
0100
0000
0100
0010
0000
,
1000
0000
0100
0010
0100
0000
1000
0000
0001
0000
0100
0000
1000
0000
0001
0000
,
0010
0000
1000
0001
1000
0000
0010
0000
0001
0000
0010
0000
1000
0001
0000
0000
,
0001
0000
0001
0010
0000
0001
0020
0000
0000
0000
0000
0000
0031
0000
0001
0000
,
0100
0000
1000
0100
0000
1000
0200
0000
0000
0000
0000
0000
0310
0000
0010
0000
,
1000
0000
0001
0100
0000
1000
0100
0000
0001
1000
0001
0000
0010
0000
1000
0010
,
0000
0001
0010
0000
0000
0100
0000
0000
0011
0000
0000
0000
0110
0000
0000
0000
,
0002
0000
0000
0000
,
1003
0100
0000
1000
0100
0000
0010
1000
0000
0001
0100
0000
1000
0000
1000
0000
,
0001
0100
0000
0001
0100
0000
0010
0001
0000
1000
0100
0000
0010
0000
0010
0000
,
1000
0000
0000
1001
0000
0000
0101
0000
0000
1100
0000
0000
1000
0001
1000
0000
,
0020
0000
0000
0000
0000
1030
0001
0000
,
0020
0000
0000
0000
0031
1000
0001
1000
0001
0000
0100
1000
0100
0000
0010
0000
,
1000
0000
0001
0000
0010
0000
1000
0010
1000
0000
0010
0000
0001
0000
1000
0000
,
0100
0000
0010
0000
1000
0000
0010
0001
0010
0000
0001
0000
0100
0000
1000
0100
,
1000
0000
0100
0000
0010
1000
0010
0000
0100
0010
0100
0000
0001
0000
0000
0101
,
0000
1000
0001
0000
1000
0000
0000
1100
0000
0000
0110
0000
0010
0001
0000
0001
,
0100
0000
0000
0110
0000
0000
1010
0000
0010
0000
1000
0001
1000
0000
0001
0000
,
0010
0000
0000
0000
0000
0000
0100
0000
0000
0000
0000
0000
0001
0000
0000
0000
0000
0000
0100
0000
0000
0020
0000
0000
0000
0000
0000
0000
0000
0000
0000
0000
0000
0000
0000
0000
0031
0000
0000
0000
0100
0000
0000
0000
0010
0000
0000
0000
,
0001
0000
1000
0000
0100
0000
0010
0000
1000
0000
0001
0000
0010
0000
0100
0000
0001
0000
1000
0000
0000
0010
0000
0000
,
0001
0100
2100
0000
3001
0010
1000
0100
,
0101
0000
0001
0000
0100
0010
0100
0000
0010
0000
0001
0010
0000
1000
0010
0000
,
0100
0000
0010
0001
0000
1000
0010
0000
1000
0100
1000
0000
0001
0100
0001
1000
,
0000
1000
0010
0000
0100
0001
1000
0000
1100
0000
0000
0011
0000
0000
1001
0000
,
0000
0010
0000
0010
0100
0000
0000
0110
0000
0000
0101
0000
1000
0000
0001
0000
,
1000
0100
1000
0000
0001
0100
0001
0000
1000
0000
0001
0020
0000
0000
0000
0000
,
0031
1000
0100
0001
0100
0010
0001
1000
0010
0001
0010
0100
,
0010
1000
0100
0010
1000
0001
0100
0010
0001
1000
0010
0100
,
1000
0000
0100
0000
0001
0010
0000
0011
0000
0010
1000
0000
0001
0000
0100
0000
,
1000
0010
0000
0011
0000
0010
1000
0000
0001
0000
0100
0010
0100
0000
0001
0000
,
2000
0000
0000
0100
0000
0000
0010
0000
0000
0001
0000
0000
3100
0000
0010
0000
,
0002
0000
0000
0100
0000
0000
1000
0000
0000
0010
0000
0000
0103
0000
0010
0000
,
1000
0100
0000
0100
0010
0000
1000
0010
0000
0001
0010
0000
0100
0000
0010
0000
,
0001
0000
0000
1001
0000
0000
0011
0000
0000
1010
0000
0000
0010
0100
0010
0000
,
2000
0000
0000
0000
0000
0000
0001
0000
0001
0000
3001
0000
1000
0000
0001
0100
,
0001
0000
0010
1000
0010
0001
0010
0001
0000
0000
1100
0000
0000
0101
0000
0000
;

//--------------- dance-single - t7r & Aki ----------------
#NOTEDATA:;
#STEPSTYPE:dance-single;
#DESCRIPTION:t7r & Aki;
#DIFFICULTY:Challenge;
#METER:16;
#RADARVALUES:0,0,0,0,0;
#NOTES:
0000
0000
0000
0000
,
0000
0000
0000
0000
,
0000
0000
0000
0000
,
0000
0000
0000
0000
,
0000
0000
0000
0000
,
0010
1000
0000
0010
1000
0000
0001
0100
0000
0001
0100
0000
0001
0000
0001
0000
,
1000
0100
0000
1000
0100
0000
0010
0001
0000
0010
0001
0000
1000
0000
1000
0000
,
0001
0100
0000
0010
0100
0000
0010
1000
0000
0010
0100
0000
0010
0000
0010
0000
,
1000
0100
0000
0010
0100
0000
1000
0010
0100
0000
0002
0000
0010
0000
0000
0000
,
1003
0100
1000
0100
0000
0010
0100
0000
0001
0100
0010
0000
0100
0000
1000
0001
,
2000
0000
0000
3200
0000
0000
0302
0000
0000
2003
0000
0000
3010
0001
1000
0010
,
2000
0000
0000
3020
0000
0000
0230
0000
0000
2300
0000
0000
3100
0010
1000
0001
,
0010
0100
0000
1000
0100
0000
0001
0100
0000
0010
0001
0000
2000
0000
0000
0000
,
3010
1000
0001
1000
0010
0100
0010
1000
0001
0010
0100
0010
0001
0000
1000
0000
,
0001
0010
0000
0001
1000
0000
0001
0100
0000
0001
1000
0000
0100
0000
0110
0000
,
0010
0000
0011
0000
1001
0000
0101
0000
1001
0000
1000
0100
0000
1000
0010
0000
,
0100
0010
0000
0100
0010
0000
1000
0001
0000
1000
0100
1000
0001
0100
0100
0000
,
0010
0000
1010
0000
0000
1100
0000
1100
0000
0000
0010
0100
0010
0000
0011
0000
,
0000
0101
0000
0101
0000
0000
0000
0000
1001
0000
0001
1000
0100
0010
0100
0000
,
2000
0000
0000
0010
0000
0000
3001
1000
0100
0000
1000
0000
0000
0000
0001
1000
,
0002
0000
0000
0010
0000
0000
0103
0000
0110
0000
0000
0000
0000
0000
1000
0001
,
1000
0000
0010
0000
0100
0001
0000
0100
0001
0000
1001
0000
0100
0000
0010
0000
,
0100
0000
1100
0000
0010
0000
1001
0000
0010
0000
0100
0010
0100
0000
0110
0000
,
0001
0000
1000
0000
0100
0010
0000
0100
0010
0000
1100
0000
0100
0000
0010
0000
,
0100
0000
0011
0000
1001
0000
0100
0000
1010
0000
0001
1000
0000
0100
0100
0000
,
2000
0000
0000
0000
0100
0000
0000
0000
0001
0000
0000
3010
1000
0000
0001
0000
,
0100
0010
0001
1000
0100
0010
1000
1000
,
0002
0000
0000
0000
0010
0000
0000
0000
1000
0000
0000
0103
0001
0000
1000
0000
,
0010
0000
0100
0000
1000
0000
0001
0000
0010
0000
1000
0001
0010
0000
0001
0000
,
1000
0000
0100
0001
0100
0000
1000
0000
1100
0000
0010
0001
0000
0010
0001
0000
,
0101
0000
0010
0000
1001
0000
0010
0000
1000
0001
0000
0110
0000
0001
0001
0000
,
1000
0000
0010
0001
1000
0000
0100
0000
0010
0000
1000
0000
0010
0000
0001
0000
,
1000
0000
0100
0001
1000
0000
0100
0000
0001
0000
0101
0000
0100
0010
0000
0000
,
1001
0000
1000
0100
0000
0010
2000
0000
3001
0100
0010
0001
1000
0001
1000
0000
,
1001
0000
0001
0100
0000
0010
0002
0000
1003
0100
0010
1000
0001
0010
0100
0000
,
1000
0000
0010
0001
0000
1000
0100
0000
0010
1000
0010
0000
0110
0000
0100
1000
,
0000
0001
0010
0000
1000
0100
0000
0010
1000
0000
0010
0000
0001
1000
0001
0000
,
0010
0001
0010
0001
0100
0000
0010
1000
0100
0010
0100
0010
0001
0000
0100
0010
,
0100
0001
1000
0001
0100
0000
0010
1000
0002
0000
0000
0000
0000
0000
0000
0000
,
0013
0000
0000
0000
0000
0000
0001
0000
0010
0000
0001
0000
0100
0000
0000
0000
0000
0000
0010
0000
0000
1000
0000
0000
0010
0000
0000
0100
0000
0000
0001
0000
0000
1000
0000
0000
0100
0000
0000
0000
0000
0000
1000
0000
0000
0000
0000
0000
,
1100
0000
0000
0011
0000
0000
1001
0000
0000
0101
0000
0000
1000
0001
1000
0001
,
0010
0000
0100
1000
0001
0000
0100
0001
1000
0000
0100
1000
0001
0000
0100
0010
,
0100
0000
0001
0000
1000
0001
1000
0001
1000
0000
0010
1000
0010
0000
0100
0001
,
0010
0000
0001
0000
1001
0000
0010
0001
0010
0000
0100
1000
0010
0000
0100
0000
,
1000
0100
0001
0011
0001
0101
0100
0110
,
0010
0100
0010
1000
0001
1000
0010
1000
0100
0010
0100
0010
0001
0000
0000
1001
,
0000
1000
1000
0010
1000
0000
0000
1001
0000
0000
0010
0001
0010
0010
0000
0010
,
0100
0000
0000
0110
0000
0000
1001
0000
0001
0010
0000
0010
0100
0000
1000
0100
,
1000
0000
0000
0010
0000
0000
0100
0000
0000
0010
0000
0000
1000
0000
0000
0001
0000
0000
1000
0000
0000
0200
0000
0000
0000
0000
0000
0000
0000
0000
0000
0000
0000
0000
0000
0000
0310
0000
0000
0000
0000
0000
0000
0000
1100
0000
0000
0000
,
0000
0000
0000
0000
0011
0000
0000
0000
0000
0000
0000
0000
1010
0000
0000
0000
0000
0000
0000
0000
0110
0000
0000
0000
0000
0000
0000
0000
0011
0000
0000
0000
0000
0000
0000
0000
1001
0000
0000
0000
0000
0000
0001
0000
0000
0100
0000
0000
,
0010
0000
0001
0010
1000
0000
0001
0000
1001
0000
1000
0100
0010
0000
1000
0010
,
0001
0000
0001
0000
1000
0000
1000
0000
0001
0000
0100
0001
0010
0001
0100
0000
,
0010
0000
0000
0000
0000
0000
1000
0000
0000
0100
0000
0000
0010
0000
0000
0100
0000
0000
1000
0000
0000
0000
0000
0000
0001
0000
1000
0000
0010
0000
1000
0000
0000
0001
0000
0000
1000
0000
0000
0000
0000
0000
0010
0000
0000
0100
0000
0000
,
0001
0000
0010
0100
0000
0100
1000
0001
1000
0100
0100
0010
1000
0000
0110
0000
,
0000
1000
0000
1000
0001
0100
0100
0010
0001
0000
0110
0000
1000
0000
0001
0000
,
1000
0100
1000
0100
0010
0001
0010
0001
1000
0010
0100
0002
0000
0000
0000
0000
,
1003
0100
0010
1000
0001
0100
0010
0001
1000
0010
0001
1000
,
0001
0010
0100
0001
1000
0010
0100
1000
0001
0010
1000
0010
,
1010
0000
1010
0000
0000
1001
0000
0101
0000
0100
0010
0000
0100
0000
0110
0000
,
0000
1001
0000
0001
1000
1000
0100
0000
1001
0000
0000
1000
0010
0010
0100
0000
,
0001
0010
0000
0010
1000
0000
0001
0100
0000
0100
0010
0000
0011
0000
0011
0000
,
1000
0100
0000
0100
0001
0000
1000
0010
0000
0010
0100
0000
1100
0000
1100
0000
,
0001
0100
0000
0010
0001
0000
1000
0100
0000
0010
1000
0000
0110
0000
0110
0000
,
1001
0000
0000
0101
0000
0000
1010
0000
0000
1100
0000
0000
0001
1000
0002
0000
,
0000
0000
0000
0000
0000
0000
0103
0010
0100
1000
0100
0000
0001
1000
0100
0000
,
1000
0100
0000
0100
0001
0010
0010
1000
0000
0000
0110
0000
0000
0101
0000
0000
;
