#TITLE:Tamam Tamam;
#ARTIST:Summer Cem;
#BANNER:Tamam Tamam.png;
#BACKGROUND:Tamam Tamam-bg.png;
#JACKET:Tamam Tamam-jacket.png;
#CDTITLE:./CDTITLES/NONE.PNG;
#MUSIC:Tamam Tamam.ogg;
#SAMPLESTART:48;
#SAMPLELENGTH:15;
#BPMS:0=100;

//---------------dance-single - t7r----------------
#NOTES:
     dance-single:
     t7r:
     Beginner:
     1:
     :
0000
0000
0000
0000
,
0000
0000
0000
0000
,
0000
0000
0000
0000
,
0000
0000
0000
0000
,
0000
0000
0000
0000
,
0010
0000
0000
0000
,
1000
0000
0000
0000
,
0001
0000
0000
0000
,
0010
0000
0000
0000
,
0100
0000
0100
0000
,
0010
0000
0010
0000
,
1000
0000
1000
0000
,
0001
0000
0001
0000
,
0100
0000
0000
0000
,
0010
0000
0000
0000
,
1000
0000
0000
0000
,
0100
0000
0000
0000
,
0010
0000
0000
0000
,
0001
0000
0000
0000
,
0100
0000
0000
0000
,
1000
0000
0000
0000
,
0001
0000
0001
0000
,
1000
0000
1000
0000
,
0010
0000
0010
0000
,
0100
0000
0100
0000
,
0010
0010
0010
0000
,
1000
1000
1000
0000
,
0001
0001
0001
0000
,
0010
0010
0010
0000
,
0001
0000
0000
0000
,
1000
0000
0000
0000
,
0010
0000
0000
0000
,
0100
0000
0000
0000
,
0010
0000
0010
0000
,
1000
0000
1000
0000
,
0001
0000
0001
0000
,
0000
0000
0100
0100
;

//---------------dance-single - t7r----------------
#NOTES:
     dance-single:
     t7r:
     Easy:
     4:
     :
0000
0000
0000
0000
,
0000
0000
0000
0000
,
0000
0000
0000
0000
,
0000
0000
0000
0000
,
0000
0000
0000
0000
,
0020
0000
0000
0030
,
2000
0000
0000
3000
,
0001
0001
1000
1000
,
0100
0100
0010
0020
,
0031
0100
0010
0010
,
1000
0100
0010
0010
,
0001
1000
0010
0010
,
0100
0001
0100
0200
,
0310
0000
0000
0000
0000
2000
0000
0000
,
3001
0000
0000
0000
0000
0020
0000
0000
,
0130
0000
0000
0000
0000
2000
0000
0000
,
3010
0010
0220
0330
,
0001
0000
0001
0001
,
0000
1000
1000
1000
,
0000
0010
0010
0010
,
0100
0010
0100
0200
,
0310
1000
0010
0010
,
0001
0010
0100
0100
,
0010
1000
0010
0010
,
0100
0001
0010
0020
,
0031
1001
1000
1000
,
0010
0110
0100
0100
,
0001
1001
1000
1000
,
0100
0001
0100
0200
,
0320
0000
0030
0000
,
0002
0000
0003
0000
,
2000
0000
3000
0000
,
0020
0000
0030
0000
,
1000
1100
1100
0000
,
0001
0101
0101
0000
,
1000
1010
1010
0000
,
0000
0000
0100
0000
0100
0100
0200
0000
,
0300
0000
0000
0000
;

//---------------dance-single - t7r----------------
#NOTES:
     dance-single:
     t7r:
     Medium:
     6:
     :
0000
0000
0000
0000
,
0000
0000
0000
0000
,
0000
0000
0000
0000
,
0000
0000
0000
0000
,
0000
0000
0000
0000
,
0020
0000
0000
0000
0000
2030
0000
0000
,
3002
0000
0000
0000
0000
0023
0000
0000
,
0031
0000
0100
0000
0010
0010
0010
0000
,
0000
1000
0000
0000
1000
0000
0000
0000
0100
0000
0000
0000
0200
0000
0000
0000
,
1300
0000
0001
0000
1000
0001
0100
0000
,
0001
0000
1000
0000
0100
1000
0010
0000
,
0100
0000
0001
0000
0010
0100
1000
0000
,
0000
0001
0000
0000
0001
0000
0000
0000
0010
0000
0000
0000
0020
0000
0000
0000
,
0031
0000
0001
0000
0100
0020
0000
0000
,
1030
0000
1000
0000
0100
0020
0000
0000
,
0031
0000
0100
0000
0010
2000
0001
0000
,
3010
0100
0220
0330
,
0001
0000
0001
0000
1000
1000
1000
0000
,
0010
0000
0010
0000
0100
0100
0100
0000
,
0001
0000
0010
0000
0100
1000
0001
0000
,
1000
0010
0100
0200
,
0301
0000
1100
0000
0001
1000
0002
0000
,
1003
0000
0101
0000
1000
0001
2000
0000
,
3001
0000
1010
0000
0001
0010
0002
0000
,
1003
0100
0010
0020
,
0031
0000
1001
0000
1000
0010
0002
0000
,
0013
0000
1010
0000
0001
0010
2000
0000
,
3010
0000
0101
0000
1000
0001
0200
0000
,
1300
0000
0100
0000
0001
1000
0020
0000
,
2030
0000
3001
0000
,
0020
0000
0130
0000
,
2000
0000
3010
0000
,
0002
0000
0013
0100
,
0120
0000
0000
0000
1030
0000
0000
0000
0010
0000
0000
0010
0000
0000
0010
0000
,
2000
0000
0000
0000
3100
0000
0000
0000
0001
0000
0000
0001
0000
0000
0001
0000
,
0200
0000
0000
0000
0310
0000
0000
0000
0001
0000
0000
0001
0000
0000
0001
0000
,
2000
0000
0000
0000
3000
0000
0000
0000
0010
0000
0000
0010
0200
0000
0000
0000
,
0300
0000
0000
0000
;

//---------------dance-single - t7r----------------
#NOTES:
     dance-single:
     t7r:
     Hard:
     9:
     :
0000
0000
0000
0000
,
0000
0000
0000
0000
,
0000
0000
0000
0000
,
0000
0000
0000
0000
,
0000
0000
0000
0000
,
0002
0000
0000
0000
0000
0203
0000
0000
,
0320
0000
0000
0000
0000
2030
0000
0000
,
3100
0000
0000
0010
0100
0000
0010
0000
0100
1000
0000
0100
0001
0000
0000
0000
,
0100
0000
0000
0010
0001
0000
1000
0000
0001
0200
0000
1300
0200
0000
0000
0000
,
0310
0000
0000
1000
0010
0000
0000
0000
1000
0000
0100
0000
1100
0000
0010
0000
,
0001
0000
0000
1000
0001
0000
0000
0000
0100
0000
0001
0000
0101
0000
1000
0000
,
0010
0000
0000
1000
0001
0000
0000
0000
0010
0000
0001
0000
1001
0000
0100
0000
,
0001
0000
0000
0010
0001
0000
1000
0000
0010
2000
0000
3010
0002
0000
0000
0000
,
0013
0000
0110
0000
0002
0100
1003
0000
,
0110
0000
0001
0000
2000
0100
3001
0000
,
1000
0000
1010
0000
0002
0010
1003
0000
,
0001
0000
0100
0001
1000
0000
0000
0000
0210
0000
0000
0000
0000
0000
0301
0000
,
1001
0000
1000
0100
1000
0000
0000
0000
0001
0000
0010
0000
0011
0000
0000
0000
,
1000
0000
0100
0010
0100
0000
0000
0000
1000
0000
0010
0000
1010
0000
0000
0000
,
0001
0100
0000
0001
1000
0000
0000
0000
0001
0000
0100
0000
0101
0000
0000
0000
,
1000
0010
0000
0001
0010
0000
1000
0000
0100
0002
0000
0103
2000
0000
0000
0000
,
3100
0000
0000
0000
2100
0000
0000
0000
3010
0002
0000
0013
2000
0000
0000
0000
,
3010
0000
0000
0000
0102
0000
0000
0000
1003
0200
0000
0301
0200
0000
0000
0000
,
0310
0000
0000
0000
0021
0000
0000
0000
0031
0200
0000
1300
0200
0000
0310
0000
,
1000
0001
0000
0010
0001
0000
1000
0000
0001
0100
0000
0001
2000
0000
0000
0000
,
3001
0000
0010
0001
0010
0000
0001
0000
0100
0020
0000
0031
0020
0000
0100
0000
,
1030
0000
0100
1000
0100
0000
1000
0000
0010
0200
0000
1300
0200
0000
0010
0000
,
0301
0000
0010
0100
0010
0000
0001
0000
0100
2000
0000
3100
0002
0000
0100
0000
,
0013
0001
0000
0001
1000
0000
1000
0000
0001
0010
0000
0001
1000
0000
0000
0000
,
0020
0000
0000
0000
0100
0000
0000
0000
0130
0000
0000
0001
0010
0000
0100
0000
,
2000
0000
0000
0000
0010
0000
0000
0000
3010
0000
0000
1000
0100
0000
0010
0000
,
0002
0000
0000
0000
0100
0000
0000
0000
0103
0000
0000
0001
0010
0000
0100
0000
,
2000
3002
1003
0010
,
0110
0000
0000
0000
0101
0000
0000
0000
1001
0000
0000
1100
0000
0000
1000
0000
,
0001
0000
0000
0000
1001
0000
0000
0000
0011
0000
0000
1001
0000
0000
1000
0000
,
0010
0000
0000
0000
0110
0000
0000
0000
0101
0000
0000
1010
0000
0000
0001
0000
,
0000
0010
0000
0000
0010
0000
0010
0000
0100
0200
0300
0100
0200
0000
0000
0000
,
0300
0000
0000
0000
;

//---------------dance-single - t7r----------------
#NOTES:
     dance-single:
     t7r:
     Challenge:
     13:
     :
0000
0000
0000
0000
,
0000
0000
0000
0000
,
0000
0000
0000
0000
,
0000
0000
0000
0000
,
0000
0000
0000
0000
,
2000
0000
3010
1000
0100
0000
0100
0000
0001
0000
0100
1000
0001
0000
2000
0000
,
3002
0000
0013
0001
0100
0000
0001
0000
1000
0010
0000
0010
0001
0000
0010
0010
,
1010
0000
1100
0000
0101
0000
1100
0000
1000
0010
0000
0010
0100
0000
0002
0000
,
1003
0200
0000
0301
0200
0000
1300
0000
0010
0020
0030
0010
0020
0000
0100
0000
,
1030
0010
0000
0001
0100
0000
0001
0010
0100
0000
1100
0000
0011
0000
2001
0000
,
3001
0010
0000
1000
0100
0000
1000
0000
0001
0100
0000
1000
0100
0000
1020
0000
,
1030
0100
0000
0001
0010
0000
1000
0000
0001
0100
0000
1000
0010
0000
0210
0000
,
0301
0010
0000
1000
0010
0000
0001
0000
0100
0200
0300
0100
0200
0000
0010
0000
,
0301
0000
0000
0000
0101
0000
0000
0000
1000
0000
0100
0010
1000
0010
0000
0000
,
0210
0000
0000
0000
1300
0000
0000
0000
0001
0000
0100
0010
0001
0010
0000
0000
,
0210
0000
0000
0000
0301
0000
1000
0100
0010
0000
0100
1000
0010
0000
0001
1000
,
0100
0000
0000
0000
0010
0000
1000
0000
0001
0000
0010
0000
1000
0000
0001
0000
0100
0000
0000
1000
0010
0000
0100
0000
0001
0000
0000
0000
1001
0000
0000
0000
,
1020
0000
0000
0000
0130
0000
0000
0000
0001
0010
0000
0100
0001
0000
0100
0000
,
1000
0000
0000
0010
0100
0000
1000
0000
0100
0010
0000
1000
0001
0000
0100
0000
,
0001
0010
0000
1000
0001
0000
0100
0000
1000
0010
0000
0001
1000
0000
0001
0000
,
0010
0100
0000
0100
0001
0000
0010
0000
0100
0100
MMMM
0100
0200
0000
0000
0000
,
0310
0000
0000
0000
1020
0000
0000
0000
1030
1000
MMMM
1000
1000
0000
0100
0000
,
0001
0000
0000
0000
0021
0000
0000
0000
0031
0001
MMMM
0001
0001
0000
0100
0000
,
1000
0000
0000
0000
1020
0000
0000
0000
0130
0100
MMMM
0100
0100
0000
0010
0000
,
0001
0100
0000
0100
0010
0000
1000
0000
0010
0010
MMMM
0010
0010
0000
0000
0000
,
1100
0000
0000
0000
0100
0000
1000
0000
0001
0000
0000
0000
0100
0000
0000
0000
0001
0000
0000
0000
0010
0100
0010
0000
0001
0000
1000
0000
0100
0000
0000
0000
,
0010
0000
0000
0000
0001
0000
0100
0000
0010
0000
0000
0000
1000
0000
0000
0000
0001
0000
0000
0000
0100
0010
0100
0000
0001
0000
0010
0000
0100
0000
0000
0000
,
1000
0000
0000
0000
0100
0000
1000
0000
0010
0000
0000
0000
0100
0000
0000
0000
0010
0000
0000
0000
1000
0001
1000
0000
0001
0000
0010
0000
0100
0000
0000
0000
,
1000
0010
0000
0010
0100
0000
0001
0000
0010
0010
MMMM
0010
0010
0000
0000
0000
,
1200
0000
0000
0000
0320
0000
0000
0000
0032
0000
0000
0103
0010
0000
1000
0000
,
0002
0000
0000
0000
0023
0000
0000
0000
0230
0000
0000
0301
0100
0000
0010
0000
,
0002
0000
0000
0000
0203
0000
0000
0000
2300
0000
0000
3001
0010
0000
1000
0000
,
0002
0013
2000
3010
0100
0000
0010
0000
,
2002
0000
3003
0000
2200
0000
3300
0000
0022
0000
0033
0202
0000
0303
0022
0033
,
2002
0000
3003
0000
0202
0000
0303
0000
2020
0000
3030
2200
0000
3300
2020
3030
,
0220
0000
0330
0000
0202
0000
0303
0000
2020
0000
3030
2200
0000
3300
0012
0000
,
0000
0103
0000
0100
1000
0000
0100
0000
0001
0100
MMMM
1000
0010
0000
0000
0000
;

//---------------dance-double - t7r----------------
#NOTES:
     dance-double:
     t7r:
     Easy:
     5:
     :
00000000
00000000
00000000
00000000
,
00000000
00000000
00000000
00000000
,
00000000
00000000
00000000
00000000
,
00000000
00000000
00000000
00000000
,
00000000
00000000
00000000
00000000
,
00020000
00000000
00000000
00030000
,
20000000
00000000
00000000
30000000
,
01000000
00100000
01000000
00010000
,
00001000
00000100
00000010
00000010
,
00001000
00000001
00000100
00000100
,
00001000
00010000
00100000
00100000
,
10000000
00010000
00100000
00100000
,
00010000
00001000
00000100
00000100
,
00000020
00000000
00000031
00000000
,
00002000
00000000
00003010
00000000
,
00000200
00000000
00001300
00010000
,
00100000
01000000
00010000
10000000
,
00200000
00000000
00000000
00300000
,
20000000
00000000
00000000
30000000
,
02000000
00000000
00000000
03000000
,
00020000
00000000
00031000
00000000
,
00011000
00011000
00000200
00000300
,
00011000
00011000
02000000
03000000
,
00011000
00011000
00000020
00000030
,
00011000
00011000
00200000
00300000
,
00010000
10000000
01000000
01000000
,
00010000
00001000
00000010
00000010
,
00000001
00000100
00000010
00000010
,
00001000
00000100
00010000
00010000
,
00002000
00000000
00000000
00000000
,
00003000
00000000
00000000
00000000
,
00020000
00000000
00000000
00000000
,
00030000
00000000
00000000
00000000
,
01000000
01000000
10000000
00100000
,
01000000
01000000
00010000
00001000
,
00000100
00000100
00010000
00001000
,
00000000
01000000
00100000
00100000
;

//---------------dance-double - t7r----------------
#NOTES:
     dance-double:
     t7r:
     Medium:
     6:
     :
00000000
00000000
00000000
00000000
,
00000000
00000000
00000000
00000000
,
00000000
00000000
00000000
00000000
,
00000000
00000000
00000000
00000000
,
00000000
00000000
00000000
00000000
,
00000020
00000000
00000000
00000000
00000000
00000032
00000000
00000000
,
00002003
00000000
00000000
00000000
00000000
00003200
00000000
00000000
,
00010300
00000000
00001000
00000000
01000000
00010000
01000000
00000000
,
00010000
00100000
01000000
02000000
,
13000000
00000000
00100000
00000000
01000000
00010000
00100000
00000000
,
00001000
00000000
00010000
00000000
00000100
00001000
00000010
00000000
,
00000100
00000000
00000001
00000000
00000010
00000100
00010000
00000000
,
00001000
00010000
01000000
02000000
,
13000000
00000000
00000000
00000000
00100000
02000000
00000000
00000000
,
03010000
00000000
00000000
00000000
00100000
00002000
00000000
00000000
,
00013000
00000000
00001000
00000010
,
00000001
00000000
00000100
00000000
00000010
00010000
00001000
00010000
,
00020000
00000000
00031000
00001000
,
00000000
01000000
00100000
00100000
,
00000000
10000000
01000000
00010000
,
00000000
00001000
00000010
00000020
,
00000031
00000100
00000010
00002000
,
00003100
00010000
00001000
00200000
,
00310000
01000000
00100000
20000000
,
31000000
00000000
00100000
00000000
00001000
00010000
00002000
00000000
,
00003100
00000000
00000001
00000000
00001000
00000100
00002000
00000000
,
00003100
00000000
00010000
00000000
00001000
00010000
00002000
00000000
,
01003000
00000000
00010000
00000000
00100000
00010000
00200000
00000000
,
00310000
00000000
10000000
00000000
00100000
01000000
00200000
00000000
,
20300000
00000000
00000000
00000000
,
31000000
00000000
00000000
00000000
,
00020000
00000000
00000000
00000000
,
00032000
00000000
00003100
00000001
,
00000010
00000000
00000000
00000000
00000110
00000000
00000000
00000000
00000001
00000000
00000000
00000001
00000000
00000000
00000001
00000000
,
00001000
00000000
00000000
00000000
00001100
00000000
00000000
00000000
00000100
00000000
00000000
00000100
00000000
00000000
00000100
00000000
,
00010000
00000000
00000000
00000000
00011000
00000000
00000000
00000000
00001000
00000000
00000000
00010000
00000000
00000000
00100000
00000000
,
00000000
10000000
00000000
00000000
10000000
00000000
10000000
00000000
02000000
00000000
00000000
00000000
03020000
00000000
00000000
00000000
,
00030000
00000000
00000000
00000000
;

//---------------dance-double - t7r----------------
#NOTES:
     dance-double:
     t7r:
     Hard:
     9:
     :
00000000
00000000
00000000
00000000
,
00000000
00000000
00000000
00000000
,
00000000
00000000
00000000
00000000
,
00000000
00000000
00000000
00000000
,
00000000
00000000
00000000
00000000
,
20000000
00000000
00000000
00000000
00000000
32000000
00000000
00000000
,
03200000
00000000
00000000
00000000
00000000
00302000
00000000
00000000
,
00013000
00000000
00000000
00000010
00000100
00000000
00000010
00000000
00001000
00000100
00000000
00000010
00000100
00000000
00001000
00000000
,
00000001
00000100
00000000
00001000
00010000
00000000
00100000
00000000
01000000
00010000
00000000
01000000
20000000
00000000
00000000
00000000
,
31000000
00000000
00000000
00100000
10000000
00000000
01000000
00000000
00100000
00000000
00001000
00000000
00010000
00000000
00011000
00000000
,
00001000
00000000
00000000
00000100
00000001
00000000
00001000
00000000
00000100
00000000
00010000
00000000
00001000
00000000
00011000
00000000
,
00010000
00000000
00000000
00100000
10000000
00000000
00100000
00000000
01000000
00010000
00000000
00100000
00001000
00000000
00010000
00000000
,
00001000
00000010
00000000
00000100
00001000
00000000
00000001
00000000
00000100
00001000
00000000
00000100
00000002
00000000
00000000
00000000
,
00000103
00000000
00000000
00000000
00001000
00010000
00100000
00000000
,
10000000
00000000
00000000
00000000
01000000
00010000
00001000
00000000
,
00000100
00000000
00000000
00000010
00000010
00001000
00001000
00000100
,
00000100
00010000
00010000
00001000
00010000
01000000
10000000
00100000
,
00200000
00000000
00000000
00000000
01300000
00000000
00000000
00000000
00100000
10000000
00000000
00010000
00100000
00000000
00001000
00000000
,
00010000
00000000
00000000
00001000
00000100
00000000
00000100
00000000
00000010
00001000
00000000
00000001
00001000
00000000
00000000
00000000
,
00000000
00000001
00000000
00000001
00000010
00000000
00000100
00000000
00010000
00001000
00000000
01000000
00010000
00000000
00000000
00000000
,
00000000
01000000
00000000
01000000
00100000
00000000
10000000
00000000
01000000
00010000
00000000
00001000
00020000
00000000
00000000
00000000
,
00031000
00000000
00000000
00000000
00011000
00000000
00000000
00000000
00010000
01000000
00000000
10000000
02000000
00000000
00000000
00000000
,
03100000
00000000
00000000
00000000
00101000
00000000
00000000
00000000
00001000
00010000
00000000
00001000
00000020
00000000
00000000
00000000
,
00000130
00000000
00000000
00000000
00001100
00000000
00000000
00000000
00001000
00000010
00000000
00000001
00000020
00000000
00000130
00000000
,
00000001
00000010
00000000
00000100
00010000
00000000
00001000
00000000
00010000
00100000
00000000
01000000
00200000
00000000
00000000
00000000
,
10300000
00000000
01000000
10000000
01000000
00000000
10000000
00000000
00010000
01000000
00000000
00010000
00200000
00000000
00000000
00000000
,
00301000
00000000
00010000
00001000
00010000
00000000
00001000
00000000
00000100
00000001
00000000
00000100
00000020
00000000
00000000
00000000
,
00000130
00000000
00000001
00000100
00000001
00000000
00001000
00000000
00000100
00010000
00000000
00001000
00020000
00000000
00000000
00000000
,
01030000
10000000
00000000
01000000
00010000
00000000
00001000
00000000
00000100
00000001
00000000
00000100
00000020
00000000
00000000
00000000
,
00000130
00000010
00000020
00010030
,
00000100
00010000
00020000
00130000
,
10000000
00000000
00000000
00000000
00010000
00000000
00000000
00000000
10000000
00000000
00000000
00100000
00000000
00000000
00010000
00000000
,
00001000
00010000
00021000
00030010
,
00000100
00000000
00000000
00000000
00000110
00000000
00000000
00000000
00000101
00000000
00000000
00000110
00000000
00000000
00001010
00000000
,
00001000
00000000
00000000
00000000
00001100
00000000
00000000
00000000
00010100
00000000
00000000
00011000
00000000
00000000
00101000
00000000
,
00100000
00000000
00000000
00000000
00110000
00000000
00000000
00000000
10010000
00000000
00000000
10100000
00000000
00000000
01100000
00000000
,
00000000
01000000
00000000
01000000
00010000
00000000
00100000
00000000
00001000
00010000
00000000
00001000
00000200
00000000
00000000
00000000
,
00000300
00000000
00000000
00000000
;

//---------------dance-double - t7r----------------
#NOTES:
     dance-double:
     t7r:
     Challenge:
     13:
     :
00000000
00000000
00000000
00000000
,
00000000
00000000
00000000
00000000
,
00000000
00000000
00000000
00000000
,
00000000
00000000
00000000
00000000
,
00000000
00000000
00000000
00000000
,
02000000
00000000
03010000
00100000
01000000
00000000
01000000
00000000
10000000
00000000
00100000
00010000
00002000
00000000
00010000
00000000
,
00003200
00000000
00000310
00001000
00000100
00000000
00000100
00000000
00000010
00000001
00000000
00000100
00000010
00000000
00001000
00001000
,
00000001
00000000
00000100
00000001
00000010
00000000
00000100
00000000
00010000
00001000
00000000
01000000
00010000
00000000
00200000
00000000
,
00310000
20000000
00000000
30100000
00020000
00000000
00031000
00000000
00000100
00000002
00000000
00000013
00000200
00000000
00001000
00000000
,
00000310
00000001
00000000
00000100
00000001
00000000
00000100
00001000
00010000
00000000
00011000
00000000
00100000
00000000
10020000
00000000
,
10030000
01000000
00000000
00100000
10000000
00000000
00100000
00000000
00001000
00010000
00000000
00001000
00000010
00000000
00000002
00000000
,
00000103
00000001
00000000
00000100
00001000
00000000
00000100
00000000
00000010
00001000
00000000
00000100
00010000
00000000
00002000
00000000
,
00013000
01000000
00000000
10000000
00010000
00000000
01000000
00000000
00100000
00100000
00000000
00100000
00200000
00000000
00000000
00000000
,
10300000
00000000
11000000
00000000
01000000
00010000
00000010
00000000
,
00001002
00000000
00000103
00000000
00000010
00010000
00100000
00000000
,
20010000
00000000
31000000
00010000
00001000
00000001
00001000
00010000
,
00100000
00000000
10000000
00000000
01000000
00000000
00010000
00000000
00000010
00000000
00000100
00000010
00001000
00000000
00000001
00000000
,
00001002
00000000
00000103
00000001
00000010
00000000
00000100
00000000
00000010
00000001
00000000
00000100
00001000
00000000
00000100
00000000
,
00000010
00000000
00001000
00000100
00010000
00000000
00010000
00000000
00001000
00010000
00000000
01000000
10000000
00000000
00010000
00000000
,
10000000
00100000
00000000
00010000
00001000
00000000
00000100
00000000
00000010
00001000
00000000
00000001
00000100
00000000
00000001
00000000
,
00000010
00000200
00000000
00010300
00001000
00000000
01000000
00000000
00100000
00100000
MMMM0000
00100000
00200000
00000000
00000000
00000000
,
00310000
00000000
00000000
00000000
20010000
00000000
00000000
00000000
30010000
00010000
MMMM0000
00010000
00020000
00000000
00001000
00000000
,
00030100
00000000
00000000
00000000
00001100
00000000
00000000
00000000
00001000
00001000
0000MMMM
00001000
00002000
00000000
01000000
00000000
,
00013000
00000000
00000000
00000000
00011000
00000000
00000000
00000000
01000000
01000000
MMMM0000
01000000
02000000
00000000
10000000
00000000
,
03100000
01000000
00000000
10000000
00010000
00000000
01000000
00000000
00001000
00001000
MMMMMMMM
00010000
00020000
00000000
00000000
00000000
,
00130000
00000000
00000000
00000000
10000000
00000000
01000000
00000000
00010000
00000000
00000000
00000000
00001000
00000000
00000000
00000000
00010000
00000000
00000000
00000000
00000100
00001000
00000100
00000000
00001000
00000000
00000010
00000000
00000100
00000000
00000000
00000000
,
00000010
00000000
00000000
00000000
00000100
00000000
00000001
00000000
00001000
00000000
00000000
00000000
00000100
00000000
00000000
00000000
00010000
00000000
00000000
00000000
00001000
00010000
00001000
00000000
00010000
00000000
00100000
00000000
10000000
00000000
00000000
00000000
,
01000000
00000000
00000000
00000000
00100000
00000000
00001000
00000000
00010000
00000000
00000000
00000000
00001000
00000000
00000000
00000000
00000010
00000000
00000000
00000000
00000001
00000100
00000001
00000000
00001000
00000000
00000100
00000000
00000010
00000000
00000000
00000000
,
00000001
00000200
00000000
00001300
00010000
00000000
00100000
00000000
01000000
01000000
MMMMMMMM
00000100
00000100
00000000
00000000
00000000
,
00000020
00000000
00000000
00000000
00000032
00000000
00000000
00000000
00000203
00000000
00000000
00000310
00000000
00000000
00001000
00000000
,
00000200
00000000
00000000
00000000
00020300
00000000
00000000
00000000
00032000
00000000
00000000
01003000
00000000
00000000
00010000
00000000
,
20000000
00000000
00000000
00000000
32000000
00000000
00000000
00000000
03020000
00000000
00000000
00030100
00000010
00000000
00000001
00000000
,
00000200
00002300
02003000
03100000
,
20020000
00000000
30030000
00000000
22000000
00000000
33000000
00000000
00220000
00000000
00330000
00022000
00000000
00033000
00011000
00000000
,
00020200
00000000
00030300
00000000
00002200
00000000
00003300
00000000
00000220
00000000
00000330
00000022
00000000
00000033
00001001
00000000
,
00000202
00000000
00000303
00000000
00000220
00000000
00000330
00000000
00020020
00000000
00030030
00022000
00000000
00033000
00011000
00000000
,
00000000
01000000
00000000
00010000
10000000
00000000
10000000
00000000
00010000
00001000
MMMMMMMM
01000000
10000000
00000000
00000000
00000000
;
