#TITLE:Tail Lights;
#ARTIST:BEMANI Sound Team "dj TAKA" feat. nana hatori;
#ARTISTTRANSLIT:dj TAKA feat. nana hatori;
#BANNER:Tail Lights.png;
#BACKGROUND:Tail Lights-bg.png;
#JACKET:Tail Lights-jacket.png;
#CDTITLE:./CDTITLES/BEATMANIA IIDX.PNG;
#MUSIC:Tail Lights.ogg;
#SAMPLESTART:101.923;
#SAMPLELENGTH:15;
#BPMS:0=156;

//---------------dance-single - t7r----------------
#NOTES:
     dance-single:
     t7r:
     Beginner:
     1:
     :
0000
0000
0000
0000
,
0000
0000
0000
0000
,
0000
0000
0000
0000
,
0000
0000
0000
0000
,
0000
0000
0000
0000
,
0000
0010
0010
0000
,
1000
0000
0001
0000
,
0010
0000
0000
0000
,
0001
0000
0100
0000
,
0010
0000
0010
0000
,
1000
0000
0000
0000
,
0100
0000
0100
0000
,
0010
0000
0000
0000
,
0001
0000
0001
0000
,
1000
0000
0000
0000
,
0010
0000
0010
0000
,
0010
0000
0000
0000
,
1000
0000
1000
0000
,
1000
0000
0000
0000
,
0100
0000
1000
0000
,
0010
0000
0000
0000
,
0100
0000
0001
0000
,
0010
0000
0000
0000
,
0001
0000
0000
0000
,
1000
0000
0000
0000
,
0010
0000
0000
0000
,
0100
0000
0000
0000
,
0001
0000
0000
0000
,
0010
0000
0000
0000
,
0100
0000
0000
0000
,
1000
0000
0010
0000
,
1000
0000
1000
0000
,
1000
0000
0000
0000
,
0001
0000
0001
0000
,
0001
0000
0000
0000
,
0010
0000
0001
0000
,
0100
0000
0000
0000
,
0010
0000
1000
0000
,
0100
0000
0000
0000
,
0010
0000
0000
0000
,
0010
0000
0000
0000
,
0001
0000
0000
0000
,
0001
0000
0000
0000
,
1000
0000
1000
0000
,
1000
0000
0000
0000
,
0010
0000
0010
0000
,
0010
0000
0000
0000
,
0100
0000
0100
0000
,
0100
0000
0000
0000
,
0001
0000
1000
0000
,
0001
0000
0000
0000
,
1000
0000
1000
0000
,
1000
0000
1000
0000
,
0001
0000
0000
0000
,
0001
0000
0000
0000
,
0100
0000
0100
0000
,
0100
0000
0100
0000
,
0010
0000
0000
0000
,
0010
0000
0000
0000
,
1000
0000
1000
0000
,
0001
0000
0001
0000
,
0100
0000
0000
0000
,
0100
0000
0000
0000
,
0010
0000
0010
0000
,
0100
0000
0100
0000
,
0001
0000
0000
0000
,
1000
0000
0000
0000
,
0001
0000
0001
0000
,
0010
0000
0010
0000
,
0100
0000
0000
0000
,
0100
0000
0000
0000
,
1000
0000
1000
0000
,
0010
0000
0010
0000
,
0100
0000
0000
0000
,
0100
0000
0000
0000
,
0000
0001
0001
0000
,
1000
0000
1000
0000
,
0000
0100
0100
0000
,
0010
0000
0100
0000
,
1000
0000
0001
0000
,
0100
0000
0000
0000
;

//---------------dance-single - t7r----------------
#NOTES:
     dance-single:
     t7r:
     Easy:
     6:
     :
0000
0000
0000
0000
,
0000
0000
0000
0000
,
0000
0000
0000
0000
,
0000
0000
0000
0000
,
0000
0000
0000
0000
,
0000
0010
0020
0000
,
1030
0000
0001
0000
,
0200
0000
0000
0000
,
0301
0000
0010
0100
,
1000
0010
1000
0000
,
0002
0000
0010
1003
,
0001
0100
0001
0000
,
2000
0000
0100
3001
,
1000
1000
0001
0001
,
0200
0000
0000
0300
,
0010
0010
1000
1000
,
0001
0010
0100
1000
,
0100
0100
0010
0010
,
0001
0100
1000
0100
,
0001
0010
0100
0100
,
1000
0010
0100
0100
,
0001
0010
1000
0010
,
0001
0100
0010
1000
,
2001
0100
0000
3001
,
2000
0010
0000
3001
,
0200
0000
0010
0000
,
0301
0010
0100
1000
,
0002
0010
0000
1003
,
0002
0100
0000
1003
,
0020
0000
0230
0000
,
0301
1000
0100
0010
,
0001
0001
0001
0001
,
1000
0200
0320
0032
,
1003
1000
1000
1000
,
0001
0200
0320
2030
,
3001
0010
1000
0010
,
0001
0200
0320
2030
,
3100
0001
0100
0100
,
1000
0010
0100
0001
,
2001
0000
0010
0000
,
3100
0000
0100
0000
,
0020
0000
1000
0000
,
0031
0000
0001
0000
,
1001
0010
0000
0010
,
0000
1000
0001
0100
,
0000
0001
0000
0001
,
0000
0010
0100
1000
,
0001
0001
0100
0100
,
0010
0010
1000
1000
,
0001
0010
1000
0100
,
0001
1000
0002
0003
,
1000
0000
1100
0000
,
1000
0010
0100
0001
,
0010
0000
0011
0000
,
0001
0100
0010
1000
,
0001
0001
0010
0010
,
1000
1000
0010
0001
,
1000
1000
0010
0010
,
0001
0010
1000
0001
,
1000
0000
1000
1000
,
0000
0101
0000
0101
,
0001
0000
0001
0001
,
0000
1100
0000
1100
,
1000
0001
2000
3000
,
0010
0100
0020
0030
,
1000
0000
0100
0000
,
0010
0001
1000
0010
,
0200
0310
1000
0001
,
0020
0130
0010
0001
,
2000
3001
0100
1000
,
0100
0100
0010
1000
,
0001
0010
0011
0000
,
1000
0010
0100
0001
,
2000
0000
0100
0000
,
3001
0100
0010
1000
,
0100
0000
1010
0000
,
0100
0001
1000
0000
,
0010
0000
0101
0000
,
1000
0001
0010
0000
,
0001
0001
1000
1000
,
0020
0000
0000
0000
,
0030
0000
0000
0000
;

//---------------dance-single - t7r----------------
#NOTES:
     dance-single:
     t7r:
     Medium:
     10:
     :
0000
0000
0000
0000
,
0000
0000
0000
0000
,
0000
0000
0000
0000
,
0000
0000
0000
0000
,
0000
0000
0000
0000
,
0020
1000
1030
0000
,
0002
0000
0013
0000
,
0200
0000
2300
0000
,
3002
0000
0203
0000
,
0302
0010
0013
0000
,
0002
0000
2003
0000
,
3020
0100
0130
0000
,
0020
0000
2030
0000
,
3001
1000
0001
0000
1000
0001
1000
0000
,
2002
0000
0000
0000
3003
0000
0000
0010
,
0100
0000
0100
0000
0001
0010
0001
0000
,
0100
0000
0100
0000
0010
1000
0010
0000
,
1000
0000
0001
0100
0001
0000
1000
0000
,
0001
0010
0001
0000
1000
0000
0100
0000
,
1000
0010
0100
0000
0001
0000
0001
0000
,
1000
0100
0010
0000
0001
0000
0001
0000
,
0100
0010
0100
0000
0100
0001
0100
0000
,
0100
1000
0100
0000
0010
0000
0100
0001
,
1000
0000
1010
0000
0001
0010
0100
0000
,
0010
0000
0011
0000
0001
0100
0010
0000
,
2000
0010
0000
3001
,
1000
0000
0100
1000
0000
0001
0100
0000
,
0010
0000
0101
0000
0010
1000
0001
0000
,
0010
0000
1100
0000
0001
0010
0100
0000
,
0020
0000
0031
0200
0000
0000
0320
0000
,
0000
1030
0100
0010
,
0001
0000
1000
0010
1000
0000
0001
0000
,
0010
0002
0203
0320
,
1030
0000
0001
0010
0001
0000
1000
0000
,
0100
0010
0001
0000
0100
0010
1000
0000
,
0001
0100
0010
0000
0100
0000
0100
0000
,
1000
0100
0010
0000
0100
0000
0100
0000
,
0001
0010
0001
0000
1000
0000
1000
0000
,
0010
1000
0001
0000
1000
0001
0010
0000
,
2001
0000
3200
0000
,
0310
0001
0100
0000
,
0002
0000
0023
0000
,
0130
1000
0010
0000
,
1001
0100
0020
0000
,
0001
0000
0130
0000
,
0010
0001
0200
0000
,
1000
0000
0310
0000
,
1000
1000
1000
0000
0001
0000
0100
0000
,
0001
0001
0001
0000
1000
0000
0010
0000
,
1000
0001
1000
0001
0100
0010
0100
0000
,
0001
1000
0010
0100
,
0010
0000
1000
0000
0100
0000
0000
0000
0010
0000
0000
0010
0001
0000
0000
0000
,
0010
0000
0001
0000
0100
0000
0000
0000
0010
0000
0000
0010
1000
0000
0000
0000
,
0001
0000
0000
0001
0010
0000
0000
0000
0001
0000
0000
0000
0100
0000
0000
0000
,
0010
1000
0010
0000
1000
0001
1000
0000
,
0001
0000
0010
0000
0100
0000
0000
0000
1000
0000
0000
1000
0010
0000
0000
0000
,
1000
0000
0000
1000
0100
0000
0000
0000
0010
0000
0000
0010
0001
0000
0000
0000
,
1000
0010
1000
0000
0001
0000
0100
0000
,
0001
0010
0001
0000
1000
0000
0010
0000
,
1000
0000
0000
0100
0000
0000
0010
0000
0001
0000
0000
0000
0001
0000
0000
0000
,
0100
0000
0000
0100
0000
0000
0010
0000
1000
0000
0001
0000
1000
0000
0000
0000
,
0001
0000
0000
0001
0000
0000
0010
0000
0100
0000
0000
0000
0100
0000
0000
0000
,
1000
0010
1000
0000
0001
0010
0001
0000
,
1000
1000
1000
0000
0001
0000
0100
0000
,
0001
0001
0001
0000
1000
0000
0010
0000
,
1000
0000
0000
0001
0100
0000
0000
0000
0001
0000
0000
1000
0010
0000
0000
0000
,
1000
0000
0000
1000
0100
0000
0000
0000
0010
0000
0000
0000
0010
0000
0000
0000
,
0001
0000
0101
0000
0001
0100
0010
1000
,
0100
0000
1100
0000
1000
0100
0010
0001
,
0100
0000
0110
0000
0010
1000
0001
0010
,
0001
0200
0000
0320
0000
1030
0001
0010
,
0001
1100
0102
0013
,
0001
0000
1000
0020
0000
0130
0002
0000
,
2003
0100
0001
3010
,
1000
0000
0100
0001
0000
0100
1000
0000
,
0100
0000
0110
0000
0010
0001
1000
0001
,
0010
0000
0110
0000
0100
1000
0001
1000
,
0010
0000
0101
0000
0010
1000
0100
1000
,
0010
0000
1100
0000
0001
0010
0100
0000
,
1000
1000
0001
0001
0100
0100
0010
0010
,
2000
0000
0000
0000
,
3000
0000
0000
0000
;

//---------------dance-single - t7r----------------
#NOTES:
     dance-single:
     t7r:
     Hard:
     13:
     :
0000
0000
0000
0000
,
0000
0000
0000
0000
,
0000
0000
0000
0000
,
0000
0000
0000
0000
,
0000
0000
0000
0000
,
0010
1000
0200
0000
,
0310
0000
0000
0001
0000
0100
0010
0000
,
2000
0010
3001
0000
,
0200
1000
0310
0000
,
1000
0100
0000
0010
0000
0100
0000
1000
,
0002
0000
0000
0100
0000
1003
0020
0000
,
0130
0001
0000
0010
0000
1000
0000
0010
,
0200
0000
0000
1000
0000
0310
0001
0000
,
0100
0100
0001
0001
1000
1000
0010
0010
,
0200
0000
0000
0000
0000
0000
0000
0310
,
1000
0000
0000
1000
0100
0000
0000
0100
0010
0000
0000
0010
0001
0000
0000
0001
,
1000
1000
0010
0000
0100
0100
0001
0000
,
0010
0000
0000
0010
0001
0000
0000
0001
0100
0000
0000
0100
0010
0000
0000
0010
,
1000
0001
0100
0000
0001
1000
0010
0000
,
1000
0000
0000
0100
0010
0000
0000
0000
0001
0000
0100
0000
0001
0000
0000
0000
,
0010
0000
0000
0001
1000
0000
0000
0000
0010
0000
0000
0100
0010
0000
0000
0000
,
1000
0010
0010
0000
0001
0010
0010
0000
,
1000
0000
0001
0000
0100
0010
0000
0000
1000
0000
0001
0010
0000
0000
0000
0000
,
1100
0000
0010
2000
0100
0000
3001
0000
,
0010
0001
0100
0000
0010
0000
1001
0000
,
0100
0000
0001
0200
0001
0000
0310
0000
,
0100
0000
0000
0001
1000
0000
0020
0000
0000
0000
1030
0000
0001
0000
0000
0000
,
1000
0000
0000
0100
1000
0000
0000
0000
0010
0000
0000
0000
1010
0000
0000
0000
,
0001
0000
0000
0100
0001
0000
0000
0000
0010
0000
0000
0000
0011
0000
0000
0000
,
0002
0000
0103
0020
0000
1030
0001
0000
,
1000
0000
0000
1000
0100
0000
0000
0100
0010
0000
0000
0010
0001
0000
0000
0001
,
1000
0000
0000
1000
0010
0000
0000
0000
1000
0000
0100
1000
0000
0000
0000
0000
,
0001
0000
0000
0001
0010
0000
0000
0000
0001
0000
0001
0000
1000
0000
0000
0000
,
0010
0000
0000
0010
0100
0000
0000
0000
0010
0000
1000
0000
0001
0000
0000
0000
,
0010
0001
0100
0000
0010
1000
0100
0000
,
0010
0001
0100
0010
0001
0010
0100
0001
,
0010
0000
0000
0010
1000
0000
0000
1000
0010
0000
0000
0010
0001
0000
0000
0001
,
0100
1000
1000
0000
0100
0001
0001
0000
,
0010
0000
0100
0000
1000
0001
0000
0000
0100
0000
0010
0000
1000
0000
0010
0000
,
0210
0000
0302
0000
,
1003
0100
0010
0010
,
0002
0000
0203
0000
,
0310
1000
0001
0010
,
2001
0000
3020
0000
0230
0000
0301
0020
,
0000
0000
0031
0000
1000
0000
0100
0000
0001
0000
0000
0001
0000
0000
0001
0000
,
0000
0000
1000
0000
0200
0000
1300
0020
,
0000
0000
0130
0000
0001
0000
0010
0000
1000
0000
0000
1000
0000
0000
1000
0000
,
0000
0001
0100
0000
1000
1000
0001
0000
,
0000
1000
0100
0000
0001
0001
1000
0000
,
0010
0100
0010
0000
0100
0010
0100
0000
0010
0000
0010
0000
0010
0000
0000
0000
,
1001
0000
0110
0000
1001
0100
0010
0000
,
0001
0000
0000
0100
0001
0000
0000
0000
1000
0000
0100
1000
0000
0000
0001
0000
,
1000
0000
0000
0010
1000
0000
0000
0000
0001
0010
0000
0001
1000
0000
0000
0000
,
0001
0000
0000
0100
0010
0000
0000
0000
1000
0000
0000
0100
0010
0000
0000
0000
,
0001
0010
0100
0001
0100
0010
0001
1000
,
0001
0000
0000
1000
0010
0000
0000
0000
1000
0000
0001
0010
0000
0001
1000
0000
,
0001
0000
0000
1000
0100
0000
0000
0100
0010
0000
0000
0010
0001
0000
0000
0001
,
0100
0000
0010
0100
0000
0000
0000
0000
0001
0000
0010
0001
0000
0000
0000
0000
,
1000
0100
0010
1000
0010
0100
1000
0001
,
0101
0000
0000
0000
1100
0000
0000
0000
0001
1000
0000
0001
0100
0000
0000
0000
,
0010
0000
1000
0010
0000
1000
0010
0000
1000
0001
0000
1000
0001
0000
0000
0000
,
1100
0000
0000
0000
0011
0000
0000
0000
1000
0010
0000
0100
0010
0000
0000
0000
,
1000
0010
0100
1000
0100
0001
1000
0000
,
0001
0001
0001
0001
0010
0001
0011
0000
,
1000
1000
1000
1000
0010
1000
1010
0000
,
0010
0000
0100
0001
0000
0100
0001
0000
0010
0000
0100
1000
0000
0000
0001
0000
,
1000
0001
1000
0000
0001
1000
0001
0000
2000
0000
0000
0000
0000
0000
0000
0000
,
3010
0000
0000
0000
0101
0000
0000
0000
0010
0000
0000
1000
0100
0000
0010
0000
,
0001
0000
0000
0000
1010
0000
0000
0000
0001
0000
0000
0100
0010
0000
1000
0000
,
0100
0000
0000
0000
0011
0000
0000
0000
1000
0000
0000
0010
0100
0000
0001
0000
,
1000
0000
0000
1000
0010
0000
0000
0010
0100
0000
0000
0100
0001
0000
0000
0001
,
0010
1100
0101
1002
,
0023
0000
0031
0200
0000
0000
1000
0000
,
0310
0000
0000
0100
0001
0000
0020
0000
0000
0000
0031
0000
1000
0000
0000
0000
,
0001
0000
0000
0001
0100
0000
0000
0100
0010
0000
0000
0010
1000
0000
0000
1000
,
0001
0000
0011
0200
0000
0000
1300
0000
,
0010
0000
0000
0100
0001
0000
1000
0000
0001
0000
0100
0000
0001
0000
0010
0000
,
0001
0000
0000
0000
1100
0000
0020
0000
0000
0000
0000
0000
0031
0000
0000
1000
,
0010
0100
0010
0001
0010
1000
0001
0010
,
0001
0000
0001
0000
1000
0000
1000
0000
0010
0100
0010
0000
0100
0010
0100
0000
,
0002
0000
0000
0000
,
0003
0000
0000
0000
;

//---------------dance-single - t7r----------------
#NOTES:
     dance-single:
     t7r:
     Challenge:
     17:
     :
0000
0000
0000
0000
,
0000
0000
0000
0000
,
0000
0000
0000
0000
,
0000
0000
0000
0000
,
0000
0000
0000
0000
,
2000
0100
0000
3002
0000
0000
0010
0000
,
0203
0010
0000
0302
0000
0000
0010
0000
,
2003
0010
0000
3200
0000
0000
0302
0000
,
0203
1000
0000
0010
0000
0301
0100
1000
,
0010
0100
0000
0002
0000
2003
0010
0000
,
3001
0000
0100
2000
0000
3100
0010
1000
,
0200
0000
1300
0020
0000
0031
0010
0100
,
0001
0010
0100
2000
0000
3010
0100
0001
,
1000
0000
1000
0000
0001
0000
0001
0000
0100
0010
0100
0010
0100
0010
0100
0010
,
2000
0000
0000
0000
0000
0000
0000
3001
,
0010
0000
0001
0100
0001
0100
0001
1000
0010
0000
1000
0100
0000
1000
0100
0000
,
1000
0000
1000
0000
0010
0100
0010
0100
0001
0000
0001
0000
0010
0100
0010
0100
,
1000
0000
0001
0010
0000
0001
0100
0001
0000
1000
0010
0000
1000
0000
0001
1000
,
0001
0100
0001
0100
0001
0000
1000
0001
0010
0000
0001
1000
0100
0000
1000
0001
,
1000
0100
0010
0100
1000
0100
0010
0001
0100
0000
0001
0010
0001
0100
0010
1000
,
0001
0000
1000
0010
1000
0000
0001
0010
0001
0000
1000
0001
1000
0000
0001
0100
,
0010
0000
1000
0000
1000
0000
0010
0001
0000
0010
0100
0000
0010
1000
0000
1000
,
0001
0000
0010
0000
1000
0010
0000
0010
0100
0000
1000
0010
0000
0010
0100
0000
,
0101
0000
0110
0020
1000
0000
0130
0001
,
1000
0000
0100
0010
0001
0000
0100
0000
0010
0000
1000
0001
0010
0000
0001
0000
,
0100
0000
0101
0002
0010
0000
1003
0001
,
1000
0000
0100
1000
0010
0000
0200
0000
0000
0000
0301
0000
0010
0000
0001
1000
,
0010
0000
1000
0100
0010
0000
0200
0000
0000
0000
1300
0000
0010
0000
0100
0000
,
0001
0000
0010
0001
1000
0000
0002
0000
0000
0000
0013
0000
0100
0000
1000
0000
,
0001
0000
0100
0010
1000
0000
0002
0000
0000
0000
0013
0000
0100
0000
0000
0000
,
0010
0001
0202
0303
2020
3030
2002
3003
,
1001
0000
1000
0100
0000
1000
0010
0100
0010
0000
1000
0100
0000
1000
0010
0100
,
0010
0000
0010
0000
1000
0010
0100
0010
1000
0000
1000
0000
0001
0010
0100
0010
,
1000
0000
0010
0100
0000
0010
0100
1000
0000
0100
0010
0000
0010
0000
0001
0010
,
0001
0100
0001
0100
0010
0000
1000
0001
0010
0000
0001
0100
0010
1000
0001
0010
,
0001
0100
0010
0100
0000
0100
0001
0010
0100
0000
0010
0001
0000
0100
1000
0100
,
0010
0000
1000
0100
1000
0000
0100
0001
0100
0000
1000
0001
1000
0000
0010
0000
,
1000
0000
0001
0000
0001
0000
0100
1000
0000
0001
0010
0000
1000
0100
0000
0010
,
1000
0000
0001
0000
0100
0010
0000
0001
1000
0001
1000
0001
0100
0010
0100
0010
,
2010
0000
0000
3001
0010
0001
0100
0000
,
0010
1000
0001
0000
0100
0000
0001
0000
,
1000
0100
0100
0000
2000
0000
3000
0000
,
0001
0100
0100
0000
0002
0000
0003
0000
,
1001
0010
0200
0000
0302
0000
1003
0010
,
1000
0000
0100
0000
0001
0000
0100
0000
0010
0000
0100
1000
0000
0100
1000
0000
,
0001
0100
0020
0000
0230
0000
0301
0100
,
1000
0000
0100
0000
0010
0000
1000
0000
0001
0000
0010
0001
0000
0010
0001
0000
,
1000
0000
1000
0000
0100
0000
0100
0000
0010
0001
0100
0001
0010
0000
0010
0000
,
0001
0000
1000
0100
0010
0001
0010
0100
1000
0010
1000
0010
0100
0001
1000
0000
,
0001
1000
0001
1000
0001
1000
0001
1000
0010
0100
0010
0100
0010
0100
0010
0100
,
0001
0010
0100
1000
0100
0010
0001
0010
0100
1000
0100
0010
0001
1000
0001
1000
,
0001
0000
0100
1000
0000
0001
0010
0100
0000
0010
1000
0001
0000
0001
1000
0000
,
0001
0000
0010
1000
0000
0001
0100
0010
0100
1000
0000
1000
0010
0000
0010
1000
,
0001
0000
0100
1000
0000
0001
0010
0100
0010
0000
1000
0100
0000
0001
0100
0010
,
0001
0000
1000
0100
1000
0000
0100
0001
0100
0001
0100
0000
0010
0000
0001
0000
,
1000
0000
0010
0001
0000
1000
0100
0010
0100
0000
0001
1000
0000
1000
0001
0000
,
0010
0000
1000
0001
0100
0000
1000
0001
0100
0000
1000
0100
0001
0000
0010
0001
,
1000
0000
0100
0001
0000
1000
0010
0100
1000
0000
0001
0100
0000
1000
0100
0000
,
0001
0000
1000
0010
1000
0000
0010
0001
0010
0000
1000
0001
1000
0000
0001
0100
,
0010
0000
1000
0100
0000
0001
0100
0100
0000
1000
0100
0100
0000
0100
0010
0010
,
0001
0000
0100
0100
0000
1000
1000
0000
0100
0100
0000
0010
0010
0000
1000
0001
,
1000
0000
0010
0010
0000
0001
0001
0010
0100
0000
0010
0010
0000
0001
1000
0001
,
0010
0000
1000
0001
0010
0000
1000
0001
0100
1000
0010
0000
0100
0000
0010
0000
,
1001
0000
0001
0000
1001
0000
0001
0100
0010
1000
0100
1000
0010
0000
1000
0000
,
1001
0000
1000
0000
1001
0000
1000
0001
0100
0001
0010
0001
1000
0000
0001
0000
,
1000
0100
1000
0100
1000
0001
0100
1000
0100
0010
0100
0010
1000
0100
0001
0100
,
1000
0010
0100
0001
0100
0010
1000
0001
0010
0100
1000
0100
0010
0001
0010
0100
,
1000
0000
0100
0000
1100
0000
1000
0100
0010
0001
0100
0010
1000
0001
0010
0000
,
0001
0000
0100
0000
0101
0000
0001
0100
0010
1000
0100
0010
0001
1000
0001
0000
,
1000
0000
0010
0000
1010
0000
1000
0001
0100
0010
1000
0001
0010
0100
1000
0000
,
0001
0000
0100
0000
0110
0000
0010
1000
0001
1000
0100
0010
0001
0100
0010
1000
,
0001
1000
2200
3300
0022
0033
2020
3030
,
0201
0000
0310
2000
0100
0000
3002
0000
,
1003
0000
0100
0010
0001
0000
0200
0000
1000
0000
0000
0000
0320
0000
0000
0000
,
1030
0000
0001
0010
0100
0000
2000
0000
0010
0000
0000
0000
3001
0000
1000
0000
,
1001
0000
0001
0100
0010
0000
1000
0100
0010
0001
1000
0010
0100
0000
0001
0010
,
0100
0000
1000
0010
0100
0000
0001
1000
0010
0100
0001
0010
0100
0000
1000
0001
,
0100
0000
0010
1000
0001
0000
0010
0001
1000
0100
0010
0100
1000
0000
0001
0100
,
0010
0000
0001
0010
1000
0000
0001
0010
0100
0000
0100
0000
1001
0000
1001
0000
,
0001
0000
0001
0000
1000
0000
1000
0000
0001
0100
1000
0100
0001
0010
1000
0010
,
0002
0000
0000
0000
,
0003
0000
0000
0000
;

//---------------dance-double - t7r----------------
#NOTES:
     dance-double:
     t7r:
     Easy:
     6:
     :
00000000
00000000
00000000
00000000
,
00000000
00000000
00000000
00000000
,
00000000
00000000
00000000
00000000
,
00000000
00000000
00000000
00000000
,
00000000
00000000
00000000
00000000
,
00000000
00000001
00000002
00000000
,
00001003
00000000
00000100
00010000
,
00002000
00000000
00000000
01003000
,
00100000
00000000
10000000
01000000
,
00100000
00000000
00010000
00010000
,
10000000
00200000
00000000
00310000
,
00001000
00000000
00010000
00010000
,
00001000
00000020
00000000
00000130
,
00001000
00000001
00000001
00000100
,
00002000
00000000
00000000
00003000
,
00010000
00010000
00001000
00010000
,
00010000
01000000
00100000
01000000
,
10000000
00100000
00100000
10000000
,
00010000
00100000
00001000
00010000
,
00001000
00000010
00000010
00000001
,
00000001
00000100
00000100
00001000
,
00010000
00001000
00010000
00100000
,
01000000
00100000
10000000
00010000
,
20010000
01000000
00000000
30010000
,
20000000
00100000
00000000
30010000
,
10000000
00000000
01000000
00000000
,
00010000
00001000
00010000
00000010
,
00002000
00000100
00000000
00003001
,
00000200
00001000
00000000
00000310
,
00002000
00000001
00000000
00003100
,
00010000
00001000
00010000
00001000
,
00011000
00000000
00001000
00000000
,
01000000
01000000
00100000
00100000
,
10000000
00000000
00010000
00000000
,
10000000
10000000
01000000
01000000
,
00100000
00010000
00001000
00000010
,
00000100
00000100
00000001
00000001
,
00000010
00001000
00001000
00010000
,
00010000
00100000
10000000
00010000
,
20010000
00000000
01000000
00000000
,
30010000
00000000
00001000
00000000
,
00000002
00000000
00000010
00000000
,
00001003
00000000
00010000
00000000
,
10010000
10000000
01000000
00000000
,
10000000
00100000
02000000
00000000
,
03010000
00100000
00001000
00000000
,
00010000
00000010
00002000
00000000
,
00003001
00000001
00000010
00000010
,
00000100
00000100
00001000
00001000
,
00010000
00100000
01000000
10000000
,
00100000
01000000
00010000
10000000
,
10010000
00000000
10000000
00000000
,
01000000
01000000
00010000
00010000
,
00001000
00000000
00000100
00000000
,
00000010
00000010
00001000
00001000
,
00000001
00000000
00000010
00000000
,
00001000
00001000
00010000
00010000
,
00100000
00000000
01000000
00000000
,
00010000
00010000
10000000
10000000
,
01000000
10000000
01000000
10000000
,
00010000
00100000
00001000
00010000
,
00000100
00001000
00000100
00001000
,
00000010
00001000
00000001
00001000
,
00000001
00000001
00000010
00000010
,
00001000
00001000
00010000
00010000
,
00100000
00100000
10000000
10000000
,
00010000
01000000
00100000
10000000
,
20010000
00000000
31000000
00100000
,
00002000
00000000
00013000
00000010
,
00000200
00000000
00000301
00000010
,
00000100
00000010
00000001
00000100
,
00001000
00010000
00020000
00000000
,
01030000
10000000
00100000
01000000
,
00002000
00000000
00013000
00000000
,
00001000
00000100
00000010
00000100
,
00000001
00001000
00001100
00000000
,
00000100
00010000
00001000
00000000
,
01000000
00010000
00110000
00000000
,
00010000
10000000
00100000
00000000
,
10000000
10000000
01000000
01000000
,
00020000
00000000
00000000
00000000
,
00030000
00000000
00000000
00000000
;

//---------------dance-double - t7r----------------
#NOTES:
     dance-double:
     t7r:
     Medium:
     10:
     :
00000000
00000000
00000000
00000000
,
00000000
00000000
00000000
00000000
,
00000000
00000000
00000000
00000000
,
00000000
00000000
00000000
00000000
,
00000000
00000000
00000000
00000000
,
00000100
00001000
00000002
00000103
,
00000020
00000000
00000000
00002030
00000000
00000000
00003100
00000000
,
00020000
00000000
00000000
00032000
00000000
00000000
01003000
00000000
,
00020000
00000000
00000000
00230000
00000000
00000000
01300000
00000000
,
20000000
00100000
30010000
00000000
,
10000000
01000000
00010000
00000000
,
00002000
00000100
00013000
00000000
,
00001000
00000100
00000001
00000000
,
00001000
00000000
00001000
00000000
00000100
00010000
00001000
00000000
,
00022000
00000000
00000000
00000000
00033000
00000000
00000000
00010000
,
00100000
00000000
00100000
00000000
01000000
00010000
01000000
00000000
,
00010000
00000000
00010000
00000000
00100000
01000000
00100000
00000000
,
00010000
00000000
00010000
00000000
10000000
00100000
10000000
00000000
,
00010000
01000000
00001000
00010000
,
00000100
00000000
00000100
00000000
00001000
00000010
00001000
00000000
,
00000001
00000010
00001000
00010000
,
00001000
00000000
00001000
00000000
01000000
00010000
01000000
00000000
,
00010000
00000000
00000000
00000000
00100000
00000000
00000000
00000000
01000000
00000000
00000000
10000000
00000000
00000000
00000000
00000000
,
10010000
00000000
10000000
00200000
00000000
00000000
01300000
00000000
,
00010000
00000000
10000000
02000000
00000000
00000000
03010000
00000000
,
00001000
00000000
00010000
00000020
00000000
00000000
00001030
00000000
,
00000001
00000000
00000100
00002000
00000000
00000000
00013000
00000000
,
00001000
00000000
00100000
00020000
00000000
00000000
10030000
00000000
,
00100000
00000000
01000000
00020000
00000000
00000000
10030000
00000000
,
02000000
00000000
00000000
03020000
00000000
00000000
00032000
00000000
,
00000000
00003100
00000010
00001000
,
00000001
00000000
00000010
00000001
00000010
00000000
00000001
00000000
,
00000100
00000020
00002030
00003002
,
00000103
00000000
00000001
00000010
00000001
00000000
00001000
00000000
,
00000100
00010000
00001000
00000000
00010000
00001000
01000000
00000000
,
00010000
00000000
00100000
01000000
10000000
00000000
00010000
01000000
,
00100000
20000000
30020000
00230000
,
00301000
00010000
00010000
00000000
00000010
00000000
00000010
00000000
,
00001000
00000000
00000001
00000000
00000100
00000000
00000000
00000000
00001000
00000000
00000000
00010000
00000000
00000000
00000000
00000000
,
01100000
00000000
20000000
00000000
,
32000000
00000000
03200000
00000000
,
00302000
00000000
00023000
00000000
,
00030010
00000100
00000001
00000000
,
00001001
00000001
00000200
00000000
,
00000310
00001000
00000001
00000000
,
00000010
00001000
00020000
00000000
,
00031000
00100000
00010000
00000000
,
10000000
10000000
10000000
00000000
00010000
00000000
01000000
00000000
,
00010000
00010000
00010000
00000000
00100000
00000000
00001000
00000000
,
00010000
00010000
00010000
00000000
00000100
00000000
00001000
00000000
,
00000002
00000203
00002300
00013000
,
00011000
00000000
00010000
00000000
01000000
10000000
00010000
00000000
,
10000000
00000000
00100000
00000000
10000000
00000000
00000000
00000000
00010000
00000000
00000000
00010000
10000000
00000000
00000000
00000000
,
01000000
00000000
00100000
00000000
00001000
00010000
00001000
00000000
,
00000010
00000000
00000001
00000000
00001000
00000001
00000100
00000000
,
00000001
00000000
00000010
00000000
00000100
00000000
00000000
00000000
00000010
00000000
00000000
00000010
00000001
00000000
00000000
00000000
,
00000100
00011000
01000000
00011000
,
00001000
00100000
00001000
00000000
00100000
00010000
10000000
00000000
,
00010000
01000000
00100000
00000000
10000000
00000000
01000000
00000000
,
00100000
00000000
00000000
00001000
00000000
00000000
00010000
00000000
00001000
00000000
00000000
00000000
00001000
00000000
00000000
00000000
,
00010000
00000000
00000000
00000100
00000000
00000000
00001000
00000000
00000010
00000000
00001000
00000000
00000001
00000000
00000000
00000000
,
00000010
00000000
00000000
00000010
00000000
00000000
00000001
00000000
00000100
00000000
00000000
00000000
00000100
00000000
00000000
00000000
,
00000001
00000010
00001000
00000000
00010000
00010000
00010000
00000000
,
00001000
00000000
01000000
00000000
00010000
00010000
00010000
00000000
,
10000000
00000000
00100000
00000000
10000000
10000000
10000000
00000000
,
01000000
00000000
00000000
01000000
00000000
00000000
00100000
00000000
00001000
00000000
00000000
00001000
00010000
00000000
00000000
00000000
,
00001000
00000100
00000001
00000010
,
00000011
00000000
00000001
00000100
00000001
00001000
00000100
00000000
,
00001100
00000000
00000100
00010000
00001000
00010000
01000000
00000000
,
01100000
00000000
00100000
00010000
10000000
00010000
00100000
00000000
,
00110000
00000000
00010000
10000000
00100000
00010000
00001000
00000000
,
00010000
00000000
00011000
00000000
00010200
00000000
00001300
00000010
,
00000100
00000000
00000001
00000020
00000000
00000031
00000100
00000000
,
00002000
00000000
00013000
02000000
00000000
03100000
01000000
00000000
,
10000000
00000000
00010000
01000000
00000000
00001000
00010000
00000000
,
00011000
00000000
00001000
00010000
00000100
00001000
00000001
00000100
,
00000010
00000000
00001000
00000100
00000000
00001000
00000001
00000000
,
00001001
00000000
00000002
00000000
00000203
00000000
00001300
00010000
,
01000000
00000000
00100000
00010000
00000000
10000000
00010000
00000000
,
10000000
10000000
00100000
00100000
01000000
01000000
00001000
00001000
,
00020000
00000000
00000000
00000000
,
00030000
00000000
00000000
00000000
;

//---------------dance-double - t7r----------------
#NOTES:
     dance-double:
     t7r:
     Hard:
     12:
     :
00000000
00000000
00000000
00000000
,
00000000
00000000
00000000
00000000
,
00000000
00000000
00000000
00000000
,
00000000
00000000
00000000
00000000
,
00000000
00000000
00000000
00000000
,
00000100
00001000
00000002
00000103
,
00000020
00000000
00001030
00000200
00000000
00000000
00020300
00000000
,
00032000
00000000
00000000
02003000
00000000
00000000
03200000
00000000
,
10300000
00000000
01000000
00200000
00000000
00320000
00000000
10030000
,
00100000
00010000
00001000
00000010
,
00000200
00000000
00000000
00020300
00000000
00031000
00010000
00000000
,
00002000
00000000
01003000
00200000
00000000
00000000
20300000
00000000
,
30020000
00000000
00130000
01000000
00000000
00000000
10000000
00000000
,
00100000
00000000
00010000
00000000
00001000
00001000
00000010
00000000
,
00002002
00000000
00000000
00003003
,
00000001
00000000
00000000
00000001
00000100
00000000
00000000
00000000
00000001
00000000
00000000
00000001
00001000
00000000
00000000
00000000
,
00000001
00000010
00000100
00000000
00001000
00010000
00100000
00000000
,
00010000
00000000
00000000
00010000
10000000
00000000
00000000
00000000
00100000
00000000
00000000
00100000
10000000
00000000
00000000
00000000
,
01000000
00100000
00010000
00000000
10000000
00100000
00010000
00000000
,
00001000
00010000
00001000
00000010
00001000
00000000
00010000
00001000
,
00010000
00001000
00000100
00000001
,
00000010
00000100
00000100
00000000
00010000
00001000
00001000
00000000
,
01000000
00000000
00010000
00000000
10000000
01000000
00000000
00000000
00100000
00000000
00010000
10000000
00000000
00000000
00000000
00000000
,
01100000
00000000
10000000
02000000
00010000
00000000
03100000
00000000
,
00010000
00000000
10000000
00100000
01000000
00000000
00010000
00000000
,
00001000
00000000
00000001
00000200
00001000
00000000
00000310
00000000
,
00001000
00000000
00000001
00000020
00000000
00002030
00000000
00013000
,
00001000
00000000
00010000
02000000
00100000
00000000
13000000
00000000
,
00100000
00000000
01000000
00010000
10000000
00000000
00100000
00000000
,
00010000
00000000
00001000
00000200
00000010
00000000
00000301
00000000
,
00000010
00000000
00000000
00000000
00000100
00000000
00000000
00000000
00010000
00000000
00000000
00010000
00001000
00000000
00000000
00000000
,
00010000
00000000
00000000
00010000
01000000
00000000
00000000
00000000
10000000
00000000
00010000
10000000
00000000
00000000
00010000
00000000
,
10000000
00100000
00010000
00000000
00001000
00010000
00000100
00000000
,
00001000
00000000
00000000
00001000
00000010
00000000
00000000
00000000
00000100
00000000
00000000
00000100
00000001
00000000
00000000
00000000
,
00000010
00001000
00010000
00000000
00100000
01000000
00010000
00000000
,
10000000
00100000
01000000
00010000
10000000
01000000
00010000
00000000
,
00001000
00000000
00010000
00000000
00000100
00000000
00000000
00000000
00010000
00000000
00000000
00000010
00001000
00000000
00000000
00000000
,
00000001
00000010
00000010
00000000
00001000
00010000
00010000
00000000
,
00100000
00000000
01000000
00000000
01000000
00000000
00000000
00000000
00010000
00000000
00000000
00010000
10000000
00000000
01000000
00000000
,
00200000
00000000
00302000
00000000
,
00023000
00000000
00000000
00000000
,
00032000
00000000
02003000
00000000
,
03100000
10000000
00010000
00100000
,
00002000
00010000
01003000
00000000
,
00001000
00010000
00011000
00000000
,
00020000
00001000
00030100
00000000
,
00010000
00001000
00011000
00000000
,
00001000
00000000
00010000
00000000
01000000
10000000
00010000
00000000
,
10000000
00000000
00010000
00000000
01000000
00001000
00010000
00000000
,
00001000
00001000
00010000
00010000
00000010
00001000
00000001
00000000
,
00000020
00000000
00002030
00000000
00013000
00200000
00000000
01300000
,
00010000
00000000
00000000
00010000
10000000
00000000
00000000
00000000
01000000
00100000
00000000
01000000
10000000
00000000
00000000
00000000
,
00100000
00000000
00000000
00100000
01000000
00000000
00000000
00000000
00010000
00000000
00100000
00000000
00001000
00000000
00000000
00000000
,
00010000
00000000
00000000
00010000
00000100
00000000
00000000
00000000
00001000
00000010
00000000
00001000
00000001
00000000
00000000
00000000
,
00000100
00001000
00010000
00000000
01000000
00100000
00010000
00000000
,
10000000
00000000
00000000
10000000
00100000
00000000
00000000
00000000
10000000
00010000
00000000
00100000
00010000
00000000
00000000
00000000
,
10000000
01000000
00010000
00000000
00001000
00000100
00000010
00000000
,
00001000
00000000
00000000
00001000
00000100
00000000
00000000
00000000
00000010
00000001
00000000
00001000
00000001
00000000
00000000
00000000
,
00000100
00000010
00001000
00000000
00010000
00000000
01010000
00000000
,
00010000
00000000
00000000
00100000
01000000
00000000
00000000
00000000
10000000
00100000
00000000
10000000
00010000
00000000
00000000
00000000
,
10000000
00000000
00000000
01000000
00100000
00000000
00000000
00000000
01000000
00010000
00000000
00001000
00010000
00000000
00000000
00000000
,
00000010
00000000
00000000
00001000
00000001
00000000
00000000
00000000
00000010
00000100
00000000
00001000
00000100
00000000
00000000
00000000
,
00001000
00000000
00000000
00000001
00000100
00000000
00000000
00000000
00001000
00010000
00000000
01000000
00010000
00000000
00000000
00000000
,
01000000
01000000
10000000
00000000
00100000
01000000
00010000
00000000
,
10000000
00100000
00010000
00000000
00001000
00000010
00000100
00000000
,
00000010
00000000
00001001
00000000
00000001
00000100
00000010
00000000
,
00001000
00010000
10000000
00100000
,
01100000
00000000
10000000
02000000
00010000
00000000
03100000
00000000
,
00010000
00000000
10000000
00100000
00010000
00000000
00001000
00000000
,
00010000
00000000
00000100
00002000
00000010
00000000
00003001
00000000
,
00001000
00000000
00000001
00000100
00000010
00000000
00001000
00000000
,
00010000
00110000
00110000
10010000
,
20100000
00000000
31000000
00200000
00000000
00301000
00010000
00000000
,
00001000
00000000
00000100
00000002
00001000
00000000
00000023
00000000
,
00000130
00000000
00001000
00000001
00000100
00001000
00010000
00000000
,
00011000
00000000
00100000
00010000
10000000
00000000
00100000
00000000
,
00020000
00000000
00031000
00000020
00000000
00000130
00001000
00000001
,
00001000
00000000
00000001
00000200
00001000
00000000
00000310
00000000
,
00001000
00000100
00000100
00010000
00001000
00010000
01000000
10000000
,
00100000
00000000
00100000
00000000
01000000
00000000
01000000
00000000
00001000
00000000
00001000
00000000
00010000
00001000
00010000
00000000
,
00002000
00000000
00000000
00000000
,
00003000
00000000
00000000
00000000
;

//---------------dance-double - t7r----------------
#NOTES:
     dance-double:
     t7r:
     Challenge:
     17:
     :
00000000
00000000
00000000
00000000
,
00000000
00000000
00000000
00000000
,
00000000
00000000
00000000
00000000
,
00000000
00000000
00000000
00000000
,
00000000
00000000
00000000
00000000
,
20000000
01000000
00000000
30020000
00000000
00000000
00100000
00000000
,
02030000
00100000
00000000
00010000
00000000
03001000
00020000
00000000
,
00032000
00000000
00013000
00000200
00000000
00000000
00002300
00000000
,
00003002
00000100
00000000
00002003
00000000
00003010
00000100
00000001
,
00002000
00000100
00000000
00003002
00000000
00000103
00001000
00000000
,
00020000
00000100
00000000
00032000
00000000
01003000
00010000
10000000
,
00020000
00100000
00000000
20030000
00000000
31000000
00100000
00000000
,
00010000
01000000
00001000
00020000
00000000
00031000
00000100
00000000
,
00000001
00000000
00000001
00000000
00000010
00000000
00000010
00000000
00001000
00010000
00001000
00010000
00001000
00010000
00001000
00010000
,
00002000
00000000
00000000
00000000
00000000
00000000
00000000
00013000
,
00000100
00000000
00001000
00000010
00000000
00001000
00000001
00001000
00000100
00000000
00010000
00000100
00000000
00010000
00001000
00000000
,
00010000
00000000
00010000
00000000
01000000
10000000
01000000
00100000
01000000
00000000
00100000
00000000
00010000
00100000
00010000
10000000
,
00010000
00000000
01000000
00100000
00000000
10000000
00010000
00100000
00000000
00100000
00001000
00000000
00001000
00000000
00010000
00001000
,
00010000
00000010
00001000
00000010
00000100
00000000
00001000
00000100
00000010
00000000
00001000
00000100
00000010
00000000
00000001
00001000
,
00000001
00000010
00000100
00000010
00000001
00000100
00000010
00001000
00000001
00000000
00000010
00000100
00010000
00000100
00001000
00000001
,
00000100
00000000
00001000
00010000
01000000
00000000
00100000
01000000
10000000
00000000
00100000
01000000
10000000
00000000
01000000
00010000
,
10000000
00010000
00100000
00000000
00010000
00000000
10000000
00100000
00000000
00010000
00100000
00000000
01000000
00001000
00000000
00010000
,
00001000
00000000
00010000
00000000
00001000
00000010
00000000
00000010
00000100
00000000
00001000
00000010
00000000
00000010
00000100
00000000
,
00000101
00000001
00000010
00000200
00000001
00000000
00000310
00000001
,
00000100
00000000
00001000
00000000
00010000
00000000
01000000
00000000
00100000
00000000
01000000
10000000
00010000
00000000
10000000
00000000
,
10100000
10000000
00100000
02000000
10000000
00000000
03100000
01000000
,
00010000
00000000
00100000
00000000
01000000
00000000
00010000
00000000
00001000
00000000
00000010
00000000
00000100
00000000
00001000
00000001
,
00000100
00000000
00000001
00001000
00000010
00000000
00000200
00000000
00001000
00000000
00000000
00000000
00000310
00000000
00000100
00000000
,
00000001
00000000
00000010
00000001
00001000
00000000
00000001
00000000
00000100
00000000
00001000
00010000
00001000
00000000
00010000
00000000
,
00100000
01000000
00010000
00200000
10000000
00000000
01300000
10000000
,
00010000
10000000
20020000
30030000
00022000
00033000
00002002
00003003
,
00000001
00000000
00000100
00000010
00000000
00000100
00000001
00000100
00000010
00000000
00000100
00000001
00000000
00000010
00000100
00000000
,
00001000
00000000
00001000
00000000
00000001
00000000
00000100
00001000
00010000
00000000
00010000
00000000
00001000
00010000
00100000
00000000
,
10000000
00000000
00010000
00100000
00000000
00010000
10000000
00010000
00000000
00100000
00010000
00000000
10000000
00000000
00010000
00000000
,
10000000
00000000
01000000
00010000
00001000
00000000
00000100
00000010
00001000
00000000
00000100
00000010
00001000
00000000
00000010
00000001
,
00001000
00000010
00001000
00000010
00000100
00000001
00001000
00000100
00000010
00000000
00000001
00000000
00000100
00001000
00010000
00001000
,
00100000
00000000
00010000
01000000
00100000
00000000
00010000
00100000
01000000
00000000
10000000
01000000
00100000
00000000
10000000
01000000
,
00010000
00000000
00001000
00000000
00001000
00000000
00010000
00001000
00000000
00001000
00000010
00000000
00000001
00000100
00000000
00000100
,
00001000
00000000
00001000
00000000
00010000
00100000
00000000
00100000
10000000
01000000
10000000
01000000
00100000
00010000
00100000
00001000
,
00020000
00000000
00031000
00000010
00000100
00000010
00000001
00000100
,
00001000
00010000
00100000
10000000
01000000
00010000
00001000
00000010
,
00000100
00000010
00000100
00000010
00000000
00000010
00000000
00000010
00000001
00000000
00000100
00000000
00001000
00000000
00010000
00000000
,
00001000
00000000
00010000
00100000
01000000
00000000
00010000
00000000
00100000
00000000
01000000
10000000
00010000
10000000
00100000
00000000
,
10100000
00100000
02000000
00000000
03020000
00000000
10030000
01000000
,
00010000
00000000
00001000
00000000
01000000
00000000
00100000
00000000
00010000
00000000
00001000
00010000
00000000
00001000
00000010
00000000
,
00000001
00000100
00000020
00000000
00002030
00000000
00003001
00000010
,
00001000
00000000
00010000
00000000
00000100
00000000
00001000
00000000
00000001
00000000
00000100
00001000
00000000
00010000
00001000
00000000
,
00010000
00000000
00010000
00000000
00000100
00001000
00000100
00000010
00000001
00000000
00000001
00000000
00000100
00000010
00001000
00000001
,
00000010
00000000
00000010
00000000
00001000
00010000
00000100
00001000
00000001
00000000
00000001
00000000
00000100
00000000
00000100
00000000
,
00001000
00010000
00001000
00010000
00001000
00010000
00001000
00010000
01000000
10000000
01000000
10000000
00100000
01000000
00001000
00010000
,
00001000
00000100
00000010
00000000
00001000
00000100
00000010
00000001
00000010
00000100
00001000
00010000
10000000
01000000
00100000
00010000
,
10000000
00000000
01000000
00010000
00000000
10000000
00100000
01000000
00000000
00100000
00010000
10000000
00000000
00100000
00010000
00001000
,
00010000
00000000
00001000
00000010
00000000
00000100
00000010
00000001
00000010
00000100
00000000
00000100
00000010
00000000
00000001
00001000
,
00000001
00000000
00000100
00001000
00000000
00000001
00000010
00000100
00000010
00000000
00001000
00000100
00000000
00010000
00001000
00010000
,
00100000
00000000
00010000
00100000
10000000
00000000
00010000
00100000
01000000
00100000
00010000
10000000
00100000
00000000
01000000
00000000
,
00010000
00000000
10000000
01000000
00000000
00010000
01000000
00100000
01000000
00000000
10000000
00010000
00000000
01000000
00001000
00000000
,
00010000
00000000
00001000
00000100
00000001
00000000
00001000
00000100
00000010
00000000
00001000
00000010
00000100
00000000
00000010
00000001
,
00001000
00000000
00000001
00000100
00000000
00000001
00000010
00000100
00000010
00000000
00001000
00000010
00000000
00000100
00000010
00000000
,
00000001
00000000
00000100
00001000
00010000
00000000
01000000
00010000
00001000
00000000
00010000
00001000
00010000
00000000
00001000
00010000
,
00001000
00000000
00010000
00100000
00000000
01000000
00100000
10000000
00000000
01000000
00100000
00010000
00000000
10000000
01000000
00100000
,
01000000
00000000
10000000
00010000
00000000
01000000
00001000
00010000
00000100
00000100
00000000
00001000
00001000
00000000
00000001
00000100
,
00000010
00000000
00000001
00000001
00000000
00000010
00000010
00001000
00000001
00000000
00000010
00000010
00000000
00001000
00000000
00010000
,
00010000
00000000
00001000
00010000
01000000
00000000
00010000
01000000
10000000
00010000
01000000
00100000
10000000
00000000
00010000
00000000
,
10010000
00000000
10000000
00100000
10000000
00010000
10000000
01000000
00100000
00000000
00001000
00010000
00001000
00100000
00001000
00010000
,
00000010
00000000
00000100
00000001
00001000
00000001
00000010
00000001
00001000
00000000
00000001
00000010
00000100
00010000
00001000
00100000
,
00010000
01000000
00010000
01000000
00100000
10000000
00100000
10000000
01000000
00100000
01000000
00100000
00001000
00010000
00001000
00010000
,
00001000
00000100
00000001
00000010
00000100
00010000
00001000
00010000
00001000
01000000
00010000
10000000
00100000
01000000
00010000
00100000
,
01000000
00000000
10000000
00100000
01000000
00000000
00010000
00000000
10000000
01000000
00100000
00010000
10000000
00000000
00010000
00000000
,
10000000
00000000
00100000
01000000
00010000
00000000
00100000
00000000
00001000
00010000
00000010
00001000
00000001
00000000
00000100
00000000
,
00000001
00000000
00000010
00000100
00001000
00000000
00000001
00000000
00000100
00000010
00001000
00000001
00001000
00000000
00000001
00000000
,
00000100
00000000
00001000
00010000
00001000
00000000
00010000
00000000
01000000
00000000
00010000
00001000
00010000
00000000
00001000
00000000
,
00000100
00000000
00000010
00000000
00002020
00000000
00003030
00000000
00002020
00000000
00003030
00000000
00002001
00000000
00003001
00000010
,
00000200
00000000
00000000
00000000
00000310
00000000
00000001
00000000
00000100
00000000
00001000
00010000
00000100
00000000
00001000
00000000
,
00000001
00000000
00000100
00001000
00010000
00000000
02000000
00000000
00010000
00000000
00000000
00000000
03100000
00000000
00010000
00000000
,
10000000
00100000
01000000
00000000
00100000
10000000
00010000
00000000
00100000
00001000
00010000
00000000
00001000
00010000
00000010
00000000
,
00000100
00000000
00000001
00001000
00000001
00000000
00000200
00000000
00001000
00000000
00000000
00000000
00000310
00000000
00001000
00000000
,
00000001
00000000
00000010
00000000
00001000
00000000
00010000
00000100
00001000
00000000
00000001
00000000
00000100
00000000
00001000
00000000
,
00010000
00001000
00010000
02000000
00010000
00000000
03100000
00010000
,
10000000
00000000
00100000
00000000
00010000
00000000
00001000
00000000
01000000
00000000
00100000
10000000
00010000
00000000
10000000
00000000
,
10010000
00000000
10000000
00000000
00010000
00000000
00010000
00000000
00001000
00000001
00001000
00000001
00001000
00000100
00000010
00000001
,
00000200
00000000
00000000
00000000
,
00000300
00000000
00000000
00000000
;
