#TITLE:TOMBOY;
#ARTIST:(G)I-DLE;
#BANNER:TOMBOY.png;
#BACKGROUND:TOMBOY-bg.png;
#JACKET:TOMBOY-jacket.png;
#CDTITLE:./CDTITLES/NONE.PNG;
#MUSIC:TOMBOY.ogg;
#SAMPLESTART:54.677;
#SAMPLELENGTH:15;
#BPMS:0=124;

//---------------dance-single - t7r----------------
#NOTES:
     dance-single:
     t7r:
     Beginner:
     2:
     :
0000
0000
0000
0000
,
0000
0000
0000
0000
,
0000
0000
0000
0000
,
0000
0000
0000
0000
,
0000
0000
0000
0000
,
1000
0000
0000
0000
,
0001
0000
0000
0000
,
0010
0000
0000
0000
,
0100
0000
1000
0000
,
0001
0000
0000
0000
,
0100
0000
0000
0000
,
0010
0000
0010
0000
,
1000
1000
1000
0000
,
0000
0100
0000
0100
,
0100
0000
0100
0000
,
0000
0010
0000
0010
,
0010
0000
0010
0000
,
0000
0001
0000
0001
,
0001
0000
0000
0000
,
1000
0000
0010
0000
,
0100
0000
0000
0000
,
0001
0000
0000
0000
,
0010
0000
0000
0000
,
0100
0000
0000
0000
,
1000
0000
0000
0000
,
0010
0000
0010
0000
,
0100
0000
0100
0000
,
0001
0000
1000
0000
,
0001
0000
0000
0000
,
1000
0000
1000
1000
,
1000
0000
0100
0000
,
0010
0000
0010
0010
,
0010
0000
0010
0000
,
0001
0000
0001
0001
,
0001
0000
0001
0000
,
0000
0100
0100
0000
,
0010
0000
1000
0000
,
1001
0000
0000
0000
,
0000
0000
0000
0000
,
0000
0000
0000
0000
,
0000
0000
0000
0000
,
1000
0000
1000
0000
,
1000
0000
1000
0000
,
0001
0000
0001
0000
,
0001
0000
0000
0000
,
0100
0000
0100
0000
,
0100
0000
0100
0000
,
0010
0000
0010
0000
,
0010
0000
0000
0000
,
1000
0000
1000
1000
,
0000
1000
1000
0000
,
0001
0000
0001
0001
,
0000
0001
0000
0000
,
0100
0000
0100
0100
,
0000
0100
0100
0000
,
0010
0000
0010
0010
,
0000
0000
0000
0000
,
1000
0000
0100
0000
,
0001
0000
0010
0000
,
0001
0000
0100
0000
,
1000
0000
0010
0000
;

//---------------dance-single - t7r----------------
#NOTES:
     dance-single:
     t7r:
     Easy:
     5:
     :
0000
0000
0000
0000
,
0000
0000
0000
0000
,
0000
0000
0000
0000
,
0000
0000
0000
0000
,
0000
0000
0000
0000
,
0002
0000
0013
0000
,
0100
1000
0001
0000
,
2000
0000
3010
0000
,
0100
0001
0010
0000
,
0002
0000
0103
0000
,
0010
1000
0001
0000
,
1100
0000
0101
0000
,
1000
0001
1001
0000
,
0000
0001
0010
0100
,
1000
0010
0200
1000
,
0000
0310
0100
0001
,
1000
0100
0020
1000
,
0000
0031
0100
1000
,
0010
0100
0002
0000
,
1003
0000
0110
0000
,
1000
0100
0011
0000
,
2000
0000
0010
0001
,
3100
0100
1000
0000
,
0002
0000
0010
1000
,
0100
0103
0001
0000
,
1000
0000
0100
0000
,
0001
0000
0010
0000
,
0100
0000
0010
0000
,
1001
0000
0000
0000
,
1100
0000
0001
0001
,
1000
0000
0002
2003
,
3001
0000
1000
1000
,
0001
0000
1000
0010
,
0110
0000
0100
0100
,
0001
0000
0020
0230
,
1300
0100
0010
0001
,
0100
0000
0010
1000
,
1001
0000
0000
0000
,
0000
0000
0000
0000
,
0000
0000
0000
0000
,
0000
0000
0000
0000
,
0001
0000
0001
0000
,
0001
0001
0001
0000
,
1000
0000
1000
0000
,
1000
0000
0000
0000
,
0010
0000
0010
0000
,
0010
0010
0010
0000
,
0100
0000
0100
0000
,
0100
0000
0000
0000
,
1001
0000
1000
0100
,
1000
0000
0001
0010
,
0100
0000
0010
0001
,
0010
0001
0100
0010
,
1010
0000
1000
0001
,
0010
0000
0001
1000
,
0100
0100
0100
0100
,
0000
1000
0001
0000
,
0110
0000
1000
0000
,
0001
0000
0100
0000
,
0010
0000
1000
0000
,
0100
0000
0001
0110
;

//---------------dance-single - t7r----------------
#NOTES:
     dance-single:
     t7r:
     Medium:
     7:
     :
0000
0000
0000
0000
,
0000
0000
0000
0000
,
0000
0000
0000
0000
,
0000
0000
0000
0000
,
0000
0000
0000
0000
,
0002
0000
0013
0000
,
0001
0000
1000
0010
1000
0000
0000
0000
,
0200
0000
0310
0000
,
0001
0100
0001
0000
1000
0000
0010
0000
,
2000
0000
3100
0000
,
1000
0000
0001
0100
0001
0000
1000
0000
,
0110
0001
0110
1000
,
0010
0100
1001
0010
,
1100
0000
0000
1000
0001
0000
0100
0000
,
0001
0000
0000
1000
0020
0000
0001
0000
,
0130
0000
0000
0010
1000
0000
0001
0000
,
0010
0000
0000
0100
0020
0000
1000
0000
,
0130
0000
0000
0010
0001
0000
1000
0000
,
0010
0000
0000
0100
0002
0000
1000
0000
,
0013
0000
0000
0100
0100
0000
1001
0000
,
0010
0100
0010
0100
0010
0000
0000
0000
,
2000
0100
0001
3001
,
1000
0100
0010
0000
,
0002
1000
0100
0103
,
0001
0010
0100
0000
,
1000
0000
0010
0000
,
0100
0000
0001
1000
0002
0000
1003
0000
,
0100
0010
0001
0100
,
0010
0000
MMMM
0000
,
1001
0000
0000
1000
1000
0000
0100
0000
,
0010
0000
0000
0001
0002
0000
2003
0000
,
3001
0000
0000
0100
0100
0000
0010
0000
,
1000
0000
0001
0000
1000
0100
0010
0000
,
1001
0000
0000
1000
1000
0000
0100
0000
,
0001
0000
0000
0100
0200
0000
2300
0000
,
3000
0010
0010
0000
0100
0001
1000
0000
,
0100
0010
1001
0000
,
0110
0000
0000
0000
,
0000
0000
0000
0000
,
0000
0000
0000
0000
,
0000
0000
0000
0000
,
1002
0000
0000
1003
0200
0000
0000
0310
,
0000
0010
0000
0010
0020
0000
0000
0031
,
0002
0000
0000
0103
0020
0000
0000
0130
,
0000
0001
1000
0100
,
2000
0000
0000
3010
0020
0000
0000
0031
,
0000
0001
0000
0010
2000
0000
0000
3001
,
0002
0000
0000
0013
2000
0000
0000
3010
,
0000
0001
0100
0010
,
1001
0000
1000
0100
2000
0000
3010
0000
,
0000
1000
0001
0000
2000
0000
3100
0000
,
1000
0000
0001
0010
0002
0000
0103
0000
,
0000
0001
1000
0000
0010
0000
0110
0000
,
0101
0000
0001
0010
0200
0000
1300
0000
,
0000
0001
0010
0000
0200
0000
1300
0000
,
0001
1000
0100
0000
0100
0100
0100
0000
,
0000
0010
1001
0000
,
1100
0000
0001
0000
1000
0000
0000
0001
,
0000
0100
0000
0010
0100
0000
0001
0000
,
0101
0000
1000
1000
0001
0001
0000
1000
,
0000
0001
0010
0000
0001
0100
2000
0000
,
3000
0000
0000
0000
;

//---------------dance-single - t7r----------------
#NOTES:
     dance-single:
     t7r:
     Hard:
     11:
     :
0000
0000
0000
0000
,
0000
0000
0000
0000
,
0000
0000
0000
0000
,
0000
0000
0000
0000
,
0000
0000
0000
0000
,
0020
0000
1030
0001
0020
0000
0030
0001
,
1000
0100
1000
0001
0020
0000
0031
0100
,
0200
0000
0301
1000
0200
0000
0300
1000
,
0001
0010
0001
1000
0010
0000
0110
0000
,
2000
0000
3100
1000
0002
0000
0103
0001
,
1000
0000
0000
0100
0000
0000
0010
0000
0000
0001
0000
0000
0200
0000
0000
0000
0000
0000
1300
0000
0100
0000
0000
0000
,
0020
0000
0000
0130
0001
0000
0020
0000
0000
1030
0010
0000
,
0001
0000
0100
0000
0000
0000
1000
0000
0100
0000
0000
0000
0010
0000
0000
0100
0000
0000
1002
0000
0000
0000
0000
0000
,
1003
0100
0010
0100
0100
0000
1100
0000
,
0001
0100
0100
0010
0200
0000
1000
0000
,
0310
1000
1000
0100
0001
0000
0110
0000
,
0010
0001
0001
0100
2000
0000
0001
0000
,
3100
0001
0001
0010
1000
0000
0110
0000
,
0100
1000
1000
0010
0002
0000
1000
0000
,
0013
0000
0000
0000
0101
0000
0000
0000
0000
0010
0000
0000
0010
0000
0000
0000
0000
0000
1001
0000
0000
0000
0000
0000
,
1000
0100
0100
0010
0010
0000
1001
0000
,
0002
0100
1000
0010
,
2003
0000
0100
0000
3001
0000
1000
0001
,
2000
0010
0001
0100
,
3002
0000
0010
0000
1003
0000
0001
0100
,
0001
0010
0000
0100
1000
0000
0001
0010
0000
0100
1000
0000
0001
0100
0000
0010
,
1000
0000
0001
0100
0000
0010
1000
0000
0020
0000
0000
0000
0130
0000
0001
0000
,
1000
0000
0000
0100
0000
0000
0000
0000
0000
0010
0000
0000
0001
0000
0000
0000
0000
0000
1000
0000
0000
0010
0000
0000
0000
0000
0000
0100
0000
0000
0001
0000
0000
0000
0000
0000
1000
0000
0000
0000
0100
0000
0000
0000
0000
0000
0000
0000
,
0020
0000
0031
0000
MMMM
0000
0200
0300
,
1001
1000
0100
1000
1100
0000
1001
0000
,
0101
0100
0001
2000
3002
0023
2030
3020
,
0031
0100
0001
1000
1001
0000
0101
0000
,
1001
1000
0200
0000
0301
0100
0020
0030
,
1001
0001
0100
0001
0011
0001
1000
0000
,
1001
1000
0100
2000
3002
0023
2030
3020
,
0031
0100
0100
1000
1000
0001
0001
0010
,
1000
0100
0001
0100
0010
0001
0100
0000
,
0110
0000
0000
0000
,
0000
0000
0000
0000
,
0000
0000
0000
0000
,
0000
0000
0000
0000
,
2001
0000
3100
0001
0200
0000
0310
0100
,
0000
0100
0100
0100
0020
0000
0130
0000
,
1002
0000
0103
1000
0200
0000
0310
0100
,
0000
0000
0100
0000
0001
0000
1000
0000
0100
0010
0000
0000
0110
0000
0000
0000
,
2100
0000
3100
0010
1000
0010
0100
1000
,
0000
1000
1000
1000
0100
0010
1000
0010
,
0002
0000
0103
0010
0001
0010
0100
0001
,
0000
0000
0001
0000
0100
0000
0001
1000
0001
0000
1000
0000
1100
0000
0000
0000
,
1000
0010
0100
0001
2000
3200
0302
0103
,
0000
0100
2000
3200
0302
0103
1000
0001
,
1001
1000
0002
0203
2300
3200
0302
0103
,
0000
0100
1001
0000
0010
0100
1001
0001
,
0101
0100
0001
0010
2000
3020
0032
2003
,
3001
2000
3020
0032
0023
2030
3001
1000
,
0001
0100
0100
1000
0001
0001
0010
0010
,
1000
0100
0011
0000
0001
0100
1010
0000
,
1001
1000
0100
0100
0010
0010
1000
0010
,
0100
0010
0001
0010
0100
1000
0001
0100
,
1000
1000
0100
0010
1000
1000
0100
0001
,
1000
0010
0100
1000
0010
0001
2020
0000
,
3030
0000
0000
0000
;

//---------------dance-single - t7r-S19----------------
#NOTES:
     dance-single:
     t7r-S19:
     Challenge:
     16:
     :
0000
0000
0000
0000
,
0000
0000
0000
0000
,
0000
0000
0000
0000
,
0000
0000
0000
0000
,
0000
0000
0000
0000
,
2020
0000
3030
0002
0200
0000
0303
2000
,
0100
0001
0010
0001
0200
3300
0000
0012
,
0200
0000
0303
2010
0200
0000
3300
1002
,
0203
0000
0000
0320
0000
0000
2030
0000
0000
3200
0000
0000
1300
0001
0200
0000
0000
0000
0300
0000
0000
0000
0000
0000
,
2020
0030
3000
0002
2000
3000
0000
0023
,
0130
0000
0000
2000
0000
0000
0010
0000
0000
3002
0000
0000
2000
0000
0000
3003
0000
0000
1001
0000
0101
0000
0000
0000
,
0020
0000
0000
0030
0000
0000
1100
0000
1010
0000
0000
0000
0101
0000
0000
0000
0000
0000
0011
0000
1001
0000
0000
0000
,
1100
0000
0011
0000
0000
0000
0101
0000
1010
0000
0000
0000
0110
0000
1001
0000
0000
0000
2020
0000
0000
3030
0000
0000
,
1001
1000
0001
0100
,
0010
0000
0000
0000
0000
0000
1000
0000
0000
0000
0000
0000
0001
0010
0001
0010
0001
0010
0001
0010
0001
0010
0001
0020
,
0002
0033
0001
1000
0010
0000
0100
0001
,
1000
0000
0000
0000
0000
0000
0100
0000
0000
0000
0000
0000
1000
0010
1000
0010
1000
0010
1000
0010
1000
0010
1000
0020
,
2000
3030
1000
0100
0020
0031
0200
0310
,
1010
0000
0000
0000
0000
0000
0101
0000
0000
0000
0000
0000
0001
0010
0001
0010
0001
0010
0001
0010
0001
0020
0000
0000
,
0002
0000
0000
0000
0033
0000
0100
0000
0000
0001
0000
0000
0000
0000
0000
0000
0000
0000
0101
0000
0000
0000
0000
0000
1100
0000
0000
0000
0000
0000
0010
0000
0000
0000
0000
0000
1001
0000
0000
0000
0000
0000
0000
0000
0000
0000
0000
0000
,
1100
0000
1100
0000
1010
0000
0010
0200
0002
0000
0303
0000
0010
0000
0100
0000
,
1100
0000
0000
0000
1000
0000
0010
0000
0001
0000
0010
0000
0100
0002
1003
0000
,
1001
0000
1010
0000
0110
0000
0001
0010
,
0120
0000
0000
0000
0031
0000
0100
0000
1000
0000
0100
0000
0010
2000
3001
0000
,
0011
0000
0110
0000
1001
0000
1000
0100
,
2100
3001
0000
2010
3001
0000
0102
1003
0000
0012
1003
0000
1020
0130
0000
0210
,
0301
0000
0021
0130
0000
2100
3001
0000
0220
0000
0330
0000
1001
0000
1001
0000
,
0012
0000
0000
0103
0000
0000
0000
0000
0000
2010
0000
0000
3100
0000
0000
0000
0000
0000
2100
0000
0000
3001
0000
0000
0000
0000
0000
0102
0000
0000
1003
0000
0000
0000
0000
0000
0210
0000
0000
0000
0301
0000
0000
0000
0000
0000
0000
0000
,
1001
MMMM
0000
0000
,
2000
3010
0000
0001
1100
0001
1100
0001
,
1100
1100
0001
1000
0011
1000
0011
2000
,
3001
1100
0000
0010
1100
0010
1100
0010
,
1100
0110
0012
0000
0103
0010
1001
0000
,
0002
0013
0000
1000
0101
1000
0101
1000
,
0101
0101
1000
0001
1010
0001
1010
0002
,
1003
1100
0011
0101
1010
0110
2002
3003
,
0010
0010
2001
0100
3002
0010
2000
3003
,
0220
0000
0000
0000
0000
0000
0330
0000
0000
0000
1000
0100
0010
0001
0000
0000
,
0000
0000
0000
0000
0000
0200
0000
0300
,
0000
0000
0000
0000
0000
0000
0010
0000
0000
0000
0000
0000
1000
0000
0000
0000
0001
0000
0000
0000
0010
0000
0000
0000
0002
0000
0000
0000
0000
0000
0003
0000
0000
0000
0000
0000
0000
0000
0000
1000
0000
0000
0000
0000
0000
0010
0000
0000
,
0000
0100
0010
0000
0100
0000
0001
0000
0010
0000
0110
0000
0000
0000
0000
0000
,
0002
0000
0103
0010
2000
0000
0100
3001
,
0000
0102
1003
2100
0002
0003
0100
3001
,
0200
0000
1000
0010
0002
0303
0020
0130
,
0000
0000
1000
0000
0001
0000
0000
0000
1000
0200
0010
0000
1300
0000
0000
0000
,
0001
0010
0001
2000
0010
0001
0100
3100
,
0100
2100
3001
1002
0010
0010
1000
0103
,
0201
0310
0020
1030
2100
3001
0102
1003
,
0110
0000
0000
0000
1001
0000
0010
0100
0001
1000
0010
0000
0220
0000
0330
0000
,
1000
0100
0010
0001
0100
0010
1000
0001
0010
0100
1000
0001
1000
0100
0010
0001
,
0100
0010
1000
0001
0010
0001
1000
0010
1000
0001
0100
0001
1000
0100
1000
0001
,
0100
0010
1000
0001
0010
0100
1000
0001
1000
0100
0010
0001
1000
0010
0100
0010
,
1000
0000
0010
0100
0001
0000
0000
0000
2100
0000
3010
0000
1001
0000
0000
0000
,
0001
0100
0010
0001
0010
0100
0001
0100
0010
1000
0100
1000
0001
0010
0001
1000
,
0001
0010
0100
0001
0100
0010
0001
0010
0100
1000
0010
1000
0001
0010
0001
1000
,
0001
0100
1000
0001
1000
0100
0001
1000
0001
0010
1000
0001
1000
0010
0001
1000
,
0001
0020
0130
2000
0002
0000
3003
0000
0110
0000
0010
0000
1001
0000
0000
0000
,
2000
3100
0002
0103
2000
3010
0002
0013
,
2100
3001
0102
1003
2010
3001
0012
1003
,
1000
1100
1010
1001
0101
0011
0002
0103
,
0000
2000
0010
0100
3002
0100
0020
0000
,
0033
0000
0000
0000
;

//---------------dance-double - t7r----------------
#NOTES:
     dance-double:
     t7r:
     Easy:
     5:
     :
00000000
00000000
00000000
00000000
,
00000000
00000000
00000000
00000000
,
00000000
00000000
00000000
00000000
,
00000000
00000000
00000000
00000000
,
00000000
00000000
00000000
00000000
,
00200000
00000000
00301000
00000000
,
00010000
00000010
00001000
00000000
,
00000001
00000000
00000100
00000000
,
00001000
00010000
01000000
00000000
,
00100000
00000000
00010000
00000000
,
10000000
00100000
01000000
00010000
,
10000000
01000000
00010000
00001000
,
00000100
00000001
00000010
00001001
,
00000001
00000000
00000100
00000010
,
00001000
00000000
00000200
00010300
,
00001000
00000000
00100000
00010000
,
01000000
00000000
00200000
10300000
,
01000000
00000000
00100000
00001000
,
00010000
00000000
00002000
00000000
,
00003010
00000000
00000001
00000000
,
00000100
00001000
00010000
00000000
,
00011000
00000000
00000000
00000000
,
01000000
00000000
00000000
00000000
,
00100000
00000000
00000000
00000000
,
10000000
00000000
00000000
00000000
,
01000000
00000000
00100000
00000000
,
00010000
00000000
00000000
00000000
,
00001000
00000000
00000100
00000000
,
00000010
00000000
00000000
00000000
,
00021000
00000000
00031000
00001000
,
01000000
00000000
00020000
20030000
,
31000000
00000000
00100000
00100000
,
00001000
00000000
00010000
00001000
,
00012000
00000000
00013000
00010000
,
00000100
00000000
00002000
00003002
,
00000103
00000100
00001000
00001000
,
00010000
00001000
00010000
00000000
,
00011000
00000000
00000000
00000000
,
00000000
00000000
00000000
00000000
,
00000000
00000000
00000000
00000000
,
00000000
00000000
00000000
00000000
,
01000000
00000000
01000000
00000000
,
01000000
01000000
01000000
00000000
,
00100000
00000000
00100000
00000000
,
00100000
00000000
10000000
00010000
,
10000000
00000000
01000000
00000000
,
00010000
00010000
00010000
00000000
,
00001000
00000000
00000010
00000000
,
00000100
00000000
00000000
00010000
,
00011000
00000000
00000200
00002300
,
00003001
00000000
00000200
00000320
,
00001030
00000000
00000200
00020300
,
00031000
00010000
01000000
10000000
,
00100000
02000000
03020000
20030000
,
31000000
00020000
00032000
00023000
,
00031000
00001000
00000100
00000001
,
00000010
00001000
00010000
00011000
,
00001000
00010000
01000000
00100000
,
00001000
00010000
01000000
00000000
,
00010000
00001000
00000100
00000010
,
00010000
00001000
00000100
00000020
,
00000030
00000000
00000000
00000000
;

//---------------dance-double - t7r----------------
#NOTES:
     dance-double:
     t7r:
     Medium:
     8:
     :
00000000
00000000
00000000
00000000
,
00000000
00000000
00000000
00000000
,
00000000
00000000
00000000
00000000
,
00000000
00000000
00000000
00000000
,
00000000
00000000
00000000
00000000
,
20000000
00000000
31000000
00000000
,
00100000
00000000
00001000
00010000
00001000
00000000
00000000
00000000
,
00020000
00000000
00030010
00000000
,
00000100
00000000
00000001
00001000
00000100
00000000
00000000
00000000
,
00020000
00000000
00031000
00000000
,
00010000
00000000
00000100
00001000
00000100
00000000
00000010
00000000
,
00001001
00000100
00001001
00000001
,
00000100
00000000
00001000
00010000
00001000
00000000
00011000
00000000
,
00010000
01000000
10000000
00100000
,
01000000
00010000
20000000
00000000
,
30100000
10000000
01000000
00010000
,
00001000
00000100
00000020
00000000
,
00001030
00000001
00000010
00001000
,
00010000
01000000
20000000
00000000
,
30010000
00000000
00000000
01000000
00100000
00000000
10010000
00000000
,
10000000
01000000
10000000
00000000
00010000
00000000
10000000
00000000
,
00100000
00000000
01000000
00010000
01000000
00000000
00010000
00000000
,
00001000
00000000
00000010
00000000
00000100
00000000
00000001
00000010
,
00000001
00000100
00000010
00001000
,
00010000
00000000
01000000
00000000
00100000
00000000
10000000
00010000
,
01000000
01000000
00000000
00010000
10000000
10000000
00000000
01000000
,
00100000
00000000
00001000
00010000
00002000
00000000
00013000
00000000
,
00000010
00000000
00001000
00000000
00000001
00000000
00000100
00001000
,
00010000
00001000
MMMMMMMM
00000000
,
10000000
10000000
00000000
01000000
00100000
00000000
01000000
00000000
,
10000000
10000000
00000000
00100000
00020000
00000000
00032000
00000000
,
00013000
00010000
00000000
00001000
00000010
00000000
00000100
00000000
,
00001000
00001000
00000001
00000000
00000100
00000000
00001001
00000000
,
00001000
00001000
00000000
00000001
00000010
00000000
00001000
00000000
,
00010000
00010000
00000000
00001000
00020000
00000000
00230000
00000000
,
10300000
00000000
01000000
00100000
01000000
00000000
00010000
00000000
,
00001000
00000000
00000100
00000000
00000010
00001000
00000100
00000000
,
00011000
00000000
00000000
00000000
,
00000000
00000000
00000000
00000000
,
00000000
00000000
00000000
00000000
,
00000000
00000000
00000000
00000000
,
00200000
00000000
00000000
00310000
20000000
00000000
00000000
31000000
,
00000000
01000000
00000000
01000000
02000000
00000000
00000000
03100000
,
00002000
00000000
00000000
00013000
00002000
00000000
00000000
00003010
,
00000100
00000000
00001000
00000000
00010000
00100000
01000000
00000000
,
10000000
00000000
00100000
10000000
00020000
00000000
10030000
01000000
,
00000000
01000000
01000000
00000000
01000000
00100000
00010000
00000000
,
00001000
00000000
00000010
00000100
00000002
00000000
00000013
00000100
,
00000000
00000100
00010000
00000000
00001000
00000000
00011000
00000000
,
00010000
00000000
01000000
10000000
00020000
00000000
01030000
00000000
,
00000000
00010000
10000000
00000000
01000000
00000000
00010000
00000000
,
00001000
00000000
00000100
00000001
00002000
00000000
00003100
00000000
,
00000000
00001000
00000001
00000000
00000100
00001000
00010000
00000000
,
00011000
00000000
00010000
00100000
02000000
00000000
03010000
00000000
,
00000000
00100000
00010000
00000000
10000000
01000000
00010000
00000000
,
00001000
00000000
00000010
00000100
00001000
00000000
00001000
00000001
,
00000000
00000100
00000010
00000000
00001000
00000100
00010000
00000000
,
00011000
00000000
00010000
00000000
01000000
10000000
00000000
00100000
,
00000000
01000000
00010000
00000000
10000000
01000000
00100000
00000000
,
00001000
00000000
00010000
00010000
00001000
00001000
00000000
00000100
,
00000000
00000010
00000000
00001000
00000100
00000010
00000002
00000000
,
00000003
00000000
00000000
00000000
;

//---------------dance-double - t7r----------------
#NOTES:
     dance-double:
     t7r:
     Hard:
     11:
     :
00000000
00000000
00000000
00000000
,
00000000
00000000
00000000
00000000
,
00000000
00000000
00000000
00000000
,
00000000
00000000
00000000
00000000
,
00000000
00000000
00000000
00000000
,
00020000
00000000
00000000
00031000
00010000
00000000
00000000
00001000
,
01000000
00010000
10000000
00000000
02000000
00000000
03010000
00000000
,
00002000
00000000
00000000
00013000
00000100
00000000
00000000
00001000
,
00000001
00000000
00000100
00000000
00001000
00010000
00001000
00000000
,
02000000
00000000
00000000
03010000
10000000
00000000
01000000
00000000
,
00010000
00000000
00000000
00001000
00000000
00000000
00010000
00000000
00000000
00000000
00000000
00000000
00001000
00000000
00000000
00000000
00000000
00000000
00000100
00000000
00000010
00000000
00000000
00000000
,
00000200
00000000
00000000
00000301
00001000
00000000
00000200
00000000
00000000
00001300
00000100
00000000
,
00010000
00000000
00001000
00000000
00000000
00000000
01000000
00000000
00010000
00000000
00000000
00000000
10000000
00000000
00000000
00100000
00000000
00000000
10020000
00000000
00000000
00000000
00000000
00000000
,
10030000
01000000
00100000
01000000
01000000
00000000
10000000
00000000
,
00100000
00010000
00001000
00010000
00020000
00000000
01000000
00000000
,
00031000
00000100
00000010
00000100
00000100
00000000
00000001
00000000
,
00000010
00001000
00010000
00001000
00002000
00000000
00000100
00000000
,
00013000
01000000
00100000
01000000
01000000
00000000
10000000
00000000
,
00100000
00010000
00001000
00010000
00020000
00000000
00100000
00000000
,
00031000
00000000
00000000
00000000
00010000
00000000
00000000
00000000
00000000
00001000
00000000
00000000
00000100
00000000
00000000
00000000
00000000
00000000
00001001
00000000
00000000
00000000
00000000
00000000
,
00000001
00000010
00000100
00000100
00001000
00000000
00010000
10000000
,
02000000
00000000
00010000
00000000
03100000
00010000
10000000
00000000
,
00100000
00000000
01000000
00000000
10010000
00000000
10000000
01000000
,
00010000
00000000
00001000
00000100
00000010
00000000
00001000
00000001
,
00000100
00000000
00000010
00000000
00001001
00000000
00000001
00000100
,
00000001
00000010
00000000
00000100
00001000
00000000
00000001
00000010
00000000
00000100
00001000
00000000
00010000
00100000
00000000
01000000
,
10000000
00000000
00010000
00100000
00000000
00010000
10000000
00000000
00200000
00000000
00000000
00000000
00310000
00000000
00001000
00000000
,
00010000
00000000
00000000
01000000
00000000
00000000
00000000
00000000
00000000
10000000
00000000
00000000
01000000
00000000
00000000
00000000
00000000
00000000
00010000
00000000
00000000
00001000
00000000
00000000
00000000
00000000
00000000
00000100
00000000
00000000
00000001
00000000
00000000
00000000
00000000
00000000
00000010
00000000
00000000
00000000
00000100
00000000
00000000
00000000
00000000
00000000
00000000
00000000
,
00020000
00031000
MMMMMMMM
00100000
,
10010000
10000000
01000000
10000000
00010000
00000000
10010000
00000000
,
11000000
01000000
00010000
00002000
00023000
00032000
00023000
00032000
,
00003100
00000001
00001000
00000001
00000010
00000000
00000011
00000000
,
00000101
00000100
00002000
00000000
01003000
00010000
00100000
00000000
,
10010000
10000000
00100000
10000000
00010000
00000000
10010000
00000000
,
10100000
00100000
00010000
00002000
00023000
00032000
00023000
00032000
,
00003010
00000100
00000100
00010000
00010000
00001000
00002000
00000000
,
00013000
01000000
20000000
00000000
30010000
01000000
00100000
00000000
,
00011000
00000000
00000000
00000000
,
00000000
00000000
00000000
00000000
,
00000000
00000000
00000000
00000000
,
00000000
00000000
00000000
00000000
,
00020000
00000000
00030100
00001000
00002000
00000000
00003001
00000100
,
00000000
00000100
00001000
00010000
00020000
00000000
00031000
01000000
,
02000000
00000000
03010000
10000000
20000000
00000000
31000000
00010000
,
00000000
00011000
00000000
00011000
,
00002000
00000000
00103000
00010000
00020000
00000000
10030000
00100000
,
00000000
00100000
00010000
00001000
00002000
00000000
00013000
00000010
,
00000020
00000000
00001030
00000001
00000002
00000000
00000013
00001000
,
00010000
00000000
00000000
00000000
00000100
00000000
00010000
00001000
00010000
00000000
00000000
00000000
00011000
00000000
00000000
00000000
,
00020000
00000000
01030000
00100000
01000000
10000000
00010000
10000000
,
00000000
00100000
01000000
00000000
00010000
00100000
00001000
00010000
,
00002000
00000000
00003100
00000010
00000100
00000001
00001000
00000001
,
00000000
00000010
00000100
00000000
00001000
00000010
00010000
00001000
,
00010000
01000000
01000000
00100000
01000000
10000000
00100000
01000000
,
00000000
10000000
01000000
00010000
00100000
00001000
00010000
00001000
,
00000010
00000010
00000100
00000100
00010000
00010000
00010000
00001000
,
00010000
00100000
10000000
00000000
01000000
00010000
00011000
00000000
,
00010020
00000000
00000130
00000001
00001000
00000010
00000001
00000010
,
00000000
00000010
00001000
00000100
00001000
00010000
00100000
10000000
,
00100000
00100000
00001000
00010000
00000010
00000010
00001000
00000001
,
00000100
00001000
00010000
00000000
00011000
00100000
00020000
00000000
,
00030000
00000000
00000000
00000000
;

//---------------dance-double - t7r-D22----------------
#NOTES:
     dance-double:
     t7r-D22:
     Challenge:
     18:
     :
00000000
00000000
00000000
00000000
,
00000000
00000000
00000000
00000000
,
00000000
00000000
00000000
00000000
,
00000000
00000000
00000000
00000000
,
00000000
00000000
00000000
00000000
,
00200000
00000000
00300000
00001000
00120000
00000000
00030000
00001000
,
01000000
00010000
00100000
00020000
20000000
00000000
30030000
02000000
,
03020000
00000000
00030000
00002000
00010000
00003000
00000000
00000100
,
00000010
00000000
00000000
00001000
00000000
00000000
00000100
00000000
00000000
00010000
00000000
00000000
00001000
00010000
00000200
00000000
00000000
00000000
00000300
00000000
00000000
00000000
00000000
00000000
,
00020000
00000000
00000000
00000000
00030000
00000000
00000010
00000100
00002000
00000000
00000000
00000000
00003000
00000000
00100000
01000000
,
00020000
00000000
00000000
00001000
00000000
00000000
00030200
00000000
00000000
00010300
00000000
00000000
00022000
00000000
00000000
00033000
00000000
00000000
00011000
00000000
01001000
00000000
00000000
00000000
,
00202000
00000000
00000000
00303000
00000000
00000000
00011000
00000000
00010100
00000000
00000000
00000000
00020020
00000000
00000000
00030030
00000000
00000000
00001100
00000000
00010100
00000000
00000000
00000000
,
00011000
00000000
00010100
00000000
00000000
00000000
00001100
00000000
00010100
00000000
00000000
00000000
00011000
00000000
01001000
00000000
00000000
00000000
00020200
00000000
00000000
00030300
00000000
00000000
,
00000110
00000000
00000200
00000300
00020000
00030000
00002000
00003000
,
02000000
00000000
00000000
03000000
00000000
00000000
00200000
00000000
00000000
00300000
00000000
00000000
10000000
01000000
00100000
00010000
10000000
01000000
00100000
00010000
10000000
01000000
00100000
00010000
,
20000000
30000000
00010000
10000000
00200000
00300000
00020000
00030000
,
00002000
00000000
00000000
00003000
00000000
00000000
00000020
00000000
00000000
00000030
00000000
00000000
00000001
00000010
00000100
00001000
00000001
00000010
00000100
00001000
00000001
00000010
00000100
00001000
,
00000002
00000003
00001000
00000100
00010000
00001000
01000000
00000000
,
00200000
00000000
00000000
00300000
00000000
00000000
20000000
00000000
00000000
30000000
00000000
00000000
00010000
01000000
00100000
10000000
00010000
00100000
01000000
10000000
00010000
01000000
00100000
10000000
,
00010000
00100000
01000000
10000000
00020000
00030000
00110000
00000000
00100000
01000000
00020000
00002000
00000000
00000000
00033000
00000000
,
00010010
00000000
00001100
00000000
00000110
00000000
00000100
00001000
00000002
00000000
00000103
00000001
00001000
00000000
00000100
00000000
,
00001200
00000000
00000000
00000000
00010300
00000000
00001000
00000000
00000100
00000000
00001000
00000000
00010000
00000000
00001000
00100000
,
00020000
00000000
01000000
00000000
10000000
00000000
00000000
00000000
00130000
00010000
00000000
00000000
01000000
00000000
00100000
00000000
,
10010000
01000000
10000000
01000000
00010000
00001000
01000000
00100000
,
00020000
00000000
00030000
00000000
00000200
00000000
00000000
00000000
00001300
00000010
00000000
00000000
00001000
00000000
00000001
00000000
,
00000011
00001001
00000000
00001001
00001100
00000000
00001100
00010100
00000000
00010100
00011000
00000000
00011000
01001000
00000000
01010000
,
01100000
00000000
10100000
10010000
00000000
11000000
10010000
00000000
20200000
00000000
30300000
00000000
00110000
00000000
00110000
00000000
,
10100000
00000000
00000000
00110000
00000000
00000000
00000000
00000000
00000000
00011000
00000000
00000000
00110000
00000000
00000000
00000000
00000000
00000000
00011000
00000000
00000000
00001010
00000000
00000000
00000000
00000000
00000000
00000110
00000000
00000000
00000011
00000000
00000000
00000000
00000000
00000000
00000110
00000000
00000000
00000000
00001100
00000000
00000000
00000000
00000000
00000000
00000000
00000000
,
00011000
MMMMMMMM
00000000
00000000
,
01000000
00010000
10000000
00200000
00010000
01000000
00010000
01300000
,
00001000
00010000
00000100
00000020
00001000
00000100
00001000
00000130
,
00010000
00001000
00100000
02000000
00010000
00100000
00010000
03100000
,
00101000
00011000
00020200
00030300
00011000
00010100
00020020
00030030
,
00000010
00001000
00000001
00000200
00001000
00000010
00001000
00000310
,
00010000
00001000
00100000
02000000
00010000
00100000
00010000
03100000
,
00001000
00011000
00101000
01001000
01010000
01100000
20200000
30300000
,
00020000
00100000
10030000
00000000
02000000
00100000
03010000
00000000
,
00022000
00000000
00000000
00000000
00033000
00000000
00000000
00000000
00000000
00000000
00000010
00001000
00000001
00000200
00000000
00000000
,
00000300
00000000
00000000
00000000
00000000
00002002
00000000
00003003
,
00000001
00000000
00000000
00000000
00000000
00000000
00000010
00000000
00000000
00000000
00000000
00000000
00001000
00000000
00000000
00000000
00010000
00000000
00000000
00000000
00100000
00000000
00000000
00000000
00010000
00000000
00000000
00002000
00000000
00000000
00000000
00000000
00000000
00000000
00000000
00000000
00003000
00000000
00000000
00100000
00000000
00000000
00000000
00000000
00000000
01000000
00000000
00000000
,
00000000
10000000
00010000
00000000
01000000
00000000
00100000
00000000
01000000
00000000
10010000
00000000
00000000
00000000
00000000
00000000
,
00020000
00000000
00130000
00001000
00020000
00000000
00100000
00001000
,
00000000
00001000
00000100
00001000
00000200
00030300
00000100
00010000
,
00002000
00000000
00000010
00010000
02000000
03000000
00000100
00013000
,
00002000
00000000
01003000
00000000
00020000
00000000
10030000
00000000
00010000
10000000
00100000
00000000
20020000
00000000
30030000
00000000
,
20100000
30010000
00120000
10030000
20100000
30010000
02000000
03002000
,
00000100
00010000
00100000
00010000
00200000
00303000
00001000
00010000
,
00000100
00010000
00001000
00020000
00000010
00001000
00000010
00031000
,
00011000
00000000
00000000
00000000
00010100
00000000
00010000
00000100
00001000
00000100
00000000
00000000
00002002
00000000
00003003
00000000
,
00000001
00000010
00000100
00001000
00000100
00010000
00001000
00010000
00000010
00010000
00001000
00010000
00000010
00010000
00001000
00010000
,
00001000
01000000
00010000
10000000
01000000
00100000
00010000
10000000
00010000
00100000
00001000
00010000
00001000
00100000
00001000
00010000
,
00001000
00010000
00000010
00001000
00000001
00000100
00000001
00001000
00000100
00010000
00001000
00010000
00000100
00010000
00001000
00010000
,
00001000
01000000
00100000
10000000
00010000
00000000
00000000
00000000
00120000
00000000
00000000
00000000
01030000
00000000
00000000
00000000
,
00001000
00010000
00000100
00001000
00000001
00000100
00000010
00001000
00000100
00010000
00001000
00010000
01000000
10000000
01000000
00010000
,
01000000
00100000
00001000
00010000
00100000
01000000
00001000
00010000
00000100
00000010
00001000
00010000
00000010
00000100
00000001
00001000
,
00000001
00000100
00001000
00010000
00100000
10000000
01000000
00010000
00001000
00000010
00000001
00000100
00001000
00010000
00000100
00001000
,
00000001
00000000
00000100
00000010
00010000
00000000
00000000
00000000
00022000
00000000
00000000
00000000
00033000
00000000
00000000
00000000
,
00020010
00031000
00012000
01003000
00021000
00030100
00012000
00103000
,
00210000
00301000
02001000
03010000
02010000
03001000
00102000
01003000
,
02000000
10000000
00100000
00010000
03002000
00000100
00010000
00103000
,
00201000
00301000
00012000
01003000
01001000
01010000
02200000
00000000
,
03300000
00000000
00000000
00000000
;
