#TITLE:TECHNOPHOBIA;
#ARTIST:BEMANI Sound Team "HuΣeR";
#ARTISTTRANSLIT:HuΣeR;
#BANNER:TECHNOPHOBIA.png;
#BACKGROUND:TECHNOPHOBIA-bg.png;
#JACKET:TECHNOPHOBIA-jacket.png;
#CDTITLE:./CDTITLES/BEATMANIA IIDX.PNG;
#MUSIC:TECHNOPHOBIA.ogg;
#SAMPLESTART:78.947;
#SAMPLELENGTH:15;
#BPMS:0=152;
#STOPS:151=0.19736842105263157894736842105263,166.5=0.19736842105263157894736842105263;

//---------------dance-single - t7r----------------
#NOTES:
     dance-single:
     t7r:
     Beginner:
     4:
     :
0000
0000
0000
0000
,
0000
0000
0000
0000
,
0000
0000
0000
0000
,
0000
0000
0000
0000
,
0000
0000
0000
0000
,
0000
0000
0000
0000
,
0100
0000
0000
0000
,
0010
0000
0000
0000
,
1000
0000
0000
0000
,
0001
0000
0000
0000
,
0010
0000
0010
0000
,
0010
0000
0000
0000
,
0100
0000
0100
0000
,
0100
0000
0000
0000
,
1000
0000
1000
0000
,
1000
0000
0000
0000
,
0001
0000
0001
0000
,
0001
0000
0000
0000
,
0000
0100
0000
0100
,
0000
0010
0000
0010
,
0000
1000
0000
1000
,
0000
0001
0000
0001
,
0000
1000
0000
0100
,
0000
0010
0000
0001
,
0000
0100
0100
0100
,
0010
0000
0010
0000
,
1000
0000
1000
1000
,
0000
0000
0001
0001
,
0001
0000
0010
0000
,
0100
0100
0100
0000
,
1000
0000
0010
0010
,
0010
0000
0100
0100
,
0100
0000
0001
0000
,
1000
1000
1000
0000
,
0001
0000
0001
0000
,
0001
0000
0001
0000
,
0001
0000
0000
0000
,
0000
0000
0000
0000
0000
0000
0000
0010
,
0000
0000
0000
0000
0000
0000
0000
0100
,
0000
0000
0000
0000
0000
0000
0000
1000
,
0000
0000
0000
0000
0000
0000
0000
0010
,
0000
0000
0000
0100
,
0000
0100
0000
0010
,
0000
0010
0000
1000
,
1000
1000
0000
0001
,
0000
0001
0000
0010
,
0000
0010
0000
0100
,
0000
0100
0000
0010
,
0010
0010
0000
0001
,
0000
1000
0000
1001
,
0000
1000
0000
0100
,
0000
0010
0000
0001
,
0001
0001
0000
0100
,
0100
0100
0000
0010
,
0000
1000
0000
0001
,
0000
0100
0000
0001
,
0000
0010
0000
0100
,
0100
0100
0000
1000
,
1000
1000
1000
1000
,
1000
1000
0000
0000
,
0000
0000
0000
0000
,
0000
0000
0000
0000
,
0000
0001
0000
0000
,
0000
0100
0000
0000
,
0000
0010
0000
1000
,
0000
0001
0000
0000
;

//---------------dance-single - t7r----------------
#NOTES:
     dance-single:
     t7r:
     Easy:
     6:
     :
0000
0000
0000
0000
,
0000
0000
0000
0000
,
0000
0000
0000
0000
,
0000
0000
0000
0000
,
0000
0000
0000
0000
,
0000
0000
0000
0000
,
0100
0100
0002
1003
,
0100
0100
2000
3001
,
0100
0100
0002
1003
,
0010
0000
0000
0000
,
1000
0100
0010
0100
,
1000
0100
0010
0100
,
1000
0010
0100
0010
,
1000
0100
0010
0001
,
1000
0010
0100
0010
,
1000
0010
0100
0010
,
1000
0100
0010
0100
,
0001
0100
1000
0010
,
0000
0101
0000
0101
,
0000
1100
0000
1100
,
0000
0011
0000
0011
,
0000
1010
0000
1010
,
0010
1000
1100
0000
,
0010
0001
0101
0000
,
0001
1000
1010
0000
,
1000
1000
0010
0200
,
0310
0010
2000
3002
,
0013
0010
0002
2003
,
3001
0100
0010
0100
,
0001
0010
0100
1000
,
0100
0001
0200
0320
,
0130
1000
0020
0230
,
0310
0001
0010
0100
,
1000
0100
0001
0010
,
0100
0100
0100
0100
,
0100
0100
0100
0100
,
0100
0000
0020
0032
,
1003
0000
1000
0000
2000
0000
3000
0001
,
0000
0100
0000
2000
0000
3000
0000
0001
,
0000
0010
0000
2000
0000
3000
0000
0001
,
0000
0010
0000
0200
0000
0300
0000
0001
,
0000
0100
0000
1000
0000
0010
0100
0000
,
1010
0000
1010
1000
,
1100
0000
1100
1000
,
0100
0001
0100
0010
,
0001
1000
0001
0000
,
0101
0000
0101
0002
,
0010
2003
0010
3001
,
0200
0320
1030
0002
,
2003
3002
0103
0001
,
0020
0130
0100
1000
,
0020
0130
0100
0001
,
1000
0100
0100
0001
,
0100
1000
0010
0100
,
0110
0010
1000
0100
,
0110
0010
0001
2000
,
0100
3002
0100
0013
,
1000
0001
0100
1000
,
1000
1000
1000
1000
,
1000
1000
1000
1000
,
0000
0002
2003
3001
,
0000
2000
3002
1003
,
0010
0002
0003
1000
,
0100
0002
0003
0010
,
1000
0002
0003
0100
,
1000
0000
0010
0000
0100
0020
0030
0000
;

//---------------dance-single - t7r----------------
#NOTES:
     dance-single:
     t7r:
     Medium:
     10:
     :
0000
0000
0000
0000
,
0000
0000
0000
0000
,
0000
0000
0000
0000
,
0000
0000
0000
0000
,
0000
0000
0000
0000
,
0000
0000
0000
0000
,
1000
0001
0100
0000
0002
0000
2003
0000
,
3001
1000
0100
0000
2000
0000
3002
0000
,
1003
0001
0010
0000
0002
0000
2003
0000
,
3020
0000
0130
0000
0001
1000
0100
0000
,
1000
0000
1100
0000
1000
0001
0100
0000
,
1000
0000
1100
0000
1000
0001
0100
0000
,
1000
0000
1010
0000
1000
0001
0010
0000
,
1000
0100
0010
0000
0001
0100
0010
1000
,
0001
0000
0101
0000
0001
1000
0100
0000
,
0001
0000
0101
0000
0001
1000
0100
0000
,
0001
0000
0011
0000
0001
1000
0010
0000
,
0001
0100
0020
0000
1030
0010
0100
0001
,
1000
0100
0010
0000
1000
0100
0010
0000
,
1000
0001
0100
0000
1000
0001
0100
0000
,
1000
0010
0100
0000
1000
0010
0100
0000
,
1000
0100
0010
0000
1000
0001
0100
0010
,
1000
0100
0010
0001
0200
0000
0301
1000
,
0001
0010
0100
1000
0020
0000
1030
0100
,
2000
0010
0010
0000
3002
0010
0010
0000
,
0103
0010
0010
2000
,
3001
0000
0010
0100
0002
0000
0203
0000
,
1300
0000
0010
0100
2000
0000
3200
0000
,
0301
0001
0010
0000
0001
0001
0100
0000
,
0001
0001
0010
0100
1000
0010
0100
0001
,
1000
0000
0010
0100
2000
0000
3200
0000
,
0301
0000
0100
0010
0002
0000
0023
0000
,
1030
1000
0100
0000
1000
1000
0010
0000
,
1000
1000
0100
0010
0001
0100
0010
2000
,
3100
0100
0100
0100
,
0100
0100
0100
0100
,
0100
0100
0020
0032
,
0203
0300
0200
0300
0200
0300
0000
0001
,
0000
0010
0200
0001
0000
0010
0000
1300
,
0000
0010
0200
1000
0000
0010
0000
0301
,
0000
0010
0200
0001
0000
0010
0000
1300
,
0001
0200
0000
0310
1000
0001
0000
1000
,
0100
0010
0000
1000
0100
0010
0000
1000
,
0001
0100
0000
1000
0001
0100
0002
0000
,
0023
0000
0230
0000
2300
0000
3001
0100
,
0010
1000
0001
0010
0100
1000
0000
0001
,
0100
0010
0000
0001
0100
0010
0000
0001
,
0010
0100
0000
0001
0010
0100
2000
0000
,
3020
0230
0310
1002
,
2003
0000
0000
0000
3001
0000
0001
0000
0100
0000
0000
0000
0010
0000
0000
1000
,
0000
0000
0001
0000
0010
0000
0001
0000
0100
0000
0000
0000
0010
0000
0000
1000
,
0000
0001
0010
0001
1000
0000
0100
0000
,
0110
0000
0010
0000
1100
0000
0001
0100
,
0010
1000
0001
0010
0100
1000
0001
0000
,
0101
0000
1100
0000
0001
1000
0100
0000
,
1100
0000
0101
0000
1000
0010
2000
0100
,
0100
0000
3002
0100
0100
0000
1003
1000
,
0010
0000
0010
0000
0100
0000
0100
0000
0002
0003
1000
0000
0010
0000
0000
0000
,
0010
0010
0010
0010
,
0010
0010
0010
0010
,
0010
0200
0302
1003
,
1000
0000
0200
0000
0320
0000
0031
0100
,
0001
1000
0002
0000
0023
0000
0130
1000
,
0001
1000
0020
0000
2030
0000
3100
0010
,
0001
0100
0020
0000
2030
0000
3020
0000
,
0230
0000
0301
1000
0100
0020
0030
0000
;

//---------------dance-single - t7r----------------
#NOTES:
     dance-single:
     t7r:
     Hard:
     13:
     :
0000
0000
0000
0000
,
0000
0000
0000
0000
,
0000
0000
0000
0000
,
0000
0000
0000
0000
,
0000
0000
0000
0000
,
0000
0000
0000
0000
,
2000
0000
3100
1000
0002
0000
0103
0000
,
0002
0000
0013
0001
2000
0000
3010
0000
,
2000
0000
3001
0100
0020
0000
1030
0000
,
0200
0000
0001
0000
0310
0001
1000
1000
,
0010
0000
0000
0010
1000
0000
0000
1000
0001
0000
0000
0001
0100
0000
0000
0100
,
0010
0000
0000
0010
1000
0000
0000
1000
0001
0000
0000
0001
0100
0000
0000
0100
,
0010
0000
0000
0010
1000
0000
0000
1000
0100
0000
0000
0100
0010
0000
0000
0010
,
0001
0000
0100
0001
0000
1000
0100
0000
0000
0000
1000
0001
0000
0000
1000
0010
,
1000
0000
0000
1000
0100
0000
0000
0100
0001
0000
0000
0001
0100
0000
0000
0100
,
1000
0000
0000
1000
0010
0000
0000
0010
0001
0000
0000
0001
0010
0000
0000
0010
,
0100
0000
0000
0100
0001
0000
0000
0001
1000
0000
0000
1000
0010
0000
0000
0010
,
1000
0100
0010
0010
0200
0001
0310
0001
,
1000
0010
0100
0000
1000
0010
0110
0000
,
0001
0010
0100
0000
0001
0010
0110
0000
,
1000
0100
0010
0000
1000
0100
0110
0000
,
0001
0100
0000
0110
0000
1000
1001
0000
,
1000
0100
0001
0000
1000
0100
0110
0000
,
0001
0100
1000
0000
0001
0100
0110
0000
,
0002
0010
2003
0100
,
3020
1000
0230
0001
0320
1000
0230
0000
,
0301
0000
0000
0010
0100
0000
0010
0000
0002
0000
0000
0000
2003
0000
0000
0000
,
3001
0000
0000
0100
0010
0000
0100
0000
0002
0000
0000
0000
0023
0000
0000
0000
,
0031
0100
0010
0010
1000
0100
0010
0010
,
0001
0000
0100
0000
0010
0000
1000
0000
0100
0000
0010
0000
0001
0000
1000
0001
,
1000
0000
0000
1000
0100
0000
0001
0000
0200
0000
0000
0000
0320
0000
0000
0000
,
0031
0000
0000
0001
0100
0000
1000
0000
0200
0000
0000
0000
0320
0000
0000
0000
,
1030
0100
0010
0100
0001
0100
1000
0010
,
0100
0010
1000
1000
0001
0001
1000
0002
,
0103
0100
0100
0100
,
0100
0100
0100
0100
,
0100
0100
0020
0130
,
0200
0300
0200
0300
0200
0300
0000
0001
,
0000
1000
0200
0001
0000
0010
0000
1300
,
0000
0001
0200
1000
0000
0010
0000
0301
,
0000
1000
0200
0001
0000
0010
0000
1300
,
1000
0001
0001
0100
0100
0010
1000
0001
,
0100
0101
0000
1000
0100
1100
0000
0001
,
0010
0011
0000
1000
0010
1010
0000
0001
,
1000
1100
0000
1000
0001
0101
0000
1001
,
0000
0110
0000
1001
1001
0000
1000
0010
,
1000
1100
0000
0010
0001
0101
0000
0010
,
1000
1100
0000
0010
0001
0101
0002
0100
,
2003
0010
3002
0010
1003
0000
1002
0000
,
2003
0000
0000
0000
3001
0000
0001
0000
0200
0000
0320
0000
1030
0000
0100
0001
,
0000
0100
0010
0000
0100
0000
1000
0000
0010
0000
0100
0000
0001
0000
0100
1000
,
0000
0100
0010
0000
0100
0000
0001
0000
0010
0000
0100
0000
1000
0000
0100
0000
,
0010
0100
0001
0100
0010
0100
1000
0010
,
0100
0000
1000
0000
0001
0000
0010
0000
1000
0000
0001
0000
1000
0000
0100
1000
,
0100
1000
0100
0000
0010
0000
0001
1000
0001
1000
0001
0000
0100
0000
0010
1000
,
0010
1000
0010
0000
1000
0000
0001
0010
0001
0010
0001
0000
1000
0100
1000
0100
,
1000
0000
0001
0000
0010
0100
0010
0100
0010
0000
0001
0000
0100
0000
0100
0000
,
0010
0000
0010
0000
1000
0001
1000
0001
2000
3000
0001
1000
0001
0000
0000
0001
,
0100
0000
0000
0100
0010
0000
0000
0010
1000
0000
0000
1000
0100
0000
0000
0100
,
0010
0000
0000
0010
0001
0000
0000
0001
1000
0000
0000
1000
0010
0000
0000
0010
,
0100
0000
0000
0100
1000
0000
0000
1000
0100
0000
0000
0100
0010
0000
0000
0010
,
0100
0000
0000
0100
0001
0000
0000
0001
0100
0000
0000
0100
0001
0000
0010
0000
,
0100
1000
0020
1000
0230
0001
0310
1000
,
0100
0010
0200
0001
0320
1000
0130
1000
,
0010
0100
0020
1000
0230
0001
0320
0030
,
0200
0300
0200
0300
0001
2000
3000
0000
;

//---------------dance-single - t7r----------------
#NOTES:
     dance-single:
     t7r:
     Challenge:
     18:
     :
0000
0000
0000
0000
,
0000
0000
0000
0000
,
0000
0000
0000
0000
,
0000
0000
0000
0000
,
0000
0000
0000
0000
,
0000
0000
0000
0000
,
1000
0100
0010
0001
1000
0001
0100
0010
2000
0000
0100
0000
3002
0000
0100
0000
,
1003
0010
0100
0001
1000
0001
0100
0010
2000
0000
0010
0000
3002
0000
0010
0000
,
1003
0100
0010
0001
1000
0001
0100
0010
2000
0000
0100
0000
3002
0000
0100
0000
,
1003
0000
0200
0000
0301
0100
1000
0010
0200
0000
1300
0000
0200
0300
0001
0001
,
1000
0100
1000
0001
0000
0100
0001
1000
0001
0100
0010
1000
0001
0010
0100
1000
,
0001
0100
0001
1000
0000
0100
1000
0001
1000
0100
0010
0001
1000
0010
0100
0001
,
1000
0010
1000
0001
0000
0010
0001
1000
0001
0010
0100
1000
0001
0100
0010
1000
,
0001
0010
0100
0010
0001
0100
0010
0100
1000
0100
0010
0100
0001
1000
0001
0010
,
0001
0100
0001
1000
0000
0100
1000
0001
1000
0100
0010
0001
1000
0010
0100
0010
,
1000
0100
1000
0001
0000
0100
0001
1000
0001
0100
0010
1000
0001
0010
0100
0010
,
0001
1000
0001
0010
0000
0001
1000
0010
1000
0001
0100
0010
1000
0100
0010
0001
,
1000
0000
0200
0000
0301
0100
1000
0010
0200
0000
1300
0000
0100
0000
0020
0000
,
1030
0000
0100
0000
0001
0100
0010
0100
1000
0000
0001
0000
0100
0010
0100
1000
,
0100
0000
0010
0000
0001
0010
0100
0010
1000
0000
0100
0000
0010
0000
1001
0000
,
0001
0000
0100
0000
1000
0100
0010
0100
0001
0000
1000
0000
0100
0010
0100
0001
,
0100
0000
0010
0000
1000
0010
0100
0010
0001
0000
0100
0000
0010
0000
1001
0000
,
1000
0000
0010
0000
0001
0010
0100
0010
1000
0001
0100
0000
0001
0010
0100
0010
,
1000
0010
0100
0000
1000
0010
0100
0010
0001
0010
0100
0000
0001
0010
0100
0010
,
0001
1000
0010
0100
0001
1000
0100
0010
0001
1000
0010
0100
0001
1000
0010
1000
,
0100
0000
0001
0100
0010
0000
0001
0100
0010
1000
0001
0100
0020
0230
0302
2003
,
3001
0100
0010
1000
0001
0010
0100
1000
0002
0010
0010
0000
2003
0010
0010
0000
,
3001
0100
0010
1000
0100
0010
0001
1000
0020
0100
0100
0030
2000
0100
0100
0000
,
3001
0100
0010
0100
1000
0100
0010
0100
0001
0010
0100
0010
1000
0010
0100
0010
,
0001
0100
0010
1000
0100
0010
0001
0100
0010
0100
0001
1000
0010
0100
0001
1000
,
0001
0010
0100
1000
0001
0100
0010
1000
0002
0100
0100
0000
2003
0100
0100
0000
,
3001
0010
0100
1000
0010
0100
0001
1000
0200
0010
0010
0300
2000
0010
0010
0000
,
3001
0010
0100
0010
1000
0010
0100
0010
0001
0100
0010
0100
1000
0100
0010
0100
,
0001
0110
1000
0110
0001
1100
0010
1001
,
1000
0000
0100
0100
0001
0000
0100
0100
1000
0000
0100
0100
0001
0000
0100
0100
,
1000
0000
0010
0010
0001
0000
0010
0010
1000
0000
0010
0010
0001
0000
0010
0010
,
1000
0000
0100
0100
0001
0000
0100
0100
1000
0000
0100
0100
0001
0000
0100
0100
,
2000
3000
0000
0000
0002
0003
0000
0000
2000
0000
0000
0000
3000
0000
0001
0010
,
0100
1000
0001
0100
0020
0000
0001
0000
0100
0000
1000
0000
0100
0000
1030
0010
,
0100
0001
1000
0100
0020
0000
1000
0000
0100
0000
0001
0000
0100
0000
0031
0100
,
0010
1000
0001
0010
0200
0000
0001
0000
0010
0000
1000
0000
0010
0000
1300
0000
,
0001
0100
0100
0000
1000
0100
0100
0000
0010
0000
1001
0000
1000
0000
0100
0000
,
0010
1000
0010
0100
1000
0000
0001
0000
0100
0010
0001
0010
0100
0000
0001
0000
,
0010
0100
0001
0100
0010
0000
0001
0000
1000
0010
0100
0010
2000
0000
0100
0000
,
3002
0000
0100
0000
2003
0000
0010
0000
3002
0000
0010
0000
1003
0100
0010
0100
,
0001
0100
0010
0100
1000
0010
0100
0001
1000
0100
0010
0001
1000
0000
0010
0000
,
0001
0010
0100
0010
1000
0000
0001
0000
0010
1000
0010
0100
1000
0000
0010
0000
,
0001
0010
1000
0001
1000
0000
0100
0000
0001
0100
0010
0100
1000
0001
0100
0001
,
2000
0000
0010
0000
3002
0000
0100
0000
2003
0000
0100
0000
3001
0100
0100
0000
,
1000
0100
0100
0000
0001
0100
0100
0100
0020
0230
0302
2003
3001
0010
0100
0020
,
0000
1030
0010
0100
0010
0001
0010
0100
0010
1000
0010
0001
1000
0010
0100
0020
,
0000
0031
0010
0100
0010
1000
0010
0001
0010
0100
0010
1000
0010
0100
0001
1000
,
0001
0000
0101
0000
0100
0010
0100
0001
1000
0000
1100
0000
1000
0100
0010
0001
,
1000
0010
0100
0001
0010
0100
1000
0001
0100
0010
1000
0001
1001
1000
0100
1000
,
1100
1000
0001
1000
1001
0001
0100
0001
0101
0001
1000
0001
1001
1000
0010
1000
,
1010
1000
0001
1000
1001
0001
0010
0001
0011
0001
1000
0001
1001
1000
1100
0100
,
0110
0010
0011
0001
1001
0001
0101
0100
0110
0010
1010
1000
1001
1000
1010
0010
,
1010
0010
1010
0010
0110
0100
0101
0001
2000
3000
0001
0001
1000
0100
0010
0100
,
0000
0001
0100
1000
0002
0100
0100
0000
2003
0100
0100
0000
3001
0100
0010
0100
,
0000
1000
0100
0001
2000
0100
0100
0000
3002
0100
0100
0000
1003
0010
0100
0010
,
0000
0001
0010
1000
0002
0010
0010
0000
2003
0010
0010
0000
3001
0010
0100
0010
,
0000
1000
0010
0100
0020
0001
0001
0000
0230
1000
1000
0000
0310
0001
1000
0010
,
0100
0001
1000
0100
2000
0010
0001
0000
3002
0010
1000
0000
0103
0010
1000
0001
,
0010
0100
1000
0010
2000
0100
0001
0000
3002
0100
1000
0000
0013
0100
1000
0010
,
0100
0001
1000
0010
0200
1000
0010
0000
0320
0001
0100
0000
0032
0023
2030
3200
,
0302
2003
3020
0032
0203
2300
3020
0230
0310
0000
2002
0000
3003
0000
0000
0000
;

//---------------dance-double - t7r----------------
#NOTES:
     dance-double:
     t7r:
     Easy:
     6:
     :
00000000
00000000
00000000
00000000
,
00000000
00000000
00000000
00000000
,
00000000
00000000
00000000
00000000
,
00000000
00000000
00000000
00000000
,
00000000
00000000
00000000
00000000
,
00000000
00000000
00000000
00000000
,
00000100
00000100
00020000
00031000
,
01000000
01000000
00002000
00013000
,
00000010
00000010
00020000
00031000
,
00010000
00000000
00000000
00000000
,
01000000
10000000
00100000
10000000
,
01000000
00100000
00010000
00001000
,
00000010
00000100
00000001
00001000
,
00000001
00000010
00000100
00001000
,
00010000
00100000
00010000
01000000
,
00100000
10000000
01000000
00010000
,
00001000
00000100
00000001
00000010
,
00000200
00000000
00010300
00000000
,
00001000
00010000
00000000
00011000
,
00000000
01010000
00000000
00011000
,
00000000
00001100
00000000
00011000
,
00000000
00110000
00000000
00011000
,
00001000
00000100
00000000
00001001
,
00000001
00000010
00000000
00001100
,
00000100
00010000
00000000
00011000
,
00010000
01000000
10000000
00200000
,
01300000
00100000
20000000
30020000
,
10030000
01000000
00020000
00032000
,
00013000
00010000
00001000
00001000
,
00000100
00000010
00000100
00000001
,
00001000
00001000
00000200
00020300
,
00031000
00001000
00200000
00320000
,
10030000
10000000
00100000
00100000
,
00010000
00001000
00000010
00000002
,
00001003
00001000
00001000
00001000
,
00001000
00001000
00001000
00001000
,
00001000
00000000
00000200
00020300
,
00031000
00000000
00001000
00000000
00002000
00000000
00003000
00010000
,
00000000
01000000
00000000
20000000
00000000
30000000
00000000
00010000
,
00000000
01000000
00000000
20000000
00000000
30000000
00000000
00010000
,
00000000
00100000
00000000
20000000
00000000
30000000
00000000
01000000
,
00000000
00010000
00000000
00001000
00000000
00000010
00000100
00000000
,
00001100
00000000
00011000
00000000
,
01010000
00000000
00011000
00010000
,
00010000
00010000
00010000
00001000
,
00000010
00000001
00000100
00001000
,
00011000
00000000
00110000
00000000
,
00011000
00000000
00001010
00001000
,
00001000
00001000
00001000
00000200
,
00020300
00032000
00013000
01000000
,
20000000
30100000
00100000
10000000
,
02000000
03100000
00100000
00010000
,
00001000
00000010
00000100
00000001
,
00000010
00001000
00010000
00100000
,
10000000
00010000
10010000
10000000
,
01000000
00100000
00110000
00200000
,
00301000
00020000
00030010
00000100
,
00000100
00001000
00020000
00031000
,
00001000
00001000
00001000
00001000
,
00001000
00001000
00001000
00001000
,
00000000
02000000
03020000
10030000
,
00000000
02000000
03020000
00031000
,
00001000
00000200
00000320
00001030
,
00001000
00000200
00020300
00031000
,
00001000
00020000
02030000
03100000
,
00100000
00000000
00001000
00000000
00010000
00002000
00003000
00000000
;

//---------------dance-double - t7r----------------
#NOTES:
     dance-double:
     t7r:
     Medium:
     10:
     :
00000000
00000000
00000000
00000000
,
00000000
00000000
00000000
00000000
,
00000000
00000000
00000000
00000000
,
00000000
00000000
00000000
00000000
,
00000000
00000000
00000000
00000000
,
00000000
00000000
00000000
00000000
,
00100000
00010000
00000000
00000000
20000000
00000000
30200000
00000000
,
10300000
00010000
00000000
00000000
02000000
00000000
03002000
00000000
,
00013000
00001000
00000000
00000000
00020000
00000000
00030200
00000000
,
00002300
00000000
00003010
00000000
00000100
00000001
00001000
00000000
,
00000001
00000000
00000101
00000000
00000001
00001000
00000100
00000000
,
00010000
00000000
00011000
00000000
00001000
01000000
00010000
00000000
,
10000000
00000000
10100000
00000000
00100000
01000000
00010000
00000000
,
10000000
00000000
01000000
00000000
00010000
00001000
00010000
00000000
,
00000000
00001000
00000000
00000100
00000000
00000001
00001000
00000100
,
00000000
00010000
00000000
00001000
00000000
01000000
00010000
10000000
,
00000000
01000000
00000000
00010000
00000000
00001000
00000010
00000000
,
00000001
00000100
00000010
00000000
00001000
00000100
00010000
00000000
,
00000000
00001000
00010000
00000000
00000000
01000000
00100000
00000000
,
00000000
00001000
00010000
00000000
00000000
00001000
00000100
00000001
,
00000000
00000010
00000100
00000000
00000000
00010000
00001000
00000000
,
00000000
01000000
00100000
00000000
00000000
10000000
01000000
00010000
,
00001000
00000000
00011000
00000000
00001000
01000000
00010000
00000000
,
10000000
00000000
10010000
00000000
10000000
01000000
00100000
00000000
,
00001000
00000000
00011000
00000000
00010000
00000100
00001000
00000000
,
00000002
00000023
00000130
00002000
,
00013000
00000000
01000000
00100000
20000000
00000000
30020000
00000000
,
10030000
00000000
01000000
00100000
00002000
00000000
00023000
00000000
,
00030010
00000010
00000100
00000000
00000010
00000010
00001000
00000000
,
00000001
00000010
00000100
00000000
00001000
00010000
00100000
00000000
,
00010000
00000000
10000000
01000000
00020000
00000000
00032000
00000000
,
00013000
00000000
00001000
00000010
00000002
00000000
00002003
00000000
,
00003001
00000100
00000010
00000000
00001000
00010000
00100000
00000000
,
00010000
00000000
10000000
10000000
01000000
00000000
00010000
00002000
,
00013000
00010000
00010000
00010000
,
00010000
00010000
00010000
00010000
,
00010000
00010000
00002000
00023000
,
02030000
03000000
02000000
03000000
02000000
03000000
00000000
10000000
,
00000000
00000000
00100000
00020000
00000000
00000000
00000000
00031000
,
00000000
00000000
00000010
00000002
00000000
00000000
00000000
00000103
,
00000000
00000000
00001000
00020000
00000000
00000000
00000000
01030000
,
00100000
00002000
00000000
00013000
00001000
00010000
00000000
00001000
,
00000100
00000000
00000000
00001000
00010000
00000000
00000000
01000000
,
00010000
00000000
00000000
00001000
00010000
00000000
00011000
00000000
,
00010010
00000000
00001010
00000000
00000110
00000000
00000001
00000010
,
00000100
00000000
00001000
00010000
01000000
00000000
00000000
00001000
,
00010000
00000000
00000000
00100000
00010000
00000000
00000000
00001000
,
00010000
00000000
00000000
00001000
00000010
00000000
00000100
00000000
,
00000020
00000032
00000203
00002300
,
00023000
00000000
00000000
00000000
00031000
00000000
00001000
00000000
02000000
00000000
00000000
00000000
03100000
00000000
00000000
10000000
,
00000000
00000000
00010000
00000000
00100000
00000000
00000000
00000000
00001000
00000000
00000000
00000000
00010000
00000000
00000000
00000010
,
00000000
00001000
00000001
00000000
00000100
00000000
00000001
00000010
,
00000100
00000000
00000001
00000100
00000010
00000000
00000001
00000100
,
00001000
00000000
00010000
00100000
10000000
00000000
01000000
00000000
,
01100000
00000000
00210000
00000000
00301000
00010000
00001000
00000000
,
00011000
00000000
00010020
00000000
00001030
00000010
00000200
00000000
,
00000301
00000010
00000200
00000000
00010300
00001000
01000000
01000000
,
00100000
00000000
00100000
00000000
10000000
00000000
10000000
00000000
00020000
00030000
10000000
00000000
01000000
00000000
00000000
00000000
,
01000000
01000000
01000000
01000000
,
01000000
01000000
01000000
01000000
,
01000000
00020000
00032000
00003100
,
00000100
00000002
00002003
00003001
,
00000010
00000100
00002000
00000000
00003002
00000000
00000103
00000000
,
00000010
00001000
00000200
00000000
00020300
00000000
00031000
00000000
,
00100000
00010000
02000000
00000000
03200000
00000000
20300000
00000000
,
32000000
00000000
03010000
00000000
00001000
00000200
00000300
00000000
;

//---------------dance-double - t7r----------------
#NOTES:
     dance-double:
     t7r:
     Hard:
     13:
     :
00000000
00000000
00000000
00000000
,
00000000
00000000
00000000
00000000
,
00000000
00000000
00000000
00000000
,
00000000
00000000
00000000
00000000
,
00000000
00000000
00000000
00000000
,
00000000
00000000
00000000
00000000
,
10000000
00000000
01000000
00100000
00002000
00000000
00023000
00000000
,
00030010
00000000
00000100
00000001
00000020
00000000
00000230
00000000
,
00001300
00000000
00010000
00100000
02000000
00000000
23000000
00000000
,
30010000
01000000
00001000
00001000
00010000
00000100
00001100
00000000
,
00000001
00000000
00000000
00000001
00000100
00000000
00000000
00000100
00000010
00000000
00000000
00000010
00001000
00000000
00000000
00001000
,
00000001
00000000
00000000
00000001
00000100
00000000
00000000
00000100
00001000
00000000
00000000
00001000
00010000
00000000
00000000
00010000
,
00001000
00000000
00000000
00001000
01000000
00000000
00000000
01000000
00100000
00000000
00000000
00100000
10000000
00000000
00000000
10000000
,
01000000
00000000
10000000
00010000
00000000
10000000
01000000
00000000
00000000
00000000
10000000
00010000
00000000
00000000
10000000
00100000
,
10000000
00000000
00000000
10000000
01000000
00000000
00000000
01000000
00100000
00000000
00000000
00100000
00001000
00000000
00000000
00001000
,
00010000
00000000
00000000
00010000
00000100
00000000
00000000
00000100
00000010
00000000
00000000
00000010
00000001
00000000
00000000
00000001
,
00000100
00000000
00000000
00000100
00001000
00000000
00000000
00001000
00010000
00000000
00000000
00010000
00100000
00000000
00000000
00100000
,
01000000
00001000
00010000
00010000
00000200
00001000
00000310
00000001
,
00000100
00001000
00010000
00000000
01000000
00010000
00011000
00001000
,
00000100
00001000
00010000
00000000
01000000
00010000
00011000
00001000
,
00000010
00001000
00010000
00000000
00100000
00010000
00011000
00001000
,
00000010
00001000
00010000
00100000
10000000
00010000
10010000
00010000
,
10000000
01000000
00100000
00000000
10000000
00100000
00110000
00010000
,
00100000
00001000
00010000
00000000
00001000
00010000
00011000
00001000
,
00000020
00000000
00000031
00000100
00000020
00000000
00001030
00000100
,
00010000
00000000
00011000
00000000
00101000
00100000
02000000
00000000
,
13000000
00000000
00000000
01000000
00100000
00000000
01000000
00000000
20000000
00000000
00000000
00000000
30200000
00000000
00000000
00000000
,
01300000
00000000
00000000
10000000
01000000
00000000
00100000
00000000
20000000
00000000
00000000
00000000
32000000
00000000
00000000
00000000
,
03010000
00001000
00000100
00000000
00000001
00000100
00000001
00000000
,
00000010
00000001
00000100
00001000
00010000
01000000
10000000
00010000
,
10010000
00000000
00000000
10000000
01000000
00000000
10000000
00000000
00200000
00000000
00000000
00000000
02300000
00000000
00000000
00000000
,
13000000
00000000
00000000
01000000
00010000
00000000
00100000
00000000
00002000
00000000
00000000
00000000
00023000
00000000
00000000
00000000
,
00031000
00000010
00000100
00000010
00000001
00000100
00000010
00000100
,
00001000
00010000
00100000
00100000
01000000
00001000
00010000
00001000
,
00011000
00010000
00010000
00010000
,
00010000
00010000
00010000
00010000
,
00010000
00010000
00002000
00013000
,
00020000
00030000
00020000
00030000
00002000
00000000
00013000
01000000
,
00000000
00000000
10000000
00020000
00000000
00000000
00000000
00030100
,
00000000
00000000
00000001
00002000
00000000
00000000
00000000
00103000
,
00000000
00000000
10000000
00020000
00000000
00000000
00000000
00030010
,
00000001
00000200
00000000
00001300
00010000
00011000
00010000
01000000
,
10000000
01000000
00000000
00010000
01000000
10000000
00100000
00010000
,
00001000
00010000
00000000
00100000
00010000
00001000
00020000
00000000
,
00032000
00000000
00003200
00000000
00000302
00000000
00000013
00000100
,
00001000
00000000
00000001
00000000
00000100
00000000
00001000
00000000
00010000
00000000
00001000
00010000
00001000
00000000
00010000
00000000
,
00100000
10000000
00000000
00010000
00100000
10000000
00200000
00000000
,
00010000
00302000
00000010
00023000
,
00000100
00031000
00011000
00000100
,
01000000
00000000
00000000
00000000
00001000
00010000
00001000
00000000
00020000
00000000
00000000
00000000
00031000
00000000
00000100
00000010
,
00000000
00000100
00000001
00000000
00001000
00000000
00000100
00000000
00001100
00000000
00000000
00000000
00000001
00000000
00000100
00000010
,
00000000
00000100
00001000
00000000
00010000
00000000
00001000
00000000
00011000
00000000
00010000
00000000
01000000
00000000
01000000
00000000
,
10000000
10000000
00100000
00100000
00010000
00010000
00001000
00000010
,
00000100
00000000
00000010
00000000
00000001
00000000
00000100
00000000
00001000
00000000
00010000
00000000
00001000
00000000
00010000
00000100
,
00010000
00000000
00001000
00000000
00010000
00000000
00001000
01000000
00001000
00000000
00010000
00000000
00001000
00000000
00100000
00001000
,
00100000
00000000
00001000
00000000
00010000
00000000
00000010
00010000
00000010
00000000
00010000
00000000
00001000
00000000
00000100
00000001
,
00000000
00000100
00000001
00000000
00001000
00000000
00000100
00010000
00000000
00001000
00010000
00000000
01000000
00000000
10000000
00000000
,
00100000
00000000
00010000
00000000
00001000
00010000
00001000
00000000
00020000
00030000
00001000
00010000
00001000
00000000
00000000
00001000
,
00010000
00000000
00000000
00010000
00001000
00000000
00000000
00001000
00000100
00000000
00000000
00000100
00000001
00000000
00000000
00000001
,
00000010
00000000
00000000
00000010
00000100
00000000
00000000
00000100
00010000
00000000
00000000
00010000
00001000
00000000
00000000
00001000
,
00010000
00000000
00000000
00010000
01000000
00000000
00000000
01000000
10000000
00000000
00000000
10000000
00100000
00000000
00000000
00100000
,
01000000
00000000
00000000
01000000
00010000
00000000
00000000
00010000
10000000
00000000
00000000
10000000
00010000
00000000
10000000
00000000
,
01000000
00100000
00002000
00000000
00023000
00000000
00030010
00000100
,
00000001
00001000
00000002
00000000
00000023
00000000
00000130
00001000
,
00010000
01000000
00200000
00000000
20300000
00000000
31000000
00010000
,
00001000
00000100
00000001
00000010
00001000
00020000
00030000
00000000
;

//---------------dance-double - t7r----------------
#NOTES:
     dance-double:
     t7r:
     Challenge:
     18:
     :
00000000
00000000
00000000
00000000
,
00000000
00000000
00000000
00000000
,
00000000
00000000
00000000
00000000
,
00000000
00000000
00000000
00000000
,
00000000
00000000
00000000
00000000
,
00000000
00000000
00000000
00000000
,
00010000
00000100
00010000
00001000
00010000
00001000
01000000
00010000
20000000
00000000
00100000
00000000
30020000
00000000
00100000
00000000
,
10030000
01000000
10000000
00010000
00100000
00010000
00100000
00001000
00020000
00000000
00000100
00000000
00032000
00000000
01000000
00000000
,
00013000
00001000
00010000
00000100
00001000
00000100
00001000
00000001
00002000
00000000
00000010
00000000
00003002
00000000
00000010
00000000
,
00001003
00000000
00000001
00000100
00000010
00001000
00000001
00001000
00000010
00000000
00001000
00000100
00020000
00030000
00010000
00010000
,
00001000
01000000
00010000
10000000
00000000
00010000
01000000
00010000
10000000
01000000
00100000
00010000
00001000
00000100
00000010
00000001
,
00001000
00000010
00001000
00000001
00000000
00000010
00000001
00001000
00000001
00000010
00000100
00001000
00010000
00100000
01000000
10000000
,
00010000
01000000
00010000
10000000
00000000
00100000
10000000
00010000
10000000
00100000
01000000
00010000
00001000
00000010
00000100
00000001
,
00001000
00000100
00010000
00001000
00000000
01000000
00010000
10000000
00010000
00100000
01000000
10000000
00010000
00100000
00001000
00010000
,
00001000
00000100
00000001
00001000
00000000
00000001
00000010
00000100
00001000
00000001
00000100
00000010
00001000
00010000
00100000
00001000
,
00010000
01000000
10000000
00010000
00000000
10000000
00100000
01000000
00010000
10000000
01000000
00100000
00010000
00001000
00000010
00010000
,
00001000
00000010
00000001
00001000
00000000
00000001
00000100
00000010
00001000
00000001
00000010
00000100
00001000
00010000
01000000
00001000
,
00010000
00000000
00200000
00000000
01300000
01000000
00010000
10000000
02000000
00000000
00010000
00000000
03100000
00000000
00002000
00003000
,
00010000
00000000
00001000
00000000
00000100
00000010
00000100
00000001
00001000
00000000
00000001
00000000
00000010
00000100
00000010
00000001
,
00001000
00000000
00000001
00000000
00000010
00000100
00010000
00001000
00010000
00000000
00001000
00000000
00010000
01000000
00100000
01000000
,
10000000
00000000
00010000
00000000
10000000
00100000
01000000
00100000
10000000
00000000
00010000
00000000
00100000
00001000
00010000
00001000
,
00010000
00000110
00001000
01100000
00010000
00000110
00001001
00000010
,
00001001
00000000
00000001
00000010
00000100
00001000
00000001
00000100
00001000
00000000
00010000
00100000
01000000
00100000
10000000
01000000
,
00100000
00000000
00001000
00010000
00001000
00000010
00000100
00000010
00000001
00000000
00000100
00000010
00001000
00000001
00000010
00000100
,
00001000
00000000
00000001
00000100
00001000
00000000
00010000
01000000
10000000
00000000
00100000
00010000
00001000
00000000
00000010
00000001
,
00001000
00000000
00000100
00000000
00011000
00000000
00100000
00000000
10010000
00000000
00010000
00000000
02000000
03200000
20300000
30020000
,
10030000
01000000
00100000
00010000
10000000
01000000
00010000
00001000
01000000
00100000
00020000
00000000
00031000
00000100
00000020
00000000
,
00001030
00000100
00000010
00000001
00001000
00000001
00000010
00000100
00001000
00000001
00000200
00000000
00001300
00010000
00002000
00000000
,
00013000
00000000
01000000
10000000
00010000
00100000
00001000
00000000
00010000
00000000
00001000
00000100
00000001
00001000
00000010
00000000
,
00000100
00000010
00001000
00000001
00000010
00000100
00001000
00010000
00100000
01000000
10000000
00010000
01000000
00100000
10000000
00000000
,
00010000
00100000
01000000
10000000
00010000
00100000
00001000
00010000
00001000
00000100
00000002
00000000
00001003
00000100
00000002
00000000
,
00001003
00000010
00000100
00000010
00000001
00000100
00000010
00001000
00000100
00010000
00002000
00000000
01003000
00010000
00200000
00000000
,
00310000
01000000
00100000
10000000
00010000
00100000
00001000
00000000
00010000
00000100
00001000
00000010
00001000
00000001
00000100
00000000
,
00000001
00000000
00000100
00001000
00010000
00000000
00001000
00010000
01000000
00000000
10000000
00010000
01000000
00000000
01100000
00000000
,
20000000
30000000
00000000
00000000
00020000
00030000
00000000
00000000
00002000
00003000
00000000
00000000
00000002
00000003
00000000
00000000
,
00002000
00003000
00000000
00000000
00020000
00030000
00000000
00000000
20000000
30000000
00000000
00000000
00020000
00030000
00000000
00000000
,
02000000
03000000
00000000
00000000
00000200
00000300
00000000
00000000
02000000
03000000
00000000
00000000
00000200
00000300
00000000
00000000
,
00200000
00300000
00000000
00000000
00000020
00000030
00000000
00000000
00200000
00000000
00000000
00000000
00300000
00000000
00011000
00000000
,
00001000
00000100
00000001
00000000
00002000
00000000
00000100
00000000
00003001
00000000
00000010
00000000
00000100
00001000
00000001
00000000
,
00000100
00000010
00001000
00000000
00000200
00000000
00001000
00000000
00010300
00000000
00001000
00000000
01000000
00010000
10000000
00000000
,
01000000
00100000
00010000
00000000
20000000
00000000
00100000
00000000
30010000
00000000
00100000
00000000
00001000
00010000
00001000
00000000
,
00000100
00000001
00002000
00000000
00003100
00010000
00002000
00000000
00013000
01000000
10000000
00000000
10010000
00000000
10000000
00000000
,
01000000
00100000
00010000
10000000
00100000
00000000
00010000
00000000
00001000
00000010
00000100
00000010
00000001
00000000
00001000
00000000
,
00000001
00000010
00000100
00000010
00000001
00000000
00001000
00000000
00000100
00010000
00001000
00010000
00001000
00000000
00010000
01000000
,
00100000
00000000
00010000
01000000
00100000
00000000
10000000
00000000
00100000
01000000
00010000
10000000
01000000
00100000
00010000
00001000
,
00000010
00000100
00000001
00000010
00000100
00001000
00010000
01000000
00100000
10000000
00010000
10000000
00010000
00000000
10000000
00000000
,
01000000
00100000
00010000
10000000
00100000
00000000
00010000
00000000
00001000
00000100
00000001
00001000
00000010
00000000
00001000
00000000
,
00000001
00000010
00000100
00001000
00000001
00000000
00000100
00000000
00001000
00010000
01000000
10000000
00100000
00000000
00010000
00001000
,
00000200
00000000
00000310
00001000
00000002
00000000
00000013
00001000
00020000
00000000
00031000
00010000
00002000
00000000
00003000
00000000
,
02000000
00000000
03000000
00000000
00000020
00000000
00000030
00000000
00020000
00032000
02003000
03200000
10300000
01000000
00100000
00010000
,
00000000
10000000
00100000
01000000
00001000
00010000
00000100
00010000
00001000
01000000
00001000
00010000
00000100
00001000
00000001
00000010
,
00000000
00000001
00000100
00000010
00010000
00000100
00010000
00001000
00010000
00001000
01000000
00100000
10000000
00000000
00010000
00100000
,
01000000
00100000
00001000
00010000
00001000
00000000
00010000
00000010
00000100
00000010
00001000
00000100
00001000
00000010
00000100
00000001
,
00000010
00000100
00001000
00000001
00000100
00001000
00010000
00100000
10000000
00010000
10000000
01000000
10000000
00100000
01000000
00010000
,
00001000
00000100
00000010
00000001
00000010
00000100
00001000
00010000
01000000
00100000
10000000
00010000
10000000
01000000
00100000
00010000
,
00001000
00000010
00000100
00000001
00000100
00000010
00001000
00010000
00100000
01000000
10000000
00010000
10010000
10000000
01000000
00010000
,
00011000
00001000
00000100
00000001
00001001
00000001
00000010
00001000
00011000
00010000
00100000
10000000
10010000
10000000
11000000
01000000
,
01010000
00010000
00011000
00001000
00001100
00000100
00000101
00000001
00002000
00003000
00000001
00000001
00001000
00000100
00000010
00000001
,
00000000
00001000
00000010
00000100
00001000
00010000
00100000
10000000
00010000
00100000
01000000
10000000
00010000
01000000
00100000
10000000
,
00000000
00010000
00100000
01000000
00010000
00001000
00000010
00000001
00001000
00000010
00000100
00000001
00001000
00000001
00000100
00000010
,
00000000
00001000
00000100
00000010
00001000
00010000
01000000
10000000
00010000
01000000
00100000
10000000
01000000
00010000
00001000
00000100
,
00000001
00001000
00000001
00000100
00001000
00010000
01000000
10000000
00010000
10000000
01000000
00010000
00001000
00000100
00000010
00001000
,
00000100
00000010
00000001
00000100
00001000
00010000
00100000
10000000
00010000
00100000
00010000
10000000
01000000
00100000
00010000
00001000
,
00000100
00010000
00000100
00001000
00010000
00100000
00001000
01000000
00010000
00100000
00001000
00010000
00001000
00000100
00000001
00001000
,
00000100
00000010
00000001
00000100
00001000
00010000
00001000
01000000
00010000
00100000
00010000
00000000
20000000
32000000
03002000
00003200
,
00020300
00032000
20003000
30200000
00302000
00003020
00020030
00032000
00013000
00000000
00000002
00000000
00000003
00000000
00000000
00000000
;
