#TITLE:Synth Presets & Sample Loops;
#ARTIST:BEMANI Sound Team "90s crew cut";
#ARTISTTRANSLIT:90s crew cut;
#BANNER:Synth Presets & Sample Loops.png;
#BACKGROUND:Synth Presets & Sample Loops-bg.png;
#JACKET:Synth Presets & Sample Loops-jacket.png;
#CDTITLE:./CDTITLES/DANCERUSH.PNG;
#MUSIC:Synth Presets & Sample Loops.ogg;
#SAMPLESTART:32.381;
#SAMPLELENGTH:15;
#BPMS:0=126;

//---------------dance-single - t7r----------------
#NOTES:
     dance-single:
     t7r:
     Beginner:
     3:
     :
0000
0000
0000
0000
,
0000
0000
0000
0000
,
0000
0000
0000
0000
,
0000
0000
0000
0000
,
0000
0000
0000
0000
,
1000
0000
0001
0000
,
0100
0000
0010
0000
,
1000
0000
0100
0000
,
0010
0000
0000
0000
,
0001
0000
0000
0000
,
0100
0000
0000
0000
,
0010
0000
0000
0000
,
1000
0000
0000
0000
,
0100
0000
0100
0000
,
0010
0000
0010
0000
,
0001
0000
1000
0000
,
0010
0000
0010
0000
,
0100
0000
0100
0100
,
0100
0000
0001
0001
,
0001
0000
1000
1000
,
1000
0000
0100
0100
,
0100
0000
0010
0010
,
0010
0000
0001
0001
,
0001
0000
1000
1000
,
1000
0000
0000
0000
,
0000
0010
0000
0010
,
0010
0000
0010
0000
,
0100
0000
0100
0100
,
0100
0000
0001
0000
,
0000
1000
0000
1000
,
1000
0000
1000
0000
,
0001
0000
0001
0001
,
0001
0000
0000
0000
,
0010
0000
0000
0000
,
0001
0000
0000
0000
,
0100
0000
0000
0000
,
1000
0000
0000
0000
,
0100
0000
0100
0000
,
0010
0000
0010
0000
,
0001
0001
0001
0001
,
0001
0000
0000
0000
,
1000
0000
0000
0000
,
0010
0000
0000
0000
,
0100
0000
0100
0000
,
0010
0000
0010
0000
,
1000
0000
0001
0000
,
0010
0000
0010
0000
,
0100
0000
1000
0000
,
0001
0000
0000
0000
,
0100
0000
0100
0100
,
0100
0000
0100
0000
,
0010
0000
0010
0010
,
0010
0000
0010
0000
,
1000
0000
1000
1000
,
1000
0000
1000
0000
,
0001
0000
0001
0001
,
0001
0000
0000
0000
,
0110
0000
0000
0000
;

//---------------dance-single - t7r----------------
#NOTES:
     dance-single:
     t7r:
     Easy:
     6:
     :
0000
0000
0000
0000
,
0000
0000
0000
0000
,
0000
0000
0000
0000
,
0000
0000
0000
0000
,
0000
0000
0000
0000
,
1000
0002
0203
0302
,
1003
0002
0023
0032
,
0103
0020
2030
3002
,
0023
0100
0000
0031
,
2001
0010
0000
3001
,
1002
0010
0000
0103
,
0120
1000
0000
0031
,
0210
1000
0000
0301
,
1001
2000
3001
0002
,
0103
0200
0310
0020
,
1030
1000
0001
0001
,
1000
0010
0100
0001
,
1001
1000
0100
0100
,
0020
0130
0100
1000
,
1001
0001
0100
0100
,
0020
0130
0100
0001
,
1001
1000
0100
0100
,
0002
0103
0100
1000
,
1001
0001
0100
0100
,
0020
0000
0000
0000
,
1030
1001
0001
0000
,
0100
0010
0100
0100
,
0001
1001
1000
0000
,
0100
0010
0100
0100
,
1000
1010
0010
0000
,
0100
0001
0010
0010
,
0001
0101
0100
0000
,
0010
1000
0001
0001
,
2000
0100
0000
3001
,
0110
0000
1001
0000
,
0002
0010
0000
1003
,
0110
0000
1001
0000
,
2000
3100
0020
0031
,
2000
3010
0200
0301
,
1000
1000
0001
0001
,
0010
0100
1000
0001
,
0100
0120
0000
0000
,
0001
0000
1000
1030
,
0001
0010
0100
0010
,
1000
0010
0100
0100
,
1000
0020
0100
1000
,
0000
0130
0001
1001
,
0001
0010
0100
0010
,
1000
0010
0010
0001
,
1001
1000
0100
0002
,
0103
1000
0010
0100
,
0001
0100
1000
0200
,
0310
0010
1000
0001
,
1001
1000
0010
0100
,
1000
0200
0001
0301
,
1001
0001
0010
0100
,
0010
0001
1000
0010
,
0220
0000
0000
0000
,
0330
0000
0000
0000
;

//---------------dance-single - t7r----------------
#NOTES:
     dance-single:
     t7r:
     Medium:
     8:
     :
0000
0000
0000
0000
,
0000
0000
0000
0000
,
0000
0000
0000
0000
,
0000
0000
0000
0000
,
0000
0000
0000
0000
,
1001
0000
1000
0100
2000
0000
3002
0000
,
0103
0000
0001
0010
0002
0000
2003
0000
,
3010
0000
0100
0001
0200
0000
0320
0000
,
1030
0100
0010
0001
,
1000
0010
2000
0000
0100
0000
3001
0000
,
2002
3003
0202
0303
,
0001
0010
0002
0000
1000
0000
0103
0000
,
0202
0303
2020
3030
,
1000
0100
0010
0000
0001
0100
0010
0000
,
1000
0010
0100
0000
0001
0010
0100
0000
,
1000
0000
1000
0000
0001
1000
0001
1000
,
0010
0010
2002
3003
,
1100
0000
1000
0100
0010
0100
1000
0000
,
0002
0000
0103
0001
0010
0001
1000
0000
,
1001
0000
0001
0100
0010
0100
0001
0000
,
2000
0000
3010
1000
0100
1000
0010
0000
,
1010
0000
1000
0100
0010
0100
1000
0000
,
0002
0000
0103
0001
0010
0001
1000
0000
,
1001
0000
0001
0100
0010
1000
0100
0000
,
0020
0000
0200
0330
,
1001
0000
1000
0100
0000
0100
0010
0100
,
0000
0000
0001
0100
0000
1000
0001
0000
,
1001
0000
0001
0100
0000
0100
0010
0100
,
0000
0000
1000
0100
0000
0001
0001
0001
,
1000
0000
0001
0010
0000
0100
0001
0100
,
0000
0000
1000
0010
0000
0100
0010
0000
,
1001
0000
1000
0010
0000
0100
1000
0100
,
0001
0000
0000
0010
0000
0000
0100
0000
0000
0000
1000
0000
0001
0000
0000
0000
,
0200
1000
0000
0310
,
2000
3100
0002
0103
,
2000
0010
0000
3001
,
0020
0031
0200
1300
,
0100
0001
0010
0000
0100
1000
0010
0000
,
0001
0010
1000
0000
0001
0010
0100
0000
,
0010
0000
0010
0000
0001
1000
0001
0001
,
0100
0010
0100
0010
0200
0000
0301
0001
,
1000
0000
2001
0000
0100
0000
0000
0001
,
0000
0000
0000
0001
0000
0000
3010
0000
0100
0000
0000
0000
0001
0000
0000
0000
,
1001
0000
1000
0100
0010
0100
0001
0000
,
0100
0000
0100
0000
1000
0010
0100
0000
,
0001
1000
0002
0000
0100
0000
1000
0000
,
0010
1003
1001
0110
,
0010
1000
0100
0000
0010
0001
0100
0000
,
0001
0000
0000
0010
0000
0000
0100
0000
0000
1000
0000
0000
0010
0000
0000
0000
,
2001
0000
3100
0000
0010
0100
1000
1000
,
0001
0100
1000
0000
0100
0001
1000
0000
,
1002
0000
0000
0000
0013
0000
0000
0010
0000
0000
0001
0000
1000
0000
0000
0000
,
0010
1000
0100
0000
0010
0001
0001
0001
,
2000
0000
3010
0000
0100
0001
0020
0000
,
0130
1000
0020
0000
0130
0001
1000
0000
,
1002
0000
0000
0000
0103
0000
0000
0100
0000
0000
0010
0000
1000
0000
0001
0000
,
2000
3200
0320
0032
0103
0010
1000
0001
,
2002
0000
0000
0000
,
3003
0000
0000
0000
;

//---------------dance-single - t7r----------------
#NOTES:
     dance-single:
     t7r:
     Hard:
     13:
     :
0000
0000
0000
0000
,
0000
0000
0000
0000
,
0000
0000
0000
0000
,
0000
0000
0000
0000
,
0000
0000
0000
0000
,
1100
0000
2000
3020
0230
0320
2030
3002
,
1003
0000
0002
0023
0230
0320
0032
2003
,
3001
0000
0200
0320
2030
3002
2003
3200
,
0310
0000
0000
0000
0010
0000
0000
0000
0001
1000
0001
0000
0010
0000
0001
0000
,
0100
1000
0100
0000
1000
0100
0001
0000
,
0010
0001
0010
0000
0001
0010
1000
0000
,
0010
1000
0010
0000
1000
0010
0001
0000
,
0100
0001
0100
0000
0001
0100
1000
0100
,
0010
0010
1000
0001
0010
0010
0001
1000
,
0100
0100
1000
0001
0100
0100
0001
1000
,
0001
0100
0001
0100
0001
0100
0001
0000
1000
0100
1000
0100
1000
0100
1000
0000
,
0010
0100
0010
0100
0010
0100
0010
0100
0020
0000
0000
0000
0030
0000
0000
0000
,
1001
0000
1100
0100
1000
0100
0001
0100
,
0020
0000
0031
0100
1000
0100
0010
0100
,
0101
0001
1000
0010
0100
0010
0001
0010
,
0200
0000
0000
0000
0310
0000
1000
0000
0001
0000
1000
0100
1000
0000
1000
0000
,
1001
0000
0011
0010
0001
0010
1000
0010
,
0200
0000
1300
0010
0001
0010
0100
0010
,
1010
1000
0001
0100
0010
0100
1000
0100
,
0020
0000
0200
0330
,
1001
0000
0000
0001
1000
0000
0110
0000
1000
0000
0100
0000
0001
0000
0100
0000
,
0010
0000
0000
0010
0001
0000
0001
0000
0100
0000
0100
0000
1000
0000
0001
0000
,
0110
0000
0000
1000
0001
0000
0110
0000
0001
0000
0100
0000
1000
0000
0100
0000
,
0010
0000
0000
0010
1000
0000
1000
0000
0100
0000
1001
0000
0001
0000
1001
0000
,
1100
0000
0000
0100
0010
0000
1100
0000
0001
0000
0100
0000
0010
0000
0100
0000
,
1001
0000
0000
0001
1000
0000
1000
0000
0100
0000
0100
0000
0001
0000
1000
0000
,
0110
0000
0000
0010
0100
0000
1001
0000
0001
0000
0010
0000
0100
0000
0001
0000
,
0100
0000
0000
1000
0100
0000
0020
0000
0130
0000
1000
0001
1000
0000
0010
0000
,
1002
0000
0000
1003
0100
0000
0010
0000
0100
0000
0000
0010
1000
0000
0010
0000
,
0021
0000
0000
0031
0100
0000
0010
0000
0002
0000
0000
0013
0100
0000
0010
0000
,
2001
0000
0000
3100
0001
0000
0100
0000
0010
0000
0000
1000
0010
0000
0001
0000
,
0102
0000
0000
0103
1000
0000
0100
0000
0020
0000
0000
0130
0001
0000
1000
0000
,
0001
0000
0010
0100
0010
0000
0001
0000
1000
0000
0010
0100
0010
0000
1000
0000
,
0001
0000
0010
0100
1000
0000
0001
0000
1000
0000
0010
0100
0001
0000
1000
0000
,
0001
0000
0100
1000
0100
0000
1000
0100
0001
0000
0001
0000
1000
0001
1000
0001
,
0010
0100
0010
0100
0010
0100
0010
0100
0010
0100
0010
0100
0010
0000
0010
0000
,
0001
0000
0100
0000
0001
0000
2000
0000
0000
3200
0000
0000
0320
0000
0000
0230
0000
0000
0302
0000
0000
0203
0000
0000
,
0320
0000
0230
0000
0301
0000
0100
1000
0001
0000
1000
0000
0001
0100
0001
0000
,
1001
0000
0000
1000
0010
0000
0100
0000
0010
0001
0000
0010
0100
0000
0010
0000
,
1000
0100
0100
0001
1000
0010
0010
0001
,
1000
0000
0100
0000
1000
0000
0002
0000
0000
0203
0000
0000
0320
0000
0000
0230
0000
0000
2300
0000
0000
3200
0000
0000
,
0320
0230
1300
0100
1001
0010
1001
0001
,
1000
0100
0000
0010
0100
0000
0001
0000
0100
0010
0000
0001
1000
0000
0001
0000
,
0100
2000
0000
3100
0001
0000
0100
2000
0000
3100
0010
0000
0200
0000
0300
0000
,
2001
0000
0000
0000
3001
0200
0000
0310
0100
0020
0000
1030
0002
0000
1003
0000
,
0001
0000
0010
0000
0100
0010
0100
0000
1000
0000
0100
0000
0100
0000
0001
0000
,
0120
0000
0000
0000
1030
0010
0000
0100
0000
0000
0100
0000
2000
0000
3100
0000
,
0002
0023
2030
3002
0203
1300
0010
0010
,
1002
0000
0000
0000
1003
0200
0000
0310
0100
0020
0000
0031
2000
0000
3001
0000
,
0100
1000
0100
0000
0001
0100
0001
0000
1000
0000
0010
0000
0010
0000
0001
0000
,
0120
0000
0000
0000
0031
0001
0000
0001
0000
0000
1000
0000
0002
0000
0013
0000
,
2000
0000
3002
0000
0203
0000
2300
0000
3020
0000
0130
0000
0001
1000
0100
0010
,
0002
0000
0000
0000
,
0003
0000
0000
0000
;

//---------------dance-single - t7r----------------
#NOTES:
     dance-single:
     t7r:
     Challenge:
     15:
     :
0000
0000
0000
0000
,
0000
0000
0000
0000
,
0000
0000
0000
0000
,
0000
0000
0000
0000
,
0000
0000
0000
0000
,
0101
0000
0000
0000
0000
0000
0000
0000
0000
0000
0000
0000
1000
0000
0000
0100
0000
0000
0010
0000
0000
0001
0000
0000
1000
0000
0000
0000
0010
0000
0000
0000
0100
0000
0000
0000
0001
0000
0000
0000
0010
0000
0000
0000
0100
0000
0000
0000
,
1000
0001
0010
0001
1000
0010
1000
0001
0100
0001
1000
0100
,
1000
0000
0000
0000
0000
0000
0000
0000
0000
0000
0000
0000
0001
0000
0000
0010
0000
0000
0100
0000
0000
1000
0000
0000
0001
0000
0000
0000
0100
0000
0000
0000
1000
0000
0000
0000
0100
0000
0000
0000
0010
0000
0000
0000
0100
0000
0000
0000
,
0001
0000
0010
0000
1000
0000
0010
0000
0100
0000
0010
0000
1000
0000
0010
0000
0001
0000
0100
0000
0000
0110
0000
0000
,
2001
0000
0010
0000
0100
0000
0000
3001
1000
0100
0010
0001
0100
0000
0020
0000
,
0230
0000
1000
0000
0010
0000
0000
0301
0020
0000
1000
0000
0130
1000
0001
0000
,
1002
0000
0100
0000
0010
0000
0000
1003
0001
0010
0100
1000
0010
0000
0200
0000
,
0320
0000
0001
0000
0100
0000
0000
1030
0200
0000
0001
0000
0310
0000
0001
0010
,
0001
1000
0001
1000
0100
0010
0100
0010
0001
1000
0001
1000
0010
0100
0010
0100
,
0001
0010
0001
0010
0100
1000
0001
1000
0001
0100
0001
0100
0010
1000
0001
1000
,
0001
0010
0100
1000
0001
0010
0100
1000
0001
0100
0010
1000
0001
0100
0010
1000
,
0200
0320
0230
0302
0203
0320
0230
2300
3100
0000
1000
0010
0100
0001
1000
0100
,
0010
0000
0100
0000
1000
0010
0100
0010
1000
0100
0010
0000
1000
0010
0100
0000
,
1002
0000
0013
0000
0001
0100
0010
0000
0001
0010
0100
0000
0001
0010
0100
1000
,
0001
0000
0010
0000
0001
0100
0010
0100
0001
0010
0100
0000
0001
0100
0010
0000
,
2001
0000
3100
0000
1000
0010
0100
0000
1000
0100
0010
0100
0001
0000
0110
0000
,
1001
0000
1000
0000
0001
0010
0100
1000
0001
0100
0010
0000
0001
0010
1000
0000
,
2100
0000
3010
0000
1000
0001
0100
0000
1000
0100
0001
0000
1000
0001
0100
0001
,
0020
0000
0130
0000
0010
0001
1000
0001
0100
0001
1000
0000
0100
1000
0010
0000
,
0220
0000
0000
0330
,
2001
0000
0000
3010
0001
0000
0110
0000
1000
0000
0010
0000
0100
0000
0110
0000
,
0201
0000
0320
0000
2030
3000
2000
3000
0020
0000
0130
0000
2000
0000
3100
0000
,
0102
0000
0000
0013
1000
0000
0110
0000
0001
0000
0010
0100
1000
0000
0110
0000
,
1200
0000
0000
0000
0320
0000
0000
0000
0230
0000
0300
0000
0200
0000
0300
0000
1001
0000
0000
0000
0020
0030
0000
0000
0020
0030
0000
0000
0020
0030
0000
0000
,
2010
0000
0000
3100
0001
0000
0110
0000
1000
0000
0100
0000
0010
0000
0110
0000
,
0021
0000
0230
0000
2300
3000
2000
3000
0200
0000
0310
0000
0002
0000
0103
0000
,
0012
0000
0000
0103
1000
0000
0110
0000
0001
0000
0100
0010
1000
0000
0110
0000
,
1020
0000
0130
0001
0000
0100
1000
0000
0100
0000
0010
1000
0001
0010
0001
0000
,
1002
0000
0000
1003
0200
0000
0010
0000
1300
0000
0000
1000
0200
0000
0310
0000
,
2001
0000
0000
3001
0200
0000
0010
0000
0302
0000
0000
0013
0100
0000
1000
0000
,
1002
0000
0000
1003
0020
0000
0100
0000
1030
0000
0000
1000
0020
0000
0130
0000
,
2001
0000
0000
3001
0020
0000
0100
0000
0032
0000
0000
0103
0010
0000
1000
0000
,
2001
0000
0000
3100
0020
0000
1000
0000
0230
0000
0000
1300
0020
0000
0001
0000
,
0230
0000
0000
0301
0020
0000
1000
0030
0200
0000
0000
1300
0020
0000
0001
0000
,
0130
0000
0001
0010
0100
0000
1000
0010
0100
0000
0100
0000
0001
1000
0001
0001
,
2000
3200
0320
0230
0302
0203
0320
0230
2300
3020
0230
0320
0032
0023
1030
0000
,
0010
0000
0010
0000
0010
0000
0200
0000
0000
2300
0000
0000
3002
0000
0000
0023
0000
0000
0230
0000
0000
2300
0000
0000
,
3002
0000
0013
0100
0002
0000
1003
0001
0020
0000
0230
0000
0301
1000
0010
0001
,
2000
0000
3001
0100
0020
0000
0001
0000
0130
0020
0000
1030
0020
0000
0031
0000
,
0010
0100
0001
0000
0010
0100
0001
0100
0010
0000
1001
0000
0010
0000
1001
1000
,
0100
0000
0100
0000
0100
0000
0020
0000
0000
2030
0000
0000
3002
0000
0000
0203
0000
0000
0320
0000
0000
2030
0000
0000
,
3002
0000
0103
0010
0002
0000
1003
0001
0200
0000
0320
0000
0031
1000
0100
0001
,
1000
2000
0000
3100
0001
0000
2000
0000
3001
0200
0000
0310
0100
0000
0110
0000
,
1000
0010
0000
0001
0100
0000
1000
0100
0000
0001
0010
0000
0220
0000
0330
0000
,
2001
0000
0000
0000
3001
0200
0000
1300
0200
0010
0000
0301
0020
0000
0130
1000
,
0001
0010
0100
0000
0001
0100
0010
0000
0001
0100
0010
0000
0110
0000
0100
0000
,
1002
0000
0000
0000
0013
0010
0000
0010
0000
0100
0010
0000
0120
0000
0032
0000
,
0203
0000
0000
0000
2300
0000
0000
0000
3002
0000
0000
0000
0023
0000
0000
0000
0230
0000
0000
0000
0320
0030
0000
0000
0020
0030
0000
0000
0020
0030
0000
0000
,
2001
0000
0000
0000
3001
0020
0000
1030
0020
0100
0000
0031
0200
0000
0310
1000
,
0001
0100
0010
0000
0001
0010
0100
0000
0001
0010
0100
0000
0110
0000
0010
0000
,
1002
0000
0000
0000
0103
0100
0000
0100
0000
0010
0100
0000
0002
0000
2003
0000
,
3002
0023
0230
2300
3002
0203
2300
3200
0320
2030
3200
0302
1003
0010
0001
1000
,
2002
0000
0000
0000
,
3003
0000
0000
0000
;

//---------------dance-double - t7r----------------
#NOTES:
     dance-double:
     t7r:
     Easy:
     6:
     :
00000000
00000000
00000000
00000000
,
00000000
00000000
00000000
00000000
,
00000000
00000000
00000000
00000000
,
00000000
00000000
00000000
00000000
,
00000000
00000000
00000000
00000000
,
01000000
00010000
00100000
00100000
,
00001000
00010000
00000100
00000100
,
00001000
00000010
00000100
00000100
,
00000001
00000010
00000100
00010000
,
00012000
01000000
00000000
00013000
,
00001000
00010000
01000000
00000000
,
20010000
01000000
00000000
30010000
,
10000000
01000000
00010000
00000000
,
00001000
00010000
00001000
00001000
,
00000100
00000001
00000010
00000010
,
00000001
00000100
00001000
00010000
,
01000000
01000000
20000000
00000000
,
30100000
10000000
01000000
01000000
,
00020000
00000000
00031000
00010000
,
00001000
00000100
00000001
00000001
,
00000020
00000000
00000031
00000100
,
00000001
00000010
00001000
00001000
,
00020000
00000000
00031000
00001000
,
00010000
00100000
01000000
00010000
,
20020000
00000000
00000000
30030000
,
10000000
01000000
00000000
10000000
,
00010000
01000000
00001000
00001000
,
00010000
00001000
00000000
00010000
,
00001000
00000010
00000001
00000001
,
00000100
00000001
00000000
00000010
,
00000100
00010000
00001000
00001000
,
00010000
00000000
00100000
01000000
,
00010000
10000000
00100000
00100000
,
02000000
00000000
03010000
00000000
,
20000000
00000000
31000000
00000000
,
00200000
00000000
00301000
00000000
,
00020000
00000000
00031000
00000000
,
00000020
00000031
00002002
00003003
,
00000002
00000103
00000220
00000330
,
00000010
00000010
00001000
00001000
,
00010000
00100000
00010000
10000000
,
01000000
00200000
00000000
00000000
,
00010000
00000000
01300000
10000000
,
00010000
01000000
00010000
00010000
,
00100000
00001000
00010000
00000010
,
00000100
00000002
00000000
00000000
,
00000010
00000000
00001000
00001003
,
00000001
00000100
00001000
00010000
,
02000000
00000000
23000000
30000000
,
10010000
10000000
01000000
00100000
,
00010000
01000000
00001000
00001000
,
00011000
00010000
00000010
00000100
,
00000001
00000010
00000001
00000001
,
00001001
00000001
00000100
00001000
,
00010000
00001000
00010000
01000000
,
11000000
01000000
00100000
00001000
,
00010000
00001000
00000010
00000001
,
00000220
00000000
00000000
00000000
,
00000330
00000000
00000000
00000000
;

//---------------dance-double - t7r----------------
#NOTES:
     dance-double:
     t7r:
     Medium:
     9:
     :
00000000
00000000
00000000
00000000
,
00000000
00000000
00000000
00000000
,
00000000
00000000
00000000
00000000
,
00000000
00000000
00000000
00000000
,
00000000
00000000
00000000
00000000
,
10100000
00000000
10000000
01000000
20000000
00000000
30020000
00000000
,
01030000
00000000
00010000
00100000
00002000
00000000
00023000
00000000
,
00031000
00000000
00010000
00000100
00002000
00000000
00003020
00000000
,
00000130
00000001
00000010
00000100
,
00021000
00000100
00000000
00031000
,
00010000
01000000
10000000
00000000
00020000
00000000
01030000
00000000
,
00012000
01000000
00000000
00013000
,
00001000
00000100
00000001
00000000
00002000
00000000
00003100
00000000
,
00000010
00000001
00000100
00000000
00002000
00000000
00003000
00000000
,
00100000
00010000
01000000
00000000
00020000
00000000
00030000
00000000
,
10000000
00000000
01000000
00000000
00010000
00010000
00001000
00001000
,
00000100
00000001
00002002
00003003
,
00000101
00000000
00000001
00000010
00000001
00000100
00000001
00000000
,
00000020
00000000
00001030
00000000
00010000
00001000
00010000
00000000
,
00021000
00000000
01030000
10000000
01000000
10000000
00100000
00000000
,
02000000
00000000
03100000
10000000
00010000
00100000
00010000
00000000
,
11000000
00000000
10000000
00100000
10000000
01000000
10000000
00000000
,
00200000
00000000
00310000
00000000
00001000
00010000
00001000
00000000
,
00012000
00000000
00003100
00000001
00000100
00000001
00000010
00000000
,
00001002
00000000
00000200
00000303
,
00000011
00000000
00000001
00000010
00000000
00000010
00000001
00001000
,
00000000
00000000
00000001
00000100
00000000
00001000
00010000
00000000
,
00011000
00000000
00001000
00010000
00000000
00010000
01000000
10000000
,
00200000
00000000
10300000
01000000
00000000
00010000
00010000
00010000
,
00001000
00000000
00010000
00001000
00000010
00000100
00000010
00000000
,
00000001
00000000
00000100
00001000
00000000
00010000
00001000
00000000
,
00011000
00000000
00010000
00100000
01000000
00010000
00100000
01000000
,
10000000
00000000
00000000
10000000
00000000
00000000
02000000
00000000
00000000
00000000
03010000
00000000
00001000
00000000
00000000
00000000
,
00021000
00000100
00000000
00031000
,
00010000
00000000
00000000
00001000
00000000
00000000
00000010
00000000
00000002
00000000
00000000
00000000
00000103
00000000
00000000
00000000
,
00001002
00000100
00000000
00000013
,
00000001
00000000
00000000
00000100
00000000
00000000
00001000
00000000
00020000
00000000
00000000
00000000
00031000
00000000
00000000
00000000
,
00012000
01003000
00021000
00030100
,
00012000
00103000
00021000
00030010
,
00011000
00000000
00011000
00000000
00001000
00010000
00100000
10000000
,
01000000
01000000
00010000
00010000
00001000
00000010
00000001
00000001
,
00000100
00000000
00000002
00000000
00000010
00000000
00000000
00001000
,
00000000
00000000
00000000
00001000
00000000
00000000
00000000
00000000
00000103
00000000
00000001
00000000
00001000
00000000
00000000
00000000
,
00000001
00000000
00000011
00000000
00000001
00000100
00000010
00000000
,
00001000
00000000
00000100
00000000
00010000
00001000
00010000
01000000
,
10000000
00200000
01000000
00010000
,
10000000
01000000
10300000
00110000
,
10000000
01000000
00010000
00000000
00001000
00000100
00000001
00000000
,
00000010
00000000
00000000
00000010
00000000
00000000
00000100
00000000
00000000
00010000
00000000
00000000
00001000
00000000
00000000
00000000
,
00021000
00000000
00031000
00000000
00020000
00000000
00130000
01000000
,
00010000
00100000
00010000
00000000
10000000
00100000
10000000
00000000
,
20010000
00000000
00000000
00000000
31000000
00000000
00000000
01000000
00000000
00000000
00100000
00000000
00001000
00000000
00000000
00000000
,
00010000
00001000
00000010
00000000
00001000
00010000
00100000
00100000
,
02000000
00000000
03010000
00000000
00100000
01000000
10000000
00000000
,
01000000
00010000
00001000
00000000
00000100
00001000
00010000
00000000
,
00012000
00000000
00000000
00000000
00103000
00000000
00000000
00100000
00000000
00000000
00010000
00000000
10000000
00000000
00000000
00000000
,
00100000
00010000
00002000
00000000
00003010
00000001
00000100
00000000
,
00002002
00000000
00000000
00000000
,
00003003
00000000
00000000
00000000
;

//---------------dance-double - t7r----------------
#NOTES:
     dance-double:
     t7r:
     Hard:
     13:
     :
00000000
00000000
00000000
00000000
,
00000000
00000000
00000000
00000000
,
00000000
00000000
00000000
00000000
,
00000000
00000000
00000000
00000000
,
00000000
00000000
00000000
00000000
,
00001001
00000000
00000002
00000203
00000320
00000230
00000302
00000023
,
00000130
00000000
00002000
00003200
00020300
00032000
02003000
03020000
,
10030000
00000000
02000000
03200000
00302000
00023000
00032000
00023000
,
00030010
00000000
00000000
00000000
00000100
00000000
00000000
00000000
00000001
00000010
00000001
00000000
00001000
00000000
00000001
00000000
,
00001002
00000000
00000103
00000000
00001000
00000100
00000001
00000000
,
00000020
00000000
00001030
00010000
00100000
01000000
00010000
00000000
,
20010000
00000000
31000000
00000000
00010000
01000000
10000000
00000000
,
00200000
00000000
00310000
00001000
00000100
00000001
00000010
00000100
,
00001001
00000001
00000100
00000010
00001000
00000100
00010000
00010000
,
00001000
01000000
00100000
01000000
00010000
10000000
01000000
01000000
,
00100000
01000000
00100000
01000000
00100000
01000000
00100000
00000000
00001000
00010000
00001000
00010000
00001000
00010000
00001000
00010000
,
00000100
00000000
00010000
00001000
00010000
00001000
00010000
00001000
00020000
00000000
00000000
00000000
00031000
00000000
00000000
00000000
,
00021000
00000000
00031000
00010000
01000000
00010000
01000000
10000000
,
00200000
00000000
01300000
10000000
01000000
10000000
01000000
00100000
,
20100000
00000000
31000000
00010000
01000000
00010000
00001000
00000100
,
00000020
00000000
00000000
00000000
00000130
00000000
00000001
00000000
00000100
00000000
00000010
00001000
00000010
00000000
00001000
00000000
,
00001002
00000000
00000013
00001000
00000010
00001000
00000010
00000100
,
00020000
00000000
00031000
00010000
00001000
00010000
00100000
10000000
,
00010000
00100000
01000000
00010000
00001000
00000010
00000100
00001000
,
00001002
00000000
00000200
00000303
,
00000011
00000000
00000000
00000001
00000010
00000000
00000001
00000000
00000100
00000000
00001000
00000000
00000100
00000000
00000010
00000000
,
00000100
00000000
00000001
00000010
00000100
00001000
00010000
00100000
,
10010000
00000000
00000000
10000000
01000000
00000000
00010000
00000000
01000000
00000000
00100000
00000000
00010000
00000000
00001000
00000000
,
00000200
00000000
00000310
00000010
00000001
00001000
00001000
00001000
,
00001001
00000000
00000000
00000001
00000010
00000000
00001000
00000000
00010000
00000000
00100000
00000000
10000000
00000000
00100000
00000000
,
02000000
00000000
00000000
03010000
00100000
00000000
00010000
00000000
10000000
00000000
01000000
00000000
00100000
00000000
01000000
00000000
,
10010000
00000000
00000000
10000000
00100000
00000000
00010000
00000000
00001000
00000000
00000010
00000000
00000001
00000000
00000010
00000000
,
00000100
00000000
00000000
00000010
00000001
00000000
00000100
00000000
00001000
00000000
00010000
00000000
01000000
00000000
11000000
00000000
,
20010000
00000000
00000000
30100000
01000000
00000000
00100000
00000000
00010000
00000000
00000000
00100000
01000000
00000000
00001000
00000000
,
00021000
00000000
00000000
00031000
00000010
00000000
00000001
00000000
00002000
00000000
00000000
00003001
00000100
00000000
00000010
00000000
,
00000210
00000000
00000000
00000301
00000010
00000000
00000100
00000000
00000001
00000000
00000000
00000100
00000010
00000000
00000001
00000000
,
00001002
00000000
00000000
00000103
00001000
00000000
00010000
00000000
02000000
00000000
00000000
13000000
00010000
00000000
10000000
00000000
,
00100000
00000000
01000000
00010000
10000000
00000000
01000000
00000000
00100000
00000000
01000000
10000000
00010000
00000000
01000000
00000000
,
00010000
00000000
00100000
00001000
00010000
00000000
00001000
00000000
00010000
00000000
00000010
00001000
00000001
00000000
00001000
00000000
,
00000001
00000000
00000100
00001000
00010000
00000000
00000100
00010000
00001000
00000000
00001000
00000000
00010000
01000000
00010000
01000000
,
10000000
00010000
10000000
00010000
10000000
00010000
10000000
00010000
10000000
00010000
10000000
00010000
00100000
00000000
00100000
00000000
,
00010000
00000000
01000000
00000000
00010000
00000000
20000000
00000000
00000000
32000000
00000000
00000000
03020000
00000000
00000000
02030000
00000000
00000000
03020000
00000000
00000000
00032000
00000000
00000000
,
00003200
00000000
00000302
00000000
00000203
00000000
00000310
00000000
00000100
00000000
00000001
00001000
00000100
00000000
00001000
00000000
,
00001001
00000000
00000000
00000001
00000100
00000000
00000020
00000000
00000031
00000010
00000000
00000100
00000010
00000000
00001000
00000000
,
00000001
00000000
00000010
00000000
00001000
00000000
00010000
00100000
01000000
00000000
00100000
00000000
10000000
00000000
10000000
00000000
,
00010000
00000000
00100000
00000000
00010000
00000000
20000000
00000000
00000000
30200000
00000000
00000000
00320000
00000000
00000000
00230000
00000000
00000000
00320000
00000000
00000000
00032000
00000000
00000000
,
00003020
00000032
00000023
00000032
00000103
00000010
00001001
00000001
,
00000010
00001000
00000000
00010000
00001000
00000000
00010000
00000000
01000000
10000000
00000000
00100000
01000000
00000000
00100000
00000000
,
10000000
01000000
00000000
01000000
00010000
00000000
00001000
00000100
00000000
00000100
00000001
00000000
00000020
00000000
00000030
00000000
,
00001002
00000000
00000000
00000000
00001003
00000200
00000000
00000310
00000100
00000020
00000000
00000031
00002000
00000000
00003001
00000000
,
00000100
00000000
00000010
00001000
00000010
00000000
00001000
00000000
00000100
00000000
00010000
00000000
00001000
00000000
00010000
00000000
,
02010000
00000000
00000000
00000000
13000000
00010000
00000000
00010000
00000000
00000000
10000000
00000000
02000000
00000000
03020000
00000000
,
00032000
00003200
00000320
00000230
00000301
00000010
00000010
00000010
,
00001002
00000000
00000000
00000000
00001003
00000020
00000000
00000130
00000001
00000200
00000000
00000301
00000020
00000000
00000031
00000000
,
00001000
00000000
00000001
00000000
00000010
00001000
00010000
00000000
00001000
00000000
00010000
00000000
00100000
10000000
00010000
00000000
,
00210000
00000000
00000000
00000000
01300000
00010000
00000000
00010000
00000000
00000000
00001000
00000000
00000200
00000000
00000301
00000000
,
00000020
00000000
00002030
00000000
00023000
00000000
00230000
00000000
02300000
00000000
03010000
00000000
00001000
00000010
00000100
00000001
,
00002000
00000000
00000000
00000000
,
00003000
00000000
00000000
00000000
;

//---------------dance-double - t7r----------------
#NOTES:
     dance-double:
     t7r:
     Challenge:
     15:
     :
00000000
00000000
00000000
00000000
,
00000000
00000000
00000000
00000000
,
00000000
00000000
00000000
00000000
,
00000000
00000000
00000000
00000000
,
00000000
00000000
00000000
00000000
,
01100000
00000000
00000000
10000000
00100000
10000000
00010000
00100000
00010000
00100000
00001000
00100000
,
00001000
00010000
00001000
00010000
00000010
00010000
00000010
00000100
00000010
00001000
00000100
00000010
,
00000001
00000000
00000000
00000100
00000010
00001000
00000001
00000010
00000001
00001000
00000100
00001000
,
00000100
00000000
00010000
00000000
00001000
00000000
01000000
00000000
00010000
00000000
10000000
00000000
00100000
00000000
01000000
00000000
00010000
00000000
10000000
00000000
00000000
01100000
00000000
00000000
,
10010000
00000000
10000000
00000000
01000000
00000000
00000000
00010000
00001000
00010000
00000100
00000000
00001000
00000000
00001000
00000000
,
00001001
00000000
00000001
00000000
00000100
00000000
00000000
00001000
00010000
00001000
01000000
00000000
00010000
00000000
10000000
00010000
,
00100000
00000000
01000000
00000000
01100000
00000000
00000000
00100000
00001000
00010000
00001000
00000000
00010000
00000000
00001000
00000000
,
00000010
00000000
00000100
00000000
00000110
00000000
00000000
00000001
00001000
00000000
00000010
00000000
00000100
00000000
00000001
00001000
,
00000001
00000000
00000010
00000100
00001000
00000100
00000010
00000001
00001000
00000000
00000001
00000100
00000010
00001000
00000100
00010000
,
00001000
00000000
00010000
00001000
01000000
00010000
00100000
01000000
10000000
00000000
00100000
01000000
00010000
00100000
00001000
00010000
,
00000010
00000100
00000001
00000100
00000010
00000100
00001000
00000100
00000010
00000100
00000001
00000010
00001000
00010000
00001000
01000000
,
00010000
00100000
01000000
00010000
00001000
00000010
00000100
00010000
00001000
00000000
00010000
00001000
01000000
00010000
10000000
00100000
,
01000000
00000000
00100000
00000000
10000000
00010000
01000000
00010000
10000000
01000000
00100000
00000000
10000000
00100000
01000000
00000000
,
20000000
00000000
32000000
00000000
03010000
00001000
00010000
00000000
00001000
00000100
00000010
00000000
00001000
00000100
00000010
00000001
,
00000100
00000000
00000010
00000000
00001000
00000001
00000100
00000001
00001000
00000010
00000100
00000000
00001000
00000100
00000010
00000000
,
00002000
00000000
00003002
00000000
00000103
00001000
00010000
00000000
00011000
00000000
00010000
01000000
10000000
00000000
10000000
00000000
,
01100000
00000000
00100000
00000000
10000000
00010000
00100000
00010000
10000000
00100000
01000000
00000000
10000000
01000000
00100000
00000000
,
20000000
00000000
30200000
00000000
00310000
00001000
00010000
00000000
00001000
00000010
00000100
00000000
00001000
00000100
00000010
00000001
,
00000020
00000000
00000032
00000000
00001003
00000001
00000100
00000001
00001000
00000000
00000001
00000000
00000010
00001000
00010000
00000000
,
00022000
00000000
00000000
00033000
,
02001000
00000000
00000000
03010000
00100000
00000000
10010000
00000000
10000000
00000000
00100000
00000000
00010000
00000000
01100000
00000000
,
10000000
01000000
00010000
00010000
00011000
00000100
00011000
01000000
,
00012000
00000000
00000000
00013000
00000010
00000000
00001001
00000000
00000001
00000000
00000001
00000010
00000100
00000000
00000002
00000000
,
00000203
00001300
00000100
00000100
00011000
00010000
00011000
00001000
,
00010020
00000000
00000000
00001030
00000100
00000000
00001001
00000000
00000001
00000000
00000100
00000000
00001000
00000000
00000110
00000000
,
00000001
00000010
00001000
00001000
00011000
00100000
00011000
00000010
,
00021000
00000000
00000000
00031000
01000000
00000000
10010000
00000000
10000000
00000000
10000000
01000000
00100000
00000000
00020000
00000000
,
10030000
00000000
00000000
00100000
00010000
00000000
00002000
00000000
00003010
00000000
00000100
00000010
00000001
00000000
00000110
00000000
,
00002001
00000000
00000000
00003001
00000100
00000000
00000020
00000000
00000001
00000000
00000000
00000130
00000020
00000000
00000130
00000000
,
00001002
00000000
00000000
00000013
00001000
00000000
00010000
00000000
00200000
00000000
00000000
10300000
00010000
00000000
10000000
00000000
,
10020000
00000000
00000000
10030000
00100000
00000000
02000000
00000000
10000000
00000000
00000000
03100000
02000000
00000000
03100000
00000000
,
20010000
00000000
00000000
31000000
00010000
00000000
00001000
00000000
00000200
00000000
00000000
00000301
00001000
00000000
00000001
00000000
,
00000010
00000000
00000001
00000100
00000010
00000000
00001000
00000000
00000100
00000000
00010000
00001000
01000000
00000000
00010000
00000000
,
00100000
00000000
01000000
00100000
00010000
00000000
10000000
00000000
00100000
00000000
00010000
00001000
00000010
00000000
00000001
00000000
,
00002000
00000000
00003001
00000100
00000020
00000000
00001030
00000100
00010000
00000000
00010000
00000000
00001000
00010000
00001000
00010000
,
02000000
23000000
30200000
02300000
03020000
00230000
00302000
00023000
00030020
00002030
00003002
00000203
00000320
00000230
00000301
00000000
,
00000010
00000000
00000010
00000000
00000010
00000000
00002000
00000000
00000000
00003020
00000000
00000000
00000230
00000000
00000000
00000302
00000000
00000000
00002003
00000000
00000000
00003020
00000000
00000000
,
00000230
00000000
00010300
00001000
01000000
00000000
00100000
01000000
00020000
00000000
10030000
01000000
00100000
00010000
10000000
00100000
,
01000000
00020000
00000000
01030000
00200000
00000000
00010000
00000000
01300000
00200000
00000000
10300000
01000000
00000000
00020000
00000000
,
00031000
00000100
00000010
00000000
00000100
00000000
00000001
00000001
00001000
00000100
00020000
00000000
00031000
00010000
01000000
10000000
,
00100000
00000000
00100000
00000000
00100000
00000000
00020000
00000000
00000000
00230000
00000000
00000000
02300000
00000000
00000000
23000000
00000000
00000000
30020000
00000000
00000000
00230000
00000000
00000000
,
02300000
00000000
03001000
00010000
00000100
00000000
00000010
00000100
00002000
00000000
00003200
00000000
00000301
00000100
00000010
00000000
,
00000001
00000002
00000000
00000103
00001000
00000000
00020000
00000000
00130000
02000000
00000000
13000000
01000000
00000000
10010000
00000000
,
10000000
00100000
00000000
00010000
00001000
00000000
01000000
00000100
00000000
01000100
00000000
00000000
02000200
00000000
03000300
00000000
,
00012000
00000000
00000000
00000000
00003100
00000002
00000000
00001003
00000200
00000010
00000000
00001300
00000002
00000000
00000203
00000000
,
00001300
00000100
00000010
00000000
00001000
00000100
00000010
00000000
00001000
00010000
00000100
00000000
00001100
00000000
00000100
00000000
,
00021000
00000000
00000000
00000000
01030000
01000000
00000000
01000000
00000000
10000000
00100000
00000000
02000000
00000000
13000000
01000000
,
00020000
00000000
00000000
00000000
00230000
00000000
00000000
00000000
00302000
00000000
00000000
00000000
00023000
00000000
00000000
00000000
00030020
00000000
00000000
00000000
00000230
00000300
00000000
00000000
00000200
00000300
00000000
00000000
00000200
00000300
00000000
00000000
,
00001002
00000000
00000000
00000013
00000200
00000001
00000000
00000310
00000200
00000000
00001300
00000001
00000200
00000000
00001300
00010000
,
00100000
01000000
00010000
00000000
00100000
01000000
10000000
00000000
01000000
00010000
00001000
00000000
00011000
00000000
00000100
00000000
,
00012000
00000000
00000000
00000000
00003010
00000010
00000000
00000010
00000000
00001000
00000010
00000000
00000002
00000000
00000103
00001000
,
00020000
00000000
00230000
00000000
20300000
00000000
30020000
00000000
00032000
00000000
00003002
00000000
00000103
00001000
00010000
01000000
,
20000000
00000000
00000000
00000000
,
30000000
00000000
00000000
00000000
;
