#TITLE:Super Max! Yo Hé, Yo Ho!;
#ARTIST:Pitstop Boys;
#TITLETRANSLIT:Super Max! Yo He, Yo Ho!;
#BANNER:Super Max! Yo He Yo Ho!.png;
#BACKGROUND:Super Max! Yo He Yo Ho!-bg.png;
#JACKET:Super Max! Yo He Yo Ho!-jacket.png;
#CDTITLE:./CDTITLES/NONE.PNG;
#MUSIC:Super Max! Yo He Yo Ho!.ogg;
#SAMPLESTART:98.928;
#SAMPLELENGTH:15;
#BPMS:0=140;

//---------------dance-single - T.49 + FN5 + T7R----------------
#NOTES:
     dance-single:
     T.49 + FN5 + T7R:
     Beginner:
     3:
     :
0000
0000
0000
0000
,
0000
0000
0000
0000
,
0000
0000
0000
0000
,
0000
0000
0000
0000
,
0000
0000
0000
0000
,
0000
0000
0000
0000
,
0000
0000
0000
0000
,
0000
0000
0000
0000
,
0000
0000
0000
0000
,
2000
0000
3000
0000
,
0002
0000
0003
0000
,
1001
0000
0100
0000
,
0220
0000
0330
0000
,
0002
0000
0003
0000
,
2000
0000
3000
0000
,
1001
0000
0100
0000
,
0220
0000
0330
0000
,
0001
0000
0001
0000
,
0001
0001
0001
0000
,
1000
0000
1000
1000
,
1000
0000
0000
0000
,
0001
0000
0001
0000
,
0010
0000
0100
0000
,
1000
0000
1000
0000
,
0010
0000
0100
0000
,
0001
0000
0001
0000
,
1000
0000
1000
0000
,
0100
0000
0010
0000
,
0100
0100
0100
0000
,
1001
0000
1000
0000
,
0010
0000
0100
0000
,
0001
0000
0100
0000
,
0010
0000
1000
0000
,
0001
0000
0010
0000
,
0100
0000
1000
0000
,
0200
0000
0000
0000
,
0300
0000
0010
0010
,
0010
0000
0001
0001
,
0001
0000
1000
1000
,
1000
0000
0010
0010
,
0010
0000
0100
0100
,
0100
0000
0001
0001
,
0001
0000
1000
1000
,
1000
0000
0100
0100
,
0100
0000
0010
0000
,
1001
0000
1000
0000
,
0010
0000
0100
0000
,
0001
0000
0010
0000
,
0100
0000
0010
0000
,
1001
0000
0001
0000
,
0100
0000
0010
0000
,
1000
0000
0100
0000
,
0010
0000
0000
0000
,
0010
0000
0000
0000
,
0001
0000
0001
0000
,
1000
0000
1000
0000
,
0010
0000
0010
0000
,
0100
0000
0000
0010
,
0010
0000
0000
1000
,
1000
0000
0000
0001
,
0001
0000
0001
0000
,
1000
1000
1000
0000
,
0010
0000
0000
0100
,
0100
0000
0000
0010
,
0010
0000
0010
0000
,
1000
1000
1000
0000
,
0100
0000
0000
0010
,
0010
0000
0000
0001
,
0001
0000
0001
0000
,
0010
0010
0010
0000
,
0100
0000
0000
1000
,
1000
0000
0000
0001
,
0001
0001
0001
0000
,
1001
0000
0000
0000
;

//---------------dance-single - T7R + T.49 + FN5----------------
#NOTES:
     dance-single:
     T7R + T.49 + FN5:
     Easy:
     6:
     :
0000
0000
0000
0000
,
0000
0000
0000
0000
,
0000
0000
0000
0000
,
0000
0000
0000
0000
,
0000
0000
0000
0000
,
1000
1000
0001
0001
,
0100
0010
0110
0000
,
0001
0001
1000
1000
,
0020
0000
0000
1030
,
0200
0000
0300
0010
,
0002
0000
0003
1000
,
2001
0000
3001
0000
,
0220
0000
0330
1000
,
1001
0000
0000
0001
,
1001
0000
0000
1000
,
0100
0100
0010
0001
,
2000
0000
0000
3001
,
1000
1000
0001
0001
,
1000
0010
0110
0000
,
0001
0001
0010
0100
,
0220
0000
0000
0330
,
0001
0010
0001
0000
,
1000
0000
0010
0000
,
1000
0010
1000
0000
,
0001
0000
0010
0000
,
0100
0000
1000
0000
,
0010
0000
0100
0000
,
0001
0001
1000
0010
,
0100
0000
0110
0000
,
1000
0100
0010
0100
,
1000
0000
0100
0010
0001
0000
1000
0000
,
0001
0100
0010
0100
,
0001
0000
0100
0010
1000
0000
0001
0000
,
1000
0001
0100
0000
,
0001
1000
0100
0000
,
0020
0100
0000
0100
,
0000
0130
0001
1000
,
1001
0000
0100
0000
,
0110
0000
1000
0000
,
1010
0000
0001
0000
,
0011
0000
1000
0001
,
1001
0000
0010
0000
,
0110
0000
0001
0000
,
0101
0000
1000
0000
,
1100
0000
0001
1000
,
1001
0000
0001
0001
,
0100
0000
1000
1000
,
0100
0000
0010
1000
,
0100
0000
1000
0001
,
1001
0000
1000
1000
,
0010
0000
0001
0001
,
0010
1000
0001
0010
,
1001
0000
0110
0000
,
1001
0000
0110
0000
,
1001
1001
1001
1001
,
0100
0100
0010
0010
,
0200
0010
0010
0310
,
0110
0000
0000
1000
,
1001
0000
0001
0100
,
0010
0000
1000
0001
,
1000
1000
1001
0000
,
0001
0001
1001
1000
,
1001
0000
1000
0100
,
0010
0000
0001
0100
,
0010
0010
0110
0000
,
0100
0100
0110
0010
,
1001
0000
1000
0001
,
0110
0000
0001
1000
,
0001
0001
1010
0000
,
1000
1000
0011
0100
,
1001
0000
0001
1000
,
0110
0000
1000
0001
,
0100
0100
0110
0010
,
1001
0000
0000
0000
;

//---------------dance-single - FN5 + T7R + T.49----------------
#NOTES:
     dance-single:
     FN5 + T7R + T.49:
     Medium:
     9:
     :
0000
0000
0000
0000
,
0000
0000
0000
0000
,
0000
0000
0000
0000
,
0000
0000
0000
0000
,
0000
0000
0000
0000
,
0001
0000
1000
0000
0001
1000
0001
0000
,
1000
0001
1000
0001
1000
0000
1000
0000
,
0110
0000
0001
0000
1000
0001
1000
0001
,
0200
0000
0000
0310
,
2002
0000
3003
0100
,
2002
0000
0000
0000
3003
0000
1000
0100
,
0010
0110
0110
0001
,
2002
0000
3003
0100
0100
0000
0010
0000
,
1002
1000
1000
0013
,
2001
0000
0001
0000
3001
0000
1000
0100
,
0020
1000
0100
0031
,
2002
3003
0220
0330
,
1001
1001
1000
0001
,
1000
0001
1001
1001
,
0110
0110
0100
0010
,
0220
0000
0330
0100
,
1001
0001
0010
0100
,
1000
0000
0010
0100
0001
0000
0001
0000
,
0010
0100
1000
0001
,
0100
0000
0010
1000
0100
0000
0100
0000
,
0010
0001
0000
0001
1000
0000
1000
0010
,
0100
0000
0001
0000
1000
0000
0100
0010
,
0000
0010
0001
0000
0100
0000
0100
0000
,
0010
0000
0010
1000
0100
0010
0001
0000
,
1000
0100
0010
0100
,
1000
0000
0001
0100
0000
1000
0100
0000
,
0001
0010
0100
0010
,
0001
0000
1000
0010
0000
0001
0010
0000
,
0100
0000
0001
1000
0000
0100
1000
0001
,
0000
0010
0000
0100
0000
1000
0000
0010
,
0000
0100
0001
0000
1000
0100
1000
0000
,
0002
0100
1000
0013
,
2001
0000
3100
0010
,
0002
0000
0103
0010
,
2000
0000
3100
0010
,
0002
0000
0103
0010
,
1000
1000
0100
0010
,
1001
0001
0100
0010
,
1000
0010
1000
0000
0001
0010
0001
0000
,
1000
0001
1000
0001
1000
0000
0010
0000
,
0110
0000
0100
0001
0100
0000
0001
0000
,
0010
0000
0100
1000
0100
0000
1000
0000
,
0001
0000
1000
0010
1000
0000
0010
0000
,
0100
0000
0001
1000
0100
0000
1000
0000
,
1001
0000
0001
0010
0100
0000
1000
0000
,
0001
0000
1000
0010
0100
0000
0001
0000
,
1000
0001
1000
0001
1000
0000
1001
0000
,
2100
0000
3001
0000
,
0102
0000
1003
0000
,
0100
0100
0010
0010
,
0001
0100
0001
0000
1000
0100
1000
0000
,
0010
0100
0010
0100
0001
1000
0001
1000
,
0200
0000
0300
0110
,
2001
0100
3010
0110
,
1002
0000
0100
0000
0013
0000
0100
1000
,
1020
0000
1000
0000
1030
0000
1000
0001
,
0102
0100
0103
0110
,
2001
0010
3100
0110
,
1002
0000
0010
0000
0103
0000
0010
1000
,
1200
0000
1000
0000
1300
0000
1000
0001
,
0012
1000
0103
0110
,
1020
0001
0130
1001
,
0021
0000
1000
0000
0130
0000
1000
0010
,
0120
0000
0100
0000
0130
0000
0001
1000
,
1002
1000
1003
0110
,
0001
0100
0001
0000
1000
0100
1000
0000
,
0001
0010
0001
0010
1000
0010
1000
0010
,
0200
0000
0000
0300
0110
0000
0010
0000
,
1001
0000
0000
0000
;

//---------------dance-single - T.49 + T7R + FN5----------------
#NOTES:
     dance-single:
     T.49 + T7R + FN5:
     Hard:
     11:
     :
0000
0000
0000
0000
,
0000
0000
0000
0000
,
0000
0000
0000
0000
,
0000
0000
0000
0000
,
0000
0000
0000
0000
,
1001
0000
1001
0000
1000
0010
0100
0000
,
0001
0010
0001
0010
0100
0000
0100
0000
,
1001
0000
1001
0000
1000
0010
1000
0010
,
0200
0000
0000
0301
,
0022
0000
0033
1000
,
2020
0000
0000
0000
3030
0000
0001
1000
,
1001
1001
1001
0001
,
0020
0000
0000
0100
0130
0000
1000
0000
,
2100
0001
3010
0100
,
0102
0000
1000
0000
0013
0000
0100
1000
,
0002
0203
2300
3020
,
0032
1000
0103
0000
,
0110
0000
0110
0000
0100
0001
0010
0000
,
0100
1000
0010
1000
0100
0000
0100
0010
,
0110
0000
0110
0000
0010
0001
0100
0001
,
0020
0000
0000
0031
1000
0010
0110
0000
,
2000
3200
0320
0230
,
0302
0000
0103
1000
0001
0100
0010
0100
,
0002
0203
0320
0230
,
2300
0000
3100
0001
1000
0100
0010
0100
,
1000
0010
0000
1010
0000
0000
0000
0001
,
0010
0000
0010
0000
0100
0000
1000
0001
,
0000
2002
0000
3003
1000
0010
0001
0010
,
0100
0000
0100
0000
0100
0001
0010
0000
,
0012
0203
0320
1030
,
0002
0000
0013
0001
1000
0100
0010
0001
,
2000
3020
0230
0302
,
0013
0000
0001
0100
1000
0100
0010
0100
,
0002
0000
0013
2000
0000
0000
3001
0200
,
0000
2300
0000
3020
0000
0230
0000
0310
,
1000
0000
0100
0000
1000
0010
0001
0010
,
0100
0010
1000
0001
,
2001
0000
3100
0010
,
0002
0000
0103
0010
,
2000
0000
3100
0001
,
0200
0000
0000
0310
0001
0000
1000
0000
,
1001
0001
0100
0100
,
1001
1000
0100
0100
,
1000
0010
0010
0010
0100
0001
0001
0001
,
1000
0100
0010
0001
0100
0000
0110
0000
,
1010
0000
1000
0100
0010
0000
0110
0000
,
0011
0000
0001
0100
0010
0000
0110
0000
,
0101
0000
0001
1000
0010
0000
1010
0000
,
1100
0000
1000
0100
0001
0000
0101
0000
,
0110
0000
0010
0001
0100
0000
0110
0000
,
1010
0000
1000
0001
0010
0000
0011
0000
,
0001
0100
0100
1000
0100
0000
0010
0000
,
1001
0000
0110
0000
,
1001
0000
0110
0000
,
1001
0110
1001
0110
,
1000
0100
1000
0001
0100
0001
1000
0001
,
0010
0010
0100
0100
0010
0010
0100
0100
,
0220
0330
0000
1001
,
0101
0000
0100
0010
1000
0000
1001
0000
,
1100
0000
0100
0010
0001
0000
0100
0010
,
0110
0000
1001
0000
0110
0000
0001
1000
,
1001
0110
1001
0110
,
1001
0000
0001
0100
1000
0000
0110
0000
,
1001
0000
1000
0100
0001
0000
0100
1000
,
1100
0000
0011
0000
1100
0000
0001
0100
,
0101
1010
0101
0110
,
1001
0000
1000
0010
0100
0001
0011
0000
,
1100
0000
0001
0010
0100
1000
0010
0100
,
0101
0000
1100
0000
0101
0000
0010
0100
,
1100
0101
1100
0110
,
1001
0001
0100
0010
1000
0100
1000
0010
,
0100
0001
0010
0100
1000
0001
0100
0010
,
1010
0011
0110
0010
,
1001
0000
0000
0000
;

//---------------dance-single - FN5 + T.49 + T7R----------------
#NOTES:
     dance-single:
     FN5 + T.49 + T7R:
     Challenge:
     14:
     :
0000
0000
0000
0000
,
0000
0000
0000
0000
,
0000
0000
0000
0000
,
0000
0000
0000
0000
,
0000
0000
0000
0000
,
0110
0000
1001
0000
1000
0001
0110
0000
,
0001
1000
0001
1000
0110
0000
1001
0000
,
0110
0000
1001
0000
1000
0100
0001
0100
,
0220
0000
0330
0010
,
2002
0000
3003
0100
,
2002
0000
0000
0000
3003
0000
1000
0100
,
0011
0011
0011
0001
,
0201
0000
0000
1000
1300
0000
0100
0000
,
0110
0000
0010
1000
0001
0010
0100
0000
,
0110
0000
0010
0001
1000
0010
0100
0001
,
0010
1000
0010
0001
1000
0010
0001
0010
,
0200
0310
1001
0000
,
1100
0000
0011
0000
1000
0100
0011
0000
,
1000
0100
0001
0100
1100
0000
0011
0000
,
0101
0000
1010
0000
0001
0100
1000
0100
,
0101
0000
0000
0000
0000
0000
0001
1000
0001
0000
0010
0000
0110
0000
0000
0000
,
0100
1000
0000
0000
1000
0010
0000
0000
0010
0100
0000
0000
0100
0001
0000
0000
,
0001
0010
0000
0000
0100
0000
1000
0000
0001
0000
0100
0000
1000
0000
0100
0000
,
0010
1000
0000
0000
1000
0001
0000
0000
0001
0010
0000
0000
0010
0100
0000
0000
,
0100
0010
0000
0000
0001
0000
0010
0000
1000
0000
0010
0000
0100
0000
1000
0000
,
0010
0100
0010
0001
0000
0010
1000
0001
,
1000
0100
0000
0000
0100
0010
0000
0000
0010
0001
0000
0000
0100
0000
0010
0000
,
1000
0001
0000
0001
0010
1000
0010
0001
,
0100
0000
0000
0000
0100
0000
0010
1000
0010
0000
0100
0000
0001
0000
1000
0000
,
0001
0010
0110
0000
0001
0010
0110
0000
,
0001
0010
0110
0000
1000
0100
0001
0100
,
1000
0010
0110
0000
1000
0010
0110
0000
,
1000
0010
0110
0000
0001
0100
1000
0100
,
0001
0000
1100
1000
0001
0000
0101
0001
,
1000
0000
1010
1000
0001
0000
0011
0001
,
2000
0010
0000
0010
,
0000
3001
0010
0100
,
0220
0000
0330
1000
0010
0000
0100
0000
,
0220
0330
0001
0010
,
2200
0000
3300
1000
0010
0000
0100
0000
,
0202
0303
0001
1000
,
0110
0000
0001
0010
1000
0000
0001
0000
,
0110
0000
1000
0010
0001
0000
1000
0000
,
0100
0010
0100
0010
1000
0001
1000
0001
,
0010
0100
0010
0100
1000
0001
1000
0001
0100
0000
0000
0000
0110
0000
0000
0000
,
1001
0000
1000
0010
1010
0000
0110
0000
,
0101
0000
0001
0010
0011
0000
0110
0000
,
1200
0000
0301
0100
0110
0000
0011
0000
,
0201
0000
1300
0100
0110
0000
1010
0000
,
1001
0000
0001
0010
0110
0000
0011
0000
,
1001
0000
1000
0010
0110
0000
0101
0000
,
1000
1000
0001
0001
0010
0010
0100
0100
,
0002
0103
2000
3100
,
2000
0000
0000
0000
3010
0000
0000
0000
0001
0000
0010
1000
0000
0001
1000
0000
,
0100
0000
0100
0000
0010
0000
0010
0000
0001
0000
1000
0100
0000
0001
0100
0000
,
0010
0010
0010
0010
0100
0100
0100
0100
,
1000
0001
1000
0001
1000
0001
1000
0001
1000
0100
1000
0100
0010
0001
0010
0001
,
0200
0000
0000
0310
,
1000
0100
0010
0100
0001
0100
1100
0000
,
0001
0100
0010
0100
1000
0100
0101
0001
,
0011
0000
1010
0000
0011
0000
1001
1000
,
1100
0000
0101
0000
1100
0000
1001
1000
,
0010
0100
0010
0001
0010
1000
0100
0000
,
0010
0100
0010
1000
0010
0001
0100
0001
,
0011
0000
1001
0000
1010
0000
0110
0010
,
0100
0001
0100
1000
0100
0010
1010
0000
,
1000
0000
0100
0010
0000
0100
1000
0000
0001
0000
0100
0000
0110
0000
0000
0000
,
1010
0000
1000
0001
0000
0010
0001
0000
1000
0000
0100
0000
0110
0000
0010
0000
,
0100
0000
1010
0000
1100
0000
0011
0001
,
1000
0010
0001
0010
1000
0100
0110
0010
,
0100
0000
0001
0100
0000
1000
0100
0000
0010
0000
0001
0000
1000
0000
0010
0000
,
1000
0000
0100
1000
0100
0000
1000
0001
1000
0010
1000
0010
0100
0001
0100
0001
,
0010
0100
0010
0100
0010
0100
0010
0100
1000
0001
1000
0001
1000
0001
1000
0001
,
0010
0000
0000
0000
;

//---------------dance-double - T7R + T.49 + FN5----------------
#NOTES:
     dance-double:
     T7R + T.49 + FN5:
     Easy:
     6:
     :
00000000
00000000
00000000
00000000
,
00000000
00000000
00000000
00000000
,
00000000
00000000
00000000
00000000
,
00000000
00000000
00000000
00000000
,
00000000
00000000
00000000
00000000
,
00100000
00010000
01000000
00000000
,
00100000
10000000
01000000
00000000
,
00100000
00000000
00001000
00000000
,
00011000
00000000
00000000
00000010
,
00000200
00000000
00000000
00000301
,
00000020
00000000
00000000
00000130
,
00010000
00010000
00001000
00000000
,
00020000
00000000
01030000
10000000
,
20010000
00000000
00000000
30100000
,
02100000
00000000
00000000
03010000
,
00100000
01000000
00010000
00001000
,
00011000
00000000
00000000
00000000
,
00010000
00001000
00010000
00000000
,
00001000
00010000
00011000
00000000
,
00001000
00010000
00001000
00000000
,
00011000
00000000
00001000
00000100
,
00000001
00000000
00000010
00000000
,
00000100
00010000
00001000
00000000
,
00010000
00000000
01000000
00000000
,
10000000
00100000
01000000
00000000
,
00100000
00000000
10000000
00000000
,
00010000
00000000
00001000
00000000
,
00000010
00000000
00000100
00001000
,
00010000
00000000
00100000
00000000
,
10000000
01000000
00100000
01000000
,
10000000
01000000
00200000
00302000
,
00013000
00000010
00001000
00000010
,
00010000
00000010
00000200
00000302
,
00000013
00000100
00001000
00000000
,
00000100
00010000
00001000
00000000
,
02000000
00100000
00000000
00100000
,
00000000
03100000
10000000
00010000
,
10010000
00000000
00100000
00000000
,
01100000
00000000
00001000
00000000
,
00101000
00000000
00010000
00000000
,
00010010
00000000
00000001
00001000
,
00001001
00000000
00000100
00000000
,
00000110
00000000
00010000
00000000
,
00010100
00000000
00001000
00000000
,
01001000
00000000
10000000
00010000
,
10010000
00000000
10000000
10000000
,
01000000
00000000
00100000
00010000
,
01000000
00001000
00010000
00001000
,
00000100
00000000
00000001
00001000
,
00001001
00000000
00000001
00000001
,
00000100
00000000
00000010
00001000
,
00000100
00010000
00001000
00010000
,
00011000
00000000
00011000
00000000
,
00011000
00000000
00011000
00000000
,
00001000
00010000
00001000
00010000
,
01000000
00100000
01000000
00100000
,
00020000
10000000
10000000
10030000
,
10010000
00000000
00000000
10000000
,
01000000
00100000
00010000
01000000
,
00001000
00010000
00000010
00000000
,
00000100
00000100
00000110
00000000
,
00000010
00000010
00000110
00000001
,
00000100
00000010
00001000
00000100
,
00010000
00001000
00100000
00000000
,
01000000
01000000
01100000
00000000
,
00100000
00100000
01100000
10000000
,
00010000
01000000
00001000
00010000
,
00000100
00001000
00000001
00000000
,
00001001
00001001
00001001
00000000
,
00000110
00000110
00000110
00000001
,
00001000
00000100
00010000
00001000
,
01000000
00010000
10000000
00000000
,
01100000
01100000
01100000
00100000
,
10010000
00000000
00000000
00000000
;

//---------------dance-double - FN5 + T7R + T.49----------------
#NOTES:
     dance-double:
     FN5 + T7R + T.49:
     Medium:
     9:
     :
00000000
00000000
00000000
00000000
,
00000000
00000000
00000000
00000000
,
00000000
00000000
00000000
00000000
,
00000000
00000000
00000000
00000000
,
00000000
00000000
00000000
00000000
,
00001000
00000000
00010000
00000000
01000000
10000000
01000000
00000000
,
00100000
00010000
00100000
00010000
00100000
00000000
00001000
00000000
,
00010000
00000000
00001000
00000000
00000100
00000001
00000100
00000001
,
00000020
00000000
00000000
00000130
,
00002002
00000000
00003003
00000000
,
00022000
00000000
00033000
01000000
,
01001000
01001000
01001000
00010000
,
02200000
00000000
03300000
10000000
00010000
00000000
01000000
00000000
,
10010000
10000000
10000000
00000000
,
01001000
00001000
00001000
00010000
,
00000100
00001000
00000100
00000010
00000001
00001000
00000001
00000000
,
00002002
00000000
00003003
00000000
,
00000001
00000000
00000100
00000000
00001000
00010000
00001000
00000000
,
00010000
00001000
00010000
00001000
00010000
00000000
01000000
00000000
,
10000000
00000000
01000000
00000000
00010000
00001000
00010000
00001000
,
00000020
00000000
00000000
00000030
,
00000100
00001000
00000001
00000100
,
00001000
00000000
00010000
00100000
01000000
00010000
01000000
00000000
,
00100000
10000000
01000000
00010000
,
00001000
00000000
00000010
00000001
00000100
00000010
00000100
00000000
,
00000001
00001000
00000000
00001000
00000100
00000000
00010000
00001000
,
01000000
00000000
00010000
00000000
10000000
00000000
01000000
00020000
,
00000000
00002000
00000000
00033000
00010000
00000000
00000100
00000000
,
00001000
00000000
00000001
00000100
00001000
00010000
00001000
00000000
,
00010000
00100000
01000000
00010000
,
00100000
00000000
10000000
00100000
00000000
01000000
00100000
00000000
,
00010000
00001000
00000100
00000010
,
00000001
00000000
00000100
00001000
00000000
00000100
00000001
00000000
,
00001000
00000000
00000100
00020000
00000000
00000000
00031000
00010000
,
00000000
01000000
00000000
10000000
00000000
00010000
00000000
00100000
,
00002000
00000000
00000000
00000000
00013000
00000100
00010000
00000000
,
00001000
00000100
00000001
00000010
,
00000120
00000000
00000031
00001000
,
00001002
00000000
00000103
00001000
,
00021000
00000000
00031000
00010000
,
00210000
00000000
10300000
00010000
,
10010000
10000000
01000000
00100000
,
00101000
00001000
00001000
00010000
,
00000100
00001000
00000100
00000000
00001000
00000001
00001000
00000000
,
00000001
00000100
00001000
00010000
00001000
00000000
00011000
00000000
,
00101000
00000000
00001000
00010000
00100000
00000000
10000000
00000000
,
00010000
00000000
10000000
01000000
00100000
00000000
00010000
00000000
,
01000000
00000000
00010000
00100000
00001000
00000000
00010000
00000000
,
00001000
00000000
00000100
00000001
00001000
00000000
00000001
00000000
,
00000011
00000000
00000001
00000100
00000010
00000000
00001000
00000000
,
00001100
00000000
00000100
00010000
00001000
00000000
00010000
00000000
,
00001000
00010000
01000000
00000000
10000000
00000000
00100000
00000000
,
00012000
00000000
01003000
00000000
,
00021000
00000000
00030100
00000000
,
00012000
00103000
00021000
00030010
,
00001000
00000010
00001000
00000000
00000001
00000010
00000001
00000000
,
00001000
00000100
00010000
00001000
01000000
00010000
10000000
01000000
,
00200000
00000000
00000000
01300000
,
20010000
01000000
30100000
01100000
,
01002000
00000000
00010000
00000000
00103000
00000000
00001000
00010000
,
00010200
00000000
00010000
00000000
00010300
00000000
00010000
00001000
,
00102000
00100000
00103000
00010010
,
00001002
00000100
00000013
00000110
,
00020100
00000000
00001000
00000000
00030010
00000000
00010000
00001000
,
01002000
00000000
01000000
00000000
01003000
00000000
00001000
00010000
,
00010020
00001000
00000130
00000110
,
00001020
00000001
00000130
00001010
,
00020100
00000000
00001000
00000000
01030000
00000000
10000000
00100000
,
01200000
00000000
01000000
00000000
01300000
00000000
10000000
00010000
,
10020000
10000000
10030000
01100000
,
00010000
00100000
00010000
00000000
01000000
00001000
01000000
00000000
,
00001000
00010000
00000100
00001000
00000001
00000100
00000010
00001000
,
00000200
00000000
00000000
00000300
00000110
00000000
00000010
00000000
,
00001001
00000000
00000000
00000000
;

//---------------dance-double - T.49 + T7R + FN5----------------
#NOTES:
     dance-double:
     T.49 + T7R + FN5:
     Hard:
     13:
     :
00000000
00000000
00000000
00000000
,
00000000
00000000
00000000
00000000
,
00000000
00000000
00000000
00000000
,
00000000
00000000
00000000
00000000
,
00000000
00000000
00000000
00000000
,
00011000
00000000
00011000
00000000
00010000
01000000
00100000
00000000
,
00010000
01000000
00010000
01000000
00100000
00000000
00010000
00001000
,
00011000
00000000
00011000
00000000
00001000
00000100
00001000
00000100
,
00000020
00000000
00000000
00001030
,
00020200
00000000
00030300
00010000
,
02002000
00000000
00000000
00000000
03003000
00000000
00001000
00010000
,
00011000
00011000
00011000
00010000
,
02000000
00000000
00000000
00100000
03100000
00000000
00010000
00000000
,
01002000
00010000
00103000
00001000
,
00020100
00000000
00001000
00000000
00030010
00000000
00010000
00000010
,
00000200
00000302
00000023
00002030
,
00003200
00000000
00000310
00000000
,
00000110
00000000
00000110
00000000
00000100
00001000
00010000
00000000
,
01000000
00010000
00001000
00010000
01000000
00000000
01000000
00100000
,
01100000
00000000
01100000
00000000
00100000
00010000
00001000
00010000
,
00200000
00000000
00000000
00000000
00301000
00010000
00000010
00000000
,
00001000
00000001
00000010
00000000
00000001
00001000
00000010
00000000
,
00000100
00000001
00000100
00001000
00010000
01000000
00100000
00000000
,
00010000
10000000
00100000
00000000
10000000
00010000
00100000
00000000
,
01000000
10000000
01000000
00010000
00001000
00000100
00000010
00000000
,
00001000
00000100
00000000
00001100
00000000
00000000
00000000
00010000
,
00001000
00000000
00001000
00000000
01000000
00000000
00100000
10000000
,
00000000
20020000
00000000
30030000
00010000
00100000
00001000
00010000
,
00000100
00000000
00000100
00000000
00000100
00000010
00000001
00000000
,
00000100
00001000
00010000
00000000
00001000
00010000
01000000
00000000
,
10000000
00100000
01000000
00001000
00100000
00010000
00001000
00000100
,
00001000
00000010
00000100
00000000
00000001
00000010
00000100
00000000
,
00001000
00000001
00000100
00000000
00001000
00010000
00100000
01000000
,
00010000
00000000
10000000
00200000
10000000
00000000
01300000
00020000
,
00000000
00230000
00000000
20300000
00000000
30020000
00000000
00031000
,
00000100
00000010
00000100
00000000
00000001
00000010
00000100
00010000
,
00001000
01000000
00001000
00000000
00010000
00000000
01000000
00000000
,
21000000
00000000
00000000
30100000
01000000
00000000
00010000
00000000
,
00200000
00010000
00000000
00000000
00301000
00000000
00010000
00000000
,
00021000
00000000
00000000
00031000
00000100
00000000
00000001
00000000
,
00000020
00000001
00000000
00000000
00001030
00000000
00000010
00000000
,
00000011
00000000
00000001
00000100
00001000
00000000
00010000
00000000
,
00011000
00000000
00001000
00010000
00100000
00000000
10000000
00000000
,
00100000
00100000
01000000
01000000
00010000
00100000
00001000
00010000
,
00000100
00001000
00000100
00000000
00001000
00000001
00001000
00000001
00001000
00000001
00001000
00000000
00000010
00000000
00000000
00000000
,
00000101
00000000
00000001
00000010
00000100
00000010
00000001
00000000
,
00001001
00000000
00000001
00000100
00000010
00001000
00000100
00000000
,
00010100
00000000
00000100
00010000
00001000
00100000
00010000
00000000
,
00110000
00000000
00010000
10000000
00100000
01000000
00010000
00000000
,
10010000
00000000
10000000
01000000
00010000
00001000
00000100
00000000
,
00000110
00000000
00000010
00001000
00000001
00000010
00000100
00000000
,
00010000
00001000
00000100
00000001
00000010
00000100
00001000
00000001
,
00001000
00000010
00010000
00000000
00001000
00100000
00010000
00000000
,
01000000
00001000
00010000
00000000
00000100
00010000
00001000
00000000
,
00000100
00001000
00010000
00001000
00100000
00001000
00010000
00001000
,
00010000
01000000
00010000
00001000
00010000
00000010
00010000
00001000
,
00010000
00001000
00010000
00001000
00010000
00001000
00010000
00001000
00010000
00001000
00010000
00001000
00010000
00001000
00010000
00001000
,
00020000
00030000
00000000
00010100
,
00101000
00000000
01000000
00001000
00100000
00000000
01001000
00000000
,
00010010
00000000
00010000
00000100
00000010
00000000
00000001
00000100
,
00001000
00010000
00001000
00000010
00001000
00010000
01000000
00100000
,
00001000
00010000
00001000
00000100
00001000
00010000
00100000
00000000
,
10010000
00000000
00010000
00100000
10000000
00000000
01100000
00000000
,
00011000
00000000
00000001
00000010
00001000
00000000
00010000
00100000
,
01000000
00010000
01000000
10000000
01000000
00010000
00001000
00000100
,
00000010
00001000
00000010
00000001
00000100
00001000
00010000
00000000
,
00100000
10000000
01000000
00010000
00001000
00000010
00000110
00000000
,
00000010
00000001
00000100
00001000
00010000
00100000
10000000
01000000
,
00010000
00000100
00010000
01000000
00010000
00000100
00001000
00000010
,
00000100
00001000
00000100
00000001
00000100
00001000
00010000
00000000
,
00100000
10000000
01000000
00100000
00010000
00001000
00000100
00000000
,
00000010
00000001
00000100
00000010
00001000
00010000
01000000
00100000
,
00010000
00001000
00000110
00000010
,
00001001
00000000
00000000
00000000
;

//---------------dance-double - FN5 + T.49 + T7R----------------
#NOTES:
     dance-double:
     FN5 + T.49 + T7R:
     Challenge:
     15:
     :
00000000
00000000
00000000
00000000
,
00000000
00000000
00000000
00000000
,
00000000
00000000
00000000
00000000
,
00000000
00000000
00000000
00000000
,
00000000
00000000
00000000
00000000
,
00101000
00000000
00010100
00000000
01000000
00001000
00100000
00000000
,
01000000
00010000
00001000
00000010
00000110
00000000
00001001
00000000
,
00000101
00000000
00001010
00000000
00000100
00001000
00010000
00100000
,
20000000
00000000
30000000
01000000
,
00202000
00000000
00303000
00000010
,
00002002
00000000
00000000
00000000
00003003
00000000
00000001
00000100
,
00002000
01000000
00000100
00013000
,
00022000
00000000
00033000
00010000
01000000
00000000
00100000
00000000
,
10010000
00000000
10000000
01000000
00010000
00001000
00000100
00000000
,
00001001
00000000
00000001
00000100
00001000
00010000
01000000
00100000
,
10000000
00100000
00010000
00100000
00001000
00000100
00000001
00000100
,
00000220
00000000
00000330
00000000
,
00000001
00000000
00000100
00000000
00001000
01000000
00100000
00000000
,
10000000
01000000
00010000
00000100
00000010
00000000
00000010
00000000
,
00000001
00000000
00000100
00000000
00001000
00100000
01000000
00010000
,
00002000
00000000
00000000
00000100
00000100
00000000
00013000
00000000
,
00001000
00000010
00000001
00001000
00000001
00000100
00000010
00000100
,
00001000
00010000
01000000
00100000
00001000
00010000
00100000
00000000
,
10000000
01000000
00010000
00001000
01000000
00010000
00100000
00001000
,
00000100
00001000
00010000
00000100
00000010
00000001
00001000
00000000
,
00000010
00010000
00001000
00010000
01000000
10000000
00010000
10000000
,
00100000
00010000
00001000
00000100
00001000
00010000
00000100
00000010
,
00001000
00000010
00000100
00010000
00001000
01000000
00100000
00010000
,
00100000
00000000
00100000
10000000
01000000
00010000
00001000
00000010
,
00000100
00001000
00000010
00000100
00001000
00000100
00000010
00001000
,
00000100
00001000
00000010
00000010
00000200
00002300
00023000
02030000
,
03100000
00010000
01000000
00100000
00010000
00100000
01000000
00010000
,
00100000
00010000
01000000
01000000
00200000
00320000
00032000
00003020
,
00000130
00001000
00000010
00000100
00001000
00010000
00100000
00010000
,
00001000
00000010
00000100
00000010
00001000
00010000
01000000
00010000
,
00002000
00010000
00000000
00010000
,
00000000
00013000
00000010
00001000
,
00000202
00000000
00000303
00000001
00000010
00000000
00000100
00000000
,
00002200
00003300
00010000
00001000
,
02020000
00000000
03030000
00010000
00100000
00000000
01000000
00000000
,
22000000
33000000
00010000
10000000
,
10010000
00000000
10000000
00100000
00010000
00000000
00001000
00000000
,
00011000
00000000
00010000
00001000
00000100
00000000
00000010
00000000
,
00001000
00000001
00001000
00000001
00000010
00000100
00000010
00000100
,
00001000
00000001
00001000
00000001
00000100
00000010
00000100
00000010
00001000
00000000
00000000
00000000
00001001
00000000
00000000
00000000
,
00001100
00000000
00001000
00000100
00000110
00000000
00010100
00000000
,
00101000
00000000
00001000
00010000
00010010
00000000
01001000
00000000
,
01100000
00000000
01000000
00010000
00110000
00000000
01100000
00000000
,
11000000
10000000
10100000
01100000
,
01010000
00000000
10000000
01000000
01100000
00000000
00101000
00000000
,
00011000
00000000
00010000
00000010
00010010
00000000
00000110
00000000
,
00000100
00000100
00000010
00000010
00001000
00001000
00000001
00000001
,
00001000
00000100
00000010
00000000
00000001
00000000
00001001
00000000
,
00000001
00000100
00001000
00000000
00010000
00000000
00011000
00000000
,
00001000
00010000
00100000
00000000
10000000
01000000
00100000
00000000
,
00001000
00001000
00010000
00010000
00001000
00001000
00000100
00000100
,
00000001
00000010
00000001
00000010
00000001
00001000
00000001
00001000
00000100
00001000
00000100
00001000
00000100
00010000
00000100
00010000
,
00001000
00000000
00000000
01000000
,
00100000
10000000
00100000
00010000
00100000
01000000
00010000
00000000
,
00100000
10000000
00100000
00001000
00010000
00001000
00000010
00000100
,
00000110
00000000
00000011
00000000
00001001
00000000
00000001
00000100
,
00000110
00000000
00010010
00000000
00011000
00000000
00010100
00000100
,
00010000
00001000
00000100
00000010
00001000
00000100
00001100
00000000
,
00011000
00010000
01000000
00100000
00010000
10000000
00010000
01000000
,
01100000
00000000
10100000
00000000
10010000
00000000
10000000
01000000
,
01100000
00000000
00101000
00000000
00011000
00000000
00001000
00000100
,
00000001
00000000
00001000
00000100
00000000
00000001
00000100
00000000
00000010
00000000
00000001
00000000
00000101
00000000
00000000
00000000
,
00001010
00000000
00000010
00000100
00000000
00000010
00000001
00000000
00000010
00000000
00001000
00000000
00000100
00000000
00001000
00000000
,
00010000
01000000
10000000
00010000
00100000
01000000
00010000
00100000
,
10000000
00100000
00010000
00001000
00000100
00000010
00001001
00000001
,
00000100
00000000
00000010
00001000
00000000
00000010
00000001
00000000
00000010
00000000
00001000
00000000
00000100
00000000
00010000
00000000
,
00001000
00000000
00010000
01000000
10000000
00000000
00100000
01000000
00010000
00100000
00010000
00100000
00001000
00010000
00001000
00010000
,
00001000
01000000
00001000
01000000
00001000
00010000
00001000
00010000
00001000
00000100
00000001
00000000
00000010
00000100
00000010
00000100
,
00000010
00000000
00000000
00000000
;
