#TITLE:Sinus Iridum;
#ARTIST:神楽改;
#ARTISTTRANSLIT:Kagura kai;
#BANNER:Sinus Iridum.png;
#BACKGROUND:Sinus Iridum-bg.png;
#JACKET:Sinus Iridum-jacket.png;
#CDTITLE:./CDTITLES/BEATMANIA IIDX.PNG;
#MUSIC:Sinus Iridum.ogg;
#SAMPLESTART:76.875;
#SAMPLELENGTH:15;
#DISPLAYBPM:128:256;
#BPMS:0=128,36=256,164=128,188=512,216=256,409=128;
#STOPS:216=0.234375;

//---------------dance-single - t7r----------------
#NOTES:
     dance-single:
     t7r:
     Beginner:
     8:
     :
0000
0000
0000
0000
,
0000
0000
0000
0000
,
0000
0000
0000
0000
,
0000
0000
0000
0000
,
0000
0000
0000
0000
,
0001
0000
0000
0000
,
1000
0000
0010
0000
,
0100
0000
0000
0000
,
0000
0000
0000
0000
,
0001
0000
0000
0000
,
0001
0000
0000
0000
,
0001
0000
0000
0000
,
0000
0000
0000
0000
,
1000
0000
0000
0000
,
1000
0000
0000
0000
,
1000
0000
0000
0000
,
0000
0000
0000
0000
,
0010
0000
0000
0000
,
0010
0000
0000
0000
,
0010
0000
0000
0000
,
0000
0000
0000
0000
,
0100
0000
0000
0000
,
0001
0000
0000
0000
,
1000
0000
0000
0000
,
0010
0000
0000
0000
,
1000
0000
1000
0000
,
1000
0000
0000
0100
,
0100
0000
0000
0000
,
0100
0000
0000
0000
,
0010
0000
0010
0000
,
0010
0000
0001
0001
,
0001
0000
0000
0000
,
0000
0000
0000
0000
,
0100
0100
0100
0100
,
0100
0000
0010
0010
,
0010
0000
0000
0000
,
1000
0000
0000
0000
,
0001
0000
0000
0000
,
0010
0000
0100
0000
,
1000
0000
0000
0000
,
0001
0000
0000
0000
,
1000
0000
1000
0000
,
0001
0001
0000
0100
,
0100
0000
0010
0000
,
1000
1000
0000
0100
,
0100
0000
0010
0000
,
0001
0000
1000
0001
,
1000
0000
0000
0000
,
0000
0000
0000
0000
,
0000
0000
0000
0000
,
0000
0000
0000
0000
,
0000
0000
0000
0000
,
0000
0000
0000
0000
,
0000
0000
0000
0000
,
0000
0010
0000
0000
,
0000
0010
0000
0000
,
0000
1000
0000
0000
,
0000
1000
0000
0000
,
0000
0001
0000
0000
,
0000
0001
0000
0000
,
0000
0010
0000
0000
,
0000
0010
0000
0000
,
0000
0001
0000
0000
,
0000
0001
0000
0000
,
0000
1000
0000
0000
,
0000
1000
0000
0000
,
0000
0010
0000
0000
,
0000
0100
0000
0000
,
0000
0001
0000
0000
,
0000
1000
0000
0000
,
0000
0001
0000
0001
,
0001
0001
0000
1000
,
1000
1000
0000
0010
,
0000
0100
0000
0001
,
0000
1000
0000
0100
,
0000
0010
0000
0001
,
0001
0001
0000
1000
,
0000
0010
0000
0100
,
0000
0010
0010
0010
,
0010
0010
0010
0010
,
0010
0010
0000
1000
,
0000
0001
0000
0010
,
0000
0001
0000
1000
,
0000
0100
0000
0010
,
0000
0001
0000
1000
,
0000
0010
0000
0100
,
0000
0001
0000
0010
,
0001
0010
0000
0001
,
1000
0001
0000
0100
,
0000
0010
0000
1000
,
0000
0100
0000
0010
,
0100
1000
0000
0010
,
0100
0001
1000
0001
,
0000
1000
0100
1000
,
0000
0001
0010
0100
,
1000
0100
0010
0001
,
1000
0010
0000
0100
,
0000
0001
0000
1000
,
0000
0100
0000
0000
,
0000
0010
0000
0001
,
0000
1000
0000
0010
,
0000
0100
0001
1000
,
0010
0100
0000
0010
,
0000
1000
1000
0001
,
0010
0001
0000
0100
,
0000
0010
0010
1000
,
0001
0010
0000
0001
,
0000
1000
0100
0010
,
0001
0100
0000
0000
,
0000
0010
0000
1000
,
0001
0000
0000
0000
;

//---------------dance-single - t7r----------------
#NOTES:
     dance-single:
     t7r:
     Easy:
     13:
     :
0000
0000
0000
0000
,
0000
0000
0000
0000
,
0000
0000
0000
0000
,
0000
0000
0000
0000
,
0000
0000
0000
0000
,
1000
0010
0100
0002
0000
0013
0100
1000
,
0001
0010
0100
0010
0002
0000
2003
0000
,
3020
0000
0100
0100
0000
0001
0001
0000
,
2030
3200
0320
0031
,
2000
0000
0000
0010
0000
0000
3010
0000
,
0200
0000
0000
0301
,
2000
0000
0000
0100
0000
0000
3100
0000
,
0010
0001
1000
1000
,
0002
0000
0000
0100
0000
0000
0103
0000
,
0020
0000
0000
1030
,
0002
0000
0000
0010
0000
0000
0013
0000
,
0100
1000
0001
0001
,
2000
0000
0000
0010
0000
0000
3100
0000
,
2000
0000
0000
3001
,
0200
0000
0000
0010
0000
0000
0301
0000
,
0010
0000
0000
0011
0000
0000
1001
0000
,
0001
0100
0020
0000
,
1030
0100
0020
0000
,
0031
1000
0020
0000
,
0230
0000
0000
1000
0000
0000
0301
0000
,
2001
0000
3100
0001
,
0200
0000
0000
0010
0000
0000
0301
0000
,
0101
0100
2000
3000
,
1010
0010
0200
0010
,
2300
0000
3100
0000
,
0102
0000
0000
0013
0000
0000
0001
0000
,
1000
0010
0100
1000
,
0001
0010
0100
0001
,
2000
3200
0302
2003
,
3020
0032
1003
0001
,
0200
0000
0000
1000
0000
0000
0310
0000
,
0120
0001
0000
1030
,
0100
0010
0002
0000
,
0103
0010
1000
0001
,
1000
0010
0100
1000
,
0001
0010
1000
0001
,
2001
0000
0000
0000
0100
0000
0000
0000
3002
0000
0000
0010
0000
0000
0013
0000
,
0001
1000
0000
0001
2000
0000
3001
0000
0100
0010
0100
0000
0001
1000
0001
0000
,
0020
0000
0000
0130
1000
0000
0000
0000
0010
0000
0100
0000
0001
0000
1000
0000
,
0010
0100
0000
0010
0200
0000
0301
0000
1000
0100
1000
0000
0001
0100
0001
0000
,
2000
0000
0000
0010
0000
0000
3001
0000
1002
0000
0000
0000
0013
0000
0100
0000
,
1000
0010
0000
1000
0020
0000
0130
0000
0001
0010
0000
0001
1000
0000
0001
0000
,
0020
0000
0000
0000
,
0000
0000
0000
0000
,
0000
0000
0000
0000
,
0000
0000
0000
0000
,
0000
0000
0000
0000
,
0000
0000
0000
0000
,
0000
0000
0000
0000
,
0030
0000
0001
0000
0000
0011
0000
0000
,
0011
0001
0001
0000
,
1000
0010
1000
0000
0000
1010
0000
0000
,
1010
1000
0100
0000
,
1000
0001
1000
0000
0000
1010
0000
0000
,
1010
0010
0100
0001
,
1000
0001
1000
0000
0000
1001
0000
0000
,
1001
1000
1000
0000
,
0001
1000
0100
0000
0000
0110
0000
0000
,
0110
0010
0001
1000
,
0001
1000
0010
0000
0000
0110
0000
0000
,
0110
0010
1000
0001
,
1000
0100
0020
0000
0000
0100
0000
0000
,
0130
0000
2000
0000
0000
0001
0000
0000
,
3001
1000
0020
0000
0000
0100
0000
0000
,
0130
0000
0002
0000
0000
1000
0000
0000
,
0103
0201
0000
1300
,
0100
0000
0020
0000
0000
0130
0001
0000
,
1000
0000
0002
0000
0000
0010
0000
0000
,
1003
0000
2001
0000
0000
3100
0010
0000
,
0100
0000
2000
0000
0000
3010
0200
0000
,
0000
0310
2000
0000
0000
3010
0100
0000
,
0010
1000
0010
0000
0100
0000
0002
0000
,
0000
0000
0013
0000
0100
0000
1000
0001
,
1000
0002
0023
2030
,
3002
0203
2300
3002
,
0023
0000
0130
0000
0000
1100
0000
0000
,
1100
1000
0010
0100
,
0001
1000
0002
0000
0000
0013
0001
0000
,
1000
0000
0020
0000
0000
1030
0001
0000
,
1000
0001
1000
0000
0010
0000
0100
0000
,
1000
0001
0010
0100
,
0001
1000
0001
0000
0100
0001
0000
0100
,
0001
0000
1000
0000
0100
0000
1000
0001
,
1000
0000
0001
0000
0010
0001
0000
0010
,
0001
0000
1000
0000
0010
0000
1000
0001
,
1000
0000
0001
0000
0010
0100
0000
0010
,
0100
2001
0000
3010
,
1000
0001
1000
0000
0100
0010
0000
0100
,
0010
0000
0001
1000
0010
0000
0100
0001
,
1000
0001
2000
0000
3020
0000
0032
0000
,
2003
3200
0302
2003
,
3100
0010
0100
0000
0000
0110
0000
0000
,
0110
0001
1001
0000
,
0001
0100
0020
0000
0000
1030
0100
0000
,
0010
0000
0002
0000
0000
0103
0010
0000
,
1000
0001
1000
0000
0100
0000
0010
0000
,
1000
0000
0001
0000
0100
0000
1000
0001
,
0100
0010
2000
0000
3100
1000
0001
0000
,
0100
0000
0010
0000
1000
0100
0000
0010
0200
0000
1300
0000
0001
0100
0001
0000
,
1000
0010
1000
0000
0002
0000
0000
0000
0103
0000
0001
0000
1000
0000
0010
0000
,
0100
0000
0010
0000
1000
0100
0000
0010
0200
0000
1300
0000
0001
0100
0010
0000
,
1000
0100
0010
0000
0002
0000
0000
0000
0013
0000
0100
0000
1000
0000
0000
0001
,
0000
0000
0001
0000
1000
0100
0000
0010
0002
0000
1003
0000
0001
0100
0000
0010
,
1000
0001
1000
0001
0200
0000
0000
0000
1000
0000
1000
0000
0000
0000
0010
0000
,
0010
0000
0001
0000
0302
0000
0000
0000
0000
0000
0000
0000
1003
0100
0010
0001
,
0100
0010
1000
0001
0000
0000
0000
0000
0000
0000
0000
0000
0000
0000
0000
0000
;

//---------------dance-single - t7r----------------
#NOTES:
     dance-single:
     t7r:
     Medium:
     15:
     :
0000
0000
0000
0000
,
0000
0000
0000
0000
,
0000
0000
0000
0000
,
0000
0000
0000
0000
,
0000
0000
0000
0000
,
0001
0010
0100
2000
0000
3010
0100
0001
,
0020
0001
0130
1000
0020
0100
1030
0000
,
2001
0000
0100
0100
0000
0010
0010
0001
,
3002
0100
1000
0013
,
0001
0200
0000
0301
0010
0001
1000
0000
,
0001
0020
0000
0031
1000
0000
0001
0000
,
1000
0200
0000
1300
0010
1000
0001
0000
,
1000
0020
0000
0130
0010
0000
1000
0000
,
0001
0020
0000
0130
0010
0001
1000
0000
,
0001
0200
0000
0310
0100
0000
0001
0000
,
1000
0020
0000
0130
0010
1000
0001
0000
,
1000
0200
0000
0310
0100
0000
1000
0000
,
0001
0200
0000
0310
0100
1000
0100
0000
,
0010
0200
0000
0301
1000
0000
0001
0000
,
1000
0200
0000
0310
0100
0001
0100
0000
,
0010
0200
0000
1300
0001
0000
1000
0000
,
0001
0100
0010
0100
0002
0000
1003
0000
,
0001
0010
0100
0010
0002
0000
1003
0000
,
0010
0100
0001
1000
0020
0000
0130
0000
,
0002
0000
0000
1000
0000
0103
0010
0000
,
2001
0000
3100
0010
0100
0000
0001
0000
,
0200
0000
0000
1000
0000
0000
0310
0000
,
0012
0100
2003
3000
,
2010
0100
3001
0010
,
0002
0000
0103
0010
0200
0000
1300
0100
,
2000
0000
3100
0010
0100
0000
0001
0000
,
2001
0100
3020
0030
,
1000
0010
0100
0001
1000
0000
0001
0000
,
2000
3020
0032
1003
,
1100
0000
0100
0001
0020
0000
0031
0000
,
0012
0100
2003
3000
,
2100
0010
3001
0100
,
0010
0000
1000
0100
0020
0000
0031
0000
,
0110
0000
0001
0100
0020
0000
1030
0000
,
0001
0010
0100
1000
0001
0010
0100
1000
,
0001
0100
0010
1000
0001
0100
0010
1000
,
0002
0000
0000
0000
0013
0000
0000
0000
0100
0000
0000
1001
0000
0000
1001
0000
,
1000
0100
0010
0001
0200
0000
0301
0000
1000
0010
0100
0001
0010
0100
1000
0001
,
0200
0000
0000
0310
0100
0000
0001
1000
0100
0000
0002
0000
0203
0000
2300
0000
,
3010
0100
0001
0100
0020
0000
2030
0000
3001
0010
0100
1000
0010
0100
0001
1000
,
0020
0000
0000
0130
0000
0000
0110
0000
1002
0000
0000
0103
0010
0000
0100
0000
,
1000
0100
0001
1000
0002
0000
1003
0000
0001
0010
0000
1000
0010
0001
1000
0001
,
0020
0000
0000
0000
,
0000
0000
0000
0000
,
0000
0000
0000
0000
,
0000
0000
0000
0000
,
0000
0000
0000
0000
,
0000
0000
0000
0000
,
0000
0000
0000
0000
,
0030
0000
0011
0000
0001
0100
0000
0010
,
0100
0001
0010
0100
1000
0010
0100
0001
,
1000
0100
1000
0000
0100
0010
0000
0100
,
1000
0010
0100
0001
1000
0100
0010
0001
,
1000
0001
0010
0000
0001
0100
0000
0010
,
0100
0001
1000
0010
0100
0001
0010
0100
,
1000
0001
1000
0000
0010
0100
0000
0010
,
1000
0001
0010
0000
1001
0000
0001
0000
,
1000
0100
0010
0000
0100
1000
0000
0100
,
0001
0100
0010
0100
0001
0100
0010
0100
,
1000
0001
1000
0000
0010
0100
0000
1000
,
0100
0010
0100
1000
0100
0010
0100
0001
,
1000
0001
0010
0000
0001
0200
0000
1300
,
0100
0010
1000
0000
0100
0002
0000
0103
,
0010
0100
1000
0000
0000
1001
0000
0000
,
0110
0000
0002
0000
0000
0100
0000
0000
,
1003
0000
2001
0000
3100
0010
0100
0000
,
1000
0000
0020
0000
0130
0001
1000
0010
,
0100
0001
0020
0000
0031
1000
0100
0000
,
1000
0000
0020
0000
0130
0001
1000
0100
,
0010
0001
0200
0000
1300
0100
0020
0000
,
0130
0001
2000
0000
3001
0010
0200
0000
,
0310
0001
1000
0010
1000
0010
1000
0001
,
1000
0001
1000
0100
0010
0001
0100
0010
,
1000
0001
2000
0000
3010
0001
0020
0000
,
0130
0010
0200
0000
1300
0100
0010
0100
,
0001
1000
0002
0000
0013
0100
0000
0001
,
0100
0110
0020
0100
,
0031
1000
0002
0000
0103
0001
0000
0000
,
0101
0000
2001
0000
3100
1000
0000
0000
,
0100
0010
0001
0100
0010
1000
0001
0100
,
0010
1000
0001
0010
0100
0001
1000
0010
,
0100
1000
2001
0000
3100
0010
0100
0000
,
0001
0000
0200
0000
0310
0001
0100
0010
,
1000
0001
0200
0000
1300
0100
0010
0000
,
0100
0000
0002
0000
0013
0100
1000
0100
,
0010
0100
0002
0000
0103
1000
0020
0000
,
0130
0001
0020
0000
0031
1000
0020
0000
,
1030
0001
1000
0100
0010
0100
0001
0100
,
0010
0100
0001
0100
1000
0010
0001
1000
,
0100
0001
0200
0000
0301
0010
0100
0000
,
0101
0000
1100
0000
1000
0010
0100
1000
,
0100
0010
0110
0000
0000
0101
0000
0000
,
0110
1010
2001
0100
,
3001
0010
0002
0000
0103
1000
0000
0100
,
0010
0100
0002
0000
0013
2000
0000
3010
,
0100
0010
0001
0100
0010
0001
1000
0100
,
0010
1000
0001
0010
1000
0010
0001
0100
,
1000
0000
0100
0010
0200
0000
1000
0000
0010
0000
0310
0000
0100
0000
0001
0010
,
0001
0000
1000
0000
0001
0100
0000
0001
0010
0100
2000
0000
3010
0100
0001
1000
,
0100
0010
0001
1000
0020
0000
0001
0000
0100
0000
0130
0000
0010
0000
1000
0100
,
1000
0000
0001
0000
1000
0010
0000
1000
0100
0010
0002
0000
0103
0010
1000
0001
,
0010
0100
1000
0001
2000
0000
0001
0000
0010
0000
0100
0000
3100
0000
1000
0010
,
0100
0000
0001
0000
1000
0100
0001
0100
1000
0001
0200
0000
0301
0010
1000
0010
,
0001
1000
0010
0100
0020
0000
0001
0000
0001
0000
0001
0000
0000
0000
0100
0000
,
0100
0000
0000
0000
1000
0000
0000
0000
2030
0000
0000
0000
0000
0000
0000
0000
3002
0000
0000
0000
0000
0000
0000
0000
1003
0100
1000
0000
0002
0000
0000
0000
,
0103
0010
0100
0000
0001
0000
1000
0000
0000
0000
0000
0000
0000
0000
0000
0000
0000
0000
0000
0000
0000
0000
0000
0000
0000
0000
0000
0000
0000
0000
0000
0000
;

//---------------dance-single - t7r----------------
#NOTES:
     dance-single:
     t7r:
     Hard:
     18:
     :
0000
0000
0000
0000
,
0000
0000
0000
0000
,
0000
0000
0000
0000
,
0000
0000
0000
0000
,
0000
0000
0000
0000
,
1000
0100
0010
0002
0000
0103
0010
1000
,
0002
0010
1000
0100
2003
0010
0001
3100
,
1200
0000
0010
0010
0000
0001
0001
0010
,
0010
1000
0001
0310
,
0001
0100
0010
1000
0001
0100
0010
1000
,
0001
0000
1000
0100
0010
0001
1000
0000
,
0001
0010
0100
1000
0001
0010
0100
1000
,
0001
0000
1000
0010
0100
0001
1000
0000
,
0100
1000
0001
0100
0010
1000
0001
0010
,
0001
0000
1000
0100
0010
0000
0001
0000
,
0100
0001
1000
0010
0100
0001
1000
0100
,
1000
0000
0001
0100
0010
0000
1000
0000
,
0001
0010
0100
0010
0001
0010
0100
0010
,
0011
0000
0001
0100
0010
0000
1010
0000
,
1000
0100
0010
0100
1000
0100
0010
0100
,
1100
0000
1000
0001
0100
0000
0101
0000
,
0001
0010
0100
1000
0020
0000
0130
0001
,
1000
0010
0100
0001
0020
0000
0130
1000
,
0001
0100
0010
1000
0002
0000
1003
0010
,
0200
0000
0301
1000
0001
1000
0001
0000
,
2001
0000
3100
0010
1000
0000
0010
0000
,
0002
0000
0103
1000
0100
0010
1000
0000
,
1002
0000
0013
0100
0001
0000
0100
0000
,
2000
0000
3010
0001
0010
0100
0001
0000
,
2000
0000
3100
0001
2000
0000
3001
0100
,
2000
0000
3010
0001
0010
0000
0200
0000
,
1300
0100
0010
0100
0001
0100
0010
0100
,
0001
0010
0100
1000
0001
0010
1000
0010
,
0001
0100
0010
0001
0010
0100
0010
0001
,
0010
1000
0100
0001
0100
0010
0100
1000
,
0020
0000
0130
0001
0010
0000
0100
0000
,
2100
0000
3010
0100
0001
0000
1000
0000
,
0100
0001
0100
0010
0100
1000
0100
0010
,
0001
0100
0010
0100
1000
0100
0010
0100
,
0001
0010
0100
0010
1000
0010
0100
0010
,
0001
0100
1000
0001
0010
0100
0001
1000
,
2001
0000
0000
3100
0010
0000
0100
0000
2100
0000
0000
3001
0100
0000
0001
0000
,
1000
0010
0100
0000
0001
0000
1000
0000
0002
0000
0000
0000
0023
0000
0000
0000
0031
0100
0010
0000
1000
0000
0100
0000
1000
0010
0100
0001
1000
0000
0001
0000
,
2000
0000
0000
3100
0010
0000
0100
0000
0002
0000
0103
0010
0001
0000
0100
0000
,
0010
0100
0010
0000
1000
0000
0001
0000
0200
0000
0000
0000
0310
0000
1000
0000
0001
0010
0100
0000
1000
0000
0010
0000
0100
0001
1000
0000
0001
0000
1000
0000
,
0200
0000
0000
0310
1000
0000
0010
0000
0002
0000
0000
0103
0010
0000
0001
0000
,
0010
0100
0001
0000
1000
0000
0001
0000
1000
0100
0010
0000
0001
0000
0100
0000
0010
1000
0001
0000
0010
0000
0001
0000
0100
0010
1000
0000
0001
0000
1000
0000
,
0020
0000
0000
0000
,
0000
0000
0000
0000
,
0000
0000
0000
0000
,
0000
0000
0000
0000
,
0000
0000
0000
0000
,
0000
0000
0000
0000
,
0000
0000
0000
0000
,
0030
0000
0000
0000
1000
0000
0000
0000
0100
1000
0001
0000
0000
0000
0100
0001
,
1000
0000
0001
0000
1000
0100
0010
0000
0100
0000
1000
0000
0100
0010
0001
0000
,
1000
0001
1000
0000
0001
0000
0000
0000
0100
0001
1000
0000
0000
0000
0100
1000
,
0001
0000
1000
0000
0001
0100
0010
0000
0100
0000
0001
0000
0100
0010
1000
0000
,
0001
1000
0001
0000
1000
0000
0000
0000
0010
1000
0001
0000
0000
0000
0010
0001
,
1000
0000
0001
0000
1000
0010
0100
0000
0010
0000
1000
0000
0010
0100
0001
0000
,
1000
0001
1000
0000
0001
0000
0000
0000
0010
0001
1000
0000
0000
0000
0010
1000
,
0001
0000
1000
0000
0001
0010
0100
0000
0010
0000
0001
0000
0010
0100
1000
0000
,
0001
1000
0001
0000
0100
0000
0000
0000
1000
0100
0010
0000
0000
0000
0100
0000
,
0001
0000
0010
0000
0001
0100
0010
0000
1000
0000
0100
0000
0010
0001
1000
0000
,
0001
1000
0001
0000
0010
0000
0000
0000
1000
0010
0100
0000
0000
0000
0010
0000
,
0001
0000
0100
0000
0001
0010
0100
0000
1000
0000
0010
0000
0100
0001
1000
0000
,
0001
1000
0001
0000
0100
0000
1000
0000
0100
0000
0001
0000
0010
0000
0100
0000
,
1000
0010
1000
0010
1000
0000
0010
0000
0100
0000
0010
0000
0001
0000
0010
0000
,
1000
0100
1000
0100
1000
0000
0100
0000
0010
0000
0100
0000
0001
0000
0100
0000
,
1000
0001
1000
0001
0020
0000
0000
0000
0000
0000
0001
0000
0000
0000
0130
0000
,
1000
0000
1100
0000
1010
0010
0100
0001
,
0010
0100
1000
0010
0100
0001
0010
0010
,
0001
0001
1001
0000
0011
0010
0100
1000
,
0010
0100
0001
0010
0100
1000
0010
0010
,
1000
1000
2001
0000
3100
0001
2000
0000
,
3001
0100
2000
0000
3010
0001
0020
0000
,
0130
0001
1000
0100
0010
0100
0001
0100
,
0010
0000
0100
0000
1000
0000
0010
0000
0100
0000
0010
0000
1000
0100
0010
0000
,
0001
0100
0010
0000
1000
0000
0010
0000
0100
0000
0001
0000
0010
0000
0100
0000
,
1000
0010
0100
0001
0100
1000
0100
0010
,
0100
0100
0001
0000
1000
1100
0000
0001
,
0101
0000
1010
0000
1001
0001
0010
0100
,
1000
1000
0020
0000
0031
0020
0000
0130
,
0001
1000
0200
0000
0301
0200
0000
1300
,
0010
0100
0101
0000
1000
1100
0000
0001
,
0011
0000
1000
0010
0100
1000
0001
0010
,
0100
0001
1000
0000
1001
0000
0000
0000
0001
0000
1100
0000
0010
0000
0000
0000
,
1001
0000
0101
0000
1000
0001
0100
0101
,
0001
0010
0110
0000
1000
0101
0010
0000
,
1001
0000
1100
0000
0001
0010
0100
1100
,
1000
0010
0210
0000
1300
0100
0002
0000
,
0013
1000
0002
0000
0103
1000
0010
0100
,
0001
1000
1001
1000
0100
0010
1000
0010
,
0001
0000
0100
0000
0001
0010
0100
1000
0010
0000
0100
0000
0001
1000
0001
1000
,
0001
1000
0001
1000
0001
0000
0000
0000
1000
0000
0100
0000
0001
0000
0000
0000
,
0101
0000
0110
0000
0001
0100
0010
0000
,
0100
0001
1001
0000
0001
0100
1000
0000
,
1100
0110
2010
3001
,
1000
0001
0101
0000
1000
0110
0001
0000
,
1001
0000
0011
0000
0001
0010
0100
1000
,
0001
0110
1001
0000
1000
0011
0000
0001
,
1100
0000
1000
0010
0100
1000
0001
0010
,
0100
0001
1000
0001
0020
0000
0001
0000
0100
0000
0001
0000
1030
0000
0010
0000
,
0001
0000
0000
0000
0100
0000
0000
0000
0010
0000
0000
0000
0000
0000
1000
0100
2000
0000
0000
0000
3002
0000
0000
0000
0103
0000
1000
0000
0100
0000
0010
0000
,
1000
0100
0010
0000
0001
0000
0010
0000
0002
0000
0000
0000
0100
0000
0000
0000
1000
0000
0000
0000
0010
0000
0000
0000
0103
0000
0000
0000
0010
0000
1000
0000
,
0001
0000
0000
0000
1000
0000
0000
0000
0100
0000
0000
0000
0000
0000
0010
0001
0010
0000
0001
0000
1000
0000
1000
0000
0001
0000
0100
0000
0010
0000
0000
0000
,
1000
0100
0010
0001
0200
0000
1000
0000
0010
0000
1000
0000
0301
0000
0010
1000
,
0010
0000
0000
0000
0001
0000
0100
0000
0001
0010
0001
0000
1000
0000
0001
0100
0001
0000
1000
0000
0010
0000
0000
0000
1000
0100
1000
0000
0001
0000
0100
0000
,
0010
1000
0001
0000
1000
0000
0001
0000
2001
0000
0000
0000
0010
0000
0000
0000
0100
0000
0000
0000
0001
0000
0000
0000
0000
0000
0000
0000
0001
0000
0000
0000
,
0010
0000
0000
0000
0100
0000
0000
0000
0100
0000
0000
0000
0010
0000
0000
0000
0001
0000
0000
0000
3100
0000
0000
0000
1000
0010
0100
0010
2000
0000
0000
0000
,
3001
0010
0100
0010
0001
0000
0001
0000
0000
0000
0000
0000
0000
0000
0000
0000
0000
0000
0000
0000
0000
0000
0000
0000
0000
0000
0000
0000
0000
0000
0000
0000
;

//---------------dance-single - t7r----------------
#NOTES:
     dance-single:
     t7r:
     Challenge:
     19:
     :
0000
0000
0000
0000
,
0000
0000
0000
0000
,
0000
0000
0000
0000
,
0000
0000
0000
0000
,
0000
0000
0000
0000
,
2000
0100
0010
3002
0000
0000
1003
0010
,
0200
1000
0310
0100
0002
0010
1003
0000
,
2001
0000
0000
0000
0000
0000
0000
0000
0100
0000
0000
0000
0010
0000
0000
0000
0000
0000
0000
0000
0001
0000
0000
0000
0001
0000
0000
0000
3010
0000
0000
0100
,
0020
2030
3002
0013
,
0001
0000
0100
0000
0001
0000
0010
0000
0100
1000
0100
0010
0001
1000
0100
0010
,
0001
0100
0010
1000
0001
0010
0011
0000
,
1000
0000
0100
0000
1000
0000
0010
0000
0100
0001
0100
0010
1000
0001
0100
0010
,
1000
0100
0010
0001
1000
0010
1010
0000
,
0001
0000
0010
0000
0001
0000
0100
0000
0010
1000
0010
0100
0001
1000
0010
0100
,
0001
0010
0100
1000
0001
0100
0101
0000
,
1000
0000
0010
0000
1000
0000
0100
0000
0010
0001
0010
0100
1000
0001
0010
0100
,
1000
0010
0100
0001
1000
0100
1100
0000
,
1000
0000
0010
0000
0100
0000
0001
0000
1000
0100
0010
0001
0010
0100
1000
0100
,
0010
0001
0100
0010
1000
0001
0101
0000
,
0001
0000
0010
0000
0100
0000
1000
0000
0001
0100
0010
1000
0010
0100
0001
0100
,
0010
1000
0100
0010
0001
1000
1100
0000
,
1000
0000
0010
0000
0100
0000
0001
0000
1000
0100
0010
0001
1000
0100
0010
0001
,
1000
0000
0001
0000
0100
0000
0010
0000
1000
0010
0100
0001
1000
0010
0100
0001
,
1000
0000
0100
0000
0010
0000
0001
0000
1000
0001
0010
0100
1000
0001
1000
0010
,
0200
0000
0000
1000
0000
0310
0100
0000
,
1001
0000
0001
0010
0100
0010
1000
0000
,
0011
0000
1000
0100
0000
0100
0001
0000
,
0110
0000
0001
0100
0010
0100
1000
0000
,
0101
0000
1000
0010
0000
0010
0001
0000
,
2001
0000
3001
0100
0020
0000
0031
0010
,
0200
0000
0310
1000
0001
0000
1001
0000
,
1000
0100
0010
0100
0001
0100
0010
0100
,
1000
0010
0100
0001
1000
0000
0001
0000
1000
0100
0010
0001
1000
0000
0001
0000
,
1000
0010
0100
0010
0001
0010
0100
0010
,
1000
0100
0010
0100
0001
0100
0010
0100
,
2000
0010
0000
0001
0000
3100
0010
0001
,
0200
0010
0000
1000
0000
0301
0101
0000
,
0001
0000
0010
0000
0100
0000
1000
0000
0010
0000
0100
0000
0001
0010
0100
1000
,
0001
0000
0100
0000
0010
0000
1000
0000
0100
0000
0010
0000
0001
1000
0100
0010
,
0001
0100
0010
0100
1000
0100
0010
0100
,
0001
0010
0100
1000
0001
0000
1000
0000
0001
0100
0010
1000
0001
0000
1000
0000
,
0020
0000
0000
1030
0100
0000
0001
0000
0100
0000
0000
1100
0000
0000
1100
0000
,
1000
0001
0100
0001
1000
0000
0001
0000
1000
0100
1000
0100
1000
0000
0000
0000
0001
0010
0100
1000
0010
0000
0000
0000
1000
0100
1000
0000
0001
0000
0001
0000
,
0200
0000
0000
0301
0010
0000
1000
0010
0100
0000
0010
0001
1000
0000
0110
0000
,
0001
1000
0010
1000
0001
0000
0100
0000
0001
0010
0001
0010
0100
0000
0100
0000
1000
0010
0100
0010
1000
0000
0000
0000
0001
0010
0100
0010
0001
0000
1000
0000
,
0020
0000
0000
0031
0010
0000
1000
0000
0110
0000
0001
1000
0010
0000
1000
0000
,
0001
0010
0100
1000
0010
0000
1000
0000
0001
0100
0010
1000
0001
0000
0010
0000
0001
1000
0100
0010
0001
0000
1000
0000
0010
0100
0001
1000
0010
0000
0100
0000
,
0020
0000
0000
0000
,
0000
0000
0000
0000
,
0000
0000
0000
0000
,
0000
0000
0000
0000
,
0000
0000
0000
0000
,
0000
0000
0000
0000
,
0000
0000
0000
0000
,
0030
0000
1000
0100
0010
0001
0010
0100
,
1000
0000
0010
0000
1000
0100
1000
0100
1000
0100
1000
0100
0010
0001
0010
0001
,
0010
0001
0010
0001
1000
0000
0001
0000
0100
0000
0001
0000
0010
0000
0100
0000
,
1000
0010
0100
0001
1000
0000
0001
0000
1000
0000
0010
0000
0100
0000
0001
0000
,
0100
0100
0001
0010
0100
1000
0100
0010
,
0001
0000
0100
0000
0001
0010
0001
0010
0001
0010
0001
0010
0100
1000
0100
1000
,
0100
1000
0100
1000
0001
0000
1000
0000
0010
0000
1000
0000
0100
0000
0010
0000
,
0001
0100
0010
1000
0001
0000
1000
0000
0001
0000
0100
0000
0010
0000
1000
0000
,
0010
0010
1000
0010
0100
0010
0001
0010
,
0100
0000
0010
0000
1000
0100
1000
0100
1000
0100
1000
0100
0010
0100
0010
0100
,
0010
0100
0010
0100
1000
0000
0010
0000
0100
0000
0010
0000
1000
0000
0001
0000
,
0010
0100
1000
0010
0100
0000
0001
0000
0100
0000
1000
0000
0100
0000
0010
0000
,
0100
0100
0001
0010
0100
0020
0000
0031
,
1000
0100
0010
0001
1000
0000
0010
0000
0100
0000
0020
0000
0000
0000
1030
0000
,
0001
0100
0001
0100
0010
0000
0100
0000
1000
0000
0200
0000
0000
0000
0310
0000
,
1000
0001
2001
0000
0000
0100
0000
3001
,
1000
0000
1100
0000
0110
0100
1000
0010
,
0100
0000
1010
0000
1001
0001
0100
0100
,
0010
0100
0101
0000
1000
1100
0000
0001
,
0101
0000
1010
0000
1001
0001
0100
0100
,
0010
0010
0210
0000
1300
0100
0020
0000
,
1030
0100
0002
0000
1003
0010
0001
0100
,
0010
0010
1000
0010
0100
1000
0001
0010
,
0100
0010
1000
0001
0010
0000
0001
0000
1000
0000
0100
0000
1000
0001
1000
0001
,
1000
0001
1000
0001
1000
0000
0100
0000
0010
0000
0100
0000
0001
0000
0100
0000
,
0010
0000
0100
0000
1100
0000
1000
0000
0010
0000
0100
0000
0001
0010
0001
0010
,
0001
1000
1001
0000
1000
1010
0000
0001
,
0011
0000
0000
0000
0110
0000
0000
0000
0010
0000
0001
0000
1000
0010
1000
0010
,
0100
0010
0110
0000
1000
1010
0000
1000
,
1100
0000
0000
0000
0011
0000
0001
0000
0100
0000
0010
0000
1000
0001
1000
0001
,
1000
0010
0110
0000
0001
0011
0000
0001
,
1001
0000
0001
0010
0100
0001
1000
0010
,
0100
0010
0100
0010
0001
0000
0100
0000
0001
0000
1001
0000
1000
0000
0100
0000
,
1100
0000
0110
0010
0001
0101
0101
1001
,
1001
1000
1100
0100
1000
1010
0010
0100
,
0110
0000
0101
0001
1000
0001
0011
0011
,
0110
0110
1200
0000
0301
0100
0020
0000
,
0031
0100
2000
0000
3001
0010
0100
0000
,
0110
0010
1000
0001
0010
1000
0001
0100
,
1000
0000
0010
0000
0100
0001
1000
0010
0100
0000
0001
0000
0010
0100
0010
0100
,
0010
0100
0010
0100
0010
0000
0001
0000
0012
0000
0000
0000
1003
0000
0010
0000
,
2010
0000
0000
0000
3001
0000
0100
0000
0102
0000
0000
0000
1003
0100
1000
0100
,
1000
1100
1001
1000
0100
0010
0100
0001
,
0100
1000
0010
0100
0001
0000
0100
0000
0120
0000
0000
0000
1030
0001
1000
0001
,
0100
0101
0101
0001
0010
0120
0000
0031
,
1000
0100
0010
0001
1000
0000
0010
0000
0100
0000
0001
0000
1000
0001
0100
0001
,
1000
1100
1100
0100
0001
1000
0010
0001
,
0100
0000
0001
0000
1000
0010
0100
0001
0010
0100
1000
0001
1000
0100
0010
0001
,
0100
0010
1000
0001
2000
0000
0100
0000
0001
0000
3010
0000
1010
0000
0010
0100
,
0001
0000
0000
0000
0101
0000
0000
0000
0001
0010
0100
1000
0001
0000
1000
0000
0001
0100
0001
0100
0001
0000
1000
0000
0001
0010
0001
0010
0001
0000
0100
0000
,
0010
0100
0010
0100
0001
0000
1000
0000
1002
0000
0000
0000
0100
0000
0000
0000
1000
0000
0000
0000
0013
0000
0000
0000
0100
0000
0000
0000
0010
0000
1000
0000
,
0001
0000
1000
0000
0100
0000
0000
0000
1000
0010
0100
0001
1000
0000
0001
0000
1000
0100
1000
0100
1000
0000
0100
0000
0010
0001
1000
0001
0010
0000
0001
0000
,
1000
0001
0010
0001
1000
0000
0001
0000
2001
0000
0000
0000
0010
0000
0000
0000
0100
0000
0000
0000
3001
0000
0000
0000
0011
0000
0000
0000
0001
0000
0100
0000
,
0010
0000
0000
0000
1010
0000
0000
0000
1000
0100
0010
0100
1000
0000
0001
0000
0100
0001
1000
0001
0010
0000
0001
0000
0100
0010
1000
0010
0100
0000
0010
0000
,
0100
0001
1000
0001
1000
0000
0010
0100
0020
0000
0000
0000
0001
0000
0000
0000
0100
0000
0000
0000
0100
0000
0000
0000
0000
0000
0000
0000
1000
0000
0000
0000
,
1000
0000
0000
0000
0031
0000
1000
0001
0020
0000
0000
0000
1000
0000
0000
0000
0100
0000
0000
0000
0031
0000
0000
0000
0100
1000
0100
0001
0020
0000
0000
0000
,
1030
0010
0001
0100
0010
0000
0010
0000
0000
0000
0000
0000
0000
0000
0000
0000
0000
0000
0000
0000
0000
0000
0000
0000
0000
0000
0000
0000
0000
0000
0000
0000
;

//---------------dance-double - t7r----------------
#NOTES:
     dance-double:
     t7r:
     Easy:
     13:
     :
00000000
00000000
00000000
00000000
,
00000000
00000000
00000000
00000000
,
00000000
00000000
00000000
00000000
,
00000000
00000000
00000000
00000000
,
00000000
00000000
00000000
00000000
,
00200000
00000000
00000000
00000000
00000000
00000000
00310000
10000000
,
00200000
00000000
10300000
01000000
00020000
00000000
00032000
00000000
,
00003020
00000000
00000001
00000001
00000000
00000100
00000100
00000000
,
00000032
00000203
00002300
00013000
,
00012000
00000000
00000000
00013000
00000000
00000000
01000000
00000000
,
20000000
00000000
30100000
10000000
,
00020000
00000000
00000000
00130000
00000000
00000000
00010000
00000000
,
10000000
01000000
00100000
00010000
,
20000000
00000000
00000000
30100000
00000000
00000000
01000000
00000000
,
00020000
00000000
00130000
00001000
,
00020000
00000000
00000000
00031000
00000000
00000000
00010000
00000000
,
00001000
00000100
00000010
00001000
,
00000002
00000000
00000000
00000010
00000000
00000000
00001003
00000000
,
00001002
00000000
00000103
00000010
,
00002000
00000000
00000000
00000100
00000000
00000000
00003010
00000000
,
00001000
00000000
00000000
00000001
00000000
00000000
00001001
00000000
,
00001000
00000100
00020000
00000000
,
00031000
00010000
02000000
00000000
,
13000000
00100000
02000000
00000000
,
03020000
00000000
00000000
00001000
00000000
00000000
00130000
00000000
,
00120000
00000000
01030000
10000000
,
02000000
00000000
03100000
10000000
,
00010000
10000000
01000000
00000000
,
00010000
00001000
00000100
00000010
,
00000200
00000000
00000301
00000000
,
00000012
00000000
00000000
00000100
00000000
00000000
00001003
00000000
,
00000001
00000010
00000100
00001000
,
00010000
00100000
01000000
10000000
,
00100000
00010000
00100000
01000000
,
00010000
00100000
00001000
00010000
,
00002000
00000000
00000000
00000010
00000000
00000000
00013000
00000000
,
02000000
10000000
00000000
03100000
,
00010000
10000000
00100000
01000000
,
00010000
00001000
00000010
00000100
,
00000001
00000010
00001000
00000010
,
00000001
00000100
00001000
00010000
,
00012000
00000000
00000000
00000000
01000000
00000000
00000000
00000000
00013000
00000000
00000000
00001000
00000000
00000000
00001000
00000000
,
00010000
01000000
10000000
00010000
10000000
01000000
00100000
00010000
,
20000000
00000000
00100000
00000000
30010000
10000000
01000000
00010000
,
00001000
00000010
00000001
00001000
00000001
00000100
00001000
00010000
,
00002000
00000000
00000000
00000000
00100000
00000000
00000000
00000000
00013000
00000000
00000000
00001000
00000000
00000000
00001000
00000000
,
00010000
00000000
00100000
00000000
10000000
00000000
00010000
00000000
00001000
00000000
00000010
00000000
00000100
00000010
00000100
00000000
,
00000002
00000000
00000000
00000000
,
00000000
00000000
00000000
00000000
,
00000000
00000000
00000000
00000000
,
00000000
00000000
00000000
00000000
,
00000000
00000000
00000000
00000000
,
00000000
00000000
00000000
00000000
,
00000000
00000000
00000000
00000000
,
00000003
00000000
00001001
00000000
00000000
00000101
00000000
00000000
,
00000101
00000001
00000010
00000100
,
00010000
00000000
00011000
00000000
00000000
00011000
00000000
00000000
,
00011000
00001000
01001000
00000000
,
01010000
00000000
10010000
00000000
00000000
10010000
00000000
00000000
,
10010000
10000000
01000000
00100000
,
00001000
00000000
00011000
00000000
00000000
00011000
00000000
00000000
,
00011000
00010000
00010010
00000000
,
00000010
00000100
00000010
00000000
00000000
00000110
00000000
00000000
,
00000110
00000001
00000010
00000100
,
00010000
00000000
00011000
00000000
00000000
00011000
00000000
00000000
,
00011000
00001000
00101000
00000000
,
00100000
01000000
00200000
00000000
00000000
00010000
00000000
00000000
,
01300000
00000000
20000000
00000000
00000000
00100000
00000000
00000000
,
30010000
10000000
00020000
00000000
00000000
00001000
00000000
00000000
,
01030000
00000000
00200000
00000000
00000000
10000000
00000000
00000000
,
01300000
00000000
00010000
00000000
00000000
00010000
10000000
00000000
,
01000000
00000000
00010000
00000000
00001000
00000000
00010000
00001000
,
00010000
00000000
00001000
00000000
00000000
00001000
00010000
00000000
,
00001000
00000000
00000010
00000000
00000001
00000000
00001000
00000001
,
00001000
00000000
00000001
00000000
00000000
00000001
00000100
00000000
,
00000000
00000100
00000010
00000000
00000000
00000010
00001000
00000000
,
00000100
00001000
00000100
00000000
00000000
00000100
00000000
00000000
,
00000100
00000000
00010000
00001000
00010000
00000000
00001000
00010000
,
00001000
00010000
00100000
10000000
,
00010000
10000000
01000000
00010000
,
01000000
00100000
01000000
00000000
00000000
01000000
10000000
00000000
,
00100000
00010000
00011000
00000000
,
00001000
00010000
00001000
00000000
00000000
00000100
00000010
00000000
,
00000100
00000000
00000001
00000000
00000000
00000010
00000100
00000000
,
00000010
00000001
00001000
00000000
00000000
00000001
00001000
00000000
,
00000001
00000100
00001000
00010000
,
00001000
00000000
00011000
00000000
00000000
00010000
01000000
00000000
,
00010000
00000000
00001000
00000000
00010000
00001000
00010000
00001000
,
00000000
00000000
00011000
00000000
00000000
00001000
00000100
00000000
,
00001000
00000000
00010000
00000000
00001000
00010000
00001000
00010000
,
00000000
00000000
01000000
00000000
00000000
01000000
10000000
00000000
,
00000000
10000000
00100000
00000000
00000000
00100000
01000000
00000000
,
00010000
00100000
00010000
00000000
01000000
00000000
00100000
00000000
,
10000000
01000000
00010000
00001000
,
00000010
00000002
00000203
00000320
,
00002030
00023000
00230000
02300000
,
23000000
00000000
31000000
00000000
00000000
01000000
00010000
00000000
,
01000000
00100000
00110000
00010000
,
10000000
00100000
10000000
00000000
00000000
00100000
01000000
00000000
,
00100000
00000000
10000000
00000000
00000000
01000000
00010000
00000000
,
00001000
00010000
00001000
00000000
00000010
00000000
00000001
00000000
,
00001000
00000001
00000100
00001000
,
00010000
00000000
00012000
00000000
00013000
01000000
10000000
00000000
,
00100000
00000000
01000000
00000000
00100000
10000000
00000000
00100000
20000000
00000000
30010000
00000000
10000000
00000000
01000000
00000000
,
00010000
00001000
00020000
00000000
00031000
00000100
00000001
00000100
,
00000010
00000000
00001000
00000000
00000001
00000010
00000000
00000001
00000010
00000000
00000001
00000000
00000100
00000000
00001000
00000000
,
00010000
00100000
01200000
00000000
10300000
01000000
00100000
01000000
,
00010000
00000000
00001000
00000000
00000100
00000010
00000000
00000100
00000010
00000000
00000100
00000000
00000001
00000000
00000010
00000001
,
00000010
00000100
00020000
00000000
00001000
00001000
00000000
01000000
,
01000000
00000000
00002000
00000000
00000000
00033000
00001000
00010000
,
01000000
10000000
00010000
10000000
00000000
00000000
00000000
00000000
00000000
00000000
00000000
00000000
00000000
00000000
00000000
00000000
;

//---------------dance-double - t7r----------------
#NOTES:
     dance-double:
     t7r:
     Medium:
     15:
     :
00000000
00000000
00000000
00000000
,
00000000
00000000
00000000
00000000
,
00000000
00000000
00000000
00000000
,
00000000
00000000
00000000
00000000
,
00000000
00000000
00000000
00000000
,
10000000
00100000
01000000
00020000
00000000
00000000
10030000
00010000
,
10000000
01000000
00100000
00010000
01000000
00001000
00010000
00000000
,
00021000
00000000
01000000
01000000
00000000
00001000
00001000
00000000
,
01000000
00001000
00000200
00030300
,
00010000
00001000
00000000
00000100
00000010
00000000
00000100
00000000
,
00000001
00000010
00000000
00000001
00001000
00000000
00000001
00000000
,
00000100
00000010
00000000
00001000
00000100
00000000
00010000
00000000
,
00001000
00010000
00000000
00001000
01000000
00000000
00010000
00000000
,
00100000
00010000
00000000
10000000
00010000
00000000
10000000
00000000
,
00100000
01000000
00000000
00100000
10000000
00000000
00010000
00000000
,
10000000
01000000
00000000
00100000
00010000
00000000
10000000
00000000
,
00100000
01000000
00000000
00010000
00100000
00000000
00001000
00000000
,
00010000
00001000
00000000
00000100
00000001
00000000
00001000
00000000
,
00000001
00000010
00000000
00001000
00010000
00000000
00001000
00000000
,
00010000
01000000
00000000
10000000
00010000
00000000
10000000
00000000
,
00100000
00010000
00000000
00001000
00010000
00000000
00001000
00000000
,
00010000
00000000
00001000
00000100
00000020
00000000
00000000
00000000
,
00001030
00000000
00000100
00000010
00000002
00000000
00000000
00000000
,
00000103
00000000
00001000
00010000
00002000
00000000
00000000
00000000
,
00023000
00000000
00000000
01000000
00000000
00031000
00010000
00000000
,
00012000
00000000
00000000
00013000
01000000
00000000
00100000
00000000
,
02000000
00000000
00000000
13000000
00100000
00000000
10000000
00000000
,
00010000
10000000
10200000
00000000
,
10300000
00010000
01000000
01010000
,
20000000
00000000
31000000
00100000
02000000
00000000
03100000
10000000
,
00200000
00000000
00301000
00010000
00001000
00000000
00010000
00000000
,
00001000
00000000
00000100
00000010
00000100
00000000
00000001
00000000
,
00000010
00000000
00000100
00010000
00001000
00000000
00010000
00000000
,
00002000
00003200
00000302
00002003
,
00003200
00000320
00000031
00000100
,
00000102
00000010
00000000
00001003
,
00001200
00010000
00000000
00001300
,
00001001
00000000
00000001
00000100
00000010
00000000
00001000
00000000
,
00000100
00000000
00010000
00001000
00100000
00000000
00010000
00000000
,
10000000
00000000
00100000
01000000
00010000
00000000
10000000
00000000
,
01000000
00000000
00010000
00001000
00010000
00001000
00010000
00000000
,
00012000
00000000
00000000
00000000
00003100
00000000
00000001
00000000
00000010
00000000
00000000
00000011
00000000
00000000
00001001
00000000
,
00000001
00000010
00000100
00000010
00000002
00000000
00002003
00000000
00003001
00000100
00000010
00000000
00001000
00000100
00010000
00000000
,
00021000
00000000
01030000
10000000
00100000
02000000
03020000
20030000
,
31000000
00010000
00000000
01000000
00100000
00000000
00010000
00000000
10000000
00100000
00010000
00000000
00001000
00010000
00001000
00000000
,
00012000
00000000
00000000
00000000
00003100
00000000
00000001
00000000
00002000
00000000
00000000
00003010
00000100
00000000
00000010
00000000
,
00000001
00000010
00000000
00001000
00000001
00000000
00000010
00000000
00001000
00010000
00000000
00100000
10000000
00000000
00010000
00000000
,
20000000
00000000
00000000
00000000
,
00000000
00000000
00000000
00000000
,
00000000
00000000
00000000
00000000
,
00000000
00000000
00000000
00000000
,
00000000
00000000
00000000
00000000
,
00000000
00000000
00000000
00000000
,
00000000
00000000
00000000
00000000
,
30000000
00000000
10010000
00000000
00000000
11000000
00000000
10000000
,
01000000
00000000
10000000
00100000
01000000
00010000
10000000
00000000
,
01000000
00100000
01000000
00000000
00000000
01100000
00000000
00100000
,
00001000
00000000
00010000
00001000
00010000
00000000
00000000
00000000
,
00001000
00010000
00000100
00000000
00000000
00001100
00000000
00001000
,
00000010
00000000
00000100
00000001
00001000
00000001
00000010
00000000
,
00000001
00001000
00000001
00000000
00000000
00000101
00000000
00000000
,
00000001
00000000
00000010
00000100
00010000
00000000
00000000
00000000
,
00001000
00010000
00001000
00000000
00000000
00011000
00000000
00010000
,
01000000
00000000
10000000
00100000
01000000
00010000
10000000
00000000
,
00010000
10000000
00010000
00000000
00000000
10010000
00000000
10000000
,
01000000
00000000
00100000
01000000
10000000
00100000
10000000
00000000
,
00100000
00010000
00001000
00000000
00000000
00011000
00000000
00001000
,
00000010
00000000
00000110
00000000
00000010
00000001
00000000
00001000
,
00000001
00000100
00000010
00000000
00000000
00001010
00000000
00000010
,
00001000
00000000
00000200
00000000
00000000
00010000
00000000
00000000
,
00001300
00000000
00001100
00000000
00001000
00000100
00010000
00000000
,
00001000
00000000
00011000
00000000
00010000
01000000
10000000
01000000
,
00100000
00010000
20000000
00000000
30100000
01000000
00010000
00000000
,
00100000
00000000
00002000
00000000
00013000
00000010
00001000
00000010
,
00000100
00000010
00000002
00000000
00000013
00001000
00000002
00000000
,
00000013
00001000
00020000
00000000
00031000
00010000
00100000
00000000
,
10000000
00010000
20000000
00000000
31000000
00100000
01000000
00100000
,
00010000
00000000
10000000
00100000
01000000
00010000
10000000
01000000
,
10000000
01000000
00020000
00000000
00031000
00010000
01000000
00000000
,
00010000
00000000
00011000
00000000
00001000
00000100
00001000
00000100
,
00000010
00000100
00000002
00000000
00000013
00000100
00000000
00000001
,
00000100
00000010
00000001
00000000
00000011
00000000
00000001
00000000
,
00000100
00001000
00020000
00000000
00031000
00000200
00000000
00000310
,
00001000
00000000
00001200
00000000
00010300
00001000
00200000
00000000
,
00310000
10000000
00010000
01000000
00010000
01000000
00100000
10000000
,
00100000
10000000
01000000
00100000
00001000
00000000
00010000
00001000
,
00000010
00000100
00001000
00000000
00010000
00100000
00001000
00000000
,
00010000
00000000
00011000
00000000
00001000
00000100
00000001
00000100
,
00000010
00001000
00000002
00000000
00000013
00000100
00001000
00000000
,
00000010
00000000
00020000
00000000
00031000
00100000
00010000
00100000
,
01000000
00100000
20000000
00000000
30100000
00010000
20000000
00000000
,
30100000
00010000
00002000
00000000
00013000
00001000
00000010
00000000
,
00000001
00001000
00000002
00000000
00000103
00000010
00000100
00000010
,
00001000
00000000
00000001
00000010
00000100
00010000
00001000
00010000
,
00001000
00010000
02000000
00000000
13000000
00100000
01000000
00010000
,
10000000
00000000
02000000
00000000
03100000
00001000
00010000
00001000
,
00000100
00000010
00000200
00000000
00000301
00000010
00000000
00000001
,
00001000
00000001
00000200
00000000
00001300
00000000
00010000
00000000
,
00001000
00010000
01000000
00000000
00100000
00010000
00000000
10000000
,
00100000
01000000
00010000
00000000
10000000
00100000
00000000
00010000
,
00001000
00010000
00001000
00000100
00001000
00000100
00000010
00000100
,
00000010
00000100
00000001
00000010
00000100
00010000
00002000
00000000
,
00013000
01000000
20000000
00100000
01000000
31000000
10000000
01000000
,
00010000
00000000
00001000
00000000
00010000
00001000
00000100
00001000
00010000
00000000
00011000
00000000
00010000
01000000
00010000
00001000
,
00010000
00001000
00000200
00000010
00000001
00000301
00000010
00000100
,
00000001
00000000
00000100
00000000
00010000
00001000
00000010
00001000
00010000
00000000
00011000
00000000
00001000
00010000
00100000
00010000
,
00001000
00000000
00010000
00001000
00020000
00000000
00100000
00000000
00001000
00000000
00031000
00000000
00010000
00000000
00001000
00010000
,
00100000
00000000
10000000
00000000
00010000
00100000
10000000
00100000
00010000
00000000
00001000
00000000
00000010
00000001
00000010
00000100
,
00000001
00000010
00002000
00010000
00010000
00010000
00000000
01000000
,
01000000
00000000
00000000
00000000
00010000
00000000
00000000
00000000
00023000
00000000
00000000
00000000
00000000
00000000
00000000
00000000
00032000
00000000
00000000
00000000
00000000
00000000
00000000
00000000
00013000
00001000
00010000
00000000
00002000
00000000
00000000
00000000
,
00013000
00000100
00010000
00000000
00001000
00000000
00010000
00000000
00000000
00000000
00000000
00000000
00000000
00000000
00000000
00000000
00000000
00000000
00000000
00000000
00000000
00000000
00000000
00000000
00000000
00000000
00000000
00000000
00000000
00000000
00000000
00000000
;

//---------------dance-double - t7r----------------
#NOTES:
     dance-double:
     t7r:
     Hard:
     18:
     :
00000000
00000000
00000000
00000000
,
00000000
00000000
00000000
00000000
,
00000000
00000000
00000000
00000000
,
00000000
00000000
00000000
00000000
,
00000000
00000000
00000000
00000000
,
00000100
00010000
00001000
02000000
00000000
03010000
00100000
01000000
,
20000000
00100000
00010000
31000000
00010000
00001000
00000200
00000300
,
00001002
00000000
00000010
00000010
00000000
00001000
00001000
00000100
,
00000203
00002300
00023000
01030000
,
10000000
00100000
10000000
00010000
10000000
01000000
00100000
00010000
,
10000000
00000000
00100000
01000000
00010000
00000000
00100000
00000000
,
00001000
00010000
00001000
01000000
00001000
00010000
00001000
00100000
,
00001000
00000000
00010000
00001000
00000100
00000000
00000010
00000000
,
00001000
00000100
00000010
00000001
00001000
00000100
00000010
00000001
,
00001000
00000000
00000010
00000100
00000001
00000000
00000010
00000000
,
00000001
00000100
00000010
00001000
00000001
00000100
00000010
00010000
,
00001000
00000000
00010000
00001000
01000000
00000000
00010000
00000000
,
10000000
01000000
00100000
00000000
00001000
00010000
00001000
00010000
,
00011000
00000000
00001000
00000100
00000001
00000000
00001000
00000000
,
00000001
00000010
00000100
00000000
00010000
00001000
00010000
00001000
,
00011000
00000000
00010000
01000000
10000000
00000000
00100000
00000000
,
10000000
00100000
10000000
00100000
01000000
00100000
10000000
00100000
,
00010000
00001000
00010000
00001000
00000100
00000010
00000100
00000001
,
00001000
00000100
00000010
00000001
00001000
00000100
00000010
00000001
,
00000200
00000000
00001300
00010000
00001000
00010000
00001000
00000000
,
00011000
00000000
00010000
01000000
00010000
00000000
00001000
00000000
,
00021000
00000000
00031000
00000100
00000010
00000100
00000001
00000000
,
00000020
00000000
00001030
00010000
00001000
00000000
00010000
00000000
,
00200000
00000000
10300000
00010000
10000000
00000000
10010000
00000000
,
20000000
00000000
31000000
00100000
20000000
00000000
30100000
01000000
,
20000000
00000000
30100000
00010000
00002000
00000000
00023000
00000000
,
00031000
00000010
00001000
00000010
00000100
00000010
00000001
00000000
,
00000100
00000010
00000100
00000010
00001000
00000100
00010000
00000000
,
00001000
00010000
00200000
00000000
10300000
01000000
00200000
00000000
,
10300000
00100000
00020000
00000000
01030000
00001000
00010000
00001000
,
00020000
00000000
01030000
10000000
00010000
00000000
10000000
00000000
,
00200000
00000000
00310000
00001000
00010000
00000000
00011000
00000000
,
00020000
00000000
00031000
00000010
00000100
00000000
00010000
00000000
,
00002000
00000000
00013000
00100000
01000000
00000000
00001000
00000000
,
00010000
00001000
00000100
00000000
00000010
00000100
00000001
00000000
,
00000010
00000100
00000010
00000100
00000010
00000001
00000100
00001000
,
00021000
00000000
00000000
00031000
00010000
00000000
01000000
00000000
21000000
00000000
00000000
30100000
01000000
00000000
00100000
00000000
,
10000000
00000000
00100000
00000000
00010000
00000000
00100000
00000000
02000000
00000000
00000000
00000000
03020000
00000000
00000000
00000000
00130000
00010000
00100000
00000000
00010000
00000000
10000000
00000000
01000000
10000000
01000000
00000000
10000000
00000000
00010000
00000000
,
20000000
00000000
00000000
30100000
00010000
00000000
00001000
00000000
00020000
00000000
00031000
00000010
00000100
00000000
00000010
00000000
,
00000001
00000100
00000001
00000000
00001000
00000000
00000001
00000000
00000200
00000000
00000000
00000000
00000310
00000000
00001000
00000000
00000001
00000000
00000010
00000100
00000010
00000000
00001000
00000000
00010000
00000000
00001000
00010000
00001000
00000000
00010000
00000000
,
02000000
00000000
00000000
13000000
00100000
00000000
01000000
00000000
00200000
00000000
00000000
10300000
00010000
00000000
10000000
00000000
,
01000000
10000000
01000000
00000000
10000000
00000000
00100000
00000000
00010000
00000000
00000000
00000000
00011000
00000000
00000000
00000000
00001000
00000000
00000010
00000001
00000010
00000000
00000001
00000000
00001000
00000001
00000100
00000000
00000001
00000000
00001000
00000000
,
00000002
00000000
00000000
00000000
,
00000000
00000000
00000000
00000000
,
00000000
00000000
00000000
00000000
,
00000000
00000000
00000000
00000000
,
00000000
00000000
00000000
00000000
,
00000000
00000000
00000000
00000000
,
00000000
00000000
00000000
00000000
,
00000003
00000000
00000000
00000000
00011000
00000000
00000000
00000000
00010000
00000000
01000000
00000000
00000000
00000000
10000000
00010000
,
10000000
00000000
00100000
00000000
10000000
00000000
01000000
00100000
00010000
00000000
10000000
00000000
00010000
00000000
00000000
00000000
,
10000000
01000000
10000000
00000000
00100000
01000000
00000000
00100000
,
10000000
00000000
00010000
00100000
00010000
00000000
00100000
00000000
00001000
00000000
00000000
00000000
00010000
00000000
00000000
00000000
,
00001000
00000000
00001000
00000000
00010000
00000000
00000000
00000000
00001000
00000000
00000100
00000000
00000000
00000000
00000001
00001000
,
00000001
00000000
00000010
00000000
00000001
00000000
00000100
00000010
00001000
00000000
00000001
00000000
00001000
00000000
00000000
00000000
,
00000001
00000100
00000001
00000000
00000010
00000100
00000000
00000010
,
00000001
00000000
00001000
00000010
00001000
00000000
00000010
00000000
00010000
00000000
00000000
00000000
00001000
00000000
00000000
00000000
,
00010000
00010000
00001000
00000000
00010000
01000000
00000000
00100000
,
00001000
00000000
00010000
00001000
00010000
00000000
00001000
00000000
00000100
00000000
00000001
00000000
00001000
00000000
00000000
00000000
,
00000001
00000010
00000001
00000000
00001000
00000000
00000000
00000000
00000001
00000000
00000100
00000000
00000000
00000000
00001000
00000000
,
00010000
00000000
00001000
00010000
00001000
00000000
00010000
00000000
01000000
00000000
00000000
00000000
00100000
00000000
00000000
00000000
,
00010000
00010000
10000000
00100000
10000000
00100000
01000000
00010000
,
00100000
00010000
00100000
00010000
00100000
00000000
00001000
00000000
00100000
00000000
00001000
00000000
00010000
00000000
00001000
00000000
,
00010000
00001000
00010000
00001000
00010000
00000000
00000010
00000000
00001000
00000000
00000010
00000000
00000100
00000000
00000001
00000000
,
00001000
00000001
00001000
00000001
00000200
00000000
00000000
00000000
00000000
00000000
00000010
00000000
00000000
00000000
00001300
00000000
,
00010000
00000000
00011000
00000000
00010000
00100000
01000000
00000000
,
01100000
00000000
10100000
00000000
10000000
01000000
00010000
00010000
,
01000000
01000000
10000000
00000000
00100000
01000000
00010000
00000000
,
01010000
00000000
01100000
00000000
10000000
00010000
10000000
10000000
,
00100000
00100000
00020000
00000000
00031000
00000100
00000020
00000000
,
00001030
00000100
00000020
00000000
00000000
00000031
00001000
00000000
,
00000001
00000001
00000100
00000001
00000010
00000100
00000001
00000100
,
00000010
00000000
00000001
00000000
00000100
00000000
00000010
00000000
00001000
00000000
00000100
00000000
00010000
00001000
00010000
00000000
,
00001000
00010000
00001000
00000000
00020000
00000000
00000000
00000000
00130000
00000000
10000000
00000000
00010000
00000000
00000000
00000000
,
10000000
00000000
10010000
00000000
10000000
01000000
00100000
01000000
,
00010000
00010000
00001000
00000000
00000100
00000010
00001000
00000000
,
00001010
00000000
00000010
00000100
00000002
00000000
00000010
00000000
,
00001003
00001000
00000020
00000000
00000130
00000001
00001000
00000000
,
00000101
00000000
00001100
00000000
00000100
00010000
00001000
00000000
,
00010000
00010000
00001000
00000000
00010000
01000000
10000000
00000000
,
00100000
10000000
00010000
00100000
01000000
10000000
00100000
01000000
,
00001000
00010000
00001000
00010000
00001000
00000000
00000000
00000000
00011000
00000000
00010000
00000000
00000010
00000000
00000000
00000000
,
00001010
00000000
00000110
00000000
00000001
00000001
00000010
00000010
,
00001000
00010000
00011000
00000000
01001000
01000000
00010000
00000000
,
10010000
00000000
11000000
00000000
10000000
10000000
01000000
01000000
,
00010000
00010000
00012000
00000000
00013000
01000000
00200000
00000000
,
00310000
00001000
00000020
00000000
00000000
00000130
00000001
00001000
,
00000001
00000001
00000100
00001000
00010000
00000100
00001000
00000001
,
00000100
00000000
00001000
00000000
00010000
00000000
01000000
00000000
10000000
00000000
00100000
00000000
01000000
00100000
01000000
00100000
,
01000000
00100000
01000000
00100000
01000000
00000000
00000000
00000000
00100000
00000000
10000000
00000000
00010000
00000000
00000000
00000000
,
10010000
00000000
11000000
00000000
10000000
01000000
00010000
00000000
,
00001000
00010000
00011000
00000000
00010000
00001000
00000100
00000000
,
00001100
00000110
00002010
00003001
,
00000010
00000100
00000110
00000000
00000010
00000001
00000000
00000100
,
00001000
00010000
00011000
00000000
00010000
00100000
00000000
10000000
,
01000000
01100000
00110000
00000000
10000000
10010000
00000000
00010000
,
01010000
00000000
10000000
01000000
00010000
00001000
00000100
00000001
,
00001000
00000001
00001000
00000001
00002000
00000000
00000100
00000000
00000010
00000000
00000001
00000000
00003100
00000000
00010000
00000000
,
00001000
00000000
00000000
00000000
00010000
00000000
00000000
00000000
01000000
00000000
00000000
00000000
00000000
00000000
10000000
00010000
20000000
00000000
00000000
00000000
30200000
00000000
00000000
00000000
10300000
00000000
01000000
00000000
00100000
00000000
00010000
00000000
,
10000000
00100000
01000000
00000000
00010000
00000000
10000000
00000000
00020000
00000000
00000000
00000000
00100000
00000000
00000000
00000000
01000000
00000000
00000000
00000000
10000000
00000000
00000000
00000000
00130000
00000000
00000000
00000000
00001000
00000000
00000000
00000000
,
00010000
00000000
00000000
00000000
00001000
00000000
00000000
00000000
00000010
00000000
00000000
00000000
00000000
00000000
00000001
00001000
00000002
00000000
00000000
00000000
00000203
00000000
00000000
00000000
00000301
00000000
00000010
00000000
00000100
00000000
00001000
00000000
,
00000001
00000100
00000010
00000000
00001000
00000000
00000001
00000000
00000200
00000000
00000000
00000000
00001000
00000000
00000000
00000000
00010000
00000000
00000000
00000000
00001000
00000000
00000000
00000000
00000310
00000000
00000000
00000000
00001000
00000000
00000100
00000000
,
00000010
00000000
00000000
00000000
00000001
00000000
00000000
00000000
00000100
00000010
00000100
00000000
00000001
00000000
00001000
00000100
00001000
00000000
00000100
00000000
00010000
00000000
00000000
00000000
00001000
00010000
00001000
00000000
00010000
00000000
00100000
00000000
,
10000000
00010000
10000000
00000000
00100000
00000000
01000000
00000000
02010000
00000000
00000000
00000000
00010000
00000000
00000000
00000000
00100000
00000000
00000000
00000000
00100000
00000000
00000000
00000000
00000000
00000000
00000000
00000000
00001000
00000000
00000000
00000000
,
00001000
00000000
00010000
00000000
00010000
00000000
00000000
00000000
10000000
00000000
00000000
00000000
03010000
00001000
00000002
00000000
,
00001003
00010000
10000000
10000000
00000000
00000000
00000000
00000000
00000000
00000000
00000000
00000000
00000000
00000000
00000000
00000000
;

//---------------dance-double - t7r----------------
#NOTES:
     dance-double:
     t7r:
     Challenge:
     19:
     :
00000000
00000000
00000000
00000000
,
00000000
00000000
00000000
00000000
,
00000000
00000000
00000000
00000000
,
00000000
00000000
00000000
00000000
,
00000000
00000000
00000000
00000000
,
00000002
00000100
00001000
00000023
00000000
00000000
00000031
00000100
,
00002000
00010000
00003100
00001000
00020000
00001000
01030000
00000000
,
01200000
00000000
00000000
00000000
00000000
00000000
00000000
00000000
00010000
00000000
00000000
00000000
00010000
00000000
00000000
00000000
00000000
00000000
00000000
00000000
10000000
00000000
00000000
00000000
10000000
00000000
00000000
00000000
00310000
00000000
00000000
00010000
,
02000000
03200000
20300000
30010000
,
10000000
00000000
01000000
00000000
00100000
00000000
00010000
00000000
10000000
00000000
01000000
00100000
00010000
00000000
10000000
01000000
,
00100000
01000000
10000000
00100000
00010000
00001000
00010000
00000000
,
00001000
00000000
00010000
00000000
00000100
00000000
00001000
00000000
00000001
00000000
00000100
00000001
00001000
00000000
00000100
00001000
,
00000001
00000100
00001000
00010000
00001000
00010000
01000000
00000000
,
10000000
00000000
00100000
00000000
01000000
00000000
00010000
00000000
10000000
00000000
00100000
01000000
00010000
00000000
10000000
00100000
,
01000000
00100000
10000000
01000000
00010000
00001000
00010000
00000000
,
00001000
00000000
00010000
00000000
00000010
00000000
00001000
00000000
00000001
00000000
00000010
00000001
00001000
00000000
00000010
00001000
,
00000001
00000010
00001000
00010000
00001000
00010000
00100000
00000000
,
10000000
00000000
01000000
00000000
00100000
00000000
00010000
00000000
10000000
01000000
10000000
01000000
10000000
01000000
10000000
01000000
,
00100000
00000000
00010000
01000000
00001000
00000000
00010000
00000000
,
00001000
00000000
00000010
00000000
00000001
00000000
00001000
00000000
00000001
00000100
00000001
00000100
00000001
00000100
00000001
00000100
,
00000010
00000000
00001000
00000100
00010000
00000000
00001000
00000000
,
00010000
00000000
01000000
00000000
00100000
00000000
01000000
00000000
10000000
00000000
00100000
00000000
01000000
00010000
10000000
00100000
,
01000000
00000000
00100000
00000000
10000000
00000000
01000000
00000000
00100000
00000000
00001000
00000000
00010000
00000100
00010000
00001000
,
00010000
00000000
00001000
00000000
00000010
00000000
00000100
00000000
00000010
00000000
00000001
00000000
00001000
00000010
00000100
00000001
,
00002000
00000000
00000000
00000010
00000000
00003001
00001000
00000000
,
00001001
00000000
00000001
00000100
00001000
00000100
00000010
00000000
,
00000101
00000000
00000001
00000010
00001000
00010000
00001000
00000000
,
00011000
00000000
00010000
01000000
10000000
01000000
00100000
00000000
,
10010000
00000000
10000000
00100000
01000000
00100000
00010000
00000000
,
00200000
00000000
10300000
01000000
00020000
00000000
00031000
00000100
,
00000002
00000000
00000013
00000100
00001000
00000000
00001001
00000000
,
00000001
00000100
00000001
00000100
00000001
00000010
00000001
00000010
,
00001000
00010000
00100000
10000000
00010000
10000000
01000000
00010000
,
00001000
00000100
00000010
00000100
00000001
00000100
00000010
00000100
,
00000001
00000010
00000100
00000010
00001000
00000010
00000100
00000010
,
00000002
00000100
00000000
00001000
00000000
00000103
00001000
00010000
,
00002000
00100000
00000000
00010000
00000000
01003000
00010000
10000000
,
01000000
00000000
00010000
00000000
00001000
00000000
00000100
00000000
00000010
00000000
00000100
00000000
00000001
00000010
00000100
00001000
,
00000001
00000000
00000100
00000000
00000010
00000000
00000100
00000000
00001000
00000000
00000100
00000000
00001000
00010000
00001000
00010000
,
00001000
00000000
00010000
00000000
01000000
00000000
00100000
00000000
01000000
00000000
10000000
00000000
00100000
01000000
00010000
01000000
,
00100000
00000000
10000000
00000000
01000000
00000000
00100000
00000000
00010000
01000000
00100000
10000000
00010000
00000000
10000000
00000000
,
00200000
00000000
00000000
10300000
01000000
00000000
00010000
00000000
01000000
00000000
00000000
10010000
00000000
00000000
10010000
00000000
,
10000000
00100000
10000000
00100000
10000000
00000000
00010000
00000000
01000000
00001000
00010000
00000000
00001000
00000000
00000000
00000000
00010000
00000000
00001000
00010000
00001000
00000000
00010000
00000000
00001000
00000000
00000100
00000010
00000100
00000000
00000001
00000000
,
00000020
00000000
00000000
00000031
00000100
00000000
00001000
00000000
00000100
00000000
00000001
00000010
00000100
00000000
00001000
00000000
,
00000001
00000010
00000001
00000010
00000001
00000000
00001000
00000000
00000100
00010000
00001000
00000000
00010000
00000000
00000000
00000000
00001000
00000000
00010000
00001000
00010000
00000000
00001000
00000000
00010000
00000000
00100000
01000000
00100000
00000000
10000000
00000000
,
02000000
00000000
00000000
03100000
00010000
00000000
10000000
00000000
01100000
00000000
10000000
01000000
00010000
00000000
00001000
00000000
,
00000100
00000010
00000100
00000001
00000100
00000000
00000001
00000000
00000010
00000000
00000001
00000000
00000100
00000000
00001000
00000000
00010000
00001000
00010000
00001000
00010000
00000000
01000000
00000000
10000000
00100000
01000000
00010000
10000000
00000000
00010000
00000000
,
20000000
00000000
00000000
00000000
,
00000000
00000000
00000000
00000000
,
00000000
00000000
00000000
00000000
,
00000000
00000000
00000000
00000000
,
00000000
00000000
00000000
00000000
,
00000000
00000000
00000000
00000000
,
00000000
00000000
00000000
00000000
,
30000000
00000000
00001001
00000000
00000001
00000100
00000000
00000010
,
00001000
00000000
00000001
00000000
00001000
00000100
00001000
00000100
00001000
00000100
00001000
00000100
00000010
00000000
00000001
00000000
,
00000100
00000000
00001000
00010000
00001000
00000000
00000000
00000000
00010000
00000000
01000000
00000000
00000000
00000000
00100000
00000000
,
01000000
00000000
00100000
00010000
10000000
00000000
00100000
00000000
01000000
00000000
10000000
00000000
01000000
00000000
00100000
00000000
,
01000000
01000000
00010000
00000000
10000000
00100000
00000000
01000000
,
00010000
00000000
00100000
00000000
00001000
00010000
00001000
00010000
00001000
00010000
00001000
00010000
00000100
00000000
00001000
00000000
,
00000001
00000100
00000001
00000100
00000001
00000000
00000000
00000000
00000010
00000000
00001000
00000000
00000000
00000000
00000010
00000000
,
00000001
00000000
00000100
00000010
00001000
00000000
00000000
00000000
00001100
00000000
00000000
00000000
00000001
00000000
00000010
00000000
,
00000100
00000100
00000010
00000000
00000001
00001000
00000000
00000001
,
00000100
00000000
00001000
00000000
00010000
00001000
00010000
00001000
00010000
00001000
00010000
00001000
00010000
00000000
00000000
00000000
,
01000000
00100000
01000000
00100000
00010000
00000000
00000000
00000000
01000000
00000000
10000000
00000000
00000000
00000000
01000000
00000000
,
00100000
01000000
00010000
10000000
00100000
00000000
00000000
00000000
10100000
00000000
00000000
00000000
10000000
00000000
00000000
00000000
,
01000000
01000000
00010000
00001000
00000100
00000001
00001000
00000100
,
00000010
00000001
00001000
00000010
00000100
00000000
00000001
00000000
00000010
00000000
00001000
00000000
00010000
00000000
00001000
00000000
,
00000100
00000010
00001000
00000001
00001000
00000000
00000001
00000000
00000010
00000000
00000012
00000000
00000000
00000000
00000103
00000000
,
00001000
00010000
00012000
00000000
00000000
00000100
00000000
01003000
,
00010000
00000000
10010000
00000000
11000000
10000000
01000000
00000000
,
11000000
00000000
10010000
00000000
10000000
00100000
00010000
00010000
,
00001000
00001000
00011000
00000000
00001000
00001100
00000000
00000100
,
00000001
00001000
00001001
00000000
00000011
00000001
00000100
00000100
,
00001000
00001000
00021000
00000000
00031000
00010000
02000000
00000000
,
03100000
01000000
20000000
00000000
30100000
01000000
20000000
00000000
,
31000000
01000000
00010000
00100000
01000000
00010000
00001000
00000100
,
00000010
00001000
00000001
00000100
00000010
00000000
00001000
00000000
00000001
00000000
00000100
00000000
00001000
00010000
00001000
00010000
,
00001000
00010000
00001000
00010000
00001000
00000000
00010000
00000000
01000000
00000000
00100000
00000000
00010000
00000000
01000000
00000000
,
00100000
01000000
10000000
01000000
00100000
01000000
00010000
00100000
,
00010000
10000000
10010000
00000000
10000000
11000000
00000000
01000000
,
01010000
00000000
00000000
00000000
00011000
00000000
00000000
00000000
00010000
00000000
00001000
00000000
00000010
00000100
00000010
00000100
,
00000010
00000001
00001001
00000000
00000001
00000101
00000000
00000100
,
00001100
00000000
00011000
00001000
00010000
00100000
01000000
00010000
,
00100000
00100000
01100000
00000000
00010000
10010000
00000000
10000000
,
11000000
00000000
10000000
00100000
00010000
00001000
00100000
01000000
,
00010000
00001000
00010000
00001000
00010000
00000000
00001000
00000000
01000000
00000000
00010000
00000000
10010000
00000000
00000000
00000000
,
11000000
00000000
10010000
10000000
01000000
00100000
00110000
00110000
,
00100000
00001000
00011000
00010000
00000100
00001000
00001001
00000000
,
00000101
00000000
00001001
00000001
00000100
00000010
00001010
00001010
,
00000010
00010000
00012000
00000000
00013000
01000000
20000000
00000000
,
30100000
00010000
00002000
00000000
00003010
00000001
00001000
00000000
,
00001001
00000001
00000100
00001000
00000100
00000001
00000010
00000100
,
00010000
00000000
00001000
00000000
00010000
00000000
01000000
00000000
10000000
00000000
00100000
00000000
00010000
00001000
00010000
00001000
,
00010000
00001000
00010000
00001000
00010000
00000000
00000100
00000000
00020100
00000000
00000000
00000000
00031000
00000000
01000000
00000000
,
01002000
00000000
00013000
00000010
00020010
00000000
00031000
00100000
,
00101000
00101000
00001000
00010000
00100000
01000000
00010000
10000000
,
01000000
00100000
00010000
10000000
00100000
00000000
01000000
00000000
01200000
00000000
00000000
00000000
10300000
00010000
10000000
00010000
,
10000000
11000000
11000000
01000000
00010000
00012000
00000000
00003100
,
00000010
00000000
00001000
00000001
00000010
00000000
00000001
00000000
00001000
00000000
00000001
00000000
00000100
00000000
00001000
00000000
,
00010000
00010000
01000000
00100000
01000000
00010000
00001000
00000100
,
00000010
00000000
00000100
00000000
00000001
00000010
00000100
00001000
00000001
00000000
00000100
00000000
00001000
00010000
00001000
00010000
,
00001000
00000000
00010000
00001000
00020000
00000000
01000000
00000000
00000100
00000000
01030000
00000000
01100000
00000000
00010000
10000000
,
00100000
00000000
00000000
00000000
00010000
00000000
00000000
00000000
00100000
10000000
00010000
01000000
00100000
00000000
10000000
00000000
01000000
00100000
01000000
00000000
00010000
00000000
00001000
00000000
00000100
00000010
00000100
00000010
00000100
00000000
00000001
00000000
,
00001000
00000100
00000010
00000001
00001000
00000000
00000001
00000000
00002000
00000000
00000000
00000000
00000100
00000000
00000000
00000000
01000000
00000000
00000000
00000000
00003100
00000000
00000010
00000000
00000001
00000000
00000000
00000000
00001000
00000000
00000001
00000000
,
00000010
00000000
00000000
00000000
00001000
00000000
00000000
00000000
00000010
00000001
00001000
00000010
00000100
00000000
00000001
00000000
00000100
00000010
00000100
00000000
00001000
00000000
00010000
00000000
01000000
00100000
01000000
00100000
01000000
00000000
10000000
00000000
,
00010000
01000000
00100000
10000000
00010000
00000000
10000000
00000000
00200000
00000000
00000000
00000000
00010000
00000000
00000000
00000000
01000000
00000000
00000000
00000000
10300000
00000000
00000000
00000000
10010000
00000000
00000000
00000000
10000000
00000000
01000000
00000000
,
00100000
00000000
00000000
00000000
10000000
00000000
00000000
00000000
00100000
00001000
00010000
00001000
00100000
00000000
00001000
00000000
00010000
00000000
00001000
00000000
00000100
00000000
00000000
00000000
00000010
00010000
00001000
00010000
00000010
00000000
00001000
00000000
,
00010000
00000000
01000000
10000000
00010000
00000000
01000000
00010000
20000000
00000000
00000000
00000000
01000000
00000000
00000000
00000000
00100000
00000000
00000000
00000000
00010000
00000000
00000000
00000000
00000000
00000000
00000000
00000000
01000000
00000000
00000000
00000000
,
01000000
00000000
00000000
00000000
30010000
00000000
10000000
00010000
02000000
00000000
00000000
00000000
10000000
00000000
00000000
00000000
00100000
00000000
00000000
00000000
03010000
00000000
00000000
00000000
10000000
01000000
00010000
00001000
00010000
00000000
00001000
00000000
,
00000010
00000001
00000100
00001000
00010000
00000000
00001000
00000000
00000000
00000000
00000000
00000000
00000000
00000000
00000000
00000000
00000000
00000000
00000000
00000000
00000000
00000000
00000000
00000000
00000000
00000000
00000000
00000000
00000000
00000000
00000000
00000000
;
