#TITLE:Şeytan;
#ARTIST:Serdar Ortaç;
#TITLETRANSLIT:Seytan;
#ARTISTTRANSLIT:Serdar Ortac;
#BANNER:Seytan.png;
#BACKGROUND:Seytan-bg.png;
#JACKET:Seytan-jacket.png;
#LYRICSPATH:Seytan.lrc;
#CDTITLE:./CDTITLES/NONE.PNG;
#MUSIC:Seytan.ogg;
#SAMPLESTART:69.375;
#SAMPLELENGTH:15;
#BPMS:0=128;

//---------------dance-single - t7r----------------
#NOTES:
     dance-single:
     t7r:
     Beginner:
     1:
     :
0000
0000
0000
0000
,
0000
0000
0000
0000
,
0000
0000
0000
0000
,
0000
0000
0000
0000
,
0000
0000
0000
0000
,
1000
0000
0000
0000
,
0010
0000
0000
0000
,
0100
0000
0000
0000
,
0001
0000
0000
0000
,
1000
0000
0000
0000
,
0100
0000
0000
0000
,
0010
0000
0000
0000
,
0001
0000
0000
0000
,
0000
1000
0000
0000
,
1000
0000
1000
0000
,
0000
0001
0000
0000
,
0001
0000
0001
0000
,
0000
0100
0000
0000
,
0100
0000
0100
0000
,
0000
0010
0000
0000
,
0010
0000
0010
0000
,
1000
0000
0100
0000
,
0010
0000
0010
0000
,
0001
0000
0100
0000
,
0010
0000
0010
0000
,
1000
0000
0001
0000
,
0100
0000
0100
0000
,
0001
0000
1000
0000
,
0100
0000
0100
0000
,
0010
0000
0000
0000
,
0001
0000
0000
0000
,
0100
0000
0000
0000
,
0010
0000
0000
0000
,
1000
0000
0000
0000
,
0100
0000
0000
0000
,
0010
0000
0000
0000
,
1001
0000
0000
0000
,
0110
0000
0000
0000
,
0100
0000
0100
0000
,
0010
0000
0000
0000
,
0010
0000
0010
0000
,
1000
0000
0000
0000
,
1000
0000
1000
0000
,
0001
0000
0000
0000
,
0001
0000
0001
0000
,
0010
0000
0100
0000
,
0010
0000
0010
0000
,
0001
0000
1000
0000
,
0001
0000
0001
0000
,
0100
0000
0010
0000
,
0100
0000
0100
0000
,
0010
0000
1000
0000
,
0001
0000
0001
0000
,
1000
0000
0000
1000
,
1000
0000
0000
0100
,
0100
0000
0000
0010
,
0010
0000
0000
1001
,
0001
0000
0000
0000
;

//---------------dance-single - t7r----------------
#NOTES:
     dance-single:
     t7r:
     Easy:
     5:
     :
0000
0000
0000
0000
,
0000
0000
0000
0000
,
0000
0000
0000
0000
,
0000
0000
0000
0000
,
0000
0000
0000
0000
,
1000
0000
0100
1000
,
0002
0103
0020
0130
,
0001
0000
0100
0001
,
2000
3100
0020
0230
,
1300
0000
0010
1000
,
0002
0013
0100
0010
,
0001
0000
0010
0001
,
2000
0020
0000
3030
,
1000
0000
0100
0000
,
1000
0000
0000
0000
1000
1000
0000
0000
,
0001
0000
0010
0000
,
0001
0000
1000
1000
,
0001
0000
0100
0000
,
0001
0000
0000
0000
0001
0001
0000
0000
,
1000
0000
0010
0000
,
1000
0000
0001
0001
,
1000
0100
0001
0100
,
1000
0000
0000
0000
1000
1000
0000
0000
,
0001
0100
1000
0100
,
0010
0000
0100
0100
,
0001
0010
1000
0010
,
0001
0000
0000
0000
0001
0001
0000
0000
,
1000
0010
0001
0010
,
0100
0100
0010
1001
,
2000
0100
0000
3001
,
0100
0000
0010
0000
,
2000
0010
0000
3001
,
0010
0000
0100
0000
,
0020
1000
0000
0130
,
0000
1000
0000
0001
,
0200
1000
0010
0301
,
2002
0000
0000
3003
,
1000
0100
1000
1000
,
0002
1003
0001
0010
,
0001
0100
0001
0001
,
2000
3001
1000
0001
,
1000
0010
1000
1000
,
0002
1003
0001
0100
,
0001
0010
0001
0001
,
1000
0100
0010
0001
,
1000
0010
0100
0210
,
0302
0010
1003
2000
,
3001
0010
0100
0110
,
2000
0010
3001
0002
,
0103
1000
0100
0110
,
0020
0001
0230
0320
,
1030
0100
0001
0100
,
1000
0000
1000
0000
0001
0001
0001
0000
,
0100
0000
0000
0000
0100
0000
0100
0010
,
0100
0000
0000
0000
0010
0000
0010
0100
,
0010
0000
0000
0000
1000
0000
1000
0001
,
1000
0100
0001
0010
,
1001
0000
0000
0000
;

//---------------dance-single - t7r----------------
#NOTES:
     dance-single:
     t7r:
     Medium:
     8:
     :
0000
0000
0000
0000
,
0000
0000
0000
0000
,
0000
0000
0000
0000
,
0000
0000
0000
0000
,
0000
0000
0000
0000
,
0001
1000
0000
1000
0200
0000
0310
0000
,
0002
0000
0103
0010
1000
0000
0100
0000
,
1000
0001
0000
0001
0200
0000
0310
0000
,
2000
0000
3100
0010
0002
0000
0203
0000
,
0301
1000
0000
1000
0020
0000
0130
0000
,
0002
0000
0013
0100
1000
0000
0010
0000
,
1000
0002
0010
0000
2003
0000
3010
0100
,
0001
0010
0200
0000
0001
0000
0010
0000
,
1300
0000
0000
0000
0001
0000
0000
0000
1000
0000
0000
0100
0000
0000
1000
0000
,
0001
0100
0000
0000
0001
2000
0000
3000
,
0001
0000
0000
0000
0010
0000
0000
0000
0001
0000
0000
0100
0000
0000
0010
0000
,
1000
0001
0000
1000
0100
0000
0110
0000
,
0001
0000
0000
0000
1000
0000
0000
0000
0001
0000
0000
0100
0000
0000
0001
0000
,
1000
0100
0000
0000
1000
0002
0000
0003
,
1000
0000
0000
0000
0010
0000
0000
0000
1000
0000
0000
0100
0000
0000
0010
0000
,
0001
1000
0000
0001
0100
0000
0110
0000
,
0010
1000
0010
0000
1000
0100
1000
0000
,
0001
0001
0000
0000
1000
2002
0000
3003
,
1000
0100
0010
0000
0001
1000
0010
0000
,
1000
0100
0000
0001
0100
0000
0110
0000
,
0100
1000
0100
0000
1000
0010
1000
0000
,
0001
0001
0000
0000
1000
2002
0000
3003
,
1000
0010
0100
0000
0001
1000
0100
0000
,
1000
0010
0001
0010
1000
0000
1001
0000
,
2000
0100
0000
3001
,
0100
0000
0010
0000
1000
0000
0001
0010
,
0002
0100
0000
1003
,
0001
0200
0320
2030
,
3100
0020
0001
0000
0000
0000
0130
0000
,
1000
0010
0100
0001
,
1000
1000
0001
0001
,
0200
0000
0000
0320
,
1030
0000
0000
0100
0000
0000
1000
0000
0001
0000
0000
0100
0000
0000
0001
0000
,
0020
0000
0031
0100
0002
0000
2003
0000
,
3001
0000
0000
0010
0000
0000
0001
0000
1000
0000
0000
0010
0000
0000
1000
0000
,
0200
0000
1300
0010
2000
0000
3002
0000
,
1003
0000
0000
0010
0000
0000
1000
0000
0001
0000
0000
0010
0000
0000
0001
0000
,
0200
0000
0301
0010
0002
0000
2003
0000
,
3001
0000
0000
0100
0000
0000
1000
0000
0100
0000
0000
0010
0000
0000
0100
0000
,
0001
0000
0001
0000
0010
0000
0010
0000
0100
0000
0000
1000
0001
0000
1000
0000
,
0100
0000
0001
0100
0001
0000
0100
1000
,
0020
0000
0130
0001
1000
1000
0002
0000
,
0013
0000
1000
0010
1000
0000
0010
0001
,
0200
0000
1300
0100
0010
0010
0200
0000
,
0301
0000
1000
0010
0001
0000
1000
0100
,
0002
0000
0013
0100
2000
0000
3002
0000
,
1003
0000
0001
0100
1000
0000
0001
0010
,
0100
0000
0100
0000
0010
1000
0001
1000
,
0001
0000
0000
1000
0100
0000
0000
0000
1000
0000
1000
0000
0010
0000
0000
0000
,
0100
0000
0000
0001
0010
0000
0000
0000
0100
0000
0100
0000
1000
0000
0000
0000
,
0010
0000
0000
0100
0010
0000
0000
0000
1000
0000
1000
0000
0001
0000
0000
0000
,
1000
0100
0010
1000
0000
0001
0100
0010
,
0001
0000
0000
0000
;

//---------------dance-single - t7r----------------
#NOTES:
     dance-single:
     t7r:
     Hard:
     11:
     :
0000
0000
0000
0000
,
0000
0000
0000
0000
,
0000
0000
0000
0000
,
0000
0000
0000
0000
,
0000
0000
0000
0000
,
0001
0010
0000
0001
0002
0000
1003
0010
,
0200
0000
0000
0000
1300
0000
0100
0000
0010
0000
0000
0100
0000
0000
0001
0000
,
1000
0100
0000
1000
2000
0000
3001
0100
,
0020
0000
0000
0000
0031
0000
0010
0000
0100
0010
0000
1000
0002
0000
0000
0000
,
1003
0200
0000
0001
0001
0000
0310
0100
,
2000
0000
0000
3010
0100
0000
0010
0000
0001
0000
0000
0010
0100
0000
0010
0000
,
1000
0200
0000
0310
2000
0000
3001
0100
,
0010
0001
0000
2000
0010
0000
0001
0000
0001
0000
0000
0100
0000
0000
3001
0000
,
1000
0000
0000
0000
0101
0000
0000
0000
1000
0000
0000
0001
0100
0000
0001
0000
,
1000
1001
0000
0000
0001
2002
0000
3003
,
0001
0000
0000
0000
1100
0000
0000
0000
0001
0000
0000
1000
0100
0000
1000
0000
,
0010
0010
0000
0100
0110
0000
1010
0000
,
1000
0000
0000
0000
0011
0000
0000
0000
1000
0000
0000
0001
0010
0000
0001
0000
,
1000
0000
1001
0000
0000
0000
0001
1000
0001
0000
2002
0000
0000
0000
3003
0000
,
0001
0000
0000
0000
1010
0000
0000
0000
0001
0000
0000
1000
0010
0000
1000
0000
,
0100
0000
0100
0000
0000
0000
0010
0000
0100
0000
0000
0010
0001
0000
0100
0000
,
1000
0100
0020
1000
0230
0000
0302
0010
,
1003
1001
0000
0000
0011
0022
0000
0033
,
1000
0100
0020
0100
0032
0100
2003
0010
,
3001
0000
0101
0000
1000
0200
0000
0000
0320
0000
0000
1030
0010
0000
0100
0000
,
0001
0100
0020
0001
0230
0000
2300
0010
,
3001
1001
0000
0000
1010
2020
0000
3030
,
0001
0100
0020
0100
2030
0100
3002
0010
,
1003
0100
1000
0000
0001
0000
1000
0000
1001
0000
0000
0000
0110
0000
0000
0000
,
0200
1000
0010
0301
,
0010
0100
1000
0000
0010
0100
0001
0000
,
0020
1000
0100
0031
,
0100
0010
2000
0000
3001
0010
0011
0000
,
0001
0200
1000
0000
0010
0000
0301
0000
,
1000
0200
0001
0000
0010
0000
1300
0001
,
0100
0100
0010
0010
,
2002
0000
0000
3003
,
1000
0001
0100
0001
0200
0000
2300
3100
,
0020
0000
0130
0001
1000
1000
0200
0000
,
0301
0100
0010
0100
2000
0000
3010
0100
,
2000
0000
3100
0010
0100
0100
0002
0000
,
1003
0001
0010
0001
0020
0000
1030
0010
,
0200
0000
0310
0001
2000
0000
3020
0000
,
0031
0010
0100
0010
2000
0000
3100
0010
,
1000
1000
0010
0010
0001
0001
0100
0100
,
0010
0000
0000
0100
0001
0000
0100
0000
0010
0000
0000
0100
0002
0000
0010
0000
,
2003
0000
3100
0010
0001
0001
2000
0000
,
3010
0000
0000
0100
1000
0000
0100
0000
0010
0000
0000
0100
0001
0000
0010
0000
,
0200
0000
0301
0100
1000
1000
0002
0000
,
1003
0000
0000
0010
0100
0000
0010
0000
0001
0000
0000
0010
0100
0000
0010
0000
,
2000
0000
3100
0001
0200
0000
0320
0000
,
0031
0000
0100
0000
1000
0000
0001
0000
0020
0000
0000
0130
0001
0000
1000
0000
,
0001
0010
0001
0000
1000
0000
0001
0000
1000
0100
1000
0000
0001
1000
0001
1000
,
0001
0000
0000
0100
0000
0010
0100
0000
1000
0000
1000
0000
0100
0000
0010
0000
,
1000
0000
0000
0100
0000
0010
0100
0000
0001
0000
0001
0000
0100
0000
0020
0000
,
0031
0000
0000
1000
0000
0010
0001
0000
0010
0000
0010
0000
0100
0000
0001
0000
,
1000
0100
0000
1000
0002
0000
0100
0000
1003
0010
0000
1000
0002
0000
0013
0000
,
1001
0000
0000
0000
;

//---------------dance-single - t7r----------------
#NOTES:
     dance-single:
     t7r:
     Challenge:
     14:
     :
0000
0000
0000
0000
,
0000
0000
0000
0000
,
0000
0000
0000
0000
,
0000
0000
0000
0000
,
0000
0000
0000
0000
,
0001
0010
0000
0010
0020
0000
0031
0100
,
0020
0000
0000
0000
0130
0000
1000
0000
0100
0000
0000
0010
0100
0000
0001
0000
,
1000
0100
0000
0100
0200
0000
1300
0010
,
0200
0000
0000
0000
0310
0000
0001
0000
0010
0100
0000
0001
2000
0000
0000
0000
,
3001
0000
0020
0000
0000
0000
0001
0000
0130
0000
0000
0100
1000
0000
0001
0000
,
2000
0000
0000
0000
3010
0000
0100
0000
0010
0000
0000
0001
0010
0000
0100
0000
,
0001
2000
0000
0100
3002
0000
0100
1003
,
0010
0100
0000
0001
0020
0000
1000
0000
1000
0000
0000
0100
0000
0000
0031
0000
,
1000
0000
0010
0100
0010
0000
1000
0000
0010
0000
0100
0001
0000
0000
1000
0100
,
1000
0001
0000
0000
1100
2200
0000
3300
,
0000
0000
0001
0100
0001
0000
0010
0001
0010
0000
0001
1000
0001
0000
0100
0010
,
0100
0000
0100
0000
0000
0000
0101
0000
0102
0000
0000
1003
0001
0000
0100
0000
,
0001
0000
0010
0100
0010
0000
0001
0000
0010
0000
0100
1000
0000
0000
0001
0100
,
0001
0000
1000
0000
0000
0000
0010
0100
0010
0000
0220
0000
0000
0000
0330
0000
,
0000
0000
1000
0100
1000
0000
0010
1000
0010
0000
1000
0001
1000
0000
0100
0010
,
0100
0000
0100
0000
0000
0000
1100
0000
1100
0000
0000
1000
0100
0000
1000
0000
,
0001
0000
0100
0010
1000
0000
0001
0000
0100
0000
0010
1000
0001
0000
1000
0001
,
0100
1100
0000
0000
0101
2002
0000
3003
,
1000
0000
0100
0010
0001
0000
0100
0010
0100
0000
1000
0100
1000
0000
0100
0010
,
0100
0000
1100
0000
0000
0000
0101
0000
2001
0000
0000
3100
0010
0000
0100
0000
,
1000
0000
0010
0100
0001
0000
1000
0000
0010
0000
0100
0001
1000
0000
0001
1000
,
0010
0000
0011
0000
0000
0000
0010
1000
0001
0000
2002
0000
0000
0000
3003
0000
,
0001
0000
0010
0100
1000
0000
0010
0100
0010
0000
0001
0010
0001
0000
0010
0100
,
0010
1000
0001
0000
1000
0000
0100
0000
1000
0010
0100
0010
1000
0000
0001
0000
,
1000
0000
0000
0100
0010
0000
0200
0000
0001
0000
0000
0000
0310
0000
0000
0000
,
0001
0000
0000
0100
0010
0000
0200
0000
1000
0000
0000
0000
0310
0000
1000
0000
,
0001
0000
0000
0010
0100
0000
0020
0000
1000
0000
0000
0000
0130
0000
0000
0000
,
1000
0000
0000
0010
0100
0000
0010
0000
0002
0000
0000
0000
2003
0000
0000
0000
,
3100
0000
0001
0010
0000
0100
1000
0000
0001
0010
0000
0000
1001
0000
0000
0000
,
1000
0000
0100
0010
0000
0001
1000
0000
0100
0010
0000
0000
1001
0000
0010
0000
,
0100
0000
0000
0000
0100
0000
0000
0000
0010
0100
0010
0100
0010
0100
0010
0000
,
2002
0000
0000
0000
0000
0000
0000
0000
3003
0000
1000
0001
1000
0000
1001
0000
,
0010
0000
1000
0000
0100
0000
0001
0000
0200
0000
0000
0310
0100
0000
1000
0000
,
0002
0000
0010
2003
0010
0001
3200
0000
,
1300
0000
0010
0000
0100
0000
0010
0000
0002
0000
0000
0013
0100
0000
0010
0000
,
2000
0000
0100
3002
0100
1000
0023
0000
,
1030
0000
0010
0000
0100
0000
1000
0000
0020
0000
0000
0031
0010
0000
0100
0000
,
0002
0000
0010
2003
3020
0000
0230
0000
,
1300
0000
0100
0000
0001
0000
0010
0000
0100
0000
0000
0001
0100
0000
1000
0000
,
0001
0100
0001
0000
1000
0100
1000
0100
1000
0001
1000
0001
0100
0000
0010
1000
,
0001
0010
0100
0101
0002
0100
2003
3010
,
0002
0000
0000
0103
0010
0000
0100
0000
1000
0100
1000
0100
0020
0000
0000
0000
,
1030
0000
0100
0000
0001
0000
0101
0000
0200
0000
0000
0310
0100
0000
0010
0000
,
2000
0000
0000
3010
0001
0000
0100
0000
1000
0100
1000
0100
0002
0000
0000
0000
,
1003
0010
0100
1100
2000
0100
3002
0013
,
2000
0000
0000
3100
0010
0000
0100
0000
0002
0000
0000
0000
2003
0000
0000
0000
,
3010
0000
0001
0000
0100
0000
0010
0000
2001
0000
0000
3010
0100
0000
0010
0000
,
0001
0010
1000
0000
0001
0010
0100
1000
0001
1000
0001
1000
0100
0010
0100
0010
,
0001
0000
0000
1000
0000
0100
0010
0100
0001
0000
0001
0000
0100
0000
0010
0100
,
1000
0000
0000
0001
0000
0100
0010
0100
1000
0000
1000
0000
0100
0000
0010
0100
,
0001
0000
0000
0010
0000
1000
0010
0100
0010
0000
0010
0000
0001
0000
1000
0000
,
0001
0100
0001
1000
0200
0000
0010
0000
1300
0010
1000
0001
0200
0000
0310
0000
,
1001
0000
0000
0000
;

//---------------dance-double - t7r----------------
#NOTES:
     dance-double:
     t7r:
     Easy:
     6:
     :
00000000
00000000
00000000
00000000
,
00000000
00000000
00000000
00000000
,
00000000
00000000
00000000
00000000
,
00000000
00000000
00000000
00000000
,
00000000
00000000
00000000
00000000
,
00100000
00000000
00010000
10000000
,
00200000
01300000
00010000
00000000
,
10000000
00000000
01000000
00010000
,
00002000
00013000
00001000
00000020
,
00000230
00000000
00000001
00000310
,
00000002
00000000
00000100
00001003
,
00000001
00000000
00000100
00001000
,
00020000
00000000
00001000
00130000
,
10000000
00000000
01000000
00000000
,
00100000
00000000
00000000
00000000
00100000
00100000
00000000
00000000
,
00001000
00000000
00010000
00000000
,
00000010
00000010
00000000
00000000
00000100
00000000
00000100
00000000
,
00000001
00000000
00000010
00000000
,
00000100
00000000
00000000
00000000
00000100
00000100
00000000
00000000
,
00010000
00000000
00001000
00000000
,
01000000
00000000
00000000
00100000
00100000
00000000
00100000
00000000
,
10000000
02000000
03200000
00320000
,
00030000
00002000
00003020
00000230
,
00000300
00000002
00000023
00000230
,
00001300
00020000
00230000
00320000
,
10030000
00200000
02300000
03020000
,
00030000
00002000
00003200
00000320
,
00000031
00000200
00000320
00002030
,
00003001
00000100
00001000
00011000
,
00020000
00000000
00000000
00000000
,
00031000
00000000
01000000
00000000
,
00020000
00000000
00000000
00000000
,
10030000
00000000
01000000
00000000
,
00200000
00000000
00000000
00000000
,
00301000
00000000
00010000
00000000
,
00000020
00000000
00000100
00000130
,
00001001
00000000
00000000
00000000
,
00000001
00000001
00000010
00000100
,
00002000
00003001
00000100
00002000
,
00013000
00010000
00100000
01000000
,
00020000
10030000
02000000
03200000
,
00301000
00001000
00010000
00001000
,
00000200
00000310
00001000
00000002
,
00000013
00000100
00001000
00000001
,
00000200
00002300
00000000
00013000
,
00001000
00011000
01000000
01000000
,
00020000
00230000
00000000
00310000
,
10000000
10100000
00100000
00100000
,
02000000
03002000
00000000
00013000
,
00000100
00001100
00001000
00001000
,
00000002
00000203
00000000
00000310
,
00001000
00000001
00000010
00001000
,
00010000
00200000
00000000
00000000
,
10300000
00000000
00000000
01000000
01000000
00000000
01000000
00000000
,
01000000
00000000
00000000
00010000
00010000
00000000
00010000
00000000
,
00010000
00000000
00000000
00001000
00001000
00000000
00001000
00000000
,
00000100
00000020
00000130
00000002
,
00001003
00000000
00000000
00000000
;

//---------------dance-double - t7r----------------
#NOTES:
     dance-double:
     t7r:
     Medium:
     8:
     :
00000000
00000000
00000000
00000000
,
00000000
00000000
00000000
00000000
,
00000000
00000000
00000000
00000000
,
00000000
00000000
00000000
00000000
,
00000000
00000000
00000000
00000000
,
00001000
00010000
00000000
00010000
00000200
00000000
00001300
00000000
,
00000002
00000000
00000103
00001000
00000000
00000000
00000000
00000000
,
00010000
00001000
00000000
00001000
02000000
00000000
03010000
00000000
,
20000000
30100000
00010000
00002000
,
00013000
00001000
00000000
00001000
00020000
00000000
00030010
00000000
,
00000200
00000000
00000301
00000010
00000000
00000000
00000000
00000000
,
00000000
00002000
00000000
00000000
00023000
00000000
00031000
00000000
,
01000000
00010000
20000000
00000000
00100000
00000000
30010000
00000000
,
10000000
01000000
00010000
00001000
,
01000000
00010000
00000000
00000000
01000000
00010000
00000000
00000000
,
00100000
00001000
00010000
00001000
,
00000010
00000001
00000000
00000100
00002000
00000000
00013000
00000000
,
00000000
00000100
00001000
00000000
00000001
00000000
00000100
00000000
,
00001000
00010000
00000000
00000000
00001000
00010000
00000000
00000000
,
00001000
01000000
00010000
00100000
,
00010000
10000000
00000000
00100000
00020000
00000000
00031000
00000000
,
00010000
00000000
00011000
00000000
00010000
00000100
00001000
00000000
,
00000001
00000100
00000000
00000000
00001000
00010000
00000000
00000000
,
00001000
00000000
00100000
00000000
00010000
10000000
00010000
00000000
,
10000000
01000000
00000000
00010000
00002000
00000000
01003000
00000000
,
00010000
10000000
00100000
00010000
,
00001000
00010000
00000000
00000000
00001000
00000010
00000000
00000000
,
00000001
00000100
00000001
00001000
,
00000001
00000010
00001000
00000000
00010000
00000000
00011000
00000000
,
00002000
00010000
01003000
00010000
,
10000000
00100000
01000000
00001000
,
00020000
00001000
00030100
00001000
,
00000001
00000200
00000320
00020030
,
00032000
00010000
00103000
00010000
,
10000000
00000000
00100000
01000000
00010000
00000000
10000000
00000000
,
01000000
00000000
00010000
00000000
,
00000000
00001000
00000100
00000000
00000001
00000000
00001001
00000000
,
00000000
00000001
00000100
00000000
00000001
00000000
00001000
00000100
,
00020000
00000000
00001000
00000000
00030100
00010000
00001000
00000000
,
00000000
01000000
00010000
00000000
10000000
00000000
00100000
01000000
,
00020000
00000000
00001000
00000000
00130000
00001000
00020000
00000000
,
00030000
00001000
00010000
00000000
00001000
00000000
00000010
00000100
,
00002000
00000010
00003002
00000023
,
00000030
00000001
00000100
00000000
00001000
00000000
00010000
00000000
,
00000100
00010000
00001000
00000000
00010000
00000000
00011000
00000000
,
00001000
00000000
00000000
00010000
00000000
00000000
00001000
00000000
01000000
00000000
00000000
00000000
00010000
00000000
10000000
00000000
,
02000000
00000000
03010000
00000000
00001000
00010000
00002000
00000000
,
00013000
00000000
00000000
00000100
00000000
00000000
00000010
00000000
00000001
00000000
00000000
00000000
00001000
00000000
00000000
00000000
,
00000002
00000000
00000103
00000000
00001000
00010000
00002000
00000000
,
00013000
00000000
00000000
01000000
00000000
00000000
10000000
00000000
00100000
00000000
00000000
00000000
01000000
00000000
00001000
00000000
,
00020000
00000000
00030100
00001000
00000002
00000000
00000023
00000000
,
00001030
00000000
00000000
00010000
00000000
00000000
00000100
00000000
00001000
00000000
00000000
00000000
00000001
00000000
00000000
00000000
,
00000100
00000000
00001000
00010000
00001000
00000000
00010000
00000000
,
01000000
00000000
00000000
10000000
00100000
00000000
00000000
00000000
10000000
00000000
10000000
00000000
00010000
00000000
00000000
00000000
,
01000000
00000000
00000000
00001000
00010000
00000000
00000000
00000000
00001000
00000000
00001000
00000000
00000100
00000000
00000000
00000000
,
00000001
00000000
00000000
00000010
00000100
00000000
00000000
00000000
00001000
00000000
00001000
00000000
00000010
00000000
00000000
00000000
,
00010000
00001000
00200000
00000000
00301000
00010000
00000020
00000000
,
00010030
00000000
00000000
00000000
;

//---------------dance-double - t7r----------------
#NOTES:
     dance-double:
     t7r:
     Hard:
     11:
     :
00000000
00000000
00000000
00000000
,
00000000
00000000
00000000
00000000
,
00000000
00000000
00000000
00000000
,
00000000
00000000
00000000
00000000
,
00000000
00000000
00000000
00000000
,
00010000
00000010
00000000
00001000
00002000
00000000
00003001
00000100
,
00000020
00000000
00000000
00000000
00001030
00000000
00000100
00000000
00010000
00000000
00000000
00001000
00000000
00000000
01000000
00000000
,
00010000
10000000
00000000
00100000
00200000
00000000
10300000
01000000
,
00200000
00000000
00000000
00000000
00301000
00000000
00010000
00000000
00001000
00000000
00000000
00000100
00000002
00000000
00000000
00000000
,
00000013
00000100
00000000
00001000
00002000
00000000
00003001
00000010
,
00002000
00000000
00000000
00000000
00013000
00000000
00001000
00000000
00100000
00000000
00000000
00010000
00000000
00000000
10000000
00000000
,
00100000
00020000
00000000
00031000
00020000
00000000
00031000
00000100
,
00000010
00000100
00000002
00000000
00000010
00000000
00001003
00000000
,
00000001
00000000
00000000
00000000
00000010
00000000
00000000
00000000
00001000
00000000
00000000
00010000
00001000
00000000
00000100
00000000
,
00000001
00001000
00000000
00000000
00000100
00020000
00000000
00000000
,
00031000
00000000
00000000
00000000
00010000
00000000
00000000
00000000
01000000
00000000
00000000
10000000
00010000
00000000
10000000
00000000
,
00100000
00010000
00000000
00001000
00020000
00000000
00031000
00000000
,
00000000
00000000
00000100
00000000
00000001
00000000
00000000
00000000
00000010
00000000
00000000
00001000
00010000
00000000
00000100
00000000
,
00001000
00000001
00000000
00000100
00001000
00020000
00000000
00000000
,
00031000
00000000
00000000
00000000
00100000
00000000
00000000
00000000
00010000
00000000
00000000
10000000
00100000
00000000
00010000
00000000
,
00001000
00100000
00000000
00010000
20000000
00000000
31000000
00000000
,
00010000
00001000
00000020
00000100
00000032
00000100
00001003
00000000
,
00000001
00000100
00002000
00000100
00023000
00001000
00030100
00000000
,
00010000
00001000
00020000
01000000
00032000
00010000
01003000
00000000
,
00100000
10000000
00200000
00010000
02300000
00010000
03001000
00000000
,
10000000
01000000
00020000
00001000
00030200
00001000
00000310
00000000
,
00000001
00000101
00000000
00000001
00001000
00001010
00000000
00000000
,
00000001
00000100
00002000
00010000
02003000
00010000
03100000
00000000
,
10000000
00100000
01100000
01000000
01010000
00000000
10010000
00000000
,
10000000
01000000
00100000
00010000
,
00001000
00000010
00000100
00000001
,
00000010
00000100
00001000
00010000
,
01000000
00100000
10000000
00010000
,
10000000
00200000
00010000
00000000
01300000
00000000
00001000
00000000
,
00010000
00000200
00000010
00000000
00001300
00000000
00000001
00000100
,
00001000
00010000
00011000
00001000
,
02000000
00000000
00000000
03000000
,
00010000
10000000
01000000
10000000
02000000
00000000
03100000
00001000
,
00020000
00000000
00031000
00000000
00000100
00000010
00002000
00000000
,
00003001
00000010
00000100
00000010
00000200
00000000
00001300
00000001
,
00000200
00000000
00001300
00000000
00010000
00001000
02000000
00000000
,
03010000
10000000
00100000
10000000
00200000
00000000
01300000
00001000
,
00020000
00031000
00000020
00000032
,
00001003
00000001
00000100
00000001
00000200
00000000
00001300
00000000
,
00010000
00000000
00001000
00000000
00010000
00001000
00100000
00010000
,
10000000
00000000
00000000
00100000
01000000
00000000
00010000
00000000
10000000
00000000
00000000
01000000
00200000
00000000
00000000
00000000
,
00302000
00000000
00013000
00000010
00001000
00001000
00000002
00000000
,
00000103
00000000
00000000
00000001
00000010
00000000
00000100
00000000
00002000
00000000
00000000
00003001
00000100
00000000
00001000
00000000
,
00020000
00000000
00031000
01000000
00010000
00010000
20000000
00000000
,
30100000
00000000
00000000
01000000
00010000
00000000
10000000
00000000
01000000
00000000
00000000
00010000
00001000
00000000
00100000
00000000
,
00020000
00000000
10030000
00100000
00020000
00000000
00032000
00000000
,
00003010
00000000
00000000
00000100
00001000
00000000
00000001
00000000
00000100
00000000
00000000
00000000
00001000
00000000
00000000
00000000
,
00010000
00001000
00000010
00000000
00000001
00000100
00001000
00010000
,
00001000
00000000
00000000
01000000
00000000
00010000
10000000
00000000
01000000
00000000
01000000
00000000
00010000
00000000
00000000
00000000
,
00001000
00000000
00000000
00010000
00000000
00000100
00001000
00000000
00000001
00000000
00000001
00000000
00000010
00000000
00000000
00000000
,
00000001
00000000
00000000
00000100
00000000
00001000
00010000
00000000
00001000
00000000
00001000
00000000
01000000
00000000
00010000
00000000
,
10000000
00100000
00000000
00010000
00002000
00000000
00000100
00000000
00013000
00001000
00000000
00000010
00000200
00000000
00001300
00000000
,
00001001
00000000
00000000
00000000
;

//---------------dance-double - t7r----------------
#NOTES:
     dance-double:
     t7r:
     Challenge:
     14:
     :
00000000
00000000
00000000
00000000
,
00000000
00000000
00000000
00000000
,
00000000
00000000
00000000
00000000
,
00000000
00000000
00000000
00000000
,
00000000
00000000
00000000
00000000
,
00001000
01000000
00000000
01000000
02000000
00000000
03010000
10000000
,
02000000
00000000
00000000
00000000
03010000
00000000
00001000
00000000
00010000
00000000
00000000
00000100
00001000
00000000
00000001
00000000
,
00000010
00000001
00000000
00000001
00000002
00000000
00000103
00001000
,
00020000
00000000
00000000
00000000
00031000
00000000
01000000
00000000
00010000
00100000
00000000
00010000
20000000
00000000
00000000
00000000
,
30100000
00000000
00010000
00000000
00000000
00000000
00010000
00000000
00020000
00000000
00000000
00031000
00010000
00000000
00001000
00000000
,
00000200
00000000
00000000
00000000
00000301
00000000
00001000
00000000
00000100
00000000
00000000
00001000
00000001
00000000
00000100
00000000
,
00000001
00000020
00000000
00001030
00002000
00000000
00103000
00010000
,
10000000
00100000
00000000
10000000
02000000
00000000
00010000
00000000
00010000
00000000
00000000
00100000
00000000
00000000
13000000
00000000
,
00010000
00000000
01000000
00010000
01000000
00000000
00010000
00000000
10000000
00000000
00100000
01000000
00000000
00000000
00010000
00100000
,
00010000
00100000
00000000
00000000
00001000
00022000
00000000
00033000
,
00000000
00000000
00010000
00001000
00010000
00000000
00000100
00001000
00000001
00000000
00001000
00000010
00000100
00000000
00000001
00001000
,
00000001
00000000
00000100
00000000
00000000
00000000
00001000
00000000
00012000
00000000
00000000
01003000
00010000
00000000
00000000
00000000
,
00000000
00000000
10000000
01000000
00100000
00000000
01000000
00000000
00010000
00000000
00001000
00000100
00000000
00000000
00000010
00001000
,
00000010
00000000
00001010
00000000
00000000
00000000
00000001
00001000
00000001
00000000
00002002
00000000
00000000
00000000
00003003
00000000
,
00000000
00000000
00000001
00000010
00000100
00000000
00001000
00000000
00000001
00000000
00000100
00001000
00000100
00000000
00001000
00010000
,
00001000
00000000
00010000
00000000
00000000
00000000
01000000
00000000
02100000
00000000
00000000
13000000
00010000
00000000
00000000
00000000
,
10000000
00000000
00100000
01000000
00010000
00000000
10000000
00000000
01000000
00000000
00010000
00001000
00010000
00000000
00001000
00000100
,
00000001
00000000
00001000
00000000
00000100
00000000
00000000
00000000
00001100
00000000
00002200
00000000
00000000
00003300
00000000
00000000
,
00010000
00000000
00001000
00010000
00001000
00000000
00010000
01000000
10000000
00000000
00100000
01000000
00010000
00000000
10000000
00100000
,
10000000
00000000
00010000
00000000
00100000
00000000
00001000
00000000
00021000
00000000
00000000
00030100
00001000
00000000
00000000
00000000
,
00000001
00000000
00000100
00000010
00001000
00000000
00000001
00000000
00000010
00000000
00001000
00010000
00001000
00000000
00010000
00100000
,
10000000
00000000
00010000
00000000
00100000
00000000
00010000
00100000
00010000
00000000
00220000
00000000
00000000
00330000
00000000
00000000
,
00001000
00000000
00010000
00001000
00010000
00000000
00001000
00000000
00000010
00000000
00000001
00000100
00000010
00000000
00001000
00000000
,
00000001
00000010
00000100
00000000
00001000
00000000
00010000
00000000
10000000
01000000
00100000
00010000
10000000
00000000
00100000
00000000
,
00010000
00000000
00000000
00001000
00010000
00000000
00002000
00000000
00000100
00000000
00000000
00000000
00013000
00000000
00000000
00000000
,
00001000
00000000
00000000
00010000
00001000
00000000
00020000
00000000
01000000
00000000
00000000
00000000
00031000
00000000
00000000
00000000
,
00010000
00000000
00000000
00001000
00010000
00000000
00002000
00000000
00000010
00000000
00000000
00000000
00013000
00000000
00000000
00000000
,
00001000
00000000
00000000
00010000
00001000
00000000
00020000
00000000
00100000
00000000
00000000
00000000
00031000
00000000
00000000
00000000
,
00000010
00000000
00000100
00001000
00000000
00000001
00000100
00000000
00001000
00010000
00000000
00000000
00011000
00000000
00000000
00000000
,
00010000
00000000
01000000
10000000
00000000
00010000
00100000
00000000
00010000
10000000
00000000
00000000
10100000
00000000
00000000
00000000
,
10000000
00010000
00001000
00000001
,
00000100
00000000
00001000
00000000
00010000
00000000
00100000
00000000
10000000
01000000
10000000
01000000
00100000
00000000
00001000
00010000
,
00001000
00000000
00010000
00000000
01000000
00000000
10000000
00000000
00200000
00000000
00000000
01300000
00010000
00000000
10000000
00000000
,
02000000
00000000
00000000
00000000
03010000
00000000
00001000
00000000
00000100
00000010
00000100
00000010
00000200
00000000
00000000
00000000
,
00000301
00000000
00000000
00000010
00000100
00000000
00001000
00000000
00000002
00000000
00000000
00000103
00001000
00000000
00010000
00000000
,
00000200
00000000
00000000
00010300
00001000
00000000
01000000
00000000
00010000
10000000
00010000
10000000
00020000
00000000
00000000
00000000
,
10030000
00000000
00000000
00100000
01000000
00000000
00010000
00000000
00100000
00000000
00000000
00001000
00010000
00000000
00001000
00000000
,
00000020
00000000
00000000
00000130
00001000
00000000
00000001
00000000
00000200
00000000
00000010
00000000
00000302
00000000
00000000
00000000
,
00001003
00000000
00000000
00000100
00010000
00000000
00001000
00000000
01000000
00000000
00000000
00010000
00100000
00000000
00010000
00000000
,
10000000
00100000
10000000
00000000
00010000
00100000
00010000
00100000
00001000
00010000
00001000
00000000
00010000
00000000
00001000
00000100
,
00000010
00000100
00001000
00010000
00000100
00000010
00002000
00010000
,
00003200
00000000
00000000
00000301
00000010
00000000
00001000
00000000
00010000
00001000
01000000
00010000
20000000
00000000
00000000
30010000
,
00100000
01000000
00010000
00001000
01000000
00100000
00020000
00001000
,
02030000
00000000
00000000
13000000
00100000
00000000
00010000
00000000
00001000
00010000
00000100
00001000
00000002
00000000
00001003
00000000
,
00000100
00000010
00001000
00010000
00000010
00000100
00002000
00010000
,
00003020
00000000
00000000
00000031
00000100
00000000
00001000
00000000
00020000
00000000
00001000
00000000
02030000
00000000
00010000
00000000
,
03100000
00000000
00010000
10000000
00100000
00000000
00010000
00000000
00001000
00000000
00000010
00000100
00001000
00000000
00000001
00000000
,
00000100
00000001
00001000
00000000
00000100
00010000
00001000
00010000
00001000
01000000
00010000
00000000
10000000
01000000
00100000
00010000
,
10000000
00000000
00000000
00100000
00000000
00010000
00001000
00010000
00000010
00000000
00000010
00000000
00001000
00000000
00000001
00001000
,
00000100
00000000
00000000
00000001
00000000
00000100
00000010
00000100
00010000
00000000
00010000
00000000
00001000
00000000
01000000
00010000
,
10000000
00000000
00000000
00010000
00000000
01000000
00100000
00010000
00001000
00000000
00001000
00000000
00000100
00000000
00000001
00000010
,
00001000
00010000
00000000
01000000
20000000
00000000
30100000
00000000
00010000
00001000
00000100
00000001
00000020
00000000
00000130
00000000
,
00011000
00000000
00000000
00000000
;
