#TITLE:雪上断火;
#ARTIST:Des-ROW・組;
#TITLETRANSLIT:Setsujou danka;
#ARTISTTRANSLIT:Des-ROW・Gumi;
#BANNER:Setsujou danka.png;
#BACKGROUND:Setsujou danka-bg.png;
#JACKET:Setsujou danka-jacket.png;
#CDTITLE:./CDTITLES/POP'N MUSIC.PNG;
#MUSIC:Setsujou danka.ogg;
#SAMPLESTART:24;
#SAMPLELENGTH:15;
#BPMS:0=180,205=105,269=180;
#STOPS:200=1;
#BGCHANGES:0=../../../BGAs/24ni.mp4=1=0=0=1=====;

//---------------dance-single - t7r----------------
#NOTES:
     dance-single:
     t7r:
     Beginner:
     4:
     :
0000
0000
0000
0000
,
0000
0000
0000
0000
,
0000
0000
0000
0000
,
0000
0000
0000
0000
,
0000
0000
0000
0000
,
0000
0000
0000
0000
,
0010
0000
0000
0000
,
0000
0000
0000
0000
,
1000
0000
0000
0000
,
1000
0000
0000
0000
,
0001
0000
0000
0000
,
0001
0000
0000
0000
,
1000
0000
0000
0000
,
1000
0000
0000
0000
,
0010
0000
0000
0000
,
0010
0000
0000
0000
,
0100
0000
0000
0000
,
0100
0000
0000
0000
,
0010
0000
0000
0000
,
1000
0000
0000
0000
,
0001
0000
0000
0000
,
0100
0000
0000
0000
,
0001
0000
0001
0000
,
0001
0000
0000
0000
,
1000
0000
1000
0000
,
1000
0000
0000
0000
,
0010
0000
0010
0000
,
0010
0000
0010
0000
,
0100
0000
0100
0000
,
0100
0000
0100
0000
,
0001
0000
0001
0000
,
0001
0000
0001
0000
,
1000
0000
1000
0000
,
1000
0000
1000
0000
,
0000
0100
0000
0100
,
0100
0000
0000
0000
,
0000
0010
0000
0010
,
0010
0000
0000
0000
,
0000
0001
0000
0001
,
0001
0000
0000
0000
,
1000
0000
0000
1000
,
1000
0000
1000
0000
,
0010
0000
0010
0000
,
0100
0000
0100
0000
,
0001
0000
0001
0000
,
1000
0000
1000
0000
,
0001
0000
0000
0010
,
0010
0000
0000
0000
,
0100
0000
0000
1000
,
1000
0000
0000
0000
,
1001
0000
0000
0000
,
0000
0010
0000
0000
,
0000
0100
0000
0000
,
0000
0001
0000
0000
,
0000
1000
0000
0000
,
0000
0001
0000
0001
,
0000
0001
0000
0000
,
0000
1000
0000
1000
,
0000
1000
0000
0000
,
0000
0010
0000
0010
,
0000
0010
0000
0000
,
0000
0100
0000
0100
,
0000
0100
0000
0000
,
0000
1000
0000
0000
,
1000
1000
0000
0000
,
0000
0001
0000
0000
,
0001
0001
0000
0000
,
0000
0000
0000
0000
,
0000
0010
0000
0010
,
0000
0010
0000
0000
,
0000
0100
0000
0100
,
0000
0100
0000
0000
,
0000
1000
0000
1000
,
0000
1000
0000
0000
,
0000
0001
0000
0001
,
0000
0001
0000
0000
,
0000
1000
1000
0000
,
1000
1000
0000
0000
,
0000
0001
0001
0000
,
0001
0001
0000
0000
,
0000
0100
0100
0000
,
0100
0100
0000
0000
,
0000
0010
0010
0000
,
0010
0010
0000
0010
,
0000
0010
0000
0000
;

//---------------dance-single - t7r----------------
#NOTES:
     dance-single:
     t7r:
     Easy:
     7:
     :
0000
0000
0000
0000
,
0000
0000
0000
0000
,
0000
0000
0000
0000
,
0000
0000
0000
0000
,
0000
0000
0000
0000
,
0000
0000
0000
0000
,
1001
0000
0000
0000
,
0000
0000
0000
0000
,
0010
0000
0010
0000
,
0010
0010
0010
0000
,
1000
0001
0200
0000
,
0301
1000
0200
0000
,
1300
0001
0020
0000
,
0031
1000
0020
0000
,
1030
0100
0020
0230
,
1300
0010
0200
0320
,
1030
0001
0200
0302
,
2003
0000
0000
0000
,
3002
0000
0000
0023
,
0230
0000
2300
3020
,
0230
0300
0002
0003
,
1000
0010
0100
0001
,
1000
1000
0001
0001
,
0100
0100
0010
0010
,
1000
1000
0100
0100
,
0010
0010
0001
0001
,
1000
0100
0001
0100
,
0010
0001
1000
0000
,
0001
0100
1000
0100
,
0010
1000
0001
0000
,
1000
0010
0001
0010
,
0100
0100
0010
0010
,
1000
0100
0001
0100
,
0010
0001
1001
0000
,
0001
0100
0000
0010
,
1000
0100
0010
0001
,
1000
0010
0000
0100
,
0001
0010
0100
1000
,
0001
1000
0000
0100
,
0001
0100
0010
0001
,
1000
0010
0000
0100
,
1000
0000
0100
0000
,
0001
0001
0100
0100
,
1000
0100
0001
0100
,
0001
0001
0010
0010
,
1000
0010
0001
0000
,
1000
1000
0010
0100
,
0001
0010
0100
0000
,
0010
0010
0001
1000
,
0010
0100
0001
1000
,
1001
0000
0010
0000
0000
0010
0000
0000
,
0010
2000
3100
1000
,
0001
0000
0200
0000
0310
0000
0100
0001
,
1000
0002
0013
0100
,
1000
0000
0020
0000
0130
0000
0010
1000
,
0001
0000
1000
0100
1000
0000
0001
0000
,
1000
0000
0001
0100
0001
0000
0100
0000
,
0010
0000
1000
0100
0010
0000
0001
0000
,
1000
0000
0010
0100
0001
0000
1000
0000
,
0010
0000
2000
0000
3100
0000
0010
0010
,
0010
0001
0100
1000
,
0100
0000
0002
0000
0013
0000
0001
0001
,
0001
1000
0010
0001
,
0010
2000
3100
0001
,
1000
0002
0103
1000
,
0001
2000
3010
0001
,
1000
0002
0013
1000
,
0001
0000
0100
0000
0000
0100
0000
0000
,
0100
0000
0010
0000
0010
0000
0000
1000
,
0000
0001
0000
0100
0000
0001
0000
1000
,
0000
0000
0010
0000
0010
0000
0000
0001
,
0000
1000
0000
0100
0000
1000
0000
0001
,
0000
0000
0100
0000
0100
0000
0000
0010
,
0000
1000
0000
0010
0000
0100
0000
0001
,
0000
0000
0100
0000
0100
0000
0000
1000
,
0000
0100
0000
0010
0000
0001
0000
1000
,
0001
0100
0010
1000
,
0100
1000
0001
0011
,
0000
0001
0100
0010
,
1000
0000
0010
0000
0100
0000
0001
1000
,
0001
1000
0100
0010
,
0001
0100
0010
1010
,
0000
0010
0100
0001
,
1000
0000
0100
0000
0010
0000
0001
1000
,
0010
0110
0000
0000
;

//---------------dance-single - t7r----------------
#NOTES:
     dance-single:
     t7r:
     Medium:
     11:
     :
0000
0000
0000
0000
,
0000
0000
0000
0000
,
0000
0000
0000
0000
,
0000
0000
0000
0000
,
0000
0000
0000
0000
,
0000
0000
0000
0000
,
1001
0000
0000
0000
,
0000
0000
0000
0000
,
0010
0000
0010
0000
0010
1000
0010
1000
,
0020
0000
0000
0000
,
1030
0000
1000
0100
0020
0000
0000
0000
,
0031
0000
0001
0100
0020
0000
0000
0000
,
1030
0000
1000
0010
0200
0000
0000
0000
,
0301
0000
0001
0010
0200
0000
0000
0000
,
1300
0000
1000
0100
0002
0000
0000
0000
,
0103
0000
0100
0010
0002
0000
0000
0000
,
1003
0000
1000
0010
0002
0000
0000
0000
,
0013
0000
0010
0100
0001
0000
1000
0000
,
1002
0000
0000
0023
,
0230
0000
2300
3002
,
0023
0030
2000
3000
,
0020
0230
2300
3002
,
1003
0100
1000
0000
0001
0100
0001
0000
,
1000
0010
1000
0000
0001
0010
0001
0000
,
1000
0001
1001
0010
,
0100
0000
0001
0010
0100
1000
0001
0000
,
1000
0000
1100
0000
1000
0100
0000
1000
,
0001
1000
0000
0001
0100
0001
0000
1000
,
0010
0000
0110
0000
0010
1000
0000
0001
,
0010
0001
0000
1000
0010
1000
0001
0100
,
0010
0000
1000
0000
0001
0100
0001
0000
,
0010
0000
0001
0000
1000
0100
1000
0000
,
0010
0000
0010
0100
0001
0000
1000
0000
,
0001
0100
1000
0000
0220
0000
0330
0000
,
2000
0000
3100
1000
0100
1000
0100
1000
,
0020
0000
0130
0001
1000
0000
1000
0000
,
0002
0000
0013
0001
0010
0001
0010
0001
,
0020
0000
0130
0010
0001
0000
0001
0000
,
0200
0000
0310
0100
0010
0100
0010
0100
,
0020
0000
1030
0001
0100
0000
0001
1000
,
0010
0000
1000
0000
0100
0001
0100
0000
,
1000
0000
0010
0100
0001
1000
0001
0000
,
0101
0000
0110
0000
1010
0000
1000
0100
,
0010
0000
0110
0000
1100
0000
1000
0001
,
0010
0000
0011
0000
0001
0100
0001
0100
,
0010
1000
0010
1000
0100
1000
0001
1000
,
0010
0000
0100
0000
0010
1000
0100
1000
,
0010
0000
0010
0000
0100
0001
1000
0000
,
0001
0000
0001
0000
0010
0001
0100
0001
,
0010
0000
0010
0000
0100
1000
0001
0100
,
0010
0000
1000
0000
1000
1000
0000
1000
,
1000
0000
0001
0100
0001
0000
0010
0000
,
0010
0000
0001
1000
0100
0000
1000
0001
,
0100
0000
0010
1000
0100
0000
0010
0000
,
0010
0000
0100
1000
0002
0000
0203
0000
,
0320
0000
1030
0100
0001
0000
1000
0100
,
0010
1000
0001
0100
1000
0000
0001
0100
,
0010
0001
1000
1000
0010
0010
0001
1000
,
0100
0010
1000
1000
0100
0100
0001
0100
,
0010
0001
0200
0000
0310
0000
1000
0001
,
0100
0000
0000
0001
0001
0010
0010
1000
,
0010
0000
0001
0000
0100
0000
0010
1000
,
0001
0000
1000
1000
0010
0010
0001
0001
,
0010
1000
0200
0000
0301
0000
1000
0100
,
0001
0220
0000
0000
,
0330
0000
1002
0000
0013
0000
0001
0100
,
1000
0220
0000
0000
,
0330
0000
0010
0000
0010
0010
0000
0010
,
0010
0000
1000
0000
1100
0000
1000
0100
,
0000
1000
0010
0100
0000
1000
0010
0100
,
0000
1000
0001
0000
0011
0000
0001
0100
,
0000
0001
0010
0100
0000
0001
0010
0100
,
0000
0010
1000
0000
1001
0000
0010
1000
,
0000
0001
0100
1000
0000
0001
0100
1000
,
0000
0100
0010
0000
0001
1000
0100
0000
,
1100
0000
1000
0100
0010
0001
2000
0000
,
3000
0110
0101
0110
,
1000
0100
0010
0000
0110
0000
1000
0100
,
0001
0100
1000
0000
1010
0000
0110
0000
,
0001
0100
1000
0000
0110
0000
1000
0010
,
0001
0010
1000
0100
1000
0100
1000
0000
,
1100
0000
0000
0000
0001
0000
0100
0000
0010
0000
0100
0000
0001
0000
0000
0001
,
0000
0000
0010
0001
1000
0001
0010
0000
,
0110
0000
1000
0100
0001
0100
0010
0001
,
1000
0001
1001
0000
0000
0000
0000
0000
;

//---------------dance-single - t7r----------------
#NOTES:
     dance-single:
     t7r:
     Hard:
     15:
     :
0000
0000
0000
0000
,
0000
0000
0000
0000
,
0000
0000
0000
0000
,
0000
0000
0000
0000
,
0000
0000
0000
0000
,
0000
0000
0000
0000
,
1001
0000
0000
0000
,
0000
0000
0000
0000
,
0010
0000
0010
1000
0010
1000
0010
1000
,
0020
0100
0001
1030
,
1001
0000
1000
0100
0020
0000
0032
0000
,
1003
0000
0001
0010
0200
0000
2300
0000
,
3010
0000
0100
0001
2000
0000
3020
0000
,
0130
0000
0010
1000
0002
0000
0023
0000
,
0031
0100
0010
1000
0200
0000
0320
0000
,
0031
0010
0100
1000
0020
0000
0230
0000
,
0301
0100
1000
0100
0020
0000
2030
0000
,
3001
0010
1000
0010
0200
0000
2300
0000
,
3002
0000
1000
0023
,
2030
0001
3020
0230
,
2300
0010
3002
0010
,
0203
2300
3200
0302
,
0013
1000
0010
0100
0010
0001
0010
0100
,
0010
1000
0010
0100
0010
0001
0010
0100
,
1000
0010
0001
0010
0100
0010
1000
0001
,
1000
0100
0001
0100
1000
0010
0100
0001
,
0101
0000
0011
0000
0101
0001
0100
1000
,
0100
0010
1000
0001
0010
1000
0010
0100
,
1100
0000
1010
0000
1100
1000
0100
0001
,
0100
0010
0001
1000
0010
0001
0010
0100
,
0101
0000
0000
0000
1001
0000
0000
0000
0001
1000
0100
0000
1000
0001
0100
0000
,
0010
0000
0000
0000
0110
0000
0000
0000
0100
0001
0010
0000
0100
1000
0010
0000
,
0100
0000
0000
0000
0110
0000
0000
0000
0001
1000
0100
0000
1000
0001
0100
0000
,
0010
1000
0100
0010
0002
0000
0103
0000
,
0001
0000
0010
0000
1000
0000
0001
0000
0100
0010
0001
0000
0100
0010
1000
0000
,
0001
0000
0100
0000
0010
1000
0010
0000
0100
0000
0000
0110
0000
0000
0000
0000
,
1000
0000
0010
0000
0001
0000
1000
0000
0100
0010
1000
0000
0100
0010
0001
0000
,
1000
0000
0100
0000
0010
0001
0010
0000
0100
0000
0000
0110
0000
0000
0000
0000
,
0001
0000
0100
0000
1000
0000
0001
0000
0010
0100
0001
0000
0010
0100
1000
0000
,
0001
0000
0010
0000
0100
1000
0100
0000
0010
0000
0000
0100
0010
0000
0001
0000
,
1000
0000
0010
0000
0001
0000
1000
0000
0100
0010
1000
0000
0001
0010
0100
0000
,
1000
0100
0001
0100
0010
0001
1001
0000
,
0101
0000
0001
0000
0010
0000
0001
0000
0100
0001
0100
0000
0001
0100
0001
0000
,
1000
0000
0100
0000
1000
0000
0010
0000
1000
0100
1000
0000
0010
1000
0010
0000
,
0100
0000
0001
0000
0010
0000
0001
0000
1000
0001
1000
0000
0010
1000
0010
0000
,
1000
0000
0001
0000
0010
0000
0100
0010
0001
0000
0100
0010
1000
0000
0001
0000
,
1001
0000
0000
0000
0001
0000
0010
0000
0001
0100
1000
0000
0100
0001
1000
0000
,
0001
1000
0100
0010
0001
0100
0110
0000
,
1001
0000
0000
0000
1000
0000
0001
0000
1000
0100
0001
0000
0100
1000
0001
0000
,
0100
0000
0001
1000
0001
1000
0001
0000
0100
0000
0010
0000
1000
0000
0001
0000
,
1001
0000
0010
0010
0010
0010
0000
0100
,
0100
0000
1001
0100
1010
0000
1000
0100
,
0001
0100
1001
0100
0011
0000
0001
0100
,
1000
0100
0110
0001
1010
0000
1000
0010
,
0001
0010
0110
0001
1100
0000
0100
0010
,
1001
0000
0201
0000
0310
0000
0001
1000
,
0100
0001
0000
0000
0120
0000
0000
0000
1030
0000
0000
0000
0001
0000
1000
0000
,
0010
0001
0000
0000
0210
0000
0000
0000
0301
0000
0000
0000
1000
0000
0100
0000
,
0001
0100
0000
0000
0012
0000
0000
0000
1003
0000
1000
0000
0010
0000
0010
0000
,
0100
0000
0100
0000
0001
0000
0000
1000
0100
0000
0000
0100
0001
0000
1000
0000
,
0100
0000
0001
0000
0100
0000
0100
0000
0010
0000
0010
0000
0001
0010
0001
0000
,
0110
0000
0000
0000
1000
0000
0000
0001
0010
0000
0000
0010
1000
0000
0001
0000
,
0010
1000
0001
0001
0100
0100
1000
0100
,
0010
0100
0010
0000
0210
0000
0000
0000
1300
0000
0000
0001
0100
0000
0100
0000
,
0001
0010
0000
0000
0120
0000
0000
0000
0031
0000
0000
1000
0100
0000
0100
0000
,
1000
0010
0100
0000
0120
0000
0000
0000
1030
0000
0000
0100
0001
0000
0001
0000
,
0100
0010
0001
0000
0210
0000
0010
0000
0010
0000
0310
1000
0002
0000
1000
0000
,
1000
1003
0010
0010
0010
0010
0000
0010
,
0010
0000
1010
0000
1100
0000
0001
1100
,
0000
0011
0000
1010
0000
0101
0000
1100
,
0000
0001
1001
0000
0101
0000
1000
0011
,
0000
1100
0000
0101
0000
1010
0000
0011
,
0000
1000
1001
0000
0101
0000
0001
1010
,
0000
0101
0000
1100
0000
0011
0000
1010
,
1000
0000
0001
0000
0101
0000
0000
0000
0001
0000
1000
0000
0001
0100
0010
0000
,
1000
0100
0010
0000
0001
0000
0100
0000
1000
0000
0100
0000
0010
0000
0010
0000
,
0100
0100
0001
0010
1000
0001
0100
0010
,
0001
0100
1000
0000
0100
0000
0010
1000
0010
0000
1000
0100
1000
0000
0001
0000
,
0100
0001
1000
0010
0001
1000
0100
0010
,
1000
0100
0001
0000
0100
0000
0010
0001
0010
0000
0001
0100
0001
0000
1000
0000
,
0100
0000
1000
0000
0001
0000
0100
0000
1000
0000
0100
0000
0010
0100
0001
0000
,
1000
0100
0010
0000
0001
0010
1000
0000
0010
0000
0001
0000
0100
0000
0010
0000
,
1010
0000
0000
0000
1000
0000
0100
0000
0001
0000
0100
0000
0010
0001
1000
0000
,
0001
0100
0010
0000
1000
0100
0001
0000
0100
0000
0110
0000
0001
0000
1000
0001
,
1000
0000
0010
0100
0010
0000
0000
0000
0000
0000
0000
0000
0000
0000
0000
0000
;

//---------------dance-single - t7r----------------
#NOTES:
     dance-single:
     t7r:
     Challenge:
     18:
     :
0000
0000
0000
0000
,
0000
0000
0000
0000
,
0000
0000
0000
0000
,
0000
0000
0000
0000
,
0000
0000
0000
0000
,
0000
0000
0000
0000
,
1001
1000
0100
0010
0100
1000
0010
0100
,
0010
1000
0100
0010
0001
1000
0001
0010
,
0001
1000
0001
0001
0010
0010
1000
1000
,
0010
0010
0001
0001
0100
0100
0010
0010
,
1000
0000
0100
0000
1000
0010
1000
0010
2000
0000
0100
0000
3002
0000
1003
0001
,
1000
0000
0010
0000
1000
0100
1000
0100
2000
0000
0010
0000
3001
1000
0001
1000
,
0001
0000
0100
0000
0001
0010
0001
0010
0002
0000
0100
0000
2003
0000
3001
1000
,
0001
0000
0010
0000
0001
0100
0001
0100
0002
0000
0010
0000
1003
0001
1000
0001
,
1000
0000
0100
0000
1000
0010
1000
0000
0001
0010
0001
0010
0001
1000
0001
1000
,
0001
0000
0100
0000
0001
0010
0001
0000
1000
0010
1000
0010
1000
0001
1000
0001
,
1000
0100
0110
0100
1100
0000
1001
0001
,
0100
0000
1000
0000
0100
0010
0100
0010
1000
0100
1000
0100
0010
0001
1000
0001
,
1000
0100
0010
0100
0001
0100
0010
1000
0010
0100
0010
1000
,
0010
0001
0100
0010
0100
1000
0100
0010
0100
0001
0100
0001
,
1000
0010
0100
1000
0100
0010
1000
0100
0010
1000
0010
0100
,
1000
0000
0000
0000
0010
0000
0000
0000
0001
0000
0000
0000
1000
0000
0000
0000
0100
0000
0000
0000
0001
0000
0000
0000
1000
0000
0000
0000
0000
0000
0100
0000
0000
0010
0000
0000
0001
0000
0000
0000
0000
0000
1000
0000
0000
0000
0000
0000
,
1100
0000
0000
0000
0100
0000
0000
0000
1000
0000
0000
0000
0001
0000
0000
0000
0100
0000
0000
0000
0010
0000
0000
0000
0110
0000
0000
0000
0000
0000
0100
0000
0000
0001
0000
0000
1000
0000
0000
0000
0000
0000
0001
0000
0000
0000
0000
0000
,
1000
0000
0000
0100
0000
0000
0010
0000
0000
0000
0000
0000
0001
0000
0000
0000
0100
0000
0000
0000
0010
0000
0000
0000
1010
0000
0000
0000
0000
0000
1000
0000
0000
0000
0000
0000
0001
0000
0000
0000
0000
0000
0010
0000
0000
0001
0000
0000
,
1000
0000
0000
0100
0000
0000
0110
0000
0100
0000
1000
0000
0001
0000
1000
0000
0010
0000
0110
0000
0100
0000
0001
0000
,
1000
0000
0000
0000
0100
0000
0000
0000
1000
0000
0000
0000
1100
0000
0000
0000
0000
0000
0100
0000
0000
0000
0000
0000
1001
0000
0000
0000
0000
0000
0001
0000
0000
0100
0000
0000
0010
0000
0000
0000
0000
0000
0100
0000
0000
0000
0000
0000
,
0110
0000
0000
0000
0000
0000
0000
0000
0000
0010
0000
0000
1000
0000
0000
0000
0000
0000
0001
0000
0000
0000
0000
0000
1000
0000
0000
0000
0100
0000
0000
0000
0010
0000
0000
0000
1000
0000
0000
0000
0001
0000
0000
0000
0100
0000
0000
0000
,
1000
0000
0000
0000
0010
0000
0000
0000
0100
0000
0000
0000
1000
0000
0000
0000
0001
0000
0000
0000
0010
0000
0000
0000
0100
0000
0000
0000
0000
0000
0001
0000
0000
1000
0000
0000
0001
0000
0000
0000
0000
0000
0010
0000
0000
0000
0000
0000
,
1000
0000
0000
0010
0000
0000
0100
0000
0000
0000
0000
0000
1000
0000
0000
0000
0010
0000
0000
0000
0001
0000
0000
0000
1000
0000
0000
0000
0100
0000
0000
0000
0010
0000
0000
0000
1000
0000
0000
0000
0100
0000
0000
0000
0001
0000
0000
0000
,
1000
0000
0000
0000
0010
0000
0000
0000
0100
0000
0000
0000
1000
0000
0000
0001
0000
0000
0100
0000
0000
0000
0000
0000
0001
0000
0000
1000
0000
0000
0100
0000
0000
0000
0000
0000
1000
0000
0000
0001
0000
0000
1000
0000
0000
0000
0000
0000
,
0010
0000
0000
0000
0000
0000
0100
0000
0000
0001
0000
0000
0010
0000
0000
0000
0000
0000
0100
0000
0000
1000
0000
0000
0010
0000
0000
0100
0000
0000
0000
0000
0000
0100
0000
0000
0010
0000
0000
0000
1000
0000
0000
0000
0001
0000
0000
0000
,
1000
0010
0100
1000
0001
0010
0100
0001
0010
0100
1000
0010
,
0110
0000
0000
0000
0101
0000
0001
0000
1000
0001
0100
0000
0001
1000
0100
0000
,
0010
0000
0000
0000
1000
0000
0000
0000
0001
0000
0000
0000
0100
0000
0000
0000
1000
0000
0000
0000
0010
0000
0000
0000
0100
0000
0000
0010
0000
0000
1000
0000
0000
0000
0000
0000
0100
0000
0000
0010
0000
0000
0001
0000
0000
0000
0000
0000
,
1000
0100
0001
1000
0001
0100
1000
0001
0100
1000
0001
1000
,
0100
0000
0000
0000
0001
0000
0000
0000
1000
0000
0000
0000
0100
0000
0000
0000
0001
0000
0000
0000
0100
0000
0000
0000
1000
0000
0000
0000
0000
0000
0010
0000
0000
0100
0000
0000
0001
0000
0000
0000
0000
0000
1000
0000
0000
0000
0000
0000
,
0001
0100
1000
0001
1000
0100
0001
1000
0100
0001
1000
0001
,
0100
0000
0000
0000
1000
0000
0000
0000
0001
0000
0000
0000
0100
0000
0000
0000
1000
0000
0000
0000
0100
0000
0000
0000
0001
0000
0000
0000
0000
0000
0010
0000
0000
0100
0000
0000
1000
0000
0000
0000
0000
0000
0001
0000
0000
0000
0000
0000
,
1000
0010
0001
1000
0001
0010
1000
0001
0010
1000
0001
1000
,
0010
0000
0000
0000
0001
0000
0000
0000
1000
0000
0000
0000
0010
0000
0000
0000
0001
0000
0000
0000
0010
0000
0000
0000
1000
0000
0000
0000
0000
0000
0100
0000
0000
0010
0000
0000
0001
0000
0000
0000
0000
0000
1000
0000
0000
0000
0000
0000
,
0001
0010
1000
0001
1000
0010
0001
1000
0010
0001
1000
0001
,
0010
0000
0000
0000
1000
0000
0000
0000
0001
0000
0000
0000
0010
0000
0000
0000
1000
0000
0000
0000
0010
0000
0000
0000
0001
0000
0000
0000
0000
0000
0100
0000
0000
0010
0000
0000
1000
0000
0000
0000
0000
0000
0001
0000
0000
0000
0000
0000
,
2000
0000
0100
0000
3001
0100
0010
0000
0001
0010
0000
0000
0100
0001
1000
0000
,
0001
0000
0000
0000
0010
0000
0000
0000
0100
0000
0000
0000
0001
0000
0000
0000
0100
0000
0000
0000
0010
0000
0000
0000
0001
0000
0000
0100
0000
0000
1000
0000
0000
0100
0000
0000
0001
0000
0000
0000
0000
0000
1000
0000
0000
0000
0000
0000
,
0001
0010
0100
0001
0100
0010
1000
0010
0100
1000
0001
0100
,
0010
0001
0000
1000
0100
0000
0010
0000
1000
0001
0100
0001
1000
0000
0001
0000
,
1000
0000
0000
0010
0000
0000
0000
0000
0000
0100
0000
0000
1000
0000
0000
0000
0100
0000
0000
0000
0010
0000
0000
0000
1000
0000
0000
0000
0100
0000
0000
0000
0010
0000
0000
0000
1000
0000
0000
0000
0001
0000
0000
0000
0100
0000
0000
0000
,
0010
0000
0000
0000
0001
0000
0000
0000
0010
0000
0000
0000
1000
0000
0000
0000
0000
0000
0010
0000
0000
0000
0000
0000
0100
0000
0000
1000
0000
0000
0010
0000
0000
0001
0000
0000
0010
0000
0000
0000
0000
0000
0000
0000
0000
0000
0000
0000
,
0100
1000
0001
0010
1000
0100
0001
1000
0010
0001
0100
1000
,
0100
0010
1000
0001
0010
0000
0001
1000
0100
0001
0100
1000
0010
0000
0100
0000
,
0110
0000
0001
0001
0001
0001
0000
0001
,
0002
0000
0000
0000
0000
0000
0000
0000
0000
0000
0000
0000
1003
0000
0000
0000
0000
0000
0100
0000
0000
0000
0000
0100
1000
0000
0000
0000
0000
0000
0002
0000
0000
0000
0000
0000
0010
0000
0000
0000
0000
0000
2003
0000
0000
0000
0000
0000
,
3100
0001
0000
1000
0020
0000
0031
0100
0010
0000
1000
0000
0200
0301
0200
1300
,
0100
0000
0000
0010
0000
0000
0100
0000
0000
0000
0000
0000
0010
0000
0000
0000
0000
0000
0000
0000
0010
0000
0000
0000
0001
0000
0000
0000
0000
0000
0000
0000
0000
0000
0000
0000
0100
0000
0000
0000
0000
0000
1000
0000
0000
0000
0000
0000
0100
0000
0000
0000
0000
0000
0000
0000
0000
0000
0000
0000
0010
0000
0000
0000
0000
0000
0100
0000
0000
0000
0000
0000
1000
0000
0000
0000
0000
0000
0100
0000
0000
0000
0000
0000
0010
0000
0000
0000
0000
0000
0000
0000
0000
0000
0000
0000
,
0100
0000
0000
0000
0000
0000
0001
0000
0000
0000
0000
0000
1000
0000
0000
0000
0000
0000
0000
0000
0001
0000
0000
0000
1000
0000
0000
0000
0000
0000
0000
0000
0000
0000
0000
0000
0100
0000
0000
1000
0000
0000
0100
0000
0000
0000
0000
0000
1000
0000
0000
0000
0000
0000
0001
0000
0000
0000
0000
0000
1000
0000
0000
0000
0000
0000
0001
0000
0000
0000
0000
0000
1000
0000
0100
0000
0010
0000
0001
0000
0010
0000
0100
0000
1000
0000
0100
0000
0010
0000
0001
0000
0010
0000
0100
0000
,
1000
0000
0000
0001
0000
0000
0020
0000
0000
0000
0000
0000
0031
0000
0000
0000
0000
0000
0100
0000
0000
0000
0000
0100
0001
0000
0000
0000
0000
0000
1000
0000
0000
0000
0000
0000
1010
0000
0000
0000
0000
0000
0002
0000
0000
0000
0000
0000
,
0103
0000
1000
0000
0000
0000
0001
0000
0020
0000
0000
0000
1030
0000
0100
0000
0010
0000
0100
0000
0001
0000
0100
0000
0010
0001
0010
0001
1000
0000
0001
0000
,
0100
0000
0020
0000
0001
0000
0000
0000
0130
0000
0001
0000
0010
0000
1000
0000
0001
0000
0100
0000
1000
0000
0001
0000
1000
0100
0010
0100
1000
0000
0001
0000
,
0200
0000
1000
0000
0310
0000
1000
0000
0001
0000
1000
0010
1000
0000
0001
0000
1000
0000
0100
0000
0010
0000
1000
0000
0010
0000
0001
0000
0100
0000
1000
0000
,
0001
0010
2000
0000
3001
0000
1000
0100
0010
1000
0010
0100
1100
0000
1100
0000
,
1000
0002
0100
0000
1003
0000
1010
0000
0011
0000
1010
0000
0110
0010
1010
1000
,
1001
0000
1200
0000
0301
0100
1000
0001
0100
2000
0000
3100
0110
0010
0110
0010
,
1010
0000
1001
0000
1100
0100
1000
0200
0010
0301
0100
1000
1010
0010
0110
0010
,
0011
0000
0110
0000
0020
1030
0100
0010
0001
0100
0010
1000
1100
0000
1100
0000
,
1002
1003
0010
0000
0200
0301
0010
0100
1000
0010
0100
0001
0011
0000
0011
0000
,
2001
3001
0100
0000
0002
0013
1000
0001
0100
1000
0001
0100
0101
0000
0101
0000
,
1002
1003
0100
0000
2000
3010
0001
1000
0100
0001
1000
0100
0010
0001
1001
0000
,
0110
1001
1000
1000
1000
1000
0000
1000
,
1000
0000
0000
0001
0100
0010
0001
0010
0100
0001
0010
0100
,
0001
0000
0000
0000
0100
0000
0000
0000
0010
0000
0000
0000
0001
0000
0000
0000
0100
0000
0000
0000
0010
0000
0000
0000
0001
0000
0000
0000
0010
0000
0000
0000
0100
0000
0000
0000
0001
0000
0000
1000
0000
0000
0100
0000
0000
1000
0000
0000
,
0001
0000
0000
0001
0000
0000
1000
0000
0100
0000
0010
0000
1000
0000
0010
0000
0100
0000
1000
0000
0010
0000
0100
0000
,
1000
0000
0000
0000
0100
0000
0000
0000
0010
0000
0000
0000
1000
0000
0000
0000
0100
0000
0000
0000
0010
0000
0000
0000
1000
0000
0000
0000
0010
0000
0000
0000
0100
0000
0000
0000
1000
0000
0000
0001
0000
0000
0100
0000
0000
0001
0000
0000
,
1000
0000
0000
0010
0000
0000
1000
0000
0000
0000
0000
0000
0001
0000
0000
0000
0010
0000
0000
0000
0100
0000
0000
0000
0001
0000
0000
0000
0100
0000
0000
0000
0010
0000
0000
0000
0001
0000
0000
0000
0100
0000
0000
0000
0010
0000
0000
0000
,
0001
0000
0000
0000
0010
0000
0000
0000
0100
0000
0000
0000
0001
0000
0000
0000
0010
0000
0000
0000
0100
0000
0000
0000
0001
0000
0000
0000
0100
0000
0000
0000
0010
0000
0000
0000
0001
0000
0000
1000
0000
0000
0010
0000
0000
1000
0000
0000
,
0001
0000
0000
0001
0000
0000
1000
0000
0010
0000
0100
0000
1000
0000
0100
0000
0010
0000
1000
0000
0100
0000
0010
0000
,
1000
0000
0000
0000
0010
0000
0000
0000
0100
0000
0000
0000
1000
0000
0000
0000
0010
0000
0000
0000
0100
0000
0000
0000
1000
0000
0000
0000
0100
0000
0000
0000
0010
0000
0000
0000
1000
0000
0000
0001
0000
0000
0010
0000
0000
0001
0000
0000
,
1000
0000
0110
0000
0001
0000
0010
1000
0001
0000
1000
0000
0010
0000
0001
0010
,
1000
0010
0001
0000
1000
0010
0001
0010
1000
0000
0001
0000
0010
1000
0001
0000
,
1000
0000
0000
0010
0000
0000
0001
0000
0000
0100
0000
0000
1000
0000
0100
0000
0010
0000
1000
0000
0100
0000
0010
0000
,
1000
0000
0000
0000
0010
0000
0000
0000
0001
0000
0000
0000
0100
0000
0000
0000
0000
0000
1000
0000
0000
0100
0000
0000
0010
0000
0000
0000
0000
0000
0100
0000
0000
0001
0000
0000
1000
0000
0000
0000
0000
0000
0001
0000
0000
0000
0000
0000
,
0010
0000
0000
0100
0000
0000
1000
0000
0000
0001
0000
0000
1000
0000
0000
0000
0000
0000
0010
0000
0000
0001
0000
0000
1000
0000
0000
0000
0000
0000
0001
0000
0000
0000
0000
0000
0010
0000
0000
0000
1000
0000
0000
0000
0010
0000
0000
0000
,
0001
0000
0000
0000
0010
0000
0000
0000
1000
0000
0000
0000
0001
0000
0000
0000
0010
0000
0000
0000
1000
0000
0000
0000
0010
0000
0000
0000
0001
0000
0000
0000
1000
0000
0000
0000
0100
0000
0000
0000
0000
0000
1000
0000
0000
0001
0000
0000
,
0010
0000
0000
0000
0000
0000
0010
0000
0000
0001
0000
0000
1000
0000
0000
0000
0100
0000
0000
0000
0001
0000
0000
0000
0100
0000
0000
0000
1000
0000
0000
0000
0001
0000
0000
0000
0100
0000
0000
0000
1000
0000
0000
0000
0100
0000
0000
0000
,
0001
0000
0000
0000
1000
0000
0000
0000
0100
0000
0000
0000
0001
0000
0000
0000
0000
0000
0100
0000
0000
1000
0000
0000
0010
0000
0000
1000
0000
0000
0100
0000
0000
0000
0000
0000
0010
0000
0000
0001
0000
0000
0100
0000
0000
0001
0000
0000
,
0010
0000
0100
1000
1001
0000
0000
0000
0000
0000
0000
0000
0000
0000
0000
0000
;

//---------------dance-double - t7r----------------
#NOTES:
     dance-double:
     t7r:
     Easy:
     8:
     :
00000000
00000000
00000000
00000000
,
00000000
00000000
00000000
00000000
,
00000000
00000000
00000000
00000000
,
00000000
00000000
00000000
00000000
,
00000000
00000000
00000000
00000000
,
00000000
00000000
00000000
00000000
,
00011000
00000000
00000000
00000000
,
00000000
00000000
00000000
00000000
,
00001000
00000000
01000000
00000000
,
00010000
10000000
01000000
00000000
,
10000000
00100000
02000000
03000000
,
00010000
00100000
00002000
00003000
,
00010000
00000010
00000200
00000300
,
00000001
00001000
00000020
00000030
,
00001000
00000100
00000010
00000001
,
00000100
00001000
00010000
00001000
,
00010000
00000000
00011000
00000000
,
01000000
00100000
10000000
00000000
,
00020000
00000000
00000000
00230000
,
00302000
00000000
00023000
00030020
,
00002030
00003000
00000200
00000300
,
00000020
00000032
00000203
00002300
,
00013000
00001000
01000000
00010000
,
10000000
00100000
10000000
00010000
,
10000000
01000000
00010000
00001000
,
00010000
00011000
00010000
00010010
,
00000010
00000000
00000100
00000000
00000000
00000001
00000000
00000010
,
00000000
00000001
00000000
00001000
00000000
00000100
00000000
00010000
,
00001000
00000000
00010000
00000000
00000000
00001000
00000000
01000000
,
00000000
00010000
00000000
10000000
00000000
00100000
00000000
10000000
,
00010000
00000000
00100000
00000000
00000000
00001000
00000000
00010000
,
00000000
00000100
00000000
00001000
00000000
00000010
00000000
00001000
,
00000001
00000100
00001000
00010000
,
01000000
10000000
00010000
00000000
,
10000000
00100000
01000000
10000000
,
01000000
00010000
10000000
00000000
,
01000000
00010000
00001000
00000010
,
00000100
00001000
00000001
00000000
,
00000100
00001000
00010000
00000100
,
00001000
00000001
00000010
00001000
,
00010000
00001000
01000000
00010000
,
10000000
00100000
02200000
03300000
,
10000000
01000000
00010000
00011000
,
00001000
00000100
00000001
00001001
,
00000001
00000010
00000100
00001000
,
00010000
00100000
00110000
00000000
,
10000000
00100000
00010000
00001000
,
00000010
00000100
00001100
00000000
,
00000001
00000010
00001000
00010000
,
00100000
01000000
00010000
10000000
,
10010000
00000000
10000000
00000000
00000000
10000000
00000000
00000000
,
10000000
01000000
00000000
00010000
,
00000000
00001000
00000000
00000100
,
00000000
00000001
00000000
00000010
,
00000000
00000100
00000000
00010000
,
00001000
00010000
00000000
00100000
,
00000000
10000000
00000000
00010000
,
00000000
10000000
00000000
01000000
,
00000000
00010000
00001000
00010000
,
00010000
00001000
00000010
00000010
,
00000100
00001000
00000001
00000100
,
00001000
00010000
00100000
01000000
,
00010000
10000000
10000000
01000000
,
00010000
00022000
00033000
00000000
,
00010100
00022000
00000000
00033000
,
00000000
00022000
00033000
00000000
,
00101000
00022000
00000000
00000000
,
00033000
00000000
00001000
00000000
00000000
00010000
00000000
00000000
,
00001000
00000000
00000100
00000000
00000100
00000000
00000000
00000001
,
00000000
00000010
00000000
00000100
00000000
00010000
00000000
00001000
,
00000000
01000000
00010000
00000000
10000000
00000000
00000000
00100000
,
00000000
10000000
00000000
01000000
00000000
00010000
00000000
00001000
,
00000000
00000100
00000010
00000000
00000100
00000000
00000000
00000001
,
00000000
00000010
00000000
00001000
00000000
00010000
00000000
00000100
,
00000000
00010000
00001000
00000000
00010000
00000000
00000000
00100000
,
00000000
01000000
00000000
00010000
00000000
10000000
01000000
00000000
,
10000000
00000000
00010000
00000000
00100000
00000000
00001000
00010000
,
00001000
00010000
00000010
00000110
,
00000000
00000000
00000001
00000000
00000010
00000000
00000100
00001000
,
00000100
00010000
00001000
00011000
,
00000000
00000000
00001000
00000000
01000000
00000000
00100000
10000000
,
00100000
10000000
00010000
10010000
,
00000000
00000000
10000000
00000000
01000000
00000000
00010000
00001000
,
00010000
00001000
00000010
00000110
,
00000000
00001001
00000000
00000000
;

//---------------dance-double - t7r----------------
#NOTES:
     dance-double:
     t7r:
     Medium:
     11:
     :
00000000
00000000
00000000
00000000
,
00000000
00000000
00000000
00000000
,
00000000
00000000
00000000
00000000
,
00000000
00000000
00000000
00000000
,
00000000
00000000
00000000
00000000
,
00000000
00000000
00000000
00000000
,
00001001
00000000
00000000
00000000
,
00000000
00000000
00000000
00000000
,
00000001
00000000
00000001
00000000
00000001
00000010
00000001
00000010
,
00000001
00000100
00001000
00010000
,
00011000
00000000
00001000
01000000
00020000
00000000
00030000
00000000
,
10000000
00000000
00010000
10000000
02000000
00000000
03000000
00000000
,
00100000
00000000
00001000
00010000
00002000
00000000
00003000
00000000
,
00010000
00000000
00000010
00001000
00000020
00000000
00000030
00000000
,
00001000
00000000
00000100
00000010
00000002
00000000
00000203
00000000
,
00001300
00000000
00010000
00001000
02000000
00000000
03020000
00000000
,
10030000
00000000
00100000
01000000
00100000
00000000
00010000
00000000
,
00001000
00010000
00000200
00000000
00000010
00000000
00001300
00000000
,
00000002
00000000
00000000
00000203
,
00002300
00000000
00023000
00230000
,
20300000
30000000
02000000
03000000
,
00200000
00302000
00023000
00032000
,
00013000
00000000
00000100
00001000
00000100
00000000
00001000
00000000
,
00000001
00000000
00000100
00000001
00000100
00000000
00000010
00000000
,
00001000
00000000
00000100
00010000
00001000
00000000
00010000
00000000
,
00001000
01000000
00010000
00000000
00100000
00010000
10000000
00000000
,
00010000
00000000
10010000
00000000
10000000
01000000
10000000
00100000
,
10000000
00000000
01000000
00100000
00010000
00000000
00001000
00000000
,
00000010
00000000
00000110
00000000
00000100
00000001
00001000
00000010
,
00001000
00000000
00000001
00000000
00000010
00000100
00001000
00000000
,
00010000
00000000
00110000
00000000
00010000
01000000
00100000
01000000
,
00010000
00000000
10000000
00000000
01000000
00000000
00010000
00001000
,
00010000
00011000
00000100
00011000
,
01000000
00010000
10000000
00000000
00200000
00000000
00310000
00000000
,
00001000
00000000
00000100
00000010
00000000
00000100
00000001
00001000
,
00000100
00000000
00010000
00001000
00010000
00000000
00001000
00000000
,
00010000
00000000
01000000
10000000
00000000
00100000
01000000
00010000
,
10000000
00000000
00100000
00000000
00010000
00001000
00010000
00000000
,
00001000
00000000
00000010
00000100
00000000
00001000
00000010
00000100
,
00000001
00000000
00001000
00000000
00000100
00000000
00010000
00001000
,
00010000
00000000
00001000
00010000
00001000
00000000
00010000
00000000
,
00001000
01000000
00100000
00000000
10000000
00010000
10000000
00000000
,
01000000
00000000
00010000
00000000
00001000
00000010
00000001
00000000
,
00000100
00000010
00001001
00000000
,
00000001
00000000
00000100
00000000
00001000
00010000
00100000
00000000
,
10000000
00010000
10010000
00000000
,
10000000
00000000
01000000
00100000
00010000
00000000
00001000
00000000
,
00000010
00000100
00000010
00000000
00001001
00000000
00000000
00000000
,
00000001
00000000
00000010
00000100
00001000
00000000
00010000
00000000
,
01000000
00100000
01000000
00000000
00100000
00000000
10010000
00000000
,
01100000
00000000
10000000
00000000
10000000
10000000
00000000
10000000
,
10000000
00000000
00010000
00000000
00110000
00000000
00000000
00100000
,
00000000
00001000
00000000
00000000
00011000
00000000
00000000
00000000
00010000
00000000
00000000
00000000
00000100
00000000
00001000
00000000
,
00000001
00000000
00000100
00000000
00000101
00000000
00000000
00000001
,
00000000
00001000
00000000
00000000
00000100
00000000
00010000
00000000
00001000
00000000
00000000
00000000
02000000
00000000
00000000
00000000
,
03100000
10000000
00010000
00000000
10010000
00000000
00000000
10000000
,
00000000
01000000
00000000
00000000
00010000
00000000
00000000
00001000
00000000
00000000
00010000
00000000
00010000
00000000
00000000
00001000
,
00000000
00010000
00000010
00000000
00001010
00000000
00000000
00001000
,
00000000
00000001
00000000
00000000
00000100
00000000
00000000
00000000
00001000
00000000
00000000
00000000
00010000
00000000
00000000
00000000
,
00100000
00000000
10000000
00000000
01000000
00000000
00000000
10000000
,
00010000
00000000
00100000
00000000
00001000
00000000
00010000
00010000
,
00001000
00001000
00010000
00000000
00000010
00000000
00001000
00000001
,
00000100
00000000
00000001
00000000
00000010
00000000
00001000
00001000
,
00010000
00010000
00012000
00000000
01003000
00000000
00001000
00010000
,
00021000
00000000
00030200
00000000
00001300
00000000
00000100
00010000
,
00001000
00000000
00012000
00000000
00103000
00000000
00001000
00010000
,
00021000
00000000
00030020
00000000
00002030
00000000
00003001
00000100
,
00001000
00010000
00001000
00000000
00001000
00001000
00000000
00001000
,
00001000
00000000
00010000
00000000
00001000
00000000
01000000
00010000
,
00000000
00100000
00010000
10000000
00000000
00010000
01000000
00000000
,
00010000
00000000
10000000
00000000
01000000
00000000
00010000
00001000
,
00000000
00010000
00000100
00001000
00000000
00000001
00001000
00000000
,
00000001
00000000
00000100
00000000
00000010
00000000
00001000
00000100
,
00000000
00010000
00001000
00010000
00000000
00001000
01000000
00010000
,
00000000
00100000
00010000
00000000
10000000
00000000
00100000
01000000
,
00010000
00000000
10000000
00000000
01000000
00010000
00001000
00000000
,
00010000
00000000
00001000
00000000
00000010
00000100
00000010
00000000
,
00000001
00001000
00000001
00000100
,
00001000
00000000
00010000
00000000
00100000
01000000
00100000
00000000
,
10000000
00010000
00100000
00001000
,
00010000
00000000
00001000
00000000
00000100
00000001
00001000
00000000
,
00000100
00000000
00010000
00000000
00001000
00010000
01000000
00000000
,
10000000
00000000
00100000
00000000
01000000
00010000
10000000
00000000
,
01000000
00000000
00010000
00001000
00010000
00000000
00001000
00000000
,
00000100
00000001
00001000
00000000
00000000
00000000
00000000
00000000
;

//---------------dance-double - t7r----------------
#NOTES:
     dance-double:
     t7r:
     Hard:
     15:
     :
00000000
00000000
00000000
00000000
,
00000000
00000000
00000000
00000000
,
00000000
00000000
00000000
00000000
,
00000000
00000000
00000000
00000000
,
00000000
00000000
00000000
00000000
,
00000000
00000000
00000000
00000000
,
10010000
00000000
00000000
00000000
,
00000000
00000000
00000000
00000000
,
10000000
00000000
00100000
10000000
00100000
10000000
00010000
10000000
,
00010000
00100000
00001000
00010000
00000010
00001000
00000001
00000100
,
00000001
00000010
00000001
00000010
00000200
00000000
00020300
00000000
,
00031000
01000000
00010000
01000000
00200000
00000000
20300000
00000000
,
30010000
10000000
01000000
00100000
00002000
00000000
00023000
00000000
,
00030100
00001000
00000001
00000100
00000020
00000000
00002030
00000000
,
00003001
00001000
00000001
00000010
00002000
00000000
00023000
00000000
,
00031000
01000000
00010000
10000000
00200000
00000000
00320000
00000000
,
00031000
00000100
00000001
00001000
00000002
00000000
00000023
00000000
,
00001030
00010000
00001000
01000000
00020000
00000000
20030000
00000000
,
32000000
00000000
00100000
03020000
,
00032000
00000000
00003020
00000032
,
00000203
00000300
00002000
00003000
,
00020000
00230000
20300000
32000000
,
13000000
00100000
01000000
00100000
10000000
00100000
01000000
00100000
,
00010000
00001000
00000100
00000010
00001000
00000100
00000010
00000000
,
00000001
00000010
00000100
00000010
00000001
00000010
00000100
00000010
,
00001000
00010000
01000000
00100000
00010000
01000000
00100000
00000000
,
10000000
00000000
10100000
00000000
10000000
01000000
00010000
00001000
,
01000000
00100000
00010000
00001000
00100000
01000000
00010000
00001000
,
00011000
00000000
00010100
00000000
00000100
00001000
00000001
00000100
,
00001000
00010000
00000010
00000100
00001000
00010000
00000100
00010000
,
00011000
00000000
00010100
00000000
00010000
01000000
10000000
00100000
,
00010000
00001000
01000000
00100000
00010000
00001000
00010000
00000100
,
00001100
00000000
00001001
00000000
00000001
00000010
00001000
00010000
,
00000100
00001000
00010000
01000000
00200000
00000000
10300000
00000000
,
00010000
00100000
00001000
00010000
00000010
00010000
00001000
00100000
,
00001000
00010000
00001000
00000100
00000001
00001000
00001001
00000000
,
00000001
00000010
00000100
00001000
00000001
00000100
00001000
00010000
,
01000000
10000000
00100000
01000000
00010000
00100000
00101000
00000000
,
00001000
00010000
00000100
00010000
00001000
01000000
00001000
00010000
,
00001000
00000010
00000001
00000000
00000100
00001000
00010000
00000000
,
00100000
00100000
01000000
00010000
10000000
10000000
01000000
00100000
,
00001000
00010000
00001000
00000010
00000001
00000100
00000110
00000000
,
00000001
00000100
00010000
00000000
00001000
00000100
00000010
00000000
,
00001000
00010000
01000000
10000000
00100000
01000000
00010000
00000000
,
10000000
01000000
00001000
00000000
00010000
01000000
00100000
00000000
,
00010000
00001000
00000100
00000010
00001000
00000001
00001001
00000000
,
00000001
00000010
00000000
00000001
00001000
00000000
00000000
00000000
00000001
00000000
00000100
00000000
00000010
00000000
00001000
00000000
,
00010000
00100000
01000000
10000000
00100000
01000000
01010000
00000000
,
10000000
00100000
00001000
00000000
00010000
01000000
00001000
00000000
,
00010000
00001000
00000010
00000100
00010000
00001000
01000000
00010000
,
10000000
00000000
00100000
00100000
00100000
00100000
00000000
00010000
,
00010000
00000000
00001000
01000000
00010000
10000000
01000000
00100000
,
00010000
00001000
00000010
00000100
00000001
00001000
00000001
00000100
,
00001000
00010000
00100000
10000000
00010000
00100000
00001000
00010000
,
00011000
00000000
00001000
00000010
00000100
00010000
00002000
01000000
,
00023000
00000100
00031000
01000000
01010000
00000000
00010000
10000000
,
00100000
01000000
10000000
01000000
00010000
00100000
00001000
00010000
,
00011000
00000000
00001000
00000010
00000100
00000001
00001000
00000010
,
00000001
00000100
00001000
00001000
00010000
00010000
00100000
10000000
,
00010000
00000000
00100000
00000000
10000000
00000000
00000000
00000000
00100000
00000000
00000000
00001000
00010000
00000000
00001000
00000000
,
00000010
00000001
00000100
00000010
00000010
00000010
00000001
00000010
,
00010000
00000000
00001000
00000000
00010000
00000000
00000000
00000000
00100000
00000000
00000000
10000000
00010000
00000000
00100000
00000000
,
10000000
00000000
00100000
00000000
00001000
00010000
00001000
00010000
00000000
00000100
00001000
00000000
00000010
00000000
00000100
00000001
,
00001000
00010000
20000000
00000000
01000000
00000000
30010000
00100000
,
00001000
00010000
00000000
00000000
00000200
00000000
00000000
00000000
00000010
00000000
00000000
00000000
00001300
00000000
00000001
00000000
,
00000100
00001000
00000000
00000000
00020000
00000000
00000000
00000000
00001000
00000000
00000000
00000000
00030100
00000000
00001000
00000000
,
00000001
00000100
00000000
00000000
00002000
00000000
00000000
00000000
00000100
00000000
00000000
00000000
00010000
00000000
00000000
00000000
,
00103000
00000000
00010000
00010000
00010000
00010000
00000000
10000000
,
10000000
00000000
11000000
00000000
10010000
00000000
10000000
01000000
,
00100000
00010000
00001000
00000100
00000010
00000001
00000100
00000010
,
00001000
00000001
00001001
00000000
00000101
00000000
00000001
00000100
,
00000010
00001000
00010000
01000000
00100000
10000000
00010000
00100000
,
01000000
10000000
10010000
00000000
10100000
00000000
10000000
00100000
,
01000000
00010000
00001000
00000010
00000100
00000001
00001000
00000100
,
00000010
00000001
00000011
00000000
00001001
00000001
00000100
00001000
,
00010000
00001000
01000000
00010000
10000000
00100000
00010000
00001000
,
01000000
00000000
00000000
00000000
00010000
00000000
00000000
00100000
01000000
00000000
10000000
00000000
01000000
00000000
00000000
00010000
,
00001000
00000000
00000100
00000000
00000010
00000000
00000000
00001000
00000001
00000000
00000010
00000000
00001000
00000000
00000000
00010000
,
00000100
00001000
00000001
00000000
00000100
00000001
00001000
00000100
,
00000010
00001000
00010000
00100000
01000000
00010000
00001000
00000100
,
00000010
00000000
00001000
00000000
00010000
00000000
00000000
00000100
00001000
00000000
00000001
00000000
00000100
00000000
00000000
00001000
,
00010000
00000000
00100000
00000000
10000000
00000000
00000000
00010000
00100000
00000000
00001000
00000000
00010000
00000000
00000000
00001000
,
00000010
00000001
00000100
00000010
00001000
00010000
10000000
01000000
,
00100000
00010000
00001000
00000010
00000100
00000001
00000010
00001000
,
00010000
00100000
01100000
00000000
00000000
00000000
00000000
00000000
;

//---------------dance-double - t7r----------------
#NOTES:
     dance-double:
     t7r:
     Challenge:
     18:
     :
00000000
00000000
00000000
00000000
,
00000000
00000000
00000000
00000000
,
00000000
00000000
00000000
00000000
,
00000000
00000000
00000000
00000000
,
00000000
00000000
00000000
00000000
,
00000000
00000000
00000000
00000000
,
00011000
00001000
01000000
00100000
10000000
01000000
00100000
00001000
,
00010000
00000010
00000100
00000001
00001000
00000100
00010000
00001000
,
00010000
00100000
10000000
10000000
01000000
01000000
00010000
00010000
,
00001000
00001000
00000010
00000010
00000001
00000001
00000100
00000100
,
00001000
00000000
01000000
00000000
00001000
00010000
00001000
00010000
00002000
00000000
00100000
00000000
00023000
00000000
00000000
00000000
,
00031000
00000000
01000000
00000000
00010000
10000000
00010000
10000000
00010000
00000000
00100000
00000000
00010000
10000000
00010000
00000000
,
00100000
00000000
00001000
00000000
00010000
00001000
00010000
00001000
00020000
00000000
00001000
00000000
00030020
00000000
00000000
00000000
,
00001030
00000000
00000001
00000000
00000100
00000010
00000100
00000010
00000200
00000000
00000001
00000000
00000310
00001000
00000010
00001000
,
00000001
00000000
00000010
00000000
00001000
00010000
00001000
00000000
00010000
00000100
00010000
00000100
00010000
00001000
00010000
00001000
,
00010000
00000000
00000010
00000000
00010000
00001000
00010000
00000000
00001000
00100000
00001000
00100000
00001000
00010000
00001000
00010000
,
00001000
01000000
01100000
00000000
00100000
10000000
10010000
10000000
,
01000000
00000000
00010000
00000000
00001000
00000010
00000100
00000000
00001000
00000001
00000100
00000001
00001000
00000100
00010000
00000000
,
00001000
01000000
00010000
10000000
01000000
10000000
00010000
00100000
00001000
00010000
00001000
00010000
,
00000010
00001000
00000001
00001000
00000100
00010000
00000100
00001000
00000001
00000100
00001000
00010000
,
00001000
00100000
00010000
10000000
00100000
10000000
00010000
00100000
00001000
00010000
00000100
00001000
,
00000001
00000000
00000000
00000000
00000010
00000000
00000000
00000000
00001000
00000000
00000000
00000000
00010000
00000000
00000000
00000000
00001000
00000000
00000000
00000000
01000000
00000000
00000000
00000000
00010000
00000000
00000000
00000000
00000000
00000000
01000000
00000000
00000000
00100000
00000000
00000000
10000000
00000000
00000000
00000000
00000000
00000000
01000000
00000000
00000000
00000000
00000000
00000000
,
11000000
00000000
00000000
00000000
01000000
00000000
00000000
00000000
10000000
00000000
00000000
00000000
00010000
00000000
00000000
00000000
01000000
00000000
00000000
00000000
00100000
00000000
00000000
00000000
01100000
00000000
00000000
00000000
00000000
00000000
01000000
00000000
00000000
00010000
00000000
00000000
10000000
00000000
00000000
00000000
00000000
00000000
00010000
00000000
00000000
00000000
00000000
00000000
,
10000000
00000000
00000000
01000000
00000000
00000000
00100000
00000000
00000000
00000000
00000000
00000000
00001000
00000000
00000000
00000000
00010000
00000000
00000000
00000000
00000010
00000000
00000000
00000000
00001010
00000000
00000000
00000000
00000000
00000000
00001000
00000000
00000000
00000000
00000000
00000000
00000001
00000000
00000000
00000000
00000000
00000000
00000010
00000000
00000000
00000001
00000000
00000000
,
00001000
00000000
00000000
00000001
00000000
00000000
00000100
00000000
00001000
00000000
00010000
00000000
00100000
00000000
01000000
00000000
00010000
00000000
00100000
00000000
01000000
00000000
10000000
00000000
,
01000000
00000000
00010000
00000000
00001000
00000000
00100000
00000000
00001000
00000000
00010000
00000000
00001000
00000000
00000000
00000100
00000000
00000000
00000001
00000000
00000000
00000010
00000000
00000000
,
00000011
00000000
00000000
00000000
00000000
00000000
00000000
00000000
00000000
00000010
00000000
00000000
00000001
00000000
00000000
00000000
00000000
00000000
00001000
00000000
00000000
00000000
00000000
00000000
00000001
00000000
00000000
00000000
00000100
00000000
00000000
00000000
00000010
00000000
00000000
00000000
00000001
00000000
00000000
00000000
00001000
00000000
00000000
00000000
00000100
00000000
00000000
00000000
,
00000001
00000000
00000000
00000000
00000010
00000000
00000000
00000000
00000100
00000000
00000000
00000000
00000001
00000000
00000000
00000000
00001000
00000000
00000000
00000000
00000010
00000000
00000000
00000000
00000100
00000000
00000000
00000000
00000000
00000000
00010000
00000000
00000000
00001000
00000000
00000000
00010000
00000000
00000000
00000000
00000000
00000000
00100000
00000000
00000000
00000000
00000000
00000000
,
10000000
00000000
00000000
00100000
00000000
00000000
01000000
00000000
00000000
00000000
00000000
00000000
00010000
00000000
00000000
00000000
00100000
00000000
00000000
00000000
10000000
00000000
00000000
00000000
00010000
00000000
00000000
00000000
01000000
00000000
00000000
00000000
10000000
00000000
00000000
00000000
00100000
00000000
00000000
00000000
00010000
00000000
00000000
00000000
00001000
00000000
00000000
00000000
,
00010000
00000000
00000000
00000000
00001000
00000000
00000000
00000000
00000010
00000000
00000000
00000000
00000001
00000000
00000000
00000100
00000000
00000000
00000010
00000000
00000000
00000000
00000000
00000000
00000100
00000000
00000000
00000001
00000000
00000000
00001000
00000000
00000000
00000000
00000000
00000000
00000100
00000000
00000000
00010000
00000000
00000000
00001000
00000000
00000000
00000000
00000000
00000000
,
00010000
00000000
00000000
00000000
00000000
00000000
00100000
00000000
00000000
10000000
00000000
00000000
00010000
00000000
00000000
00000000
00000000
00000000
10000000
00000000
00000000
01000000
00000000
00000000
00100000
00000000
00000000
00010000
00000000
00000000
00000000
00000000
00000000
00010000
00000000
00000000
10000000
00000000
00000000
00000000
00100000
00000000
00000000
00000000
00010000
00000000
00000000
00000000
,
00001000
01000000
00100000
00010000
00001000
00000100
00000010
00001000
00000100
00000010
00000001
00001000
,
00001001
00000000
00000000
00000000
00000001
00000000
00000010
00000000
00000100
00001000
00000001
00000000
00001000
00000100
00010000
00000000
,
00001000
00000000
00000000
00000000
00010000
00000000
00000000
00000000
00100000
00000000
00000000
00000000
10000000
00000000
00000000
00000000
01000000
00000000
00000000
00000000
00100000
00000000
00000000
00000000
00001000
00000000
00000000
00010000
00000000
00000000
00001000
00000000
00000000
00000000
00000000
00000000
00000010
00000000
00000000
00000100
00000000
00000000
00000010
00000000
00000000
00000000
00000000
00000000
,
00000001
00000100
00001000
00000001
00001000
00000100
00000001
00001000
00000100
00000001
00001000
00000001
,
00000100
00000000
00000000
00000000
00001000
00000000
00000000
00000000
00000100
00000000
00000000
00000000
00010000
00000000
00000000
00000000
00001000
00000000
00000000
00000000
00010000
00000000
00000000
00000000
00100000
00000000
00000000
00000000
00000000
00000000
10000000
00000000
00000000
00010000
00000000
00000000
00100000
00000000
00000000
00000000
00000000
00000000
00000000
00000000
00000000
00000000
00000000
00000000
,
00010000
01000000
10000000
00010000
10000000
01000000
00010000
10000000
01000000
00010000
10000000
00010000
,
01000000
00000000
00000000
00000000
10000000
00000000
00000000
00000000
00010000
00000000
00000000
00000000
01000000
00000000
00000000
00000000
10000000
00000000
00000000
00000000
01000000
00000000
00000000
00000000
00010000
00000000
00000000
00000000
00000000
00000000
00100000
00000000
00000000
00001000
00000000
00000000
00010000
00000000
00000000
00000000
00000000
00000000
00000010
00000000
00000000
00001000
00000000
00000000
,
00000001
00000010
00001000
00000001
00001000
00000010
00000001
00001000
00000010
00000001
00001000
00000001
,
00000010
00000000
00000000
00000000
00001000
00000000
00000000
00000000
00000001
00000000
00000000
00000000
00000010
00000000
00000000
00000000
00001000
00000000
00000000
00000000
00000010
00000000
00000000
00000000
00000001
00000000
00000000
00000000
00000000
00000000
00000100
00000000
00000000
00000010
00000000
00000000
00001000
00000000
00000000
00000000
00000000
00000000
00000001
00000000
00000000
00000000
00000000
00000000
,
00000010
00001000
00010000
00000010
00000100
00001000
00010000
00100000
01000000
00010000
10000000
01000000
,
00100000
00000000
00000000
00000000
00001000
00000000
00000000
00000000
00010000
00000000
00000000
00000000
00001000
00000000
00000000
00000000
00000010
00000000
00000000
00000000
00000001
00000000
00000000
00000000
00000100
00000000
00000000
00000000
00000000
00000000
00000010
00000000
00000000
00001000
00000000
00000000
00000001
00000000
00000000
00000000
00000000
00000000
00001000
00000000
00000000
00000000
00000000
00000000
,
00000002
00000000
00000100
00000000
00001003
00000000
00000100
00000000
00010000
00001000
00000000
00100000
00010000
00000000
10000000
00000000
,
00010000
00000000
00000000
00000000
00100000
00000000
00000000
00000000
01000000
00000000
00000000
00000000
00010000
00000000
00000000
00000000
01000000
00000000
00000000
00000000
00100000
00000000
00000000
00000000
00010000
00000000
00000000
01000000
00000000
00000000
00100000
00000000
00000000
01000000
00000000
00000000
00010000
00000000
00000000
00000000
00000000
00000000
10000000
00000000
00000000
00000000
00000000
00000000
,
00010000
01000000
00100000
00010000
00001000
00000010
00000100
00001000
00000010
00000100
00000001
00000010
,
00000001
00000100
00000000
00001000
00010000
00000000
00100000
00000000
10000000
00010000
01000000
00010000
00100000
00000000
00010000
00000000
,
10000000
00000000
00000000
00100000
00000000
00000000
00000000
00000000
00000000
01000000
00000000
00000000
10000000
00000000
00000000
00000000
01000000
00000000
00000000
00000000
00100000
00000000
00000000
00000000
10000000
00000000
00000000
00000000
01000000
00000000
00000000
00000000
00100000
00000000
00000000
00000000
10000000
00000000
00000000
00000000
00010000
00000000
00000000
00000000
01000000
00000000
00000000
00000000
,
00100000
00000000
00000000
00000000
00001000
00000000
00000000
00000000
00010000
00000000
00000000
00000000
00001000
00000000
00000000
00000000
00000000
00000000
00000100
00000000
00000000
00000000
00000000
00000000
00000010
00000000
00000000
00001000
00000000
00000000
00000001
00000000
00000000
00000010
00000000
00000000
00000001
00000000
00000000
00000000
00000000
00000000
00000000
00000000
00000000
00000000
00000000
00000000
,
00000010
00001000
00010000
00000010
00001000
00010000
01000000
00100000
00010000
00001000
00000100
00000010
,
00001000
00000000
00000000
00000000
00010000
00000000
00000000
00000000
00100000
00000000
00000000
00000000
00010000
00000000
00000000
00000000
00001000
00000000
00000000
00000000
00000010
00000000
00000000
00000000
00000100
00000000
00000000
00000000
00000000
00000000
00000001
00000000
00000000
00001000
00000000
00000000
00000100
00000000
00000000
00000000
00000000
00000000
00010000
00000000
00000000
00000000
00000000
00000000
,
00011000
00000000
00010000
00010000
00010000
00010000
00000000
00010000
,
00020000
00000000
00000000
00000000
00000000
00000000
00000000
00000000
00000000
00000000
00000000
00000000
00031000
00000000
00000000
00000000
00000000
00000000
00000010
00000000
00000000
00000000
00000000
00000010
00000100
00000000
00000000
00000000
00000000
00000000
00001000
00000000
00000000
00000000
00000000
00000000
00000010
00000000
00000000
00000000
00000000
00000000
00000200
00000000
00000000
00000000
00000000
00000000
,
00001300
00010000
00000000
01000000
00200000
00000000
00310000
01000000
00100000
00000000
10000000
00000000
02000000
03010000
02000000
13000000
,
01000000
00000000
00000000
00100000
00000000
00000000
01000000
00000000
00000000
00000000
00000000
00000000
00100000
00000000
00000000
00000000
00000000
00000000
00000000
00000000
00100000
00000000
00000000
00000000
00001000
00000000
00000000
00000000
00000000
00000000
00000000
00000000
00000000
00000000
00000000
00000000
00010000
00000000
00000000
00000000
00000000
00000000
00001000
00000000
00000000
00000000
00000000
00000000
00010000
00000000
00000000
00000000
00000000
00000000
00000000
00000000
00000000
00000000
00000000
00000000
00001000
00000000
00000000
00000000
00000000
00000000
00000100
00000000
00000000
00000000
00000000
00000000
00000010
00000000
00000000
00000000
00000000
00000000
00000100
00000000
00000000
00000000
00000000
00000000
00000001
00000000
00000000
00000000
00000000
00000000
00000000
00000000
00000000
00000000
00000000
00000000
,
00000010
00000000
00000000
00000000
00000000
00000000
00000100
00000000
00000000
00000000
00000000
00000000
00010000
00000000
00000000
00000000
00000000
00000000
00000000
00000000
00001000
00000000
00000000
00000000
01000000
00000000
00000000
00000000
00000000
00000000
00000000
00000000
00000000
00000000
00000000
00000000
00001000
00000000
00000000
00010000
00000000
00000000
00001000
00000000
00000000
00000000
00000000
00000000
00010000
00000000
00000000
00000000
00000000
00000000
00001000
00000000
00000000
00000000
00000000
00000000
00010000
00000000
00000000
00000000
00000000
00000000
00001000
00000000
00000000
00000000
00000000
00000000
00010000
00000000
00000000
00000000
00000000
00000000
01000000
00000000
00000000
00000000
00000000
00000000
10000000
00000000
00000000
00000000
00000000
00000000
00100000
00000000
00000000
00000000
00000000
00000000
,
00010000
00000000
00000000
00001000
00000000
00000000
00000020
00000000
00000000
00000000
00000000
00000000
00000031
00000000
00000000
00000000
00000000
00000000
00000100
00000000
00000000
00000000
00000000
00000100
00000001
00000000
00000000
00000000
00000000
00000000
00000000
00000000
00000000
00000000
00000000
00000000
00001001
00000000
00000000
00000000
00000000
00000000
00000002
00000000
00000000
00000000
00000000
00000000
,
00000103
00000000
00001000
00000000
00000000
00000000
00010000
00000000
00200000
00000000
00000000
00000000
10300000
00000000
01000000
00000000
00100000
00000000
01000000
00000000
00010000
00000000
01000000
00000000
00100000
00001000
00100000
00001000
00010000
00000000
00001000
00000000
,
00000100
00000000
00000020
00000000
00001000
00000000
00000000
00000000
00000130
00000000
00000001
00000000
00000010
00000000
00001000
00000000
00010000
00000000
01000000
00000000
10000000
00000000
00100000
00000000
10000000
01000000
00100000
01000000
10000000
00000000
00010000
00000000
,
02000000
00000000
10000000
00000000
03100000
00000000
10000000
00000000
00010000
00000000
10000000
00100000
10000000
00000000
00010000
00000000
10000000
00000000
01000000
00000000
00010000
00000000
00001000
00000000
00000010
00000000
00000001
00000000
00000100
00000000
00001000
00000000
,
00010000
00100000
20000000
00000000
30010000
00000000
10000000
01000000
00100000
10000000
00100000
01000000
11000000
00000000
11000000
00000000
,
10000000
00020000
01000000
00000000
10030000
00000000
01000000
00000000
00010000
00000100
00001000
00000000
00000001
00000100
00001000
00010000
,
00011000
00000000
02001000
00000000
03010000
01000000
00100000
10000000
01000000
00020000
00000000
00031000
00010000
00001000
00011000
00001000
,
00000100
00000000
00000110
00000000
00001010
00001000
00000001
00000020
00000000
00000130
00010000
00001000
00010000
00100000
10000000
01000000
,
01100000
00000000
00110000
00000000
00200000
00310000
01000000
00001000
00010000
00000000
00001000
00010000
00011000
00000000
00010100
00000000
,
00012000
00013000
00001000
00000000
00000200
00000301
00000010
00000100
00010000
00000000
00001000
01000000
01100000
00000000
01100000
00000000
,
20010000
30010000
01000000
00000000
00020000
00130000
10000000
00010000
00001000
00000000
00000100
00000001
00000011
00000000
00001001
00000000
,
00001200
00001300
00000001
00000000
00002000
00003010
00000001
00001000
00010000
00000000
01000000
10000000
00100000
01000000
01010000
00000000
,
01001000
00011000
00010000
00010000
00010000
00010000
00000000
00010000
,
00010000
00000000
00000000
00001000
00000100
00000010
00001000
00000100
00000010
00001000
00000010
00000100
,
00001000
00000000
00000000
00000000
00000010
00000000
00000000
00000000
00000100
00000000
00000000
00000000
00001000
00000000
00000000
00000000
00010000
00000000
00000000
00000000
00100000
00000000
00000000
00000000
01000000
00000000
00000000
00000000
00010000
00000000
00000000
00000000
00100000
00000000
00000000
00000000
01000000
00000000
00000000
00100000
00000000
00000000
00001000
00000000
00000000
00010000
00000000
00000000
,
00001000
00000000
00000000
00001000
00000000
00000000
00010000
00000000
01000000
00000000
00100000
00000000
00010000
00000000
01000000
00000000
00100000
00000000
00010000
00000000
00100000
00000000
01000000
00000000
,
00010000
00000000
00000000
00000000
00100000
00000000
00000000
00000000
01000000
00000000
00000000
00000000
00010000
00000000
00000000
00000000
00001000
00000000
00000000
00000000
00000010
00000000
00000000
00000000
00000100
00000000
00000000
00000000
00001000
00000000
00000000
00000000
00000010
00000000
00000000
00000000
00000100
00000000
00000000
00000010
00000000
00000000
00010000
00000000
00000000
00001000
00000000
00000000
,
00010000
00000000
00000000
00000100
00000000
00000000
00010000
00000000
00000000
00000000
00000000
00000000
00001000
00000000
00000000
00000000
00000010
00000000
00000000
00000000
00000100
00000000
00000000
00000000
00001000
00000000
00000000
00000000
00000010
00000000
00000000
00000000
00000100
00000000
00000000
00000000
00001000
00000000
00000000
00000000
00000100
00000000
00000000
00000000
00000010
00000000
00000000
00000000
,
00001000
00000000
00000000
00000000
00000100
00000000
00000000
00000000
00000010
00000000
00000000
00000000
00001000
00000000
00000000
00000000
00010000
00000000
00000000
00000000
01000000
00000000
00000000
00000000
00100000
00000000
00000000
00000000
00010000
00000000
00000000
00000000
01000000
00000000
00000000
00000000
00100000
00000000
00000000
01000000
00000000
00000000
00001000
00000000
00000000
00010000
00000000
00000000
,
00001000
00000000
00000000
00001000
00000000
00000000
00010000
00000000
01000000
00000000
10000000
00000000
00010000
00000000
10000000
00000000
01000000
00000000
00010000
00000000
00001000
00000000
00000010
00000000
,
00000001
00000000
00000000
00000000
00001000
00000000
00000000
00000000
00000001
00000000
00000000
00000000
00000010
00000000
00000000
00000000
00001000
00000000
00000000
00000000
00010000
00000000
00000000
00000000
00000100
00000000
00000000
00000000
00001000
00000000
00000000
00000000
00000001
00000000
00000000
00000000
00000100
00000000
00000000
00000000
00000000
00000000
00001000
00000000
00000000
00010000
00000000
00000000
,
00001000
00000000
01000000
00000000
00010000
00000000
00100000
10000000
00010000
00000000
10000000
00000000
00100000
00000000
00001000
00010000
,
00000010
00000000
00010000
00000000
00001000
00000000
00000010
00000001
00001000
00000000
00000001
00000000
00001000
00000010
00000100
00000000
,
00001000
00000000
00000000
00010000
00000000
00000000
00100000
00000000
00000000
01000000
00000000
00000000
10000000
00000000
01000000
00000000
00100000
00000000
10000000
00000000
01000000
00000000
00100000
00000000
,
00010000
00000000
00000000
00000000
00001000
00000000
00000000
00000000
00000100
00000000
00000000
00000000
00000001
00000000
00000000
00000000
00000000
00000000
00000100
00000000
00000000
00001000
00000000
00000000
00000001
00000000
00000000
00000000
00000000
00000000
00000100
00000000
00000000
00000000
00000000
00000000
00001000
00000000
00000000
00000000
00000000
00000000
00010000
00000000
00000000
00000000
00000000
00000000
,
00100000
00000000
00000000
10000000
00000000
00000000
00010000
00000000
00000000
00000000
00000000
00000000
10000000
00000000
00000000
00000000
00100000
00000000
00000000
00000000
00010000
00000000
00000000
00000000
00001000
00000000
00000000
00000000
00000010
00000000
00000000
00000000
00000001
00000000
00000000
00000000
00000100
00000000
00000000
00000000
00001000
00000000
00000000
00000000
00010000
00000000
00000000
00000000
,
01000000
00000000
00000000
00000000
10000000
00000000
00000000
00000000
00010000
00000000
00000000
00000000
10000000
00000000
00000000
00000000
01000000
00000000
00000000
00000000
00010000
00000000
00000000
00000000
00001000
00000000
00000000
00000000
00000010
00000000
00000000
00000000
00000001
00000000
00000000
00000000
00000100
00000000
00000000
00000000
00000000
00000000
00001000
00000000
00000000
00010000
00000000
00000000
,
00001000
00000000
00000000
00000000
00000000
00000000
00001000
00000000
00000000
01000000
00000000
00000000
00100000
00000000
00000000
00000000
00010000
00000000
00000000
00000000
00001000
00000000
00000000
00000000
00100000
00000000
00000000
00000000
00010000
00000000
00000000
00000000
00001000
00000000
00000000
00000000
00000100
00000000
00000000
00000000
00000010
00000000
00000000
00000000
00001000
00000000
00000000
00000000
,
00010000
00000000
00000000
00000000
01000000
00000000
00000000
00000000
00100000
00000000
00000000
00000000
00010000
00000000
00000000
00000000
00001000
00000000
00000000
00000000
00000010
00000000
00000000
00000000
00001000
00000000
00000000
00000000
00010000
00000000
00000000
00000000
00100000
00000000
00000000
00000000
01000000
00000000
00000000
00000000
00000000
00000000
10000000
00000000
00000000
00010000
00000000
00000000
,
01000000
00000000
00001000
00010000
00011000
00000000
00000000
00000000
00000000
00000000
00000000
00000000
00000000
00000000
00000000
00000000
;
