#TITLE:青春Night;
#ARTIST:モーニング娘。'19;
#TITLETRANSLIT:Seishun Night;
#ARTISTTRANSLIT:Morning Musume. '19;
#BANNER:Seishun Night.png;
#BACKGROUND:Seishun Night-bg.png;
#JACKET:Seishun Night-jacket.png;
#MUSIC:Seishun Night.ogg;
#SAMPLESTART:48.322;
#SAMPLELENGTH:15;
#BPMS:0=128;
#BGCHANGES:3.75=Seishun Night.mp4=1=1=0=0=StretchNoLoop==CrossFade==;

//---------------dance-single - Air----------------
#NOTES:
     dance-single:
     Air:
     Beginner:
     3:
     :
0000
0000
0000
0000
,
0000
0000
0000
0000
,
0000
0000
0000
0000
,
0000
0000
0000
0000
,
0010
0000
0010
0000
,
0200
0000
0300
0000
,
1001
0000
1000
0000
,
0001
0000
0001
0000
,
0010
0000
0100
0000
,
1000
0000
1000
0000
,
0010
0020
0000
0030
,
0100
0000
0100
0000
,
0001
0000
1000
0000
,
0200
0000
0300
0000
,
1000
0000
0001
0000
,
0200
0000
0300
0000
,
0110
0000
0100
0000
,
0100
0000
0010
0000
,
2000
0000
3000
0000
,
0002
0000
0003
0000
,
0010
0000
0100
0000
,
0010
0000
0010
0000
,
0200
0000
0300
0000
,
0020
0000
0030
0000
,
2000
0000
0000
0000
,
3000
0000
0000
0000
,
1001
0000
0001
0000
,
0001
0000
0100
0000
,
1000
0000
1000
0000
,
0020
0000
0030
0000
,
1001
0000
1000
0000
,
0100
0000
0001
0000
,
0010
0000
0010
0000
,
0200
0000
0300
0000
,
0010
0000
0001
0000
,
2000
0000
3000
0000
,
0002
0000
0003
0000
,
0110
0000
0000
0000
,
0010
0010
0010
0000
,
0000
0100
0000
0100
,
0000
0010
0000
0010
,
0000
1000
0000
0001
,
0000
0010
0000
0100
,
0000
0010
0000
0010
,
0000
0100
0000
0100
,
1000
1000
0000
0000
,
0001
0001
0000
0000
,
0200
0000
0000
0000
,
0300
0000
0000
0000
,
0020
0000
0000
0000
,
0030
0000
0000
0000
,
1000
0000
0001
0000
,
1000
0000
0000
0000
,
0002
0000
0003
0000
,
0010
0000
0100
0000
,
0010
0000
0010
0000
,
0100
0000
1000
0000
,
0001
0000
1000
0000
,
0010
0000
0010
0000
,
0200
0000
0300
0000
,
0020
0000
0030
0000
,
0000
0001
0000
1000
,
0000
0100
0000
0100
,
0000
0010
0000
0010
,
0010
0010
0020
0030
;

//---------------dance-single - t7r----------------
#NOTES:
     dance-single:
     t7r:
     Easy:
     6:
     :
0000
0000
0000
0000
,
0000
0000
0000
0000
,
0000
0000
0000
0000
,
0000
0000
0000
0000
,
0000
0000
0000
0000
,
0002
0000
0000
0003
,
1000
0100
0000
1000
,
0001
0010
0100
1000
,
0001
0100
0000
0001
,
1000
0010
0100
0001
,
0010
0100
0000
0010
,
0001
1000
0010
0100
,
0001
0010
1000
0010
,
0000
0001
0001
0000
,
1000
0010
0001
0010
,
0000
1000
1000
0000
,
0020
0000
0100
1030
,
0002
0000
1000
0013
,
0200
0000
0310
0000
,
0002
0000
1003
0000
,
0020
0000
1000
0130
,
0002
0000
0010
1003
,
0200
0000
0310
0001
,
2000
0000
3010
0100
,
0020
0000
0000
0030
,
1000
0000
0000
1001
,
2000
3100
0010
0001
,
1000
0010
0001
0010
,
1000
1000
0100
0100
,
0020
0000
0001
0130
,
2000
3010
0100
0001
,
1000
0100
0001
0100
,
0010
0010
0001
0000
,
0100
0100
1000
0000
,
0100
0010
1000
0000
,
0002
0003
2000
3000
,
0010
0100
0110
0000
,
2002
0000
0000
3003
,
1000
1000
1000
1000
1000
0000
1001
0000
,
0002
0103
0010
1000
,
0001
0000
0010
0000
0000
0001
0001
0000
,
1000
0000
0010
0000
0000
1000
1000
0000
,
0001
0000
0010
0000
0000
0001
0001
0000
,
1000
0100
0001
0100
,
0220
0330
2002
3003
,
0110
1001
0001
0001
,
0010
0010
0010
0000
0100
0100
0100
0000
,
2000
0000
0000
0000
,
0000
0000
0000
3001
,
2002
0000
3003
0000
0000
0001
0001
0000
,
1000
0000
1001
0000
0000
0100
0000
0100
,
0000
0100
0000
0100
0000
0200
0000
0000
,
0310
0000
0000
0000
,
0000
0000
0000
0000
,
0002
0013
0100
1000
,
0001
0100
1000
0100
,
0010
0010
0100
0001
,
0020
0000
0130
1000
,
0001
1000
0010
0001
,
0020
0030
0200
0300
,
0001
1000
2002
3003
,
1000
0001
0100
1000
,
0001
0010
0200
0000
,
0301
1000
0010
0001
,
2000
0000
3000
0000
0100
0100
0100
0000
;

//---------------dance-single - t7r----------------
#NOTES:
     dance-single:
     t7r:
     Medium:
     8:
     :
0000
0000
0000
0000
,
0000
0000
0000
0000
,
0000
0000
0000
0000
,
0000
0000
0000
0000
,
0000
0000
0000
0000
,
0100
0010
0000
0000
1000
0000
1001
0000
,
0001
0100
0010
1001
,
1000
0100
0010
0110
,
1000
0010
0100
1001
,
0001
0000
0010
0000
0100
0010
0010
0000
,
0001
0100
0001
0110
,
1000
0010
0100
1001
,
1000
0000
0100
0000
0010
0001
1000
0000
,
0001
0000
0100
0000
0010
0010
0010
0000
,
1000
0000
0010
0000
0100
0001
1000
0000
,
0100
0000
0010
0000
0001
0001
0001
0000
,
2000
0000
0100
3010
,
0200
0010
0301
0000
,
0020
0000
0001
0130
,
2000
0000
0100
3010
,
0200
0310
1000
0001
,
0020
0130
1000
0001
,
0200
0000
1000
0301
,
0020
0000
0001
1030
,
0010
0010
0010
0000
,
1000
0000
0000
0001
0000
0001
0000
0001
0000
0000
0000
0000
1001
0000
0000
0000
,
1000
0000
1100
0000
0001
0100
0010
0000
,
1000
0001
0100
0000
0001
1000
0010
0000
,
1000
0000
0000
0100
1000
0000
0000
0000
0100
0000
0000
0000
0100
0000
0000
0000
,
0020
0000
1000
0130
,
0010
0000
0011
0000
1000
0010
0100
0000
,
0001
1000
0010
0000
0100
0001
1000
0000
,
0001
0000
0000
0010
0001
0000
0000
0000
0100
0000
0000
0000
0100
0000
0000
0000
,
0010
0000
1001
0000
0100
0001
1000
0000
,
0010
1100
0010
0101
,
0001
2000
0100
0000
3001
2000
0100
0000
,
3010
0000
0000
0000
0100
0000
0000
0110
0000
0000
0000
0000
0001
0000
0000
0000
,
2002
0000
0000
3003
,
1000
1000
0001
0001
1001
0000
0020
0000
,
0130
0000
0001
0000
0100
1000
0100
0000
,
0010
0000
0010
0010
0000
1000
1001
0000
,
0010
0000
0010
0010
0000
0001
1001
0000
,
0010
0000
0010
0010
0000
1001
1001
0000
,
1000
0000
0100
0000
0001
0100
1000
0000
,
0001
0110
1000
0110
,
1001
1001
0110
1001
,
1000
1000
1001
0000
0001
0001
1001
0000
,
0010
0000
0000
0100
0000
0000
0001
0000
0000
1000
0000
0000
0100
0000
0000
0020
,
0000
0000
0000
0031
,
1000
1000
0001
0001
0000
1001
1001
0000
,
0010
0000
0110
0000
1000
0001
0000
1000
,
0000
0100
0000
0010
0000
0002
0000
0000
,
1003
0000
0000
0000
,
0000
0000
0000
0000
0000
0100
0010
0100
,
0001
0000
0011
0000
1000
0001
0010
0000
,
0100
1000
0010
0000
0100
0001
0001
0000
,
1000
0000
0000
0010
0100
0000
0000
0000
0010
0000
0000
0000
1000
0000
0000
0000
,
0001
0010
0001
0000
1000
0010
0010
0000
,
1000
0000
0000
0001
0010
0000
0000
0000
0001
0000
0100
0000
0010
0000
0000
0000
,
1000
0002
0100
0000
1003
0002
0100
0000
,
1003
0000
0100
0000
0001
0000
0000
0110
0000
0000
0000
0000
1001
0000
0000
0000
,
0010
0000
0000
0000
1000
0000
0000
0200
0000
0000
1300
0000
0010
0000
0000
0000
,
0100
0000
0001
0000
0100
0000
0000
0010
0000
0000
0010
0000
2000
0000
0000
0000
,
3001
0000
0000
0000
0010
0000
0000
0002
0000
0000
0103
0000
0010
0000
1000
0000
,
0001
0010
1000
0010
0001
1000
1001
0000
;

//---------------dance-single - Air----------------
#NOTES:
     dance-single:
     Air:
     Hard:
     11:
     :
0000
0000
0000
0000
,
0000
0000
0000
0000
,
1000
0000
0000
0000
0010
0000
0000
0010
0000
0000
1000
0000
0100
0000
1000
0000
,
0001
0000
0010
0000
0100
0000
0010
0001
0000
0000
0001
0000
0001
0000
0000
0000
,
0010
0000
0000
0000
0100
0000
0000
0100
0000
0000
1000
0000
0001
0000
0010
0000
,
0100
0000
1000
0000
0010
0000
0100
0001
0000
0000
0000
0000
0000
0000
0000
0000
,
0110
1000
0001
0000
0000
1000
0000
1000
,
0000
0001
0010
0001
1000
0000
0100
0000
,
0010
0010
0010
0000
0000
1100
0000
0101
,
0000
1001
0001
1000
0010
0000
0100
0000
,
0010
0010
0010
0000
0000
1000
0000
0001
,
0000
0010
0100
1000
0001
0000
0110
0000
,
1000
0000
0000
0000
1000
0000
0000
0010
1000
0000
0010
0000
0100
0000
0001
0000
,
1000
0100
1000
0100
0000
0100
1000
0100
1000
0000
0010
0000
0100
0000
0000
0000
,
0001
0000
0000
0000
0001
0000
0000
0010
0001
0000
0010
0000
0100
0000
1000
0000
,
0001
0100
0001
0100
0000
0100
0001
0100
0001
0000
0010
0000
0100
0000
0000
0000
,
1002
0000
0000
0000
0100
0000
0000
0000
0010
0000
0000
0010
0000
0000
0100
0000
,
1003
0000
0000
0000
1010
0000
0000
0000
0110
0000
0000
1000
0000
0000
0100
0000
,
0200
0001
0010
1300
,
2001
0100
0010
3002
,
0203
0010
0001
0320
,
1030
0000
0000
0000
2001
0000
0000
0000
0100
0000
0000
0100
0000
0000
0100
0000
,
3010
0000
0000
0000
0001
0000
0000
0000
1000
0000
0000
0100
0000
0000
0002
0000
,
0000
0000
0000
0003
,
1000
0100
0010
0001
1000
0000
1001
0000
,
0010
0100
0010
0100
0000
0110
0000
0110
0000
0000
0000
0000
0000
0000
0001
0000
,
0001
0000
0000
0100
0001
0000
0000
0000
1000
0000
0100
0000
0000
0000
0010
0000
,
0000
1100
0000
0001
0000
0010
0010
0000
,
0101
0000
0000
0001
1000
0000
0000
0000
0100
0000
0010
0000
0001
0000
0000
0000
,
0010
0100
1000
1000
0010
0100
0001
1000
,
1000
0000
0000
0100
1000
0000
0000
0000
0001
0000
0100
0000
0000
0000
0010
0000
,
0000
0101
0000
1000
0000
0010
0010
0000
,
1100
0000
0000
1000
0001
0000
0000
0000
0100
0000
0010
0000
1000
0000
0000
0000
,
0010
0100
0001
0001
0010
0100
1000
0001
,
0001
0101
0110
1010
,
1002
0000
0010
0000
0100
0000
1003
0100
,
0020
0000
0100
0000
0031
1000
0100
0010
,
0000
0110
0000
1001
,
1000
0010
0001
0100
1000
0000
1001
0000
,
0001
0010
0001
0010
0000
0100
0010
0000
0001
0000
0100
0000
0010
0000
1000
0000
,
0001
0001
1000
0100
0001
0100
1000
0000
,
1000
1000
0001
0100
1000
0100
0001
0000
,
1000
0001
1000
0001
1000
0000
0010
0000
0000
0000
0100
0000
0110
0000
0000
0000
,
1000
0000
1000
0100
0000
0000
0010
0001
0010
0000
0100
0010
0000
0000
0100
0000
,
1002
0000
0103
0000
2001
0000
3100
0010
,
1001
0000
1001
0000
0110
0000
0110
0100
,
1001
1000
0100
0000
1001
1000
0100
0000
,
0010
0000
0000
1100
0000
0000
0010
0000
0000
0101
0000
0000
1001
0000
0000
0220
,
0000
0000
0000
0330
,
0001
1000
0001
1000
0001
0000
0100
0000
0000
0000
1000
0000
1001
0000
0001
0000
,
0100
0000
0000
0100
0010
0000
0000
0000
0000
0000
0001
0000
0000
0000
0010
0000
,
0000
0100
0000
1000
0000
0001
0000
0000
,
1000
0100
0001
0010
,
1000
0000
0100
0000
0001
0000
0010
0001
,
0001
0000
0000
0100
0001
0000
0000
0000
1000
0000
1010
0000
0000
0000
0011
0000
,
0000
0101
0000
1100
0000
1001
0000
0000
,
0001
0000
0000
0001
0010
0000
0000
0000
0100
0000
1000
0000
0001
0000
0000
0000
,
0100
0001
1000
0000
0010
0010
0010
0010
,
1000
0000
0000
1000
0100
0000
0000
0000
0010
0000
0000
0000
1001
0000
0000
0000
,
0202
0000
0000
0303
,
2200
0000
0000
0000
3300
0001
0010
0200
,
0000
0000
0300
0000
1001
0000
0000
1000
0000
0000
0001
0000
0100
0000
0001
0000
,
1000
0000
0010
0000
0100
0000
0010
1000
0000
0000
1000
0000
0001
0000
0000
0000
,
0010
0000
0000
0000
0100
0000
0000
0100
0000
0000
0010
0000
0001
0000
1000
0000
,
0010
0100
0010
0100
0000
0010
0100
0010
0100
0010
0100
0000
0100
0000
0000
0000
;

//---------------dance-single - t7r----------------
#NOTES:
     dance-single:
     t7r:
     Challenge:
     13:
     :
0000
0000
0000
0000
,
0000
0000
0000
0000
,
0000
0000
0000
0000
,
0000
0000
0000
0000
,
0000
0000
0000
0000
,
0000
0000
0000
0000
,
0010
1000
0100
0000
1000
0000
1001
0000
,
0010
0100
0001
0000
0010
0100
1000
0000
,
0100
1000
0010
0000
0100
0000
0110
0000
,
0001
1000
0010
0000
1000
0001
1001
0000
,
0010
0001
0100
0000
0010
0000
1010
0000
,
1000
0100
0010
0000
0001
0100
0010
0000
,
2000
0000
3200
0000
0301
0100
0010
0001
,
1000
0000
0010
1000
0000
0010
1000
0000
0010
0000
0100
0000
0110
0000
0000
0000
,
0002
0000
0023
0000
1030
0010
0100
1000
,
0010
0000
0100
0001
0000
0100
0001
0000
0100
0000
0010
0000
1010
0000
0000
0000
,
2000
0100
0000
3001
,
0200
0010
0000
0301
,
0020
1000
0000
0130
,
2000
3010
0100
1001
,
0002
0000
0103
1000
0100
0010
0100
0000
,
0020
0000
0000
0000
1030
0000
0100
0000
0010
0000
0000
0010
0001
0000
1000
0000
,
0001
0000
0100
0000
0010
0000
0000
0000
1000
0000
0000
0001
0010
0000
0002
0000
,
0100
1000
0010
1003
,
2002
0000
0000
3003
,
0010
0100
0010
0100
0000
0010
0000
0110
0000
0000
0000
0100
0001
0000
1000
0000
,
0001
0000
0000
0000
0011
0000
0000
1000
0010
0000
1000
0000
0100
0000
0001
0000
,
0100
0010
0100
1000
0100
0010
0011
0000
,
0101
0000
0000
0100
1000
0000
0000
0001
0010
0000
0100
0000
0001
0000
0000
0000
,
1000
0100
1000
0100
0000
0100
1000
0100
0000
0000
1000
0000
1001
0000
0000
0000
,
1000
0000
0000
0000
1010
0000
0000
0001
0010
0000
0001
0000
0100
0000
1000
0000
,
0100
0010
0100
0001
0100
0010
1010
0000
,
1100
0000
0000
0100
0001
0000
0000
1000
0010
0000
0100
0000
1000
0000
0000
0000
,
0001
0100
0001
0100
0000
0100
0001
0100
0000
0000
0001
0000
1001
0000
0000
0000
,
0010
0000
0000
1000
0100
0000
0000
0000
0010
0000
0000
0001
0100
0000
0000
0000
,
0010
1001
0100
0000
0100
1001
0010
0000
,
0001
0000
1000
0010
1000
0010
0000
0110
0000
0000
0000
0010
1000
0000
0001
0000
,
2000
0100
0001
3010
,
0100
0100
0110
0110
1001
0000
0020
0000
,
1030
0000
0100
0010
0000
0100
0001
0000
0100
0000
1000
0000
0010
0000
0100
0000
,
0001
0010
0001
0010
0001
0000
0001
0000
0000
0000
0110
0000
1001
0000
0000
0000
,
1000
0010
1000
0010
1000
0000
1000
0000
0000
0000
0110
0000
1001
0000
0000
0000
,
0001
0100
0001
0100
0001
0000
0001
0000
0100
0000
0110
0000
1010
0000
0010
0000
,
1000
0000
0001
0010
0000
1000
0010
0000
0100
0000
1000
0100
0000
0001
0100
0000
,
0020
0000
0000
0031
0100
0000
0000
0000
0020
0000
0000
1030
0100
0000
1000
0000
,
0110
0000
0101
0000
1100
0000
0011
1000
,
1001
1001
1001
0000
0110
0110
0110
0100
,
0001
0000
0100
1000
0000
0001
0010
0000
0100
1000
0000
0100
0010
0000
1000
0002
,
0000
0000
0000
0013
,
0001
1000
0001
1000
0001
0000
1001
0000
0000
0000
0110
0000
1001
0000
0010
0000
,
1000
0000
0000
0001
0100
0000
0010
1000
0100
0000
0010
0000
0000
0000
0011
0000
,
0000
0000
1010
0000
0000
0000
0101
0000
0000
0000
2100
0000
0000
0000
3001
1000
,
0001
0100
1000
0010
,
0002
0000
1003
0000
0010
0100
0110
0100
,
0001
0000
0000
1000
0100
0000
0000
0001
0100
0000
0010
0001
0010
0000
0000
0000
,
0001
0100
1000
0000
0100
0001
0010
0000
,
1000
0000
0000
0010
0100
0000
0000
1000
0010
0000
0000
0001
0010
0000
0000
0000
,
0100
0000
0010
1000
0010
1000
0000
0001
1000
0100
1000
0000
0001
0000
0010
0000
,
0001
0000
0000
0100
0010
0000
0000
0001
0010
0000
1000
0000
0001
0000
0000
0000
,
0100
1001
0010
0000
0010
1001
0100
0000
,
1000
0000
0001
0100
0010
1000
0000
0110
0000
0000
0000
0001
1000
0000
0000
0000
,
0010
0000
1000
0000
0100
0000
0010
0001
0000
0100
0001
0000
0100
0000
1000
0000
,
0100
0000
0010
0000
1000
0010
1000
0001
0000
0010
0001
0000
0100
0000
0001
0000
,
0010
0000
0001
0000
0100
0000
0010
1000
0000
0100
1000
0000
0100
0000
0001
0000
,
0100
0010
0100
0010
0001
1000
0000
0010
0100
0010
1000
0000
0001
0000
0000
0000
;

//---------------dance-double - t7r----------------
#NOTES:
     dance-double:
     t7r:
     Easy:
     6:
     :
00000000
00000000
00000000
00000000
,
00000000
00000000
00000000
00000000
,
00000000
00000000
00000000
00000000
,
00000000
00000000
00000000
00000000
,
00000000
00000000
00000000
00000000
,
00020000
00000000
00000000
00030000
,
00000100
00001000
00000000
00000001
,
00000010
00000100
00010000
00001000
,
01000000
00010000
00000000
10000000
,
00100000
01000000
00010000
10000000
,
01000000
00100000
00000000
00001000
,
00010000
00000010
00000100
00000001
,
00000010
00001000
00010000
00100000
,
00000000
01000000
01000000
00000000
,
00010000
00100000
00001000
00010000
,
00000000
00000100
00000100
00000000
,
00002000
00000000
00000010
00003001
,
00000100
00001000
00010000
00100000
,
02000000
00000000
03010000
00000000
,
20000000
00000000
31000000
00000000
,
00020000
00000000
00001000
00030100
,
00001000
00000001
00000100
00000010
,
00002000
00000000
00003100
00010000
,
00002000
00000000
01003000
00010000
,
20000000
00000000
00000000
30000000
,
00010000
00000000
00000000
10010000
,
20000000
31000000
00100000
00010000
,
10000000
00100000
00010000
00001000
,
00000100
00000100
00000010
00000010
,
00002000
00000000
00000100
00003001
,
00000020
00000130
00010000
00001000
,
00010000
01000000
10000000
00100000
,
01000000
01000000
00010000
00000000
,
00100000
00100000
00001000
00010000
,
00001000
00000100
00000001
00000000
,
00000020
00000030
00002000
00003000
,
00010000
00001000
00011000
00000000
,
02000000
00000000
00000000
03000000
,
00010000
00000000
00010000
00010000
00010000
00000000
10010000
00000000
,
00020000
01030000
00100000
10000000
,
00010000
00000000
00100000
00000000
00000000
00001000
00001000
00000000
,
00010000
00000000
00000010
00000000
00000000
00001000
00001000
00000000
,
00000001
00000000
00000010
00000000
00000000
00000100
00000100
00000000
,
00010000
00001000
00010000
01000000
,
20000000
30000000
00200000
00300000
,
00010000
00011000
00001000
00001000
,
00010000
00010000
00010000
00000000
00000100
00000100
00000100
00000000
,
00002000
00000000
00000000
00000000
,
00000000
00000000
00003000
00000001
,
00002002
00003003
00000000
00010000
,
00001000
00000000
00011000
00000000
00000000
01000000
00000000
00000000
,
00000000
01000000
00000000
00000000
00000000
02000000
00000000
00000000
,
03100000
00000000
00000000
00000000
,
00000000
00000000
00000000
00000000
,
20000000
31000000
00000000
00010000
,
00001000
00000100
00000010
00001000
,
00000001
00000001
00000010
00000100
,
00020000
00000000
00031000
01000000
,
00010000
10000000
00100000
00010000
,
00002000
00003000
00020000
00030000
,
00000100
00000010
00000220
00000330
,
00000001
00000100
00000010
00001000
,
00010000
00100000
02000000
00000000
,
13000000
00100000
01000000
00010000
,
00002000
00000000
00003000
00000000
00000100
00000100
00000100
00000000
;

//---------------dance-double - t7r----------------
#NOTES:
     dance-double:
     t7r:
     Medium:
     8:
     :
00000000
00000000
00000000
00000000
,
00000000
00000000
00000000
00000000
,
00000000
00000000
00000000
00000000
,
00000000
00000000
00000000
00000000
,
00000000
00000000
00000000
00000000
,
00001000
01000000
00000000
00000000
00010000
00000000
10000000
00000000
,
00010000
01000000
00100000
10000000
,
01000000
00010000
00001000
00011000
,
00010000
00000010
00000100
00000001
,
00000010
00000000
00001000
00000000
00010000
00001000
00001000
00000000
,
01000000
00010000
10000000
00100000
,
01000000
00010000
00100000
00001000
,
00010000
00000000
00001000
00000000
00000100
00000000
00000001
00001000
,
00000000
00000000
00000100
00000000
00010000
00010000
00010000
00000000
,
00001000
00000000
00010000
00000000
01000000
00000000
10000000
00010000
,
00000000
00000000
01000000
00000000
00001000
00001000
00001000
00000000
,
00020000
00000000
00001000
00030100
,
00010000
01000000
10000000
00100000
,
02000000
00000000
10000000
03100000
,
20000000
00000000
01000000
30010000
,
00200000
00310000
00001000
00000100
,
00002000
00003001
00000100
00001000
,
00020000
00000000
00001000
01030000
,
00200000
00000000
00010000
00301000
,
00022000
00000000
00033000
00000000
,
00001000
00000000
00000000
00010000
00000000
00010000
00000000
00010000
00000000
00000000
00000000
00000000
00011000
00000000
00000000
00000000
,
00001000
00000000
01000000
00000000
00010000
01000000
00100000
00000000
,
10000000
00010000
01000000
00000000
00010000
10000000
00100000
00000000
,
10000000
00000000
00000000
01000000
10000000
00000000
00000000
00000000
01000000
00000000
00000000
00000000
01000000
00000000
00000000
00000000
,
00200000
00000000
10000000
01300000
,
10000000
00000000
10010000
00000000
00010000
00100000
00001000
00000000
,
00010000
00000000
00000100
00000000
00001000
00000001
00000100
00000000
,
00000001
00000000
00000000
00000010
00000001
00000000
00000000
00000000
00000100
00000000
00000000
00000000
00000100
00000000
00000000
00000000
,
00001000
00000000
00011000
00000000
00001000
01000000
00010000
00000000
,
00100000
11000000
00100000
01010000
,
00001000
00020000
00000100
00000000
00031000
00020000
00000100
00000000
,
00031000
00000000
00000000
00000000
00000010
00000000
00000000
00000001
00000000
00000000
00000000
00000000
00000100
00000000
00000000
00000000
,
00002000
00000000
00000000
00003000
,
00010000
00010000
00001000
00001000
00001000
00000000
00020000
00000000
,
00031000
00000000
00010000
00000000
01000000
10000000
01000000
00000000
,
00100000
00000000
00100000
00100000
00000000
00001000
00001000
00000000
,
00010000
00000000
00010000
00010000
00000000
00000010
00000010
00000000
,
00001000
00000000
00001000
00001000
00000000
00000001
00000001
00000000
,
00000010
00000000
00000100
00000000
00010000
00001000
01000000
00000000
,
00010000
01100000
10000000
01100000
,
00001000
00011000
00010000
00011000
,
00001000
00001000
00011000
00000000
00010000
00010000
00011000
00000000
,
00000010
00000000
00000000
00001000
00000000
00000000
00000001
00000000
00000000
00000100
00000000
00000000
00001000
00000000
00000000
00020000
,
00000000
00000000
00000000
00031000
,
00010000
00010000
00001000
00001000
00000000
00011000
00011000
00000000
,
01000000
00000000
01100000
00000000
10000000
00010000
00000000
10000000
,
00000000
01000000
00000000
00010000
00000000
00002000
00000000
00000000
,
00013000
00000000
00000000
00000000
,
00000000
00000000
00000000
00000000
00000000
00000100
00001000
00000000
,
00000001
00000000
00000101
00000000
00000001
00000010
00000100
00000000
,
00010000
00001000
00100000
00000000
00010000
01000000
01000000
00000000
,
00010000
00000000
00000000
00100000
01000000
00000000
00000000
00000000
10000000
00000000
00000000
00000000
00100000
00000000
00000000
00000000
,
00010000
00001000
00010000
00000000
00001000
00000010
00000010
00000000
,
00000001
00000000
00000000
00000100
00000010
00000000
00000000
00000000
00001000
00000000
00000100
00000000
00010000
00000000
00000000
00000000
,
00001000
00020000
01000000
00000000
00031000
00020000
01000000
00000000
,
00031000
00000000
01000000
00000000
00010000
00000000
00000000
01100000
00000000
00000000
00000000
00000000
10010000
00000000
00000000
00000000
,
10000000
00000000
00000000
00000000
00100000
00000000
00000000
00020000
00000000
00000000
00031000
00000000
00010000
00000000
00000000
00000000
,
00001000
00000000
00010000
00000000
00000010
00000000
00000000
00000100
00000000
00000000
00000100
00000000
00000002
00000000
00000000
00000000
,
00000013
00000000
00000000
00000000
00000100
00000000
00000000
00020000
00000000
00000000
00031000
00000000
00010000
00000000
00000000
00000000
,
01000000
10000000
00100000
00000000
00010000
00001000
00011000
00000000
;

//---------------dance-double - t7r----------------
#NOTES:
     dance-double:
     t7r:
     Hard:
     11:
     :
00000000
00000000
00000000
00000000
,
00000000
00000000
00000000
00000000
,
00000000
00000000
00000000
00000000
,
00000000
00000000
00000000
00000000
,
00000000
00000000
00000000
00000000
,
00000000
00000000
00000000
00000000
,
00001000
01000000
00010000
00000000
00100000
00010000
00000000
10000000
,
00000000
00010000
00100000
01000000
10000000
00000000
10000000
00000000
,
00100000
01000000
00010000
00000000
00100000
00001000
00000000
00010000
,
00000000
00001000
00000100
00000001
00000010
00000001
00000001
00000000
,
00001000
00000001
00000100
00000000
00000010
00010000
00000000
00001000
,
00000000
00010000
01000000
10000000
00010000
00000000
01000000
00000000
,
00100000
00000000
10100000
00000000
10000000
01000000
10000000
00020000
,
01000000
00000000
10000000
00000000
00130000
00010000
10000000
00000000
,
01000000
00000000
00010000
00000000
00001000
00000010
00000100
00000020
,
00001000
00000000
00000100
00000000
00000031
00001000
00000010
00000000
,
00000001
00000010
00001000
00000001
,
00000010
00000000
00000000
00000000
00001000
00000000
00000000
00000000
00010000
00000000
00000000
00100000
00000000
00000000
10000000
00000000
,
00020000
00100000
10000000
01030000
,
20100000
01000000
00010000
30100000
,
20000000
00000000
31000000
00000000
00100000
00010000
10000000
00000000
,
00100000
00000000
00000000
00000000
00010000
00000000
00000000
00000000
00001000
00000000
00000000
00000010
00000000
00000000
00000100
00000000
,
00000020
00000000
00000000
00000000
00000031
00000000
00000000
00000000
00002000
00000000
00000000
00000010
00000000
00000000
00003002
00000000
,
00000100
00000000
00001003
00000000
00000100
00010000
00001000
00000000
,
00022000
00000000
00000000
00033000
,
00010000
00001000
00010000
00001000
00000000
00010000
00000000
00010000
00000000
00000000
00000000
00000000
00011000
00000000
00001000
00000000
,
00010000
00000000
01000000
00000000
10000000
00100000
01000000
00100000
,
00000000
10000000
01000000
00100000
00000000
01000000
10000000
00000000
,
00100000
00000000
00000000
00010000
00001000
00000000
00000000
00000000
00000010
00000000
00001000
00000000
00010000
00000000
00000000
00000000
,
00001000
00000100
00000100
00000010
00001000
00000001
00000100
00000000
,
00000001
00000000
00000011
00000000
00000001
00001000
00000100
00000010
,
00000000
00000001
00001000
00000010
00000000
00010000
00001000
00000000
,
00000010
00000000
00000000
00001000
00010000
00000000
00000000
00000000
00001000
00000000
00100000
00000000
00010000
00000000
00000000
00000000
,
10000000
00100000
01000000
00000000
00010000
00100000
01000000
10000000
,
00100000
00000000
00000000
01000000
00010000
00000000
00000000
00000000
00100000
00000000
00000000
01000000
10000000
00000000
00000000
00000000
,
01000000
00020000
00031000
00000000
00000100
00002000
00013000
00000000
,
01000000
00000000
10000000
00000000
00100000
01000000
00000000
00010000
00000000
00000000
10000000
00000000
01000000
00000000
00010000
00000000
,
00000000
00001000
00000000
00010000
,
00001000
00001000
00010000
00010000
00001000
00000000
00021000
00000000
,
00031000
00000100
00000010
00000100
00000001
00000010
00000100
00001000
,
00010000
00100000
00010000
10000000
00000000
00100000
00100000
00000000
,
10000000
00100000
01000000
00010000
00000000
10000000
10000000
00000000
,
01000000
00010000
00001000
00000010
00000000
00000100
00000100
00000000
,
00001000
00000000
00001000
00000001
00000000
00000000
00000100
00000000
00000001
00000000
00000001
00001000
00000000
00000000
00000100
00000000
,
00020000
00000000
00031000
00000000
00012000
00000000
00013000
01000000
,
10000000
00000000
00010000
00000000
00001000
00000000
00000001
00000100
,
00000010
00000010
00000010
00000000
00001000
00001000
00001000
00000001
,
00000010
00000000
00000000
00001000
00000000
00000000
00010000
00000000
00000000
00100000
00000000
00000000
10000000
00000000
00000000
00020000
,
00000000
00000000
00000000
10030000
,
00010000
10000000
00010000
10000000
00010000
00000000
00010000
00000000
00000000
00000000
10000000
00000000
01000000
00000000
00010000
00000000
,
00001000
00000000
00011000
00000000
00010000
00010000
00000000
00001000
,
00000000
00011000
00000000
01001000
00000000
00101000
00000000
00000000
,
00100000
00010000
10000000
00100000
,
00020000
00000000
00001000
00000000
01000000
00000000
00031000
00010000
,
00001000
00000000
00000000
00000100
00000010
00000000
00000000
00000000
00001000
00000000
00001001
00000000
00000000
00000000
00000011
00000000
,
00000000
00001100
00000000
00010100
00000000
00011000
00000000
00000000
,
00010000
00000000
00000000
01000000
10000000
00000000
00000000
00000000
00100000
00000000
01000000
00000000
00010000
00000000
00000000
00000000
,
10000000
00010000
00100000
00000000
00001000
00010000
00000010
00001000
,
00000001
00000000
00000000
00000010
00000100
00000000
00000000
00000000
00001000
00000000
00000001
00000000
00000100
00000000
00000000
00000000
,
00001000
00020000
00130000
00000000
00010000
00002000
00003010
00000000
,
00000100
00000000
00000100
00000000
00010000
00001000
00000000
00011000
00000000
00000000
00000000
00000000
00000000
00000000
00000000
00000000
,
00010000
00000000
00000000
00000000
00100000
00000000
00000000
02000000
00000000
00000000
03010000
00000000
10000000
00000000
00000000
00000000
,
01000000
00000000
00100000
00000000
01000000
00000000
00000000
00100000
00000000
00000000
00002000
00000000
00010000
00000000
00000000
00000000
,
01003000
00000000
00000000
00000000
00010000
00000000
00000000
20000000
00000000
00000000
30100000
00000000
00010000
00000000
00001000
00000000
,
00000010
00000000
00000001
00000000
00001000
00000000
00000100
00020000
00000000
00000000
00001000
00000000
00031000
00000000
00000000
00000000
;

//---------------dance-double - t7r----------------
#NOTES:
     dance-double:
     t7r:
     Challenge:
     13:
     :
00000000
00000000
00000000
00000000
,
00000000
00000000
00000000
00000000
,
00000000
00000000
00000000
00000000
,
00000000
00000000
00000000
00000000
,
00000000
00000000
00000000
00000000
,
00000000
00000000
00000000
00000000
,
00010000
00000100
00001000
00000000
00000001
00000000
00001001
00000000
,
00000001
00000010
00000100
00000000
00001000
00000100
00010000
00000000
,
00001000
01000000
00010000
00000000
10000000
00000000
10100000
00000000
,
10000000
00010000
00100000
00000000
00001000
00010000
00011000
00000000
,
00010000
00000010
00001000
00000000
00000100
00000000
00001100
00000000
,
00001000
00000001
00000100
00000000
00000010
00001000
00000001
00000000
,
00000020
00000000
00002030
00000000
00013000
00001000
01000000
00100000
,
10000000
00000000
00010000
10000000
00000000
00010000
10000000
00000000
01000000
00000000
00010000
00000000
00011000
00000000
00000000
00000000
,
00002000
00000000
00003200
00000000
00000301
00000010
00000100
00001000
,
00000001
00000000
00000100
00000010
00000000
00000100
00000010
00000000
00001000
00000000
00000100
00000000
00010100
00000000
00000000
00000000
,
00020000
00000100
00000000
00031000
,
00010000
01000000
10000000
00100000
,
00020000
00001000
00000000
00030010
,
00002000
00003100
00000010
00001001
,
00000002
00000100
00000000
00001003
,
00000200
00000000
00000000
00000000
00010300
00000000
00001000
00000000
01000000
00000000
00000000
01000000
00100000
00000000
10000000
00000000
,
00010000
00000000
00100000
00000000
00001000
00000000
00000000
00000000
00010000
00000000
00000000
00000010
00001000
00000000
00000002
00000000
,
00000100
00001000
00000010
00001003
,
00002200
00000000
00000000
00003300
,
00010000
00001000
00010000
00001000
00000000
00010000
00000000
00011000
00000000
00000000
00000000
01000000
00010000
00000000
10000000
00000000
,
00010000
00000000
00000000
00000000
00110000
00000000
00000000
10000000
00100000
00000000
10000000
00000000
01000000
00000000
00010000
00000000
,
00001000
00000100
00000010
00000100
00000001
00001000
00001100
00000000
,
00000001
00000000
00000000
00000010
00000100
00000000
00000000
00010000
00001000
00000000
01000000
00000000
00010000
00000000
00000000
00000000
,
10000000
00100000
10000000
00100000
00000000
00100000
10000000
00100000
00000000
00000000
10000000
00000000
10010000
00000000
00000000
00000000
,
00010000
00000000
00000000
00000000
01010000
00000000
00000000
10000000
01000000
00000000
10000000
00000000
00100000
00000000
00010000
00000000
,
00001000
00000010
00000100
00000010
00000001
00001000
00001010
00000000
,
00000001
00000000
00000000
00000100
00000010
00000000
00010000
00000000
00001000
00000000
01000000
00000000
00010000
00000000
00000000
00000000
,
10000000
01000000
10000000
01000000
00000000
01000000
10000000
01000000
00000000
00000000
10000000
00000000
10010000
00000000
00000000
00000000
,
00010000
00000000
00000000
00100000
00001000
00000000
00000000
00000000
00010000
00000000
00000000
00000010
00001000
00000000
00000000
00000000
,
00000100
00022000
00033000
00000000
01000000
00022000
00033000
00000000
,
00001000
00000000
01000000
00010000
01000000
00010000
00000000
10010000
00000000
00000000
00000000
00010000
01000000
00000000
00010000
00000000
,
20000000
01000000
00010000
30100000
,
10000000
00010000
00001000
00000001
00000010
00000000
00012000
00000000
,
00013000
00000000
01000000
00100000
00000000
01000000
10000000
00000000
00100000
00000000
01000000
00000000
00001000
00000000
00010000
00000000
,
00000100
00000000
00001000
00000100
00001000
00000000
00000001
00000000
00000000
00000000
00000110
00000000
00001001
00000000
00000000
00000000
,
00000001
00000000
00000100
00001000
00000100
00000000
00001000
00000000
00000000
00000000
00011000
00000000
01100000
00000000
00000000
00000000
,
10000000
00000000
01000000
00010000
01000000
00000000
00010000
00000000
00000000
00000000
00011000
00000000
00000110
00000000
00000000
00000000
,
00000001
00000000
00001000
00000010
00000000
00000001
00000010
00000000
00000100
00000000
00000001
00000000
00001000
00000000
00000100
00000000
,
00020000
00000000
00000000
00031000
01000000
00000000
00000000
00000000
00002000
00000000
00000000
00013000
00000100
00000000
00010000
00000000
,
00011000
00000000
01100000
00000000
11000000
00000000
00110000
00100000
,
00001000
00011000
00011000
00000000
00000010
00000110
00000110
00001000
,
00000001
00000000
00000100
00001000
00000000
00010000
00100000
00000000
10000000
01000000
00000000
00010000
00001000
00000000
00000010
00000002
,
00000000
00000000
00000000
00001003
,
00000100
00000000
00010000
00001000
00010000
00000000
00011000
00000000
00000000
00000000
01100000
00000000
10010000
00000000
00010000
00000000
,
10000000
00000000
00000000
01000000
00010000
00000000
00001000
00000000
00000100
00000000
00000010
00000000
00000000
00000000
00000110
00000000
,
00000000
00001010
00000000
00001001
00000000
00000012
00000000
00000013
,
00001000
00010000
01000000
10000000
,
00200000
00000000
01300000
00000000
00001000
00010000
00011000
00010000
,
00000100
00000000
00000000
00001000
00000010
00000000
00000000
00000001
00000010
00000000
00001000
00000100
00001000
00000000
00000100
00000000
,
00010000
00001000
00010000
01000000
00100000
01000000
10000000
00000000
,
00010000
00000000
00000000
01000000
00100000
00000000
00000000
01000000
00001000
00000000
00000000
00010000
00000010
00000000
00000000
00000000
,
00001000
00000000
00000001
00000100
00000001
00000100
00000000
00000001
00000010
00000000
00001000
00000000
00010000
00000000
00001000
00000000
,
00011000
00000000
00000000
00001000
01000000
00000000
00000000
00100000
10000000
00000000
00010000
00000000
00100000
00000000
00000000
00000000
,
00001000
00011000
00000100
00000000
00010000
00011000
01000000
00000000
,
00010000
00000000
10000000
01000000
00100000
00010000
00000000
10010000
00000000
00000000
00000000
10000000
00100000
00000000
00010000
00000000
,
00001000
00000000
00000000
00000000
00100000
00000000
00001000
00010000
00000000
00000010
00001000
00000000
00000001
00000000
00000010
00000000
,
00000100
00000000
00010000
00000000
00001000
00010000
00001000
01000000
00000000
00100000
10000000
00000000
01000000
00000000
00100000
00000000
,
00001000
00000000
00010000
00000000
00000100
00000000
00001000
00000010
00000000
00001000
00000001
00000000
00000100
00000000
00001000
00000000
,
00010000
00000000
00100000
10000000
00010000
10000000
00000000
01000000
00010000
00000000
00001000
00000000
00000100
00000000
00000000
00000000
;
