#TITLE:Schlagwerk;
#ARTIST:TaQ;
#BANNER:Schlagwerk.png;
#BACKGROUND:Schlagwerk-bg.png;
#JACKET:Schlagwerk-jacket.png;
#CDTITLE:./CDTITLES/BEATMANIA IIDX.PNG;
#MUSIC:Schlagwerk.ogg;
#SAMPLESTART:65.28;
#SAMPLELENGTH:15;
#DISPLAYBPM:125;
#BPMS:0=125;

//---------------dance-single - t7r----------------
#NOTES:
     dance-single:
     :
     Beginner:
     2:
     :
0000
0000
0000
0000
,
0000
0000
0000
0000
,
0000
0000
0000
0000
,
0000
0000
0000
0000
,
0000
0000
0000
0000
,
0000
0000
0000
0000
,
0001
0000
0001
0000
,
1000
0000
1000
0000
,
0010
0000
0010
0000
,
0100
0000
0100
0000
,
0100
0000
0000
0000
,
0001
0000
0000
0000
,
1000
0000
0000
0000
,
0010
0000
0000
0000
,
1000
0000
0000
0000
,
0001
0000
0000
0000
,
0010
0000
0000
0000
,
0100
0000
0000
0000
,
0010
0000
0010
0000
,
0010
0000
0000
0000
,
0001
0000
0001
0000
,
0001
0000
0000
0000
,
1000
0000
1000
0000
,
1000
0000
0000
0000
,
0010
0000
0010
0000
,
0010
0000
0000
0000
,
0100
0000
0000
0000
,
0001
0000
0000
0000
,
1000
0000
0000
0000
,
0100
0000
0000
0000
,
1000
0000
0000
0000
,
1000
0000
0000
0000
,
0001
0000
0000
0000
,
0001
0000
0000
0000
,
1001
0000
0001
0000
,
1000
0000
0000
0000
,
0010
0000
0100
0000
,
0001
0000
0000
0000
,
0010
0000
0100
0000
,
1000
0000
0000
0000
,
0001
0000
1000
0000
,
0010
0000
0000
0000
,
1000
0000
0000
0000
,
0100
0000
0000
0000
,
0010
0000
0000
0000
,
0001
0000
0001
0000
,
0100
0000
0000
0000
,
0010
0000
0000
0000
,
1000
0000
0001
0000
,
1000
0000
1000
0000
;

//---------------dance-single - t7r----------------
#NOTES:
     dance-single:
     :
     Easy:
     6:
     :
0000
0000
0000
0000
,
0000
0000
0000
0000
,
0000
0000
0000
0000
,
0000
0000
0000
0000
,
0000
0000
0000
0000
,
0000
0000
0000
0000
,
1000
0001
0100
0000
,
0001
1000
0100
0000
,
1000
0001
0010
0000
,
0001
1000
0010
0000
,
1000
1000
1000
0000
,
0001
0001
0001
0000
,
0100
0100
0100
0000
,
0010
0010
0010
0000
,
1001
0000
0000
0000
0000
0000
0000
0001
,
0001
0000
0000
0000
,
1001
0000
0000
0000
,
0010
0000
0000
0000
0000
0000
0000
0000
0100
0000
0000
0100
0000
0000
0000
0000
,
0110
0001
1000
0000
,
0100
0010
0001
0000
,
1000
0010
0100
0000
,
0010
1000
0001
0000
,
1000
0001
0010
0010
,
0001
1000
0010
0010
,
1000
0001
0100
0100
,
0001
1000
0100
0100
,
0010
0000
0010
0000
,
0001
0000
0001
0000
,
0100
0000
0100
0000
,
1000
0000
0000
0000
,
0001
0000
0001
0000
,
1000
0000
1000
0000
,
0100
0000
0100
0000
,
0001
0000
0110
0000
,
0001
1000
0100
0100
,
1000
0001
0010
0010
,
0001
1000
0100
0100
,
1001
0000
0000
0000
0000
0000
0000
0000
0010
0000
0000
0010
0000
0000
0000
0000
,
0110
1000
0001
0000
,
0110
0001
1000
0000
,
1001
0010
0100
0000
,
1001
0000
0100
0000
0010
0000
0000
0001
,
0000
0001
1000
0100
,
1000
0001
0100
0100
,
0001
1000
0010
0010
,
1000
0000
0000
0000
0100
0000
0000
0000
0010
0000
0000
0010
0000
0000
0000
0000
,
1001
0000
0100
0100
0100
0000
0010
0000
,
1000
0000
0001
0001
0001
0000
0010
0000
,
0001
0000
1000
0000
0010
0100
0010
0000
,
0100
0100
0010
0000
;

//---------------dance-single - t7r----------------
#NOTES:
     dance-single:
     :
     Medium:
     12:
     :
0000
0000
0000
0000
,
0000
0000
0000
0000
,
0000
0000
0000
0000
,
0000
0000
0000
0000
,
0000
0000
0000
0000
,
0000
0000
0000
0000
,
1001
0000
0010
1000
0100
0000
0010
0000
,
1001
0000
0010
0001
0100
0000
0010
0000
,
0110
0000
0001
1000
0010
0000
0100
0000
,
0110
0000
1000
0001
0010
0000
1001
0000
,
1000
0100
1000
0000
0001
0001
0001
0000
,
1000
0010
1000
0000
0001
0100
0001
0000
,
0010
0001
0010
0000
0100
0100
0100
0000
,
0010
0001
1000
0000
0010
0100
0010
0000
,
1001
0000
0000
0010
0000
0000
1000
0000
0001
0000
0000
0001
0000
0000
1000
0000
,
1001
0000
0000
0010
0000
0000
0001
0000
1000
0000
0000
1000
0000
0000
0000
0010
,
0100
0000
0000
0010
0000
0000
1000
0000
1000
0000
0000
0001
0000
0000
0100
0000
,
0010
0000
0000
0000
0000
0000
0000
0000
1000
0000
0000
1001
0000
0000
0010
0000
,
0100
0000
0000
0100
0001
0000
0010
0000
0001
0000
0000
0001
1000
0000
0000
0000
,
0010
0000
0000
0010
1000
0000
0001
0000
0010
0000
0000
0010
0100
0000
0000
0000
,
1000
0000
0000
1000
0010
0000
0100
0000
0001
0000
0000
0001
0010
0000
0001
0000
,
1000
0000
0000
0001
0100
0000
0001
0000
1000
0000
0001
1000
0000
0000
0001
0000
,
0010
0000
0000
0001
1000
0000
0010
0000
1000
0000
0000
0001
0010
0000
0000
0000
,
0001
0000
0000
0100
0010
0000
1000
0000
0100
0000
0000
0010
0100
0000
0000
0000
,
1000
0000
0000
0010
0100
0000
0001
0000
0010
0000
0000
0001
1000
0000
0010
0000
,
1000
0000
0000
0100
0010
0000
0001
0000
0100
0000
0000
0100
0010
0000
0010
0000
,
1000
0000
0000
0100
0001
0000
0100
1000
0000
0100
1000
0000
0001
0000
0000
0001
,
0100
0000
0000
1000
0100
0000
0001
0100
0000
0001
0100
0000
0010
0000
0000
1000
,
0001
0000
0000
0010
1000
0000
0010
0001
0000
0010
0001
0000
0010
0000
0000
0010
,
0100
0000
0010
0001
1000
0000
0010
0000
,
1000
0100
0000
1000
0100
0000
0010
0001
0000
0010
0001
0000
1000
0001
0000
0000
,
0001
0100
0000
0001
0100
0000
0010
1000
0000
0010
1000
0000
0001
1000
0000
0000
,
0010
0100
0000
0010
0100
0000
0010
1000
0000
0010
0001
0000
0010
0100
0000
0000
,
0001
1000
0000
0001
0000
0000
0100
0000
0110
0000
0000
0000
0000
0000
0000
0000
,
0001
0010
0000
0001
0010
0000
0001
0000
1000
0010
0000
1000
0010
0000
1000
0000
,
0001
0100
0000
0001
0100
0000
0001
0000
1000
0100
0000
1000
0100
0000
1000
0000
,
0001
0010
0000
0100
0010
0000
0001
0000
1000
0010
0000
0100
0010
0000
1000
0000
,
0001
0000
0000
0000
0000
0000
0000
0000
1001
0000
0000
0010
0000
0000
0100
0000
,
0001
0010
0000
0001
0100
0000
1000
0000
0100
0010
0000
1000
0010
0000
1000
0000
,
0100
0001
0000
0100
0010
0000
0001
0000
1000
0010
0000
0100
0010
0000
1000
0000
,
0001
0100
0000
1000
0100
0000
0010
0000
1000
0100
0000
0001
0100
0000
0010
0000
,
0001
1000
0000
0001
1000
0000
0010
0000
0100
0000
0010
0100
0000
0000
0010
0000
,
0000
1000
0100
1000
0001
0100
0110
0000
,
1000
0010
0100
0001
0010
0001
0011
0000
,
0001
0100
0010
1000
0001
0010
0110
0000
,
0010
0000
0000
0001
1000
0000
0010
0000
0100
0000
0010
0100
0000
0010
0000
0000
,
1000
0000
0000
0100
0010
0000
0110
0000
0110
0000
0000
0001
1000
0000
0000
0000
,
1001
0000
0000
0001
0100
0000
0110
0000
0110
0000
0000
0010
1000
0000
0000
0000
,
0001
0000
0000
0100
1000
0000
0100
0000
0110
0000
0000
1000
0100
0000
0001
0000
,
0100
0010
0100
0000
0010
0000
0000
0000
0001
0000
0000
0000
0000
0000
0000
0000
;

//---------------dance-single - t7r----------------
#NOTES:
     dance-single:
     :
     Hard:
     14:
     :
0000
0000
0000
0000
,
0000
0000
0000
0000
,
0000
0000
0000
0000
,
0000
0000
0000
0000
,
0000
0000
0000
0000
,
0000
0000
0000
0000
,
1001
0000
0000
1000
0100
0000
0001
0000
0100
0010
0000
0100
1000
0000
0001
0000
,
0101
0000
0000
0001
0100
0000
1000
0000
0100
0010
0000
1000
0010
0000
1000
0000
,
1001
0000
0000
1000
0100
0000
0010
0000
1000
0010
0000
0100
1000
0000
0001
0000
,
0101
0000
0000
0001
0100
0000
0010
0000
0001
0010
0000
0100
0001
0000
1000
0000
,
0001
0000
0010
0001
0000
0000
1000
0000
0100
1000
0000
0100
1000
0000
0001
0000
,
1000
0000
0010
1000
0000
0000
0010
0000
0100
0001
0000
0100
0001
0000
1000
0000
,
0010
0000
0100
0001
0000
0000
0010
0000
0100
0010
0000
0100
0010
0000
0001
0000
,
0100
0000
0010
0100
0000
0000
0001
0000
1000
0010
0000
1000
0010
0000
1000
0000
,
1001
0000
0010
0100
0000
0100
1000
0000
0010
0000
0100
0001
0000
0000
1000
0000
,
1001
0000
0010
0001
0000
0001
0100
0000
0010
0000
1000
0100
0000
0000
0000
1000
,
0001
0000
0100
0010
0000
0010
1000
0000
0001
0000
0010
0100
0000
0100
1000
0000
,
0010
0000
0000
0000
0000
0000
0000
0000
0110
0000
0000
1001
0000
0000
0110
0000
,
1000
0100
0000
0001
0100
0000
0010
0000
0001
0100
0000
0010
0001
0000
0010
0000
,
1000
0001
0000
0100
0010
0000
1000
0000
0001
0010
0000
0010
0100
0000
1000
0000
,
0001
0100
0000
1000
0100
0000
0010
0000
1000
0100
0000
0010
1000
0000
0010
0000
,
0001
1000
0000
1000
0010
0000
0100
0000
0010
1000
0010
1000
0000
0001
1000
0001
,
1000
0100
0000
0010
1000
0000
0010
0000
0001
0100
0000
0100
0010
0000
1000
0000
,
0001
0010
0000
0100
0001
0000
0100
0000
1000
0010
0000
0010
0100
0000
0001
0000
,
1000
0010
0000
0100
1000
0000
0100
0000
0010
1000
0000
1000
0001
0000
0010
0000
,
0001
0100
0001
0000
1000
0000
0100
0000
1000
0010
1000
0000
0001
1000
0001
1000
,
0001
0000
0000
0100
1000
0000
0001
0010
0000
0100
1000
0000
0100
0010
0000
0010
,
1000
0000
0000
0100
0001
0000
1000
0010
0000
0100
0001
0000
0100
0010
0000
0010
,
0001
1000
0000
0010
0001
0000
1000
0100
0000
0010
0001
0000
0010
0100
0000
0100
,
0001
0000
0000
0010
1000
0000
0001
0100
0000
0010
1000
0000
0010
0001
0000
1000
,
0001
0100
0000
0010
0001
0000
1000
0100
0010
0000
1000
0000
1001
0000
0000
0000
,
1000
0100
0000
0010
1000
0000
0001
0100
0010
0000
0001
0000
1001
0000
0000
0000
,
0010
0100
0000
0001
0100
0000
1000
0000
0100
0010
0000
1000
0100
1000
0001
1000
,
0000
0110
0000
1001
0000
0000
0100
0000
1010
0000
0000
0000
0000
0000
0000
0000
,
0001
0010
0000
0100
0001
0000
0101
0000
1000
0010
0000
0100
1000
0000
1100
0000
,
0001
1000
0000
0100
0001
0000
1100
0000
1000
0001
0000
0100
1000
0000
0101
0000
,
0010
0001
0000
0010
1000
0000
0110
0000
1000
0010
0000
0001
0010
0000
0110
0000
,
0001
0000
0000
0000
0000
0000
0000
0000
1001
0000
0000
0110
0000
0000
1001
0000
,
1000
0100
0000
0100
0001
0000
0110
0000
0001
0100
0000
0100
1000
0000
0110
0000
,
1000
0010
0000
0010
0001
0000
1010
0000
0001
0010
0000
0010
1000
0000
0011
0000
,
1000
0100
0000
0001
0010
0000
1001
0000
0001
0100
0000
1000
0010
0000
1001
0000
,
0010
0001
0000
0100
1000
0000
0110
0000
0001
0100
0001
0100
0000
0000
1010
0000
,
0000
0000
1000
0000
0100
0000
0001
0000
1000
0001
0100
0000
1000
0000
0010
0000
,
1000
0000
0001
0000
0100
0000
1000
0000
0001
1000
0100
0000
0001
0000
0010
0000
,
1000
0000
0010
0000
0100
0000
1000
0000
0001
0100
0010
0000
0001
0000
0010
0000
,
1000
0100
0000
0001
0100
0000
0010
0000
0001
1000
0001
1000
0000
0110
0000
0000
,
0101
0000
0000
0100
0010
0000
1010
0000
1100
0000
0000
0100
0010
0000
0001
0000
,
0011
0000
0000
0001
1000
0000
1010
0000
1000
0000
0000
1000
0001
0000
0100
0000
,
0010
1000
0000
0010
0001
0000
0110
0000
1000
0100
0000
0001
0100
0000
0110
0000
,
0001
0100
0001
0100
0001
0000
1001
0000
0010
0000
0000
0000
0000
0000
0000
0000
;

//---------------dance-single - t7r----------------
#NOTES:
     dance-single:
     :
     Challenge:
     16:
     :
0000
0000
0000
0000
,
0000
0000
0000
0000
,
0000
0000
0000
0000
,
0000
0000
0000
0000
,
0000
0000
0000
0000
,
0000
0000
0000
MMMM
0000
0000
0000
0000
,
1000
0100
0000
0100
0010
0000
0001
0000
1000
0010
0000
0010
0100
0000
0001
0000
,
0010
0100
0000
0100
1000
0000
0001
0000
0100
0010
0000
0010
1000
0000
0001
0000
,
0010
0001
0000
0001
0100
0000
0010
0000
0100
0010
0000
0010
1000
0000
0100
0000
,
0010
0100
0000
0100
1000
0000
0010
0000
0100
0001
0010
0100
2000
0000
3002
0000
,
1003
0100
1000
0100
0010
0100
1000
0010
0100
0001
0100
0001
0010
0100
1000
0001
,
1000
0010
1000
0010
0100
0010
1000
0100
0010
0001
0010
0001
0100
0010
1000
0001
,
0010
0100
0010
0100
1000
0010
0100
0001
0010
0001
0010
0001
1000
0001
0100
0010
,
1000
0100
0010
0001
0100
0010
1000
0001
0010
0100
1000
0010
0100
0001
1000
0001
,
1000
0000
0100
0100
0001
0000
0100
0000
1000
0000
0100
0100
0001
0000
0110
0000
,
0001
0000
0100
0100
1000
0000
0100
0000
0001
0000
0100
0100
1000
0000
0100
0010
,
0110
0000
0010
0010
1000
0000
0010
0000
0001
0000
0010
0010
0100
0000
0010
1000
,
0001
0100
0100
0100
0100
0100
0100
0100
0110
0000
0000
2001
0000
0000
3001
0000
,
1000
0100
0000
0100
0110
0000
1100
0000
1000
0100
0000
0100
0110
0000
0011
0000
,
0001
0100
0000
0100
0110
0000
0101
0000
0001
0100
0000
0100
0110
0000
1010
0000
,
1000
0100
0000
0100
0110
0000
0011
0000
0001
0100
0000
0100
0110
0000
1010
0000
,
0001
0010
0100
1000
1010
0000
1001
0000
1000
0100
0001
0100
0010
0000
1001
0000
,
1000
0010
0000
0010
0110
0000
1010
0000
1000
0010
0000
0010
0110
0000
0101
0000
,
0001
0010
0000
0010
0110
0000
0011
0000
0001
0010
0000
0010
0110
0000
1100
0000
,
1000
0010
0000
0010
0110
0000
0101
0000
0001
0010
0000
0010
0110
0000
1100
0000
,
1000
0010
0100
0001
0101
0000
1001
0000
0001
0010
0100
1000
0010
0100
0001
1000
,
0001
0010
0000
0100
0001
0100
0020
0000
0031
0010
0000
0100
0001
0100
0020
0000
,
0031
0100
0000
0010
0001
0010
0200
0000
0301
0100
0000
0010
0001
0010
0200
0000
,
0301
0010
0000
1000
0010
0001
2000
0000
3001
0010
0000
1000
0010
0001
2000
0000
,
3001
0100
0000
1000
0100
0001
2000
0000
3001
0100
0000
1000
0100
0001
0020
0000
,
0031
0010
0100
0010
0001
0100
0020
0000
0031
0010
0100
0010
0001
0010
2000
0000
,
3001
0010
0100
0010
0001
0100
0020
0000
0031
0010
1000
0100
0010
0001
2000
0000
,
3100
0001
0100
0010
0001
1000
0020
0000
0130
1000
0100
0001
1000
0100
0020
0000
,
0130
1100
0000
0101
0000
0000
0110
0000
1001
0000
0001
1000
0020
0000
0000
0000
,
1030
1100
0000
0100
0110
0000
1100
0000
1000
1100
0000
0100
0110
0000
0011
0000
,
0001
0101
0000
0100
0110
0000
0101
0000
0001
0101
0000
0100
0110
0000
1010
0000
,
1000
1100
0000
0100
0110
0000
0011
0000
0001
0101
0000
0100
0110
0000
1010
0000
,
2002
0000
3003
0000
MMMM
0000
0000
0000
0110
0000
0000
1001
0000
0000
0110
0000
,
1000
1010
0000
0010
0110
0000
1010
0000
1000
1010
0000
0010
0110
0000
0101
0000
,
0001
0011
0000
0010
0110
0000
0011
0000
0001
0011
0000
0010
0110
0000
1100
0000
,
1000
1010
0000
0010
0110
0000
0101
0000
0001
0011
0000
0010
0110
0000
1100
0000
,
1000
0010
0001
0010
0110
0000
0101
0000
0001
0010
0100
1000
0010
0000
1001
0000
,
0000
1000
0100
1000
0010
0000
1000
0100
1000
0010
0100
0001
0010
0001
0100
0000
,
0001
0010
0100
0010
0001
0000
1000
0010
0100
0001
0010
0100
1000
0010
0100
0000
,
0001
0010
1000
0010
0110
0000
0011
0000
0001
0100
0010
1000
1010
0000
1100
0000
,
1000
0010
0001
0010
0110
0000
0101
0000
0001
1000
0100
1000
0000
2100
0000
0000
,
3001
0001
0000
0001
1001
0000
0101
0000
0001
0001
0000
0001
1001
0000
0011
0000
,
1000
1000
0000
1000
1001
0000
1100
0000
1000
1000
0000
1000
1001
0000
1010
0000
,
1000
1100
0000
0100
0110
0010
0001
0000
0001
0101
0000
0100
0110
0010
1000
0000
,
0001
0000
0010
0000
1000
0000
0010
0000
0100
0010
0100
0010
0100
0010
0100
0000
MMMM
0000
0000
0000
0000
0000
0000
0000
0000
0000
0000
0000
0000
0000
0000
0000
;

//---------------dance-double - t7r----------------
#NOTES:
     dance-double:
     :
     Easy:
     6:
     :
00000000
00000000
00000000
00000000
,
00000000
00000000
00000000
00000000
,
00000000
00000000
00000000
00000000
,
00000000
00000000
00000000
00000000
,
00000000
00000000
00000000
00000000
,
00000000
00000000
00000000
00000000
,
00100000
10000000
00010000
00000000
,
00100000
00001000
00010000
00000000
,
00000010
00001000
00000001
00000000
,
00000010
00000001
00000100
00000010
,
00001000
00000100
00010000
00010000
,
00001000
01000000
00010000
00010000
,
00100000
01000000
10000000
10000000
,
00100000
01000000
00010000
00010000
,
00001000
00000000
00000000
00000000
,
00000100
00000000
00000000
00000000
,
00001001
00000000
00000000
00000000
,
00001100
00000000
00000100
00010000
,
00001000
00010000
00001000
00001000
,
00010000
01000000
10000000
10000000
,
00010000
01000000
00100000
00100000
,
10000000
01000000
00010000
00010000
,
00001000
00010000
00000100
00000100
,
00001000
00000010
00000100
00000100
,
00000001
00000010
00001000
00001000
,
00010000
01000000
10000000
10000000
,
00100000
00000000
00100000
00000000
,
01000000
00000000
01000000
00000000
,
00010000
00000000
00010000
00000000
,
00100000
00001000
00010000
00000000
,
00001000
00000000
00010000
00000000
,
00000100
00000000
00001000
00000000
,
00000010
00000100
00000001
00000000
,
00000010
00000000
00000100
00000000
,
00011000
00001000
00010000
00010000
,
00100000
10000000
00010000
00010000
,
00100000
00001000
00010000
00010000
,
00001000
00000000
00000010
00000001
,
00000100
00000010
00000000
00001001
,
00000001
00000010
00000000
00001100
,
00000100
00010000
00000000
00011000
,
00001000
01000000
00000000
00100000
,
10000000
01000000
00010000
00010000
,
00001000
00000100
00000001
00000001
,
00000100
00001000
00010000
00010000
,
01000000
10000000
00010000
00010000
,
10000000
00100000
00010000
00010000
,
00001000
00000010
00000001
00000001
,
00000010
00001000
00010000
00010000
,
00100000
10000000
00010000
00000000
;

//---------------dance-double - t7r----------------
#NOTES:
     dance-double:
     :
     Medium:
     9:
     :
00000000
00000000
00000000
00000000
,
00000000
00000000
00000000
00000000
,
00000000
00000000
00000000
00000000
,
00000000
00000000
00000000
00000000
,
00000000
00000000
00000000
00000000
,
00000000
00000000
00000000
00000000
,
00000001
00000000
00000010
00000001
00000100
00000000
00000010
00000000
,
00001000
00000000
00000100
00010000
00001000
00000000
00010000
00000000
,
00001000
00000000
00100000
00010000
01000000
00000000
00010000
00000000
,
10000000
00000000
00100000
01000000
00010000
00000000
00100000
00000000
,
00010000
00000000
01000000
00000000
00100000
00100000
00100000
00000000
,
10000000
00000000
01000000
00000000
00010000
00001000
00010000
00000000
,
00001000
00000000
00010000
00000000
00000100
00000100
00000100
00000000
,
00010000
00000000
00001000
00000000
00000010
00000001
00000100
00000000
,
00001001
00000000
00000000
00000000
00000000
00000000
00000000
00000100
,
00001100
00000000
00000000
00000000
,
00011000
00000000
00000000
00000000
,
01100000
00000000
01000000
10010000
,
11000000
00000000
10000000
01000000
00100000
00000000
01000000
00000000
,
00010000
00000000
00001000
00010000
00000100
00000000
00010000
00000000
,
00001000
00000000
00000100
00000001
00000010
00000000
00000001
00000000
,
00000100
00000000
00000010
00001000
00000100
00001000
00000000
00000001
,
00000100
00000000
00000001
00000010
00000100
00000000
00000010
00000000
,
00001000
00000000
00010000
00001000
00100000
00000000
00001000
00000000
,
00010000
00000000
00100000
10000000
01000000
00000000
10000000
00000000
,
00100000
00000000
01000000
00010000
00100000
00000000
00010000
10000000
,
00100000
00000000
01000000
00000000
00010000
00100000
00010000
00000000
,
10000000
00000000
00100000
00000000
01000000
00010000
01000000
00000000
,
00010000
00000000
00100000
00000000
00010000
00001000
00000010
00000000
,
00000100
00000001
00001000
00000000
,
00000001
00000000
00000010
00000000
00000100
00001000
00000100
00000000
,
00001000
00000000
00000010
00000000
00000100
00000001
00001000
00000000
,
00000001
00000000
00000100
00001000
00010000
00000000
00100000
00000000
,
01000000
00010000
00000000
10000000
10010000
00000000
00000000
00000000
,
10000000
00000000
11000000
01000000
00100000
00000000
00010000
00100000
,
00001000
00000000
00011000
00010000
00000010
00000000
00000100
00000001
,
00001000
00000000
00001001
00000001
00000010
00000000
00000100
00010000
,
00001000
00000000
00010000
00011000
,
00001000
00000000
00010000
00100000
01000000
00000000
00100000
00000000
,
00010000
00000000
00001000
00000010
00000100
00000000
00000010
00000000
,
00001000
00000000
00010000
01000000
00100000
00000000
01000000
00000000
,
00010000
00000000
00001000
00000100
00000010
00000000
00000000
00000100
,
00000000
00000100
00000001
00000000
00000010
00000100
00001000
00000000
,
00000100
00010000
00001000
00000000
00010000
00001000
01000000
00000000
,
00010000
00000000
00100000
00000000
01000000
00100000
00010000
00000000
,
10000000
01000000
00010000
00000000
00001000
00000000
00000000
00000000
,
00010000
00000000
00000000
00000100
00001000
00000000
00001000
00000000
00000100
00000000
00000000
00001000
00000001
00000000
00000000
00000000
,
00000100
00000000
00000000
00000001
00000100
00000000
00000100
00000000
00000010
00000000
00000000
00001000
00000100
00000000
00000000
00000000
,
00001000
00000000
00000000
00000100
00010000
00000000
00010000
00000000
00001000
00000000
00010000
00000000
01000000
00000000
10000000
00000000
,
00100000
01000000
00010000
00000000
;

//---------------dance-double - t7r----------------
#NOTES:
     dance-double:
     :
     Hard:
     13:
     :
00000000
00000000
00000000
00000000
,
00000000
00000000
00000000
00000000
,
00000000
00000000
00000000
00000000
,
00000000
00000000
00000000
00000000
,
00000000
00000000
00000000
00000000
,
00000000
00000000
00000000
00000000
,
10010000
00000000
00000000
10000000
01000000
00000000
00100000
00000000
01000000
00000000
00000000
01000000
10000000
00000000
00010000
00000000
,
01000000
00000000
00000000
01000000
00010000
00000000
00100000
00000000
00001000
00000000
00000000
00001000
00010000
00000000
00001000
00000000
,
00000010
00000000
00000000
00000010
00000001
00000000
00000100
00000000
00000001
00000000
00000000
00000001
00000010
00000000
00000100
00000000
,
00001000
00000000
00000000
00001000
00000100
00000000
00010000
00000000
00001000
00000000
00010000
00000000
01000000
00000000
10000000
00000000
,
00010000
00000000
00100000
00010000
00000000
00000000
01000000
00000000
00010000
00000000
00100000
00000000
01000000
00000000
10000000
00000000
,
01000000
00000000
00100000
00010000
00000000
00000000
00100000
00000000
00001000
00000000
00010000
00000000
00001000
00000000
00000010
00000000
,
00000001
00000000
00000100
00000001
00000000
00000000
00000100
00000000
00000010
00000000
00000100
00000000
00000001
00000000
00001000
00000000
,
00000100
00000000
00010000
00001000
00000000
00000000
00010000
00000000
00001000
00000000
00010000
00000000
01000000
00000000
00100000
00000000
,
10010000
00000000
00000000
10000000
01000000
00000000
10000000
00000000
00100000
00000000
00000000
00100000
01000000
00000000
00010000
00000000
,
00110000
00000000
00000000
00100000
00001000
00000000
00010000
00000000
00001000
00000000
00000000
00001000
00010000
00000000
00000000
00000010
,
00001000
00000000
00000000
00001000
00000010
00000000
00000100
00000000
00000001
00000000
00000000
00000001
00000010
00000000
00000100
00000000
,
00000010
00000000
00000010
00000000
00000010
00000000
00000010
00000000
00000001
00000000
00000000
00001001
00000000
00000000
00000110
00000000
,
00000001
00000100
00000000
00000010
00000100
00000000
00000001
00000000
00000010
00000100
00000000
00000010
00000001
00000000
00001000
00000000
,
00000001
00000100
00000000
00000010
00001000
00000000
00000100
00000000
00010000
00001000
00000000
00010000
00000100
00000000
00010000
00000000
,
00001000
00010000
00000000
00001000
00100000
00000000
00010000
00000000
01000000
00010000
00000000
00100000
01000000
00000000
00100000
00000000
,
00010000
10000000
00000000
00100000
01000000
00000000
00100000
00000000
10000000
01000000
10000000
01000000
00000000
10000000
00010000
10000000
,
00010000
01000000
00000000
00010000
00100000
00000000
00010000
00000000
01000000
00001000
00000000
00010000
00001000
00000000
00010000
00000000
,
00001000
00000010
00000000
00000100
00000010
00000000
00000001
00000000
00000100
00000010
00000000
00000100
00000001
00000000
00001000
00000000
,
00000001
00000100
00000000
00000010
00000100
00000000
00001000
00000000
00000100
00000010
00000000
00001000
00000100
00000000
00001000
00000000
,
00000100
00010000
00000000
00001000
00010000
00000000
01000000
00000000
10000000
00100000
10000000
00100000
01000000
00000000
00010000
00000000
,
10000000
01000000
00000000
00100000
01000000
00000000
10000000
01000000
00000000
00100000
01000000
00000000
10000000
01000000
00000000
01000000
,
00010000
00001000
00000000
00010000
00000100
00000000
00010000
00001000
00000000
00010000
00000010
00000000
00010000
00001000
00000000
00001000
,
00010000
00000100
00000000
00001000
00000010
00000000
00001000
00000100
00000000
00000010
00000100
00000000
00001000
00000010
00000000
00000010
,
00000100
00000001
00000000
00000010
00000100
00000000
00000010
00000001
00000000
00000010
00000100
00000000
00001000
00000100
00000000
00010000
,
00001000
00010000
00000000
00010000
01000000
00000000
01000000
10000000
00000000
10000000
00100000
00000000
01000000
00100000
00000000
00100000
,
10000000
01000000
00000000
01000000
00100000
00000000
00100000
00001000
00000000
00001000
00010000
00000000
00010000
00001000
00000000
00001000
,
00000010
00000100
00000000
00000100
00001000
00000000
00001000
00000010
00000000
00000010
00000100
00000000
00000100
00000001
00000000
00000001
,
00000010
00000001
00000000
00001001
00000000
00000000
00000100
00000000
00011000
00000000
00000000
00000000
00001000
00000000
00000000
00000000
,
00010000
01000000
00000000
10000000
00010000
00000000
10000000
00000000
00100000
00010000
00000000
00100000
01000000
00000000
00010000
00000000
,
10000000
01000000
00000000
00010000
00001000
00000000
00000100
00000000
00000010
00001000
00000000
00000010
00000100
00000000
00000001
00000000
,
00000010
00000100
00000000
00000010
00000001
00000000
00000100
00000000
00001000
00010000
00000000
00001000
00100000
00000000
00010000
00000000
,
10000000
00000000
00000000
00000000
00000000
00000000
00000000
00000000
01100000
00000000
00000000
10010000
00000000
00000000
01100000
00000000
,
10000000
01000000
00000000
01000000
00100000
00000000
01100000
00000000
00100000
00010000
00000000
00010000
00100000
00000000
00110000
00000000
,
00100000
00001000
00000000
00001000
00010000
00000000
00011000
00000000
00010000
00000010
00000000
00000010
00000100
00000000
00000110
00000000
,
00000010
00001000
00000000
00001000
00000001
00000000
00000011
00000000
00000001
00000100
00000000
00000100
00001000
00000000
00011000
00000000
,
00001000
00010000
00000000
00010000
00100000
00000000
01100000
00000000
00100000
10000000
00100000
10000000
00000000
00000000
00010000
00000000
,
00000000
10000000
01000000
10000000
00100000
00000000
10000000
00000000
01000000
00100000
00010000
00000000
00100000
00000000
00001000
00000000
,
00010000
00000000
00000100
00010000
00001000
00000000
00010000
00000000
00001000
00010000
00000010
00000000
00001000
00000000
00000010
00000000
,
00000100
00000000
00000001
00000010
00000100
00000000
00000010
00000000
00000001
00000100
00000010
00000000
00001000
00000000
00000100
00000000
,
00010000
00000000
00001000
00010000
00100000
00000000
01000000
00000000
00010000
10000000
00010000
10000000
00000000
01100000
00000000
00000000
,
00100000
10000000
00000000
10000000
00010000
00000000
10010000
00000000
10000000
01000000
00000000
01000000
00010000
00000000
00011000
00000000
,
00010000
00000100
00000000
00000100
00001000
00000000
00001010
00000000
00000010
00000100
00000000
00000100
00000001
00000000
00000011
00000000
,
00000001
00000010
00000000
00000010
00001000
00000000
00011000
00000000
00010000
00100000
00000000
00100000
10000000
00000000
10100000
00000000
,
00100000
01000000
00100000
01000000
00100000
01000000
00100000
01000000
00001000
00000000
00000000
00000000
00000000
00000000
00000000
00000000
;

//---------------dance-double - t7r----------------
#NOTES:
     dance-double:
     :
     Challenge:
     16:
     :
00000000
00000000
00000000
00000000
,
00000000
00000000
00000000
00000000
,
00000000
00000000
00000000
00000000
,
00000000
00000000
00000000
00000000
,
00000000
00000000
00000000
00000000
,
00000000
00000000
00000000
MMMMMMMM
00000000
00000000
00000000
00000000
,
00000001
00000010
00000000
00000010
00000100
00000000
00000010
00000000
00000001
00000100
00000000
00000100
00001000
00000000
00010000
00000000
,
00001000
00100000
00000000
00100000
01000000
00000000
00100000
00000000
00010000
10000000
00000000
10000000
01000000
00000000
00010000
00000000
,
00001000
00010000
00000000
00010000
00000010
00000000
00000100
00000000
00000001
00000010
00000000
00000010
00001000
00000000
00000010
00000000
,
00000001
00000100
00000000
00000100
00001000
00000000
00010000
00000000
01000000
10000000
00000000
10000000
00200000
00000000
02300000
00000000
,
03010000
00100000
00010000
10000000
00010000
10000000
01000000
00000000
10000000
00100000
10000000
00100000
01000000
00010000
00100000
00000000
,
00010000
01000000
00010000
01000000
00010000
00100000
00001000
00000000
00010000
00001000
00010000
00001000
00010000
00000100
00001000
00000000
,
00000010
00000100
00000010
00000100
00000001
00000010
00000100
00000000
00000010
00000001
00000010
00000001
00000100
00001000
00010000
00000000
,
00001000
00100000
00001000
00100000
00010000
01000000
00100000
00000000
10000000
01000000
10000000
01000000
00100000
00001000
00010000
00000000
,
00001000
00010000
00000100
00010000
00000000
00010000
00001000
00000000
00010000
00000000
00001000
01000000
00000000
00001000
00010000
00000000
,
00001000
00010000
00000010
00010000
00000000
00010000
00001000
00000000
00000010
00000000
00000001
00000100
00000000
00000100
00000010
00000100
,
00000100
00000001
00000010
00000100
00000000
00000100
00000010
00000000
00000001
00000000
00000100
00001000
00000000
00001000
00010000
00000000
,
01000000
10000000
01000000
10000000
00010000
10000000
00010000
10000000
00100000
00000000
00000000
02100000
00000000
00000000
03010000
00000000
,
10000000
01000000
00000000
00100000
01100000
00000000
00100000
00000000
00010000
01000000
00000000
01000000
01010000
00000000
00010000
00000000
,
00100000
00001000
00000000
00001000
00011000
00000000
00001000
00000000
00100000
00001000
00000000
00001000
00011000
00000000
00010000
00000000
,
00000010
00001000
00000000
00001000
00001010
00000000
00000010
00000000
00001000
00000010
00000000
00000010
00000110
00000000
00000100
00000000
,
00000001
00000010
00000100
00000010
00000001
00000000
00000100
00000000
00001000
00010000
00001000
00010000
00001000
00000000
00011000
00000000
,
00001000
00000100
00000000
00000100
00000101
00000000
00000001
00000000
00001000
00000100
00000000
00000100
00010100
00000000
00010000
00000000
,
00001000
00010000
00000000
00010000
01010000
00000000
01000000
00000000
10000000
00010000
00000000
00010000
01010000
00000000
01000000
00000000
,
00100000
10000000
00000000
10000000
11000000
00000000
01000000
00000000
00010000
00001000
00000000
00001000
00011000
00000000
00010000
00000000
,
00001000
00000010
00000000
00000010
00000110
00000000
00000010
00000000
00000001
00000100
00000010
00000100
00000001
00001000
00000100
00000000
,
00001000
00000100
00000000
00010000
00001000
00010000
00000200
00000000
00010300
00001000
00000000
01000000
00001000
00010000
00002000
00000000
,
00013000
00000100
00000000
00010000
00001000
00010000
00002000
00000000
01003000
00001000
00000000
00010000
00001000
00010000
00002000
00000000
,
00003100
00000001
00000000
00000010
00000100
00000010
00000002
00000000
00000103
00001000
00000000
00010000
00001000
00010000
02000000
00000000
,
13000000
00100000
00000000
00010000
00100000
01000000
00200000
00000000
10300000
01000000
00000000
00010000
00001000
00010000
00002000
00000000
,
00003010
00000001
00000100
00000010
00000001
00000010
00000200
00000000
00000301
00000010
00000100
00001000
00000100
00000010
00000002
00000000
,
00000103
00001000
00000100
00000010
00000100
00001000
00020000
00000000
00031000
00010000
00100000
00010000
00001000
00100000
00020000
00000000
,
10030000
01000000
00100000
10000000
00100000
01000000
20000000
00000000
30100000
01000000
00010000
00100000
00001000
00010000
00001000
00001000
,
00010000
00011000
00000000
01001000
00000000
00000000
00010100
00000000
MMMMMMMM
00000000
00000000
00000000
00000000
00000000
00000000
00000000
,
00100000
00010000
00000000
00010000
10010000
00000000
01010000
00000000
00010000
00100000
00000000
00100000
01100000
00000000
11000000
00000000
,
10000000
01000000
00000000
01000000
01100000
00000000
00110000
00000000
10000000
01000000
00000000
01000000
01010000
00000000
00011000
00000000
,
00001000
00000100
00000000
00000100
00000110
00000000
00001010
00000000
00001000
00000100
00000000
00000100
00000110
00000000
00000011
00000000
,
00002002
00000000
00003003
00000000
MMMMMMMM
00000000
00000000
00000000
01100000
00000000
00000000
10010000
00000000
00000000
11000000
00000000
,
10000000
11000000
00000000
01000000
01100000
00000000
11000000
00000000
10000000
11000000
00000000
01000000
01100000
00000000
00101000
00000000
,
00001000
00011000
00000000
00010000
00010100
00000000
00011000
00000000
00010000
00011000
00000000
00010000
00010100
00000000
00001100
00000000
,
00000100
00000110
00000000
00000010
00000011
00000000
00001001
00000000
00000001
00000101
00000000
00000100
00000110
00000000
00001010
00000000
,
00000010
00001000
00000100
00010000
00011000
00000000
01001000
00000000
00001000
00010000
01000000
10000000
00100000
00000000
01100000
00000000
,
00000000
10000000
00100000
10000000
00010000
00000000
10000000
01000000
00100000
01000000
10000000
00100000
01000000
00010000
00100000
00000000
,
00010000
01000000
00001000
00010000
00001000
00000000
00010000
00001000
00000010
00000100
00000010
00000001
00000100
00000010
00001000
00000000
,
00000001
00000100
00000010
00000100
00000001
00000000
00000010
00000100
00000010
00000001
00000100
00000010
00001000
00000100
00010000
00000000
,
00001000
00010000
01000000
00100000
01000000
10000000
00010000
00000000
10000000
00100000
01000000
00100000
00000000
10010000
00000000
00000000
,
10000000
00100000
00000000
01000000
01010000
00000000
00010000
00000000
10000000
01000000
00000000
01000000
01010000
00000000
00010000
00000000
,
00001000
00010000
00000000
00010000
00011000
00000000
00010000
00000000
00001000
00000100
00000000
00000100
00000110
00000000
00000100
00000000
,
00000001
00000010
00000000
00000010
00001010
00000000
00001000
00000000
00010000
00100000
00000000
00100000
10100000
00000000
00100000
00000000
,
10000000
00000000
01000000
00000000
00010000
00000000
00001000
00000000
00000100
00000001
00000100
00000001
00000100
00000001
00000100
00000000
MMMMMMMM
00000000
00000000
00000000
00000000
00000000
00000000
00000000
00000000
00000000
00000000
00000000
00000000
00000000
00000000
00000000
;
