#TITLE:Saiph;
#ARTIST:BEMANI Sound Team "Yvya";
#ARTISTTRANSLIT:Yvya;
#BANNER:Saiph.png;
#BACKGROUND:Saiph-bg.png;
#JACKET:Saiph-jacket.png;
#CDTITLE:./CDTITLES/GITADORA.PNG;
#MUSIC:Saiph.ogg;
#SAMPLESTART:85.37;
#SAMPLELENGTH:15;
#BPMS:0=162;
#BGCHANGES:0=../../../BGAs/tm0007.mp4=1=0=0=1=====;

//---------------dance-single - t7r----------------
#NOTES:
     dance-single:
     t7r:
     Beginner:
     8:
     :
0000
0000
0000
0000
,
0000
0000
0000
0000
,
0000
0000
0000
0000
,
0000
0000
0000
0000
,
0000
0000
0000
0000
,
0000
0000
0000
0000
,
0000
0000
0000
0000
,
0100
0100
0100
0000
,
0010
0010
0010
0000
,
1000
1000
1000
0000
,
0001
0010
0100
1000
,
0001
0001
0001
0000
,
1000
1000
1000
0000
,
0010
0010
0010
0000
,
0100
0100
0010
0010
,
1000
1000
0001
0001
,
1000
1000
0100
0100
,
0010
0010
0001
0001
,
1000
1000
1000
0000
0000
1000
1000
0000
,
0000
0000
0000
0000
,
0001
0001
0001
0000
0001
0001
0001
0000
,
0000
0000
0000
0000
,
0100
0000
0100
0100
0000
0100
0000
0000
,
0000
0000
0000
0000
,
0010
0000
0010
0010
0000
0010
0000
0000
,
0000
0000
0000
0000
,
1000
0000
1000
1000
0000
1000
0000
1000
,
0000
1000
1000
0000
,
0001
0000
0001
0001
0000
0001
0000
0001
,
0000
0001
0001
0000
,
0010
0000
0010
0010
0000
0010
0000
0010
,
0000
0010
0010
0000
,
0100
0000
0100
0100
0000
0100
0000
0100
,
0000
0100
0100
0100
,
0010
0010
0001
0001
,
1000
1000
0010
0010
,
1000
1000
0100
0100
,
0010
0010
0001
0001
,
1000
1000
0010
0010
,
0100
0100
0001
0001
,
1000
1000
0100
0100
,
0010
0010
0001
0001
,
1000
0000
1000
0100
1000
0000
1000
0000
,
1000
1000
1000
1000
,
0001
0000
0001
0100
0001
0000
0001
0000
,
0001
0001
0001
0001
,
1000
0000
1000
0010
1000
0000
1000
0000
,
1000
1000
1000
1000
,
0001
0000
0001
0010
0001
0000
0001
0000
,
0001
0001
0001
0001
,
1000
0000
0000
1001
0000
0000
0001
0000
,
0100
0000
0000
0110
0000
0000
0010
0000
,
1000
1000
0001
0001
,
0010
0010
0100
0100
,
0010
0000
0000
0110
0000
0000
0001
0000
,
1000
0000
0000
1001
0000
0000
0010
0000
,
0100
0100
0010
0010
,
1000
1000
1000
0000
,
0001
0010
0100
1000
,
0001
0000
0001
0000
0100
0001
0100
0000
,
0010
0010
1000
1000
,
0001
0000
1000
0000
0010
0100
0010
0000
,
1000
0100
0010
0001
,
1000
0010
0100
0001
,
1000
0100
0001
0100
,
0010
0001
1000
0001
,
1000
0000
1000
0000
0010
0010
0010
0000
,
1000
1000
1000
0000
1000
0000
1000
0000
,
0001
0001
0010
0010
,
0001
0001
0001
0000
0100
0000
0100
0000
,
0010
1000
0001
1001
,
0010
0001
1000
1001
,
1000
0100
0001
0100
,
0010
0000
0001
0001
,
1000
0000
0000
0000
,
0000
0000
0000
0000
,
0000
0000
0000
0000
,
1000
0010
1000
0000
0010
1000
0010
0000
,
0100
0010
0100
0001
,
1000
0100
0010
0001
,
1000
0001
0100
0010
,
0100
0001
0100
0000
0001
0100
0001
0000
,
0010
0001
0010
0000
0001
0010
0001
0000
,
1000
1000
0010
0010
,
0001
0000
0001
0000
0100
0000
1000
0001
;

//---------------dance-single - t7r----------------
#NOTES:
     dance-single:
     t7r:
     Easy:
     13:
     :
0000
0000
0000
0000
,
0000
0000
0000
0000
,
0000
0000
0000
0000
,
0000
0000
0000
0000
,
0000
0000
0000
0000
,
0000
0000
0000
0000
,
0000
0000
0000
0000
,
0010
1000
0100
1000
0010
0000
0100
0001
,
1000
0100
0010
0100
1000
0000
0001
0010
,
0001
0100
0010
0100
0001
0000
1000
0010
,
1000
1000
0100
0100
0001
0001
0100
0100
,
1000
0000
0010
0000
1000
0000
0000
0001
0000
0010
0000
0001
1000
0000
0000
0000
,
0001
0000
0010
0000
0001
1000
0000
0010
0000
0000
1000
0000
0001
0000
0000
0000
,
1000
0000
0100
0000
1000
0000
0000
0001
0000
0100
0000
0001
1000
0000
0000
0000
,
0001
0000
0000
0100
0000
0010
0000
0100
0001
0000
1000
0000
0100
0000
0000
0010
,
0100
0000
0000
1000
0000
0010
0000
0100
0001
0000
0010
0000
0100
0000
0000
1000
,
0001
1001
1000
1100
,
0001
0000
0000
0001
0100
0000
0000
0100
0010
0000
0000
0010
1000
0000
0000
1000
,
0001
0000
1000
0100
0000
1000
0001
0100
,
0000
0001
0010
0100
1000
0100
0010
0001
,
1000
0000
0001
0100
0010
0100
0100
0100
,
0000
0001
0010
0100
0010
0001
1000
0000
,
0010
0000
0100
0002
0000
0103
1000
0100
,
0000
0010
1000
0100
0010
0001
1000
0000
,
0010
0000
1000
0020
0000
0031
0010
0000
,
0100
0100
0100
0000
0001
1000
0100
0000
,
1100
0000
0001
0010
0000
1000
0010
0100
,
0000
1000
0010
0100
0001
1000
0001
0000
,
0011
0000
1000
0100
0000
0001
0100
0020
,
0000
0031
1000
0010
0100
0001
1000
0000
,
0100
0000
0100
0120
0000
0032
0000
0203
,
0000
0320
0000
2030
0000
3001
1000
0000
,
0100
0000
0010
0210
0000
2300
0000
3001
,
0100
0100
0100
0000
0010
0100
0001
0000
,
1000
0000
0000
0000
0100
0000
0000
1000
0000
1000
0000
1000
0001
0000
0000
0000
,
0100
0000
0000
0000
0010
0000
0000
0100
0000
0100
0000
0100
0001
0000
0000
0000
,
0010
0000
0000
0000
0100
0000
0000
0010
0000
0010
0000
0010
0001
0000
0000
0000
,
0100
0000
0000
0000
0010
0000
0000
1000
0000
1000
0000
1000
0100
0000
0000
0000
,
1000
0000
0000
0000
0100
0000
0000
0001
0000
0001
0000
0100
1000
0000
0000
0000
,
0001
0000
0000
0000
0100
0000
0000
1000
0000
1000
0000
0100
0001
0000
0000
0000
,
0010
0000
0000
0000
0100
0000
0000
1000
0000
1000
0000
0001
0010
0000
0000
0000
,
0100
0000
0000
0110
0000
0000
0001
0000
2000
0000
0000
0000
3001
0000
0000
0000
,
1000
0100
1000
0100
0001
0100
0010
0001
,
1000
0100
1000
0100
1000
0010
0100
0001
,
1000
0010
1000
0010
0001
0010
0100
0001
,
1000
0000
0010
0000
0000
1001
0000
0000
0110
0000
0000
1100
0000
0000
1001
0000
,
0001
0010
0001
0010
1000
0010
0100
1000
,
0001
0001
0100
0100
1000
1000
0100
0100
,
0002
0000
0013
0001
0100
1000
0100
0001
,
1000
0000
0000
1000
0100
0000
0000
0100
0010
0000
0000
0010
0001
0000
0000
0001
,
1000
0000
0010
0210
0000
0301
1000
0000
,
1001
0000
0010
0120
0000
0031
1000
0000
,
0100
1000
0100
0001
0100
1000
0100
0001
,
0100
0100
0010
0010
0001
0100
0010
1000
,
1010
0000
0001
0200
0000
0301
1000
0000
,
1100
0000
0010
0002
0000
1003
0001
0000
,
1100
0011
1001
0110
,
0101
0000
0000
1100
0000
0000
0101
0000
0000
0000
1000
0000
0001
0000
0000
0000
,
2000
0000
0000
3020
0000
0000
0230
0000
0000
0000
0302
0000
0000
0000
0203
0000
,
0000
0000
0000
0000
0000
0301
1000
0000
,
0002
0000
0000
0023
0000
0000
0230
0000
0000
0000
2300
0000
0000
0000
3002
0000
,
0000
0203
0000
0320
0000
1030
0100
0010
,
0001
0000
0000
0100
0000
0000
1000
0000
0100
0000
0000
0001
0000
0000
1000
0000
,
0100
0000
0000
0001
0000
0000
0100
0000
0010
0000
0001
0000
1000
0000
0001
0000
,
0200
0000
0000
0320
0000
0000
2030
0000
0000
0000
0000
0000
0000
0000
0000
0000
,
3010
0100
0010
0100
0001
0010
0100
1000
,
0001
0000
0000
0100
0000
0000
0010
0000
1000
0000
0000
1000
0000
0000
0100
0000
,
0010
0001
0010
0001
1000
0000
0100
0000
,
1000
0000
0000
0010
0000
0000
0001
0000
0000
0010
0000
0000
1000
0000
0000
0001
,
0000
0000
0100
0000
0000
1000
0000
0000
0100
0000
0001
0000
0010
0000
0100
0000
,
1000
0000
0000
0000
1010
0000
0000
0000
1000
0001
0000
0000
1001
0000
0000
0000
,
0001
0000
0000
0000
0011
0000
0000
0000
0001
1000
0000
0000
0010
0000
0100
0000
,
0001
0000
0000
0101
0000
0000
1100
0000
0000
0011
0000
0000
1001
0000
0210
0000
,
0000
0000
0000
0000
0301
0000
0000
0000
1001
0010
0100
0000
0001
0000
0000
0000
,
2000
0000
0000
0000
,
0000
0000
0000
0000
,
3000
0000
0000
0000
,
0001
0000
0001
0000
0100
0000
0100
0000
1000
0000
0000
0110
0000
0000
1001
0000
,
0001
0000
0010
0000
1000
0000
0000
0010
0000
0001
1000
0000
0001
0000
0000
0000
,
1000
0000
0010
0000
0001
0010
0000
1000
0000
0001
1000
0000
0001
0000
0000
0000
,
1000
0000
0100
0000
0001
0000
0000
0100
0000
1000
0001
0000
1000
0000
0000
0000
,
0001
0000
0000
0010
0000
0100
0000
0010
0001
0000
0100
0000
0010
0000
0100
0000
,
0010
0000
0000
1000
0000
0001
0000
1000
0100
0000
1000
0000
0001
0000
0010
0000
,
0001
0001
0100
0100
1000
1000
0100
0100
,
0010
0000
0010
0000
1000
0000
1000
0000
0001
0000
0001
0000
1000
0001
1000
0001
;

//---------------dance-single - t7r----------------
#NOTES:
     dance-single:
     t7r:
     Medium:
     16:
     :
0000
0000
0000
0000
,
0000
0000
0000
0000
,
0000
0000
0000
0000
,
0000
0000
0000
0000
,
0000
0000
0000
0000
,
0000
0000
0000
0000
,
0000
0000
0000
0000
,
0100
0000
0001
0000
1000
0000
0001
0100
0001
0000
1000
0000
0001
0000
1000
0000
,
0100
0000
1000
0000
0001
0000
1000
0100
1000
0000
0001
0000
1000
0000
0100
0000
,
1000
0000
0010
0000
0100
0000
0010
1000
0010
0000
1000
0000
0100
0000
0010
0000
,
0001
0100
0001
0000
1000
0000
0100
0000
1000
0000
0010
1000
0000
0001
1000
0000
,
0001
0000
0010
0000
0100
0000
0010
0001
0000
1000
0000
0001
0100
0000
0001
0000
,
1000
0000
0010
0000
0100
0010
0000
1000
0000
0010
0000
1000
0001
0000
1000
0000
,
0100
0000
1000
0000
0010
0000
0100
0001
0000
0100
0000
0010
1000
0000
0001
0000
,
1000
0000
0100
1000
0000
1100
0000
1000
0001
0000
0100
0001
0100
0001
0100
0000
,
0001
0000
0010
0001
0000
0011
0000
0001
1000
0000
0010
1000
0010
1000
0010
0000
,
1000
0100
1000
0000
0001
0100
0001
0000
1000
0010
1000
0000
0001
0010
0001
0000
,
1000
0100
0010
0000
0001
0100
0010
0000
1000
0001
0100
0000
0001
1000
0001
0000
,
1000
0000
0001
0100
0001
0000
1000
0000
0001
0000
1000
0100
1000
0000
0001
0000
,
0000
1000
0100
0001
0100
0010
0001
0001
,
1000
0000
0010
1000
0010
1000
0010
0000
0001
0010
0001
0010
0001
0000
0010
0000
,
0000
1000
0100
0001
0100
0100
0010
0010
,
0001
0000
0100
0010
0100
0010
0200
0000
0000
0000
0301
1000
0001
1000
0001
0000
,
0000
0000
0100
0010
0100
0000
0001
0000
1000
0000
0100
0010
0100
0000
1000
0000
,
0010
0000
1000
0100
1000
0100
2000
0000
0000
0000
3100
0001
0100
0001
0100
0000
,
1000
0100
0010
0100
1000
0000
0001
1000
0010
0100
0001
1000
0002
0000
0000
0000
,
1003
0000
0100
0001
0100
0000
1000
0000
0001
0000
0100
0000
1000
0000
0100
0000
,
0000
0000
0010
1000
0010
0000
1000
0000
0001
0000
0010
0001
0010
0000
0000
0000
,
0001
0000
0100
1000
0100
0000
0001
0000
1000
0000
0100
0000
0001
0000
0200
0000
,
0000
0000
0310
0001
0010
0000
0001
0100
0001
0000
0010
0001
0010
0000
0001
0000
,
2000
0000
3010
0210
0000
0302
0000
0203
,
0000
0000
2300
0000
0000
0000
3200
0000
0000
0000
0310
1000
0010
0000
1000
0000
,
2001
0000
0000
0000
3100
0000
0002
0000
0000
0000
0203
0000
0000
0000
0310
0001
,
0020
0000
0031
2000
0000
0000
0000
0000
,
3001
0000
0100
0010
0100
0000
0001
1000
0000
1001
0000
0100
0010
0000
0000
0100
,
1000
0000
0100
0010
0100
0000
1000
0001
0000
1001
0000
0010
0100
0000
0000
0010
,
1000
0000
0001
0010
0001
0000
1000
0100
0000
1100
0000
1000
0001
0000
0000
0100
,
0001
0000
1000
0010
1000
0000
0001
0010
0000
0011
0000
0001
1000
0000
0000
0100
,
1000
0000
0100
0001
0100
0000
1000
0010
0000
1010
0000
0100
0001
0000
0000
1000
,
0001
0000
0100
1000
0100
0000
0001
0010
0000
0011
0000
0001
1000
0000
0000
0010
,
0100
0000
0010
1000
0100
0000
0010
0001
0000
1001
0000
0100
0010
0000
0000
1000
,
0100
0000
0001
0100
0000
0100
0010
0000
0110
0000
0001
1000
0001
1000
0001
0000
,
1000
0000
0100
0000
1000
0010
1000
0010
1000
0000
0001
0000
0100
0000
0001
0000
,
1000
0000
0100
0000
0010
0100
0010
0100
0010
0000
0001
0000
1000
0000
0010
0000
,
0100
0000
0001
0000
0100
0010
0100
0010
0100
0000
0001
0000
1000
0000
0100
0000
,
0010
0000
0011
0000
0000
1001
0000
0000
0110
0000
0000
0101
0000
0000
1001
0000
,
0001
0000
0100
0000
1000
0000
0100
0001
0000
0100
1000
0000
0100
0000
0010
0000
,
1000
0100
0010
0001
0010
0100
1000
0100
0010
0001
0010
0100
1000
0100
0010
0001
,
2000
0000
0000
0000
3010
1000
0001
0100
0010
1000
0001
0100
0001
0010
0100
0000
,
1000
0100
1000
0001
0100
0001
1000
0010
0100
0001
0010
0100
,
1000
0000
0001
0100
0001
0000
1002
0000
0000
0000
0103
0000
0010
0000
1000
0000
,
0001
0000
1000
0100
1000
0000
2001
0000
0000
0000
3010
0000
0100
0000
0000
0000
,
0001
0100
0001
0000
1000
0100
0000
0010
1000
0000
0001
0100
0000
0010
0100
0000
,
1000
0010
1000
0000
0001
0010
0000
1000
0000
0010
0000
0000
0100
0000
1000
0000
,
0001
0000
0100
0010
0100
0010
0100
0000
0010
0000
1000
0000
0001
0000
0100
0000
,
0001
0000
0010
0100
0010
0100
0010
0000
0001
0000
0100
0000
0010
0000
1000
0000
,
0001
0010
0001
0000
1000
0010
0000
0100
1000
0000
0001
0010
0000
0100
0010
0000
,
0110
0000
0000
1001
0000
0000
0110
0000
0000
0000
0001
1000
0001
1000
0001
0000
,
0020
0000
0000
0032
0000
0000
0203
0000
0000
0000
2300
0000
0000
0000
3100
0000
,
0001
0000
0010
0100
0000
0100
1000
0000
0001
0100
0001
0000
1000
0100
1000
0000
,
0020
0000
0000
0230
0000
0000
0302
0000
0000
0000
2003
0000
0000
0000
3002
0000
,
0000
0000
0023
0000
0000
0000
2030
0000
0000
0000
3010
0000
0001
0100
0001
0000
,
0100
0000
0010
1000
0000
0010
0001
0000
0010
0000
0100
0001
0000
0100
1000
0000
,
0100
0000
0001
0010
0000
0100
0001
0000
0100
1000
0100
0000
1000
0010
1000
0000
,
0001
0000
0010
1000
0010
0000
0001
0100
0000
1000
0000
0100
0001
0000
0000
0000
,
1000
0000
0100
0000
1100
0000
0001
0000
0101
0000
1000
0000
0001
0010
0100
1000
,
0001
0000
0100
0001
0000
0001
1000
0000
0001
0100
0000
0100
0001
0000
1000
0100
,
1000
0010
0000
0001
0010
0000
1000
0100
0010
0000
0001
0100
0001
1000
0001
0000
,
1000
0000
0100
0001
0000
1000
0010
0000
0100
0001
0000
1000
0010
0000
0100
0010
,
0001
0000
0100
1000
0000
0001
0010
0000
0100
1000
0001
0010
0100
0000
0010
0000
,
0110
0000
0001
0010
0100
0000
1000
0010
0000
0010
1000
0000
0001
0100
0001
0000
,
0010
0000
0001
0100
0010
0000
0100
0001
0000
0001
1000
0000
0001
0010
0100
1000
,
0001
0000
0100
1000
0000
0100
0001
0000
0100
0010
1000
0000
0001
0000
2001
0000
,
0000
0000
3010
0100
0010
0000
1000
0100
1000
0010
0100
0001
0100
0010
1000
0001
,
2000
0000
0000
0000
,
0000
0000
0000
0000
,
3000
0000
0000
0000
,
0001
0010
0001
0010
0100
1000
0001
0000
0110
0000
0000
1001
0000
0000
0110
0000
,
1000
0000
0100
0000
0010
0000
1000
0010
0000
0011
0000
0001
0100
0000
0001
1000
,
0001
0000
0100
0000
0010
0001
0000
0010
0000
0010
1000
0000
0100
0000
1000
0001
,
1000
0000
0010
0000
0100
0000
1000
0100
0000
1100
0000
0100
0001
0000
0010
0001
,
1000
0010
1000
0010
0000
0110
0000
0010
1000
0000
0001
0010
0100
1000
0001
1000
,
0001
0100
0001
0100
0000
0110
0000
0010
1000
0100
0010
0001
1000
0010
0100
0001
,
1000
0100
1000
0100
0001
0100
0001
0100
0010
0100
0010
0100
0010
0001
0010
0001
,
1000
0010
1000
0010
0001
0010
0001
0010
0100
0010
0100
0010
1000
0001
1000
0001
;

//---------------dance-single - t7r----------------
#NOTES:
     dance-single:
     t7r:
     Hard:
     18:
     :
0000
0000
0000
0000
,
0000
0000
0000
0000
,
0000
0000
0000
0000
,
0000
0000
0000
0000
,
0000
0000
0000
0000
,
0000
0000
0000
0000
,
0000
0000
0000
0000
,
1000
0000
0001
0000
1000
0100
1000
0100
1000
0000
0001
0100
0010
0100
0001
0000
,
1000
0000
0001
0000
1000
0010
1000
0010
1000
0000
0001
0010
0100
0010
0001
0000
,
1000
0000
0100
0000
0010
0100
1000
0100
0010
0000
0001
0010
0100
1000
0001
0000
,
1000
0010
1000
0010
0100
0001
0100
0001
1000
0000
0100
0010
0000
0100
1000
0001
,
1000
0000
0010
0000
0100
0010
0000
1000
0000
0001
0000
0010
0100
0000
1000
0000
,
0001
0000
0010
0000
0100
0010
0000
0001
0000
1000
0000
0010
0100
0000
0010
0000
,
1000
0000
0100
0000
0010
0001
0000
1000
0000
0001
0000
0010
0100
0000
0010
0000
,
0001
0000
0100
1000
0000
1000
0000
0100
0001
0010
0100
1000
0001
0100
0010
1000
,
0001
0000
0010
1000
0000
1000
0000
0010
0001
1000
0010
0100
0001
0010
0100
1000
,
0001
1000
0010
1000
0001
1000
0010
1000
0001
1000
0100
1000
0001
1000
0100
1000
,
0001
0010
0100
0010
0001
0010
0100
0010
0001
0100
0010
0100
0001
1000
0100
1000
,
0001
0000
0100
0010
0100
0010
0100
0000
1000
0000
0100
0010
0100
0010
0100
0000
,
0001
0000
1000
0100
0010
0100
1000
0001
1000
0010
0100
0001
1000
0010
0100
0001
,
1000
0000
0100
0010
0100
0010
0100
0000
0001
0100
1000
0001
1000
0000
1001
0000
,
0000
0000
0001
0010
0100
0010
0001
1000
0001
0100
0010
1000
0001
0100
0010
1000
,
0001
0000
0010
1000
0010
1000
0020
0000
0000
0000
0031
0100
0001
0100
0001
0000
,
0000
0000
1000
0100
0010
0100
1000
0001
1000
0010
0100
0001
1000
0010
0100
0001
,
1000
0000
0010
0001
0010
0001
0020
0000
0000
0000
1030
0100
1000
0001
0100
0000
,
0001
1000
0001
1000
0001
0000
1000
0001
1000
0010
0100
0001
0020
0000
0000
0000
,
0031
0000
0100
0010
0100
0010
0001
0000
0010
0000
0100
0001
0100
0001
1000
0000
,
0000
0000
0001
0010
0100
1000
0010
1000
0100
0010
0001
1000
0010
0100
0010
1000
,
0001
0000
0010
0100
0010
0100
0001
0000
0100
0010
0100
0010
0001
0000
2000
0000
,
0000
0000
3001
0100
0010
1000
0001
1000
0010
0100
0001
1000
0100
0010
0100
1000
,
0010
0000
0100
0001
0100
0001
0020
0000
0000
0000
0130
1000
0001
1000
0010
0000
,
1000
0000
0001
0010
0100
0010
0001
1000
0001
0100
0010
1000
0001
1000
0100
0010
,
0001
0000
1000
0010
1000
0010
0200
0000
0000
0000
1300
0100
0001
1000
0001
0000
,
0010
1000
0010
0001
1000
0000
0001
0010
0100
1000
0010
0100
0001
1000
0100
0010
,
0001
0000
0100
0010
0100
0000
0001
0010
0000
0011
0000
0001
1000
0100
0010
0001
,
1000
0000
0010
1000
0010
0000
0100
0001
0000
0101
0000
0001
1000
0000
0000
0000
,
0001
0000
0010
0100
0010
0000
0001
0100
0000
0101
0000
0100
0010
1000
0001
0000
,
1000
0000
0001
0010
0001
0000
1000
0001
0000
1001
0000
1000
0100
0000
0000
0000
,
1000
0000
0100
0010
0100
0000
0001
0100
0000
1100
0000
1000
0001
0000
1000
0000
,
0001
0000
0100
1000
0100
0000
0010
0100
0000
0110
0000
0010
1000
0000
0001
0000
,
1000
0000
0010
0001
0010
0000
0100
0010
0000
1010
0000
1000
0001
0010
0100
1000
,
0010
0000
0100
1000
0000
0100
0001
0000
1001
0000
0001
0010
0100
1000
0001
0000
,
1000
0100
1000
0100
1000
0100
1000
0100
0010
0000
0001
1000
0010
0100
0001
0000
,
1000
0010
1000
0010
1000
0010
1000
0010
0100
0000
0001
0010
0100
1000
0001
0000
,
1000
0100
1000
0100
0010
0100
0010
0100
0010
0000
0001
0100
0010
1000
0001
0000
,
1000
0010
1000
0010
0100
0010
1000
0001
0010
0000
0001
1000
0010
0000
1000
0000
,
0001
0010
0001
0010
0001
0010
0001
0010
0100
0000
1000
0001
1000
0010
0100
0001
,
1000
0010
1000
0010
0001
0010
0001
0010
0100
0010
0100
0010
1000
0100
0010
0001
,
2000
0000
0000
0000
3100
0010
0100
0010
0100
0001
0100
0001
0100
0010
0001
1000
,
0001
0100
0010
1000
0001
0100
0010
1000
0001
0010
0100
1000
0001
0010
0100
1000
,
0001
0000
1000
0100
1000
0100
0020
0000
0000
0000
0031
0100
0010
1000
0001
0000
,
1000
0000
0001
0010
0001
0010
0200
0000
0000
0000
1300
0001
0020
0000
0000
0000
,
0031
0010
0001
1000
0010
1000
0001
0010
0001
1000
0010
1000
0001
0010
0001
1000
,
0001
0010
0100
1000
0010
0000
1000
0010
0100
0001
0010
0001
1000
0000
1001
0000
,
0001
0100
0001
0100
0010
0100
0020
0000
0000
0000
0130
1000
0100
0001
1000
0000
,
0001
0010
0001
0010
0100
0010
0200
0000
0000
0000
0310
1000
0010
0001
1000
0000
,
0001
0100
0001
1000
0100
1000
0001
0100
0001
1000
0100
1000
0001
1000
0010
0100
,
0001
0000
1000
0100
0000
0001
0200
0000
0000
0000
1300
0010
0100
0001
1000
0001
,
2000
0000
0000
3200
0000
0000
0302
0000
0000
0000
0203
0000
0000
0000
0310
0000
,
0001
0000
0100
0010
0000
0010
1000
0000
0001
0100
0001
0100
0010
1000
0010
0100
,
0002
0000
0000
0023
0000
0000
2030
0000
0000
0000
3020
0000
0000
0000
0031
0000
,
1000
0100
1000
0100
0010
0100
0010
0100
0010
0001
0010
0001
1000
0010
0100
0001
,
1000
0100
1000
0001
0100
0001
1000
0000
0001
0010
0100
1000
0001
0000
0010
0000
,
0001
0100
0001
1000
0010
1000
0001
0000
1000
0010
0100
0001
1000
0100
0010
0001
,
1000
0000
0010
0001
0010
0000
0001
0010
0000
0010
1000
0000
0001
0000
1000
0000
,
0100
0000
0010
0100
1000
0000
0010
0100
1000
0000
0100
0001
0010
0100
1000
0010
,
1000
0100
1000
0100
0010
0100
0001
0100
1000
0010
1000
0001
0010
0001
1000
0010
,
0100
0001
0010
0100
1000
0010
0100
0001
0010
0000
0001
1000
0010
0100
0001
1000
,
0001
0100
0001
1000
0100
1000
0001
0010
0001
1000
0010
1000
0001
0100
0010
1000
,
0100
0010
0001
0100
0010
1000
0001
0000
1000
0010
0100
0001
0010
0100
1000
0010
,
0100
0000
1000
0100
0001
0000
1000
0100
0000
1100
0000
0001
0010
0100
1000
0001
,
0010
0000
1000
0010
0001
0000
1000
0010
0000
0100
0010
1000
0001
0010
0100
1000
,
0010
0100
0001
0100
0010
0100
1000
0100
0010
0100
0001
1000
0010
0000
2010
0000
,
0000
0000
3001
1000
0100
0000
1000
0001
0010
0001
1000
0100
0010
0001
1000
0001
,
0200
0000
0000
0000
,
0000
0000
0000
0000
,
0300
0000
0000
0000
,
0001
0010
0001
0010
0100
1000
0100
1000
0001
0100
0010
1000
0100
0010
0001
1000
,
0001
0000
0100
1000
0100
0000
0001
0010
0000
0011
0000
0010
0001
1000
0010
0000
,
1000
0000
0010
0001
0010
0000
1000
0100
0000
0001
0100
1000
0010
0100
0001
1000
,
0001
0000
0100
0010
0001
0000
1000
0100
0000
0101
0000
0001
1000
0100
0010
0000
,
0001
1000
0010
0100
0000
0110
0000
0010
1000
0100
0010
0001
0100
0010
1000
0100
,
1000
0001
0100
0010
0000
0110
0000
0100
0001
0100
0010
0100
1000
0100
0010
0100
,
0001
0010
0001
0010
1000
0010
1000
0010
0001
0100
0001
0100
1000
0100
1000
0100
,
0001
0100
0010
0100
1000
0100
0010
0100
0001
0010
1000
0001
0100
1000
0001
1000
;

//---------------dance-single - t7r----------------
#NOTES:
     dance-single:
     t7r:
     Challenge:
     19:
     :
0000
0000
0000
0000
,
0000
0000
0000
0000
,
0000
0000
0000
0000
,
0000
0000
0000
0000
,
0000
0000
0000
0000
,
0000
0000
0000
0000
,
0000
0000
0000
0000
,
0001
0100
0001
0100
0010
1000
0100
0010
0001
0000
1000
0010
0100
0001
1000
0000
,
0100
1000
0100
1000
0001
0100
0010
1000
0100
0010
0100
0010
0001
1000
0010
0000
,
1000
0100
1000
0100
0010
0001
0100
0010
1000
0000
0001
0100
0001
1000
0010
0000
,
1000
0100
1000
0100
0001
0100
0001
0100
1000
0100
0001
1000
0010
0100
1000
0000
,
0001
0000
0100
1000
0100
0000
0001
0010
0000
0100
0000
0001
0100
1000
0001
0000
,
1000
0000
0100
0001
0100
1000
0000
0010
0000
0100
0000
1000
0100
0001
1000
0000
,
0010
0100
0010
0100
0001
0000
0100
1000
0000
0100
0010
1000
0001
0010
1000
0010
,
0001
0000
0000
0100
0000
0000
0010
0000
0000
0001
0000
0000
0000
0000
0000
1010
0000
0000
0000
0000
0000
0010
0000
0000
1000
0000
0000
0100
0000
0000
0010
0000
0000
1000
0000
0000
0010
0000
0100
0000
0010
0000
0100
0000
0000
1000
0000
0000
,
0001
0000
0000
0010
0000
0000
0100
0000
0000
0001
0000
0000
0000
0000
0000
1100
0000
0000
0000
0000
0000
0100
0000
0000
1000
0000
0000
0010
0000
0000
0100
0000
0000
1000
0000
0000
0100
0000
0010
0000
0100
0000
0010
0000
0000
1000
0000
0000
,
0001
0010
0001
0010
0000
0000
1000
0010
1000
0010
0000
0000
0001
0100
0001
0100
0000
0000
1000
0100
1000
0100
0000
0000
,
0001
0100
0001
0100
0010
0001
0010
1000
0001
0010
0100
1000
0001
1000
0001
1000
,
0100
0001
0100
1000
0100
0010
0100
0000
0110
0000
0010
0001
0100
0001
0010
0000
,
0001
0000
1000
0100
1000
0100
0010
1000
0010
0001
0010
1000
0010
0100
1000
0001
,
0100
0000
0000
1000
0000
0000
0100
0000
0000
0001
0000
0000
0100
0000
0000
0010
0000
0000
0100
0000
0000
0000
0000
0000
0010
0000
1000
0000
0010
0000
1000
0000
0000
0000
0000
0000
0001
0000
0000
0000
0000
0000
1001
0000
0000
0000
0000
0000
,
0000
0000
0001
0010
0100
0001
0100
0010
0001
0100
1000
0100
0001
0100
0010
1000
,
0010
0000
0100
0001
0100
1000
0002
0000
0000
0000
1003
0100
0001
0100
0010
0000
,
0000
0000
1000
0100
0010
0001
0010
0100
0010
0001
1000
0100
0001
0100
0010
0001
,
0100
0000
0000
0000
0000
0000
0010
0000
0000
1000
0000
0000
0010
0000
0000
0001
0000
0000
2000
0000
0000
0000
0000
0000
0000
0000
0000
0000
0000
0000
3001
0000
0000
0010
0000
0000
1000
0000
0100
0000
1000
0000
0100
0000
0000
0000
0000
0000
,
1000
0000
0001
0000
1000
0000
0001
0000
0000
0000
0000
0000
1001
0000
0000
0000
0000
0000
0001
0000
0000
0010
0000
0000
0100
0000
0000
1000
0000
0000
0100
0000
0000
0001
0000
0000
0200
0000
0000
0000
0000
0000
0000
0000
0000
0000
0000
0000
,
0310
0000
0001
0100
1000
0100
0001
0000
1000
0100
0001
0100
0010
0001
1000
0000
,
0000
0000
0001
0100
1000
0100
0010
1000
0010
0001
0010
1000
0001
0010
0100
1000
,
0100
0000
1000
0010
0001
0010
1000
0000
0001
0010
1000
0010
0100
1000
0002
0000
,
0000
0000
1003
0010
0001
0010
0100
0001
0100
1000
0100
0001
1000
0100
0010
0001
,
0010
0000
0001
0100
0010
1000
0002
0000
0000
0000
2003
0000
0000
0000
3020
0000
,
0000
0000
0230
0000
0000
0000
2300
0000
0000
0000
3100
0001
0010
0100
1000
0001
,
1000
0000
0000
0000
0000
0000
0100
0000
0000
0000
0000
0000
1000
0000
0001
0000
1000
0000
0020
0000
0000
0000
0000
0000
0000
0000
0000
0000
0000
0000
2030
0000
0000
0000
0000
0000
0000
0000
0000
0000
0000
0000
3001
0000
0000
0100
0000
0000
,
0010
0000
0100
0000
0010
0000
0100
0000
0000
0000
0000
0000
0110
0000
0000
0000
0000
0000
0001
0000
0000
0000
0000
0000
1000
0000
0000
0010
0000
0000
0100
0000
0000
0001
0000
0000
1000
0000
0000
0100
0000
0000
0010
0000
0000
0001
0000
0000
,
1000
0010
0100
1000
0100
0000
0010
1000
0000
1010
0000
0001
0010
0100
1000
0001
,
0010
0000
0000
0001
0000
0000
0100
0000
0001
0000
1000
0000
0001
0000
0000
0000
0000
0000
0010
0000
0000
0001
0000
0000
0000
0000
0000
0011
0000
0000
0000
0000
0000
1000
0000
0000
0010
0000
0000
0100
0000
0000
0001
0000
0000
1000
0000
0000
,
0001
0010
0100
0001
0100
0000
0010
0100
0000
0110
0000
1000
0010
0100
0001
1000
,
0010
0000
0000
1000
0000
0000
0100
0000
1000
0000
0001
0000
1000
0000
0000
0000
0000
0000
0010
0000
0000
1000
0000
0000
0000
0000
0000
1010
0000
0000
0000
0000
0000
0001
0000
0000
0010
0000
0000
0100
0000
0000
1000
0000
0000
0001
0000
0000
,
1000
0000
0000
0100
0000
0000
1000
0000
0010
0000
0100
0000
0010
0000
0000
0000
0000
0000
0001
0000
0000
0010
0000
0000
0000
0000
0000
1010
0000
0000
0000
0000
0000
0100
0000
0000
1100
0000
0000
0000
0000
0000
0001
0000
0000
1000
0000
0000
,
0001
0010
0100
0001
0100
0000
0010
0001
0000
0011
0000
0001
1001
0000
0001
1000
,
0001
0000
0000
0100
0000
0000
0001
0000
0010
0000
0100
0000
0010
0000
0000
0000
0000
0000
1000
0000
0000
0010
0000
0000
0000
0000
0000
0110
0000
0000
0000
0000
0000
1000
0000
0000
1001
0000
0000
0000
0000
0000
0001
0000
0000
1000
0000
0000
,
0001
0100
0100
1000
0100
0100
0001
0000
1001
0000
1000
0100
0010
0001
1000
0000
,
0001
0100
0001
0100
0010
0001
0010
0001
0010
1000
0100
0001
0100
1000
0100
0010
,
0001
0100
0001
0100
0010
0001
0010
0001
0010
1000
0100
0010
0001
1000
0010
0100
,
1000
0100
1000
0100
0001
0100
0001
0100
0010
0001
0010
1000
0001
0010
0100
1000
,
0001
0010
0001
0010
1000
0010
1000
0010
0100
1000
0100
0001
0100
0010
0001
1000
,
0001
0100
0010
0001
0010
1000
0001
0010
0100
1000
0100
0001
0100
0010
0001
1000
,
0001
0010
0001
0010
0000
0000
1000
0100
1000
0100
0000
0000
0001
0100
0001
0100
0000
0000
1000
0010
1000
0010
0000
0000
,
2000
0000
0000
0000
3001
0100
0010
1000
0001
0010
0100
1000
0001
1000
0010
0100
,
0001
0010
0001
0000
1000
0000
0100
0001
0100
0000
1000
0000
0010
0001
0010
0000
0100
0000
0010
1000
0001
0000
1000
0000
,
0001
0000
0000
0100
0000
0000
1000
0000
0000
0001
0000
0000
0010
0000
0000
1000
0000
0000
0002
0000
0000
0000
0000
0000
1003
0000
0100
0000
1000
0000
0100
0000
0000
1000
0000
0000
0001
0000
0000
0100
0000
0000
0010
0000
0000
1000
0000
0000
,
0001
0000
0000
0010
0000
0000
1000
0000
0000
0001
0000
0000
0100
0000
0000
1000
0000
0000
0020
0000
0000
0000
0000
0000
0000
0000
0000
0000
0000
0000
1030
0000
0100
0000
1000
0000
0002
0000
0000
0000
0000
0000
0000
0000
0000
0000
0000
0000
,
1003
0100
0010
1000
0001
0100
0010
0001
1000
0100
0010
1000
0001
0100
0010
0001
,
1000
0000
0000
0001
0000
0000
1000
0000
0000
0001
0000
0000
0100
0000
0000
0000
0000
0000
0110
0000
0000
0000
0000
0000
0010
0000
1000
0000
0001
0000
1000
0000
0000
0001
0000
0000
0100
0000
0010
0000
0100
0000
0001
0000
0000
1000
0000
0000
,
0001
0010
1000
0001
0100
1000
0001
0010
0001
0100
0100
1000
0100
0100
0001
0010
,
0001
0100
0010
0001
1000
0100
0010
1000
0001
0010
0010
1000
0010
0010
0001
1000
,
0001
0010
0001
0010
0000
0000
1000
0100
1000
0100
0000
0000
0001
0100
0001
0100
0000
0000
1000
0010
1000
0010
0000
0000
,
0110
0000
0001
0101
0000
1000
1100
0000
0000
0000
0001
0100
0010
1000
0001
0010
,
0002
0000
0000
0203
0000
0000
2300
0000
0000
0000
3200
0000
0000
0000
0310
0000
,
1000
0000
0001
0100
0000
0100
0010
0000
0100
0001
0100
1000
0100
0001
0100
0010
,
2000
0000
0000
3200
0000
0000
0302
0000
0000
0000
2003
0000
0000
0000
3010
0000
,
0001
0000
0100
0001
0100
0010
0001
0010
1000
0100
1000
0100
0010
0001
0010
1000
,
0010
0000
0001
0100
0000
0100
1000
0000
0010
0000
1000
0100
0000
0100
0001
0000
,
0010
0001
0010
1000
0001
0100
0010
0001
0100
1000
0100
0001
0100
0010
1000
0001
,
1000
0000
0100
0010
1000
0000
0010
0100
0000
0010
0000
0001
0010
0000
0001
0100
,
0001
0000
0000
0000
0000
0000
0010
0000
0001
0000
0100
0000
0001
0000
0000
1000
0000
0000
0100
0000
1000
0000
0010
0000
1000
0000
0000
0001
0000
0000
1000
0000
0000
0100
0000
0000
0010
0000
0000
0001
0000
0000
1000
0000
0000
0010
0000
0000
,
1000
0100
1000
0100
0010
1000
0010
1000
0010
0001
1000
0010
0100
0001
0010
0100
,
1000
0001
1000
0010
0100
0001
1000
0100
0010
0100
1000
0010
0100
0001
1000
0100
,
1000
0010
0100
1000
0001
0010
0100
0001
1000
0010
0100
1000
0100
0001
1000
0001
,
1000
0000
0000
0100
0000
0000
0010
0000
0000
1000
0000
0000
0001
0000
0000
0100
0000
0000
0010
0000
0000
0001
0000
0000
1000
0000
0000
0100
0000
0000
0010
0000
0000
1000
0000
0000
0010
0000
0001
0000
1000
0000
0001
0000
0000
0100
0000
0000
,
0010
0000
0000
0000
0000
0000
0100
0000
0001
0000
1000
0000
0001
0000
0000
0000
0000
0000
0100
0000
0000
0010
0000
0000
0000
0000
0000
0011
0000
0000
0000
0000
0000
0010
0000
0000
1000
0000
0000
0001
0000
0000
0100
0000
0000
0010
0000
0000
,
1000
0000
0000
0000
0000
0000
0001
0000
0010
0000
0100
0000
0010
0000
0000
0000
0000
0000
1000
0000
0000
0010
0000
0000
0000
0000
0000
1010
0000
0000
0000
0000
0000
0010
0000
0000
0001
0000
0000
1000
0000
0000
0001
0000
0000
0010
0000
0000
,
0001
0100
0100
1000
0100
0100
0001
0010
0010
1000
0010
0010
0001
0000
2001
0000
,
0000
0000
0000
0000
0000
0000
3010
0000
0100
0000
0001
0000
1000
0000
0000
0001
0000
0000
1000
0000
0000
0100
0000
0000
1000
0000
0000
0010
0000
0000
0100
0000
0000
0001
0000
0000
1000
0000
0000
0100
0000
0000
0010
0000
0000
0001
0000
0000
,
2000
0000
0000
0000
,
0000
0000
0000
0000
,
3000
0000
0000
0000
,
0001
1000
0001
1000
0010
0100
0001
0000
0110
0000
1000
0001
0000
1000
0010
0100
,
0001
0000
0010
0000
0100
0000
0001
1000
0000
0110
0000
0001
0010
0001
1000
0001
,
1000
0000
0100
0000
0001
1000
0000
0110
0000
0011
0000
1000
0010
0100
0001
1000
,
0001
0100
0001
0100
1000
0001
0000
0110
0000
0001
0010
0100
1000
0001
0100
0010
,
0110
0000
0001
0100
0000
0100
0010
1000
0001
0010
0001
0010
1000
0010
0100
1000
,
1100
0000
0000
0000
0000
0000
1000
0000
0000
0010
0000
0000
0000
0000
0000
0010
0000
0000
0100
0000
0000
1000
0000
0000
0100
0000
0000
0001
0000
0000
1000
0000
0000
0001
0000
0000
1000
0000
0001
0000
0010
0000
0001
0000
0000
1000
0000
0000
,
0001
0010
0100
0000
1000
0000
0010
0001
0010
0000
1000
0000
0100
0001
0100
0000
0010
0000
0001
1000
0010
0000
1000
0000
,
0001
0000
0010
0000
0100
0000
1000
0000
0100
0000
0010
0000
0001
0000
0010
0000
0100
0000
1000
0000
0100
0000
0010
0000
0001
0000
0000
0100
0000
0000
1000
0000
0000
0100
0000
0000
0001
0000
0000
1000
0000
0000
0001
0000
0000
1001
0000
0000
;

//---------------dance-double - t7r----------------
#NOTES:
     dance-double:
     t7r:
     Easy:
     12:
     :
00000000
00000000
00000000
00000000
,
00000000
00000000
00000000
00000000
,
00000000
00000000
00000000
00000000
,
00000000
00000000
00000000
00000000
,
00000000
00000000
00000000
00000000
,
00000000
00000000
00000000
00000000
,
00000000
00000000
00000000
00000000
,
10000000
00000000
01000000
10000000
00010000
00000000
10000000
00000000
,
00010000
00000000
00100000
00001000
00010000
00000000
00001000
00000000
,
00010000
00000000
00001000
00000100
00000010
00000000
00000100
00000000
,
00000001
00000000
00000010
00000000
00000100
00000000
00000000
00000000
00000010
00000000
00000000
00000001
00000000
00000000
00001000
00000000
,
00000001
00000000
00000100
00000000
00000001
00000000
00000000
00001000
00000000
00000010
00000000
00001000
00000001
00000000
00000000
00000000
,
00000010
00000000
00000100
00000000
00010000
00000000
00000000
00001000
00000000
00010000
00000000
00001000
00010000
00000000
00000000
00000000
,
01000000
00000000
10000000
00000000
00100000
00000000
00000000
01000000
00000000
00100000
00000000
10000000
00010000
00000000
00000000
00000000
,
10000000
00000000
00000000
01000000
00000000
10000000
00000000
00000000
10010000
00000000
00000000
00000000
10000000
00000000
01000000
00000000
,
00010000
00000000
00000000
00001000
00000000
00010000
00000000
00000000
00011000
00000000
00000000
00000000
00010000
00000000
00001000
00000000
,
00000010
00000001
00000100
00001000
,
00100000
00010000
01000000
00100000
,
10010000
00000000
10000000
01000000
00000000
00100000
01000000
10000000
,
00000000
00000000
00100000
00000000
01000000
00000000
00000000
00000000
00010000
00000000
00000000
00100000
00000000
00000000
00001000
00000000
,
00010000
00001000
00000100
00000000
00000010
00000100
00000100
00000100
,
00000000
00000001
00000010
00000000
00000100
00010000
00001000
00000000
,
00010000
00000000
01000000
20000000
00000000
30100000
01000000
00010000
,
00000000
10000000
00100000
01000000
00010000
00000000
10000000
00000000
,
01000000
00000000
00010000
00002000
00000000
00013000
00001000
00000000
,
00000100
00000100
00000100
00000000
00000010
00000100
00000001
00000000
,
00000010
00000000
00001000
00010000
00000000
00100000
00000000
01000000
,
00000000
00010000
00100000
01000000
10000000
00000000
00010000
00000000
,
10000000
00000000
00100000
00010000
00000000
00001000
00010000
00002000
,
00000000
00003010
00000001
00000000
00000100
00000000
00000010
00000000
,
00000100
00000000
00000001
00000020
00000000
00002030
00000000
00023000
,
00000000
02030000
00000000
23000000
00000000
30100000
01000000
00010000
,
20000000
00000000
30100000
00020000
00000000
00032000
00000000
00003100
,
00000002
00000000
00000013
00000200
00000000
00000000
00000300
00000000
,
00000010
00000000
00000000
00000000
00000001
00000000
00000000
00000100
00000000
00000100
00000000
00000000
00001000
00000000
00000000
00000000
,
00010000
00000000
00000000
00000000
00100000
00000000
00000000
10000000
00000000
10000000
00000000
00000000
00010000
00000000
00000000
00000000
,
10000000
00000000
00000000
00000000
01000000
00000000
00000000
00010000
00000000
00010000
00000000
00000000
00001000
00000000
00000000
00000000
,
00010000
00000000
00000000
00000000
00001000
00000000
00000000
00000010
00000000
00000010
00000000
00000000
00000100
00000000
00000000
00000000
,
00000010
00000000
00000000
00000000
00000001
00000000
00000000
00000100
00000000
00001000
00000000
00000000
00011000
00000000
00000000
00000000
,
00001000
00000000
00000000
00000000
00010000
00000000
00000000
01000000
00000000
10000000
00000000
00000000
10100000
00000000
00000000
00000000
,
10000000
00000000
00000000
00000000
00100000
00000000
00000000
01000000
00000000
00010000
00000000
00000000
10010000
00000000
00000000
00000000
,
10000000
00000000
00000000
00100000
00000000
00000000
00010000
00000000
00001000
00000000
00000000
00000000
00011000
00000000
00000000
00000000
,
00001000
00000000
00000100
00000001
00001000
00000000
00000001
00000000
,
00000010
00000000
00000100
00010000
00001000
00000000
00010000
00000000
,
00001000
00000000
00010000
01000000
10000000
00000000
00100000
00000000
,
01000000
00000000
00010000
00000000
00000000
10000000
00000000
00000000
00100000
00000000
00000000
01000000
00000000
00000000
00010000
00000000
,
10000000
00000000
01000000
00100000
01000000
00000000
00010000
00000000
,
00001000
00000010
00000001
00000000
00001000
00000010
00000001
00000000
,
00000020
00000000
00000130
00000001
00001000
00000000
00000001
00000000
,
00000010
00001000
00010000
00000000
00001000
00000000
00011000
00000000
,
00010000
00000000
01000000
10000000
00000000
00010000
10000000
00000000
,
00010000
00000000
10000000
00100000
00000000
00000000
10010000
00000000
,
10000000
01000000
10000000
00000000
01000000
00010000
01000000
00000000
,
00010000
00001000
00010000
00000000
00001000
00000100
00000001
00001000
,
00000001
00000000
00000010
00001000
00000000
00000010
00000100
00000000
,
00000010
00000000
00000001
00000100
00000000
00001000
00010000
00000000
,
00001000
00010000
01000000
00000000
00010000
00001000
00000100
00000000
,
00001000
00000000
00000000
00010000
00000000
00000000
00011000
00000000
00000000
00000000
00000000
00000000
00000000
00000000
00000000
00000000
,
00002000
00000000
00000000
00023000
00000000
00000000
02030000
00000000
00000000
00000000
23000000
00000000
00000000
00000000
30200000
00000000
,
00010000
00000000
01000000
00000000
10000000
00000000
01300000
00100000
,
20000000
00000000
00000000
32000000
00000000
00000000
03020000
00000000
00000000
00000000
00032000
00000000
00000000
00000000
00003020
00000000
,
00000000
00000032
00000000
00000203
00000000
00000301
00000010
00000100
,
00000010
00000000
00000000
00000001
00000000
00000000
00000100
00000000
00000010
00000000
00000000
00001000
00000000
00000000
00000100
00000000
,
00010000
00000000
00000000
00001000
00000000
00000000
00010000
00000000
01000000
00000000
00000000
10000000
00000000
00000000
00100000
00000000
,
02000000
00000000
00000000
03020000
00000000
00000000
00230000
00000000
00000000
00000000
00000000
00000000
00000000
00000000
00000000
00000000
,
00301000
00010000
00000100
00000000
00001000
00000000
00001001
00000000
,
00000001
00000000
00000000
00000100
00000000
00000000
00000001
00000000
00000010
00000000
00000000
00000100
00000000
00000000
00010000
00000000
,
00001000
00010000
00001000
00000000
00010000
00000000
01000000
10000000
,
00100000
00000000
00000000
01000000
00000000
00000000
00010000
00000000
00000000
00100000
00000000
00000000
00001000
00000000
00000000
00010000
,
00000000
00000000
00001000
00000000
00000000
00000100
00000000
00000000
00000010
00000000
00000100
00000000
00000001
00000000
00000000
00000000
,
00000010
00000000
00000000
00000000
00001001
00000000
00000000
00000001
00000000
00000100
00000000
00000000
00001010
00000000
00000000
00000000
,
00000100
00000000
00000000
00000000
00011000
00000000
00000000
00001000
00000000
00010000
00000000
00000000
01100000
00000000
00000000
00000000
,
00010000
00000000
00000000
01000000
00000000
00000000
10000000
00000000
00000000
01000000
00000000
00000000
00100000
00000000
20000000
00000000
,
00000000
00000000
31000000
00000000
00100000
00001000
00010000
00000000
,
00002000
00000000
00000000
00000000
,
00000000
00000000
00000000
00000000
,
00003000
00000000
00000000
00000000
,
00000100
00000000
00000010
00000000
00000100
00000000
00000000
00000000
00000001
00000000
00000000
00001000
00000000
00000000
00000001
00000000
,
00000010
00000000
00000100
00000000
00000001
00000000
00000000
00000100
00000000
00001000
00000000
00000000
00000001
00000000
00000000
00000000
,
00000100
00000000
00001000
00000000
00010000
00000000
00000000
00001000
00000000
00010000
00000000
00000000
00100000
00000000
00000000
00000000
,
01000000
00000000
00010000
00000000
10000000
00000000
00000000
01000000
00000000
00100000
00000000
00000000
01000000
00000000
00000000
00000000
,
10000000
00000000
00000000
00100000
00000000
00100000
00000000
01000000
00010000
00000000
00000000
00000000
10000000
00000000
01000000
00000000
,
00010000
00000000
00000000
00001000
00000000
00001000
00000000
00010000
00001000
00000000
00000000
00000000
00000100
00000000
00000010
00000000
,
00001000
00000000
00000010
00000100
00000001
00000000
00000010
00001000
,
00010000
00000000
00000000
00000000
00001000
00000000
00000000
00000000
00010000
00000000
00100000
00000000
10000000
00010000
10000000
00010000
;

//---------------dance-double - t7r----------------
#NOTES:
     dance-double:
     t7r:
     Medium:
     16:
     :
00000000
00000000
00000000
00000000
,
00000000
00000000
00000000
00000000
,
00000000
00000000
00000000
00000000
,
00000000
00000000
00000000
00000000
,
00000000
00000000
00000000
00000000
,
00000000
00000000
00000000
00000000
,
00000000
00000000
00000000
00000000
,
10000000
00000000
01000000
00000000
10000000
00000000
00010000
01000000
00010000
00000000
00100000
00000000
00010000
00000000
10000000
00000000
,
01000000
00000000
00010000
00000000
00001000
00000000
00010000
00001000
00010000
00000000
00001000
00000000
00000100
00000000
00000010
00000000
,
00000100
00000000
00000001
00000000
00000010
00000000
00000001
00001000
00000001
00000000
00000100
00000000
00000010
00000000
00001000
00000000
,
00000001
00000000
00000010
00000000
00000100
00000000
00001000
00000000
00010000
00000000
00001000
00010000
00000000
00001000
01000000
00000000
,
00010000
00000000
00100000
00000000
01000000
00100000
00000000
00010000
00000000
10000000
00000000
00100000
01000000
00000000
00100000
00000000
,
10000000
00000000
01000000
00000000
00010000
00001000
00000000
00010000
00000000
00000100
00000000
00010000
00001000
00000000
00000100
00000000
,
00000010
00000000
00000100
00000000
00000001
00000010
00000000
00001000
00000000
00000010
00000000
00000100
00000010
00000000
00000001
00000000
,
00000100
00000000
00001000
00010000
00000000
00011000
00000000
00001000
00010000
00000000
01000000
00000000
10000000
00000000
00100000
00000000
,
10000000
00000000
01000000
00100000
00000000
01100000
00000000
00100000
00010000
00000000
10000000
00000000
00100000
00000000
00010000
00000000
,
00001000
00000100
00000010
00000100
00000001
00000010
00001000
00010000
,
00001000
00010000
00001000
00000000
00010000
00000100
00010000
00000000
00001000
00010000
00001000
00000000
01000000
00010000
01000000
00000000
,
00100000
00000000
01000000
00000000
00010000
00000000
01000000
00000000
00100000
00000000
01000000
00010000
01000000
00000000
00100000
00000000
,
10000000
01000000
00100000
01000000
10000000
00100000
00010000
00001000
,
00011000
00000000
00001000
01000000
00001000
00000000
00010000
00000000
00011000
00000000
00001000
00000000
00010000
00000000
00011000
00000000
,
00000000
00000000
00001000
00000000
00000100
00000000
00000010
00000100
00000010
00000000
00001000
00000000
00000001
00000000
00000010
00000000
,
00001000
00000000
00010000
00001000
00010000
00001000
00020000
00000000
00000000
00000000
01030000
10000000
01000000
00000000
10000000
00000000
,
00000000
00000000
00100000
00000000
01000000
00000000
00100000
00000000
10000000
00000000
00010000
00100000
00010000
00000000
10000000
00000000
,
01000000
00000000
00010000
00001000
00010000
00001000
00020000
00000000
00000000
00000000
00031000
00010000
00000100
00000000
00001000
00000000
,
00000010
00000000
00000100
00000010
00000100
00000000
00000001
00000000
00000010
00000100
00010000
00000000
00002000
00000000
00000000
00000000
,
00013000
00000000
01000000
10000000
01000000
00000000
10000000
00000000
00000000
00000000
00100000
01000000
00010000
00000000
10000000
00000000
,
00000000
00000000
00100000
00000000
10000000
00000000
00010000
00000000
00100000
00000000
00001000
00010000
00001000
00000000
00010000
00000000
,
00001000
00000000
00000100
00000010
00000100
00000000
00000010
00000000
00001000
00000100
00000010
00000000
00000001
00000000
00002000
00000000
,
00000000
00000000
00003001
00000000
00000010
00000000
00000100
00000000
00010000
00000000
00001000
00010000
00001000
00000000
00010000
00000000
,
01000000
00000000
10000000
00100000
01000000
00000000
00200000
00000000
00000000
00000000
20300000
00000000
00000000
00000000
30020000
00000000
,
00000000
00000000
00230000
00000000
00000000
00000000
00302000
00000000
00000000
00000000
00013000
00001000
00010000
00000000
00001000
00000000
,
00000020
00000000
00000130
00002000
00000000
00003020
00000000
00000031
,
00000010
00000000
00000100
00000000
00000110
00000000
00000100
00000001
00001000
00000000
00000001
00000010
00000100
00000000
00010000
00000000
,
00001000
00000000
00010000
00000000
01000000
00000000
00100000
01000000
00000000
00010000
00000000
01000000
00100000
00000000
00001000
00000000
,
00010000
00000000
00001000
00000000
00000100
00000000
00000010
00000100
00000000
00000010
00000000
00010000
00001000
00000000
00010000
00000000
,
00001000
00000000
00010000
00000000
00100000
00000000
01000000
00100000
00000000
00010000
00000000
00100000
01000000
00000000
00001000
00000000
,
00010000
00000000
00001000
00000000
00000010
00000000
00000100
00000010
00000000
00000100
00000000
00010000
00001000
00000000
00010000
00000000
,
00001000
00000000
00010000
00000000
01000000
00000000
10000000
00100000
00000000
00010000
00000000
00001000
00010000
00000000
00001000
00000000
,
00010000
00000000
00001000
00000000
00000100
00000000
00000001
00000010
00000000
00001000
00000000
00010000
00001000
00000000
00010000
00000000
,
01000000
00000000
10000000
00100000
10000000
00000000
00100000
01000000
00000000
00010000
00000000
00100000
00001000
00000000
00010000
00000000
,
00001000
00000000
00000100
00000001
00000000
00001000
00000001
00000000
00001001
00000000
00000001
00000010
00000001
00000000
00001000
00000000
,
00000001
00000000
00000010
00000100
00001000
00000000
00000001
00000000
00000010
00000000
00001000
00010000
00001000
00000000
00010000
00000000
,
00001000
00000000
00000100
00000010
00000100
00000000
00000001
00000000
00000010
00000000
00000100
00010000
00001000
00000000
00010000
00000000
,
00001000
00000000
01000000
00010000
01000000
00000000
00010000
00000000
00100000
00000000
01000000
10000000
00010000
00000000
10000000
00000000
,
00100000
00000000
00010000
00000000
00000000
00011000
00000000
00000000
00010100
00000000
00000000
00001100
00000000
00000000
00001001
00000000
,
00000001
00000000
00000100
00000010
00001000
00000000
00000001
00000000
00000010
00000000
00000100
00001000
00000001
00000000
00000100
00000000
,
00000010
00000000
00000001
00000010
00000100
00000000
00000001
00000010
00000100
00000000
00000010
00000000
00001000
00000000
00010000
00001000
,
00020000
00000000
00000000
00000000
00130000
00000000
01000000
00000000
00010000
00000000
10000000
00100000
10000000
00000000
00010000
00000000
,
01000000
00000000
10000000
01000000
00100000
00000000
10000000
01000000
00100000
00000000
00001000
00000000
00010000
00001000
00010000
00000000
,
00001000
00000000
00010000
01000000
10000000
00000000
20010000
00000000
00000000
00000000
30100000
00000000
01000000
00000000
00001000
00000000
,
00010000
00000000
00001000
00000100
00000001
00000000
00001002
00000000
00000000
00000000
00000013
00000000
00000110
00000000
00000000
00000000
,
00000001
00000000
00000100
00000000
00001000
00010000
00000000
00001000
00010000
00000000
01000000
10000000
00000000
00010000
10000000
00000000
,
00100000
00000000
01000000
00010000
01000000
00000000
00001000
00000000
00100000
00001000
00100000
00000000
00001000
00000000
00010000
00000000
,
00011000
00000000
00001000
00000010
00000001
00000000
00001002
00000000
00000000
00000000
00000103
00000000
00000010
00000000
00010000
00000000
,
00001000
00000000
00010000
00100000
10000000
00000000
20010000
00000000
00000000
00000000
31000000
00000000
01100000
00000000
00000000
00000000
,
10000000
01000000
10000000
00000000
00010000
01000000
00000000
10000000
01000000
00000000
00010000
00100000
00000000
00001000
00010000
00001000
,
00000010
00000000
00000001
00000100
00000000
00001000
00020000
00000000
00000000
00000000
00000000
00000000
00000000
00000000
00000000
00000000
,
00032000
00000000
00000000
00003200
00000000
00000000
00000320
00000000
00000000
00000000
00002030
00000000
00000000
00000000
00003001
00000000
,
00000010
00000000
00000001
00000100
00000000
00000100
00000010
00000000
00001000
00000100
00001000
00000000
00000100
00000000
00010000
00000000
,
00002000
00000000
00000000
00023000
00000000
00000000
02030000
00000000
00000000
00000000
23000000
00000000
00000000
00000000
30200000
00000000
,
00000000
00000000
02300000
00000000
00000000
00000000
03010000
00000000
10000000
00100000
10000000
00000000
00010000
00100000
00010000
00000000
,
10000000
00000000
01000000
00010000
00000000
00001000
00010000
00000000
00001000
00000000
00000100
00000001
00000000
00001000
00000001
00000000
,
00000010
00000000
00001000
00010000
00000000
00001000
01000000
00000000
00010000
00000000
00100000
00000000
01000000
00000000
00010000
00000000
,
01000000
00000000
00100000
00010000
00100000
00000000
00010000
01000000
00000000
00100000
10000000
00000000
00010000
00000000
00000000
00000000
,
10010000
00100000
11000000
10000000
10010000
10000000
01000000
00010000
,
00001000
00000000
00000100
00000001
00000000
00000001
00001000
00000000
00000001
00000010
00000000
00000100
00001000
00000000
00000001
00000000
,
00000100
00000000
00001000
00000000
00010000
00000000
00001000
00010000
00001000
00000000
00010000
00000000
00100000
00000000
01000000
00000000
,
00010000
00000000
00100000
01000000
00000000
01000000
10000000
00000000
01000000
00010000
00000000
00001000
00010000
00000000
00001000
00000100
,
00000000
00000010
00000100
00000000
00000001
00000010
00000000
00000010
00000100
00000000
00010000
00000000
00001000
00010000
00001000
00000000
,
00011000
00000000
00000000
00000000
01010000
00000000
00000000
10010000
00000000
10010000
00000000
00000000
11000000
00000000
00000000
00000000
,
10010000
00000000
00000000
00000000
01010000
00000000
00000000
00011000
00000000
00011000
00000000
00000000
00001100
00000000
00000000
00000000
,
00000010
00000000
00000001
00000100
00000000
00000010
00000100
00000000
00000010
00001000
00000000
00000100
00010000
00000000
00012000
00000000
,
00000000
00000000
00013000
00000000
01000000
00000000
10000000
00000000
00100000
00000000
01000000
00010000
10000000
00000000
01000000
00000000
,
00200000
00000000
00000000
00000000
,
00000000
00000000
00000000
00000000
,
00300000
00000000
00000000
00000000
,
00001000
00000000
00010000
00000100
00010000
00000000
00001000
00000000
00010000
00000000
00000000
00011000
00000000
00000000
00001010
00000000
,
00000010
00000000
00000100
00000000
00000001
00000000
00000010
00000100
00000000
00000010
00000000
00000001
00001000
00000000
00000001
00000000
,
00000100
00000000
00001000
00000000
00010000
00001000
00000000
00010000
00000000
00100000
00000000
01000000
00010000
00000000
10000000
00000000
,
01000000
00000000
00010000
00000000
00001000
00010000
00000000
00001000
00000000
00000010
00000000
00000100
00000010
00000000
00000001
00000000
,
00000100
00000000
00000010
00001000
00000000
00001001
00000000
00000001
00000100
00000000
00000001
00000010
00000001
00000000
00001000
00000000
,
00000001
00000000
00000100
00001000
00000000
00011000
00000000
00010000
01000000
00000000
00100000
01000000
00100000
00000000
00010000
00000000
,
10000000
00000000
00100000
01000000
00010000
00000000
10000000
01000000
00100000
00000000
00001000
00010000
00001000
00000000
00000100
00000010
,
00001000
00000000
00000001
00000010
00000100
00000000
00010000
00001000
00010000
00000000
00000100
00000000
00010000
00001000
00010000
00001000
;

//---------------dance-double - t7r----------------
#NOTES:
     dance-double:
     t7r:
     Hard:
     18:
     :
00000000
00000000
00000000
00000000
,
00000000
00000000
00000000
00000000
,
00000000
00000000
00000000
00000000
,
00000000
00000000
00000000
00000000
,
00000000
00000000
00000000
00000000
,
00000000
00000000
00000000
00000000
,
00000000
00000000
00000000
00000000
,
00100000
00000000
00010000
00000000
10000000
00100000
10000000
00100000
10000000
00000000
00010000
10000000
00010000
00000000
10000000
00000000
,
01000000
00000000
00100000
00000000
00001000
00010000
00001000
00010000
00001000
00000000
00010000
00000100
00010000
00000000
00000100
00000000
,
00001000
00000000
00000010
00000000
00000100
00000010
00000100
00000010
00000100
00000000
00000001
00001000
00000001
00000000
00001000
00000000
,
00000001
00000000
00000010
00000100
00001000
00000000
00000010
00001000
00000001
00000000
00000100
00001000
00000000
00010000
00001000
00000000
,
00010000
00000000
00100000
00000000
01000000
00100000
00000000
00010000
00000000
00100000
00000000
10000000
00010000
00000000
10000000
00000000
,
01000000
00000000
00010000
00000000
00001000
00000010
00000000
00000100
00000000
00000010
00000000
00001000
00000010
00000000
00000001
00000000
,
00000100
00000000
00001000
00000000
00010000
00100000
00000000
01000000
00000000
00100000
00000000
10000000
00010000
00000000
10000000
00000000
,
00100000
00000000
10000000
00100000
00000000
00100000
00000000
10000000
00010000
10000000
01000000
10000000
00010000
00000000
10000000
00000000
,
01000000
00000000
00010000
00001000
00000000
00001000
00000000
00010000
00000010
00001000
00000010
00000100
00000001
00000000
00000010
00000000
,
00000001
00000100
00000010
00001000
00000001
00000100
00000010
00001000
00000001
00000010
00000100
00001000
00000001
00000010
00000100
00010000
,
00001000
01000000
00100000
10000000
00010000
01000000
00100000
10000000
00010000
00100000
01000000
10000000
00010000
10000000
00010000
10000000
,
01000000
00000000
00010000
01000000
00010000
01000000
00010000
00000000
01000000
00000000
10000000
00100000
10000000
00100000
10000000
00000000
,
00010000
00000000
10000000
01000000
00100000
01000000
10000000
00000000
00100000
01000000
00010000
00000000
00100000
00001000
00010000
00000000
,
00001000
00000000
00000100
00000010
00000100
00000010
00000100
00000000
00000001
00000010
00000100
00001000
00000001
00000000
00001001
00000000
,
00000000
00000000
00000001
00000010
00000001
00001000
00000010
00000000
00000001
00000010
00001000
00000000
00000100
00010000
00001000
00000000
,
00010000
00000000
01000000
10000000
01000000
10000000
00200000
00000000
00000000
00000000
10300000
01000000
00100000
01000000
10000000
00000000
,
00010000
00000000
10000000
00100000
01000000
00100000
10000000
00000000
00010000
00100000
00001000
00000000
00010000
00000010
00001000
00000000
,
00000010
00000000
00000100
00000001
00000100
00000001
00002000
00000000
00000000
00000000
00003001
00000010
00000100
00000010
00000001
00000000
,
00000100
00001000
00010000
00001000
00010000
00000000
00001000
00010000
00100000
01000000
00010000
00100000
00020000
00000000
00000000
00000000
,
10030000
00000000
01000000
00100000
01000000
00100000
10000000
00000000
00100000
00000000
01000000
10000000
01000000
10000000
00010000
00000000
,
00000000
00000000
10000000
00100000
01000000
00100000
10000000
00000000
01000000
00000000
00010000
00001000
00010000
00000000
00001000
00010000
,
00000100
00000000
00001000
00000010
00001000
00000010
00000100
00000000
00001000
00000100
00000001
00001000
00000001
00000000
00002000
00000000
,
00000000
00000000
00003001
00000010
00000100
00000000
00000010
00000001
00001000
00000000
00000100
00010000
00001000
00000000
00010000
00001000
,
01000000
00000000
00010000
00100000
01000000
00100000
00020000
00000000
00000000
00000000
20030000
00000000
00000000
00000000
30200000
00000000
,
00000000
00000000
00320000
00000000
00000000
00000000
00032000
00000000
00000000
00000000
00003100
00000010
00000100
00000001
00001000
00000001
,
00001000
00000000
00000001
00000010
00000001
00000000
00002001
00000000
00000000
00000000
00003001
00000100
00001000
00000000
00010000
00001000
,
00010000
00000000
00001000
00010000
01000000
00000000
00100000
00000000
00010000
01000000
00100000
10000000
00010000
00000000
10000000
00000000
,
01000000
00000000
10000000
00100000
01000000
00000000
10000000
01000000
00000000
01100000
00000000
01000000
00010000
00000000
00100000
00000000
,
01000000
00000000
00100000
00010000
10000000
00000000
01000000
00010000
00000000
00011000
00000000
00001000
00000100
00000000
00000001
00000000
,
00000010
00000000
00000001
00000100
00000010
00000000
00000001
00000010
00000000
00000110
00000000
00000010
00001000
00000000
00000100
00000000
,
00000010
00000000
00000100
00001000
00000001
00000000
00000010
00001000
00000000
00011000
00000000
00010000
00100000
00000000
01000000
00010000
,
10000000
00000000
01000000
00100000
00010000
00000000
10000000
00100000
00000000
00110000
00000000
00010000
00001000
00000000
00000100
00000010
,
00001000
00000000
00000001
00000010
00000100
00000000
00000010
00000001
00000000
00001001
00000000
00000001
00000100
00000000
00000001
00001000
,
00000001
00000000
00000010
00000100
00001000
00000000
00000001
00000100
00000000
00001100
00000000
00001000
00010000
00000000
00100000
01000000
,
00010000
00100000
00010000
10000000
00100000
10000000
00010000
00100000
00001000
00000000
00010000
00000100
00010000
00001000
00010000
00000000
,
00001000
00000000
00010000
01000000
10000000
00000000
00010000
01000000
10000000
00000000
01000000
00100000
10000000
00010000
10000000
00000000
,
01000000
00000000
00100000
00010000
01000000
00000000
00010000
00100000
00001000
00010000
00001000
00000100
00000010
00001000
00000001
00000000
,
00000100
00000000
00001000
00000100
00000001
00000000
00001000
00000100
00000001
00000000
00000100
00000010
00000001
00000100
00000010
00000000
,
00001000
00000000
00000100
00010000
00001000
00010000
00000000
00000000
00011000
00000000
00000000
01010000
00000000
00000000
00010000
00001000
,
00010000
00000000
00001000
00000100
00000010
00000000
00001000
00000100
00000010
00000000
00000001
00001000
00000001
00000010
00000100
00001000
,
00000001
00000000
00000100
00001000
00010000
00000000
00001000
00010000
01000000
00000000
00010000
01000000
10000000
00000000
00100000
01000000
,
00020000
00000000
00000000
00000000
10030000
00100000
10000000
00100000
01000000
00000000
00010000
00100000
01000000
00010000
00001000
00000000
,
00000100
00000010
00001000
00000001
00000100
00000010
00001000
00000001
00000010
00000100
00010000
00001000
00000100
00000010
00001000
00000100
,
00010000
00000000
00001000
00010000
01000000
00010000
00002000
00000000
00000000
00000000
00003100
00000010
00001000
00000000
00000100
00000000
,
00000010
00000000
00000001
00000100
00000010
00000100
00000002
00000000
00000000
00000000
00000013
00001000
00020000
00000000
00000000
00000000
,
00031000
00010000
00100000
00000000
00010000
00100000
00000000
10000000
00010000
00000000
10000000
01000000
00000000
00010000
00001000
00000000
,
00000100
00000010
00000100
00000001
00000100
00000000
00000001
00000010
00000100
00010000
00001000
00000000
00010000
00001000
01000000
00000000
,
00001000
00010000
00001000
00010000
00001000
00010000
00000100
00000000
00000010
00000100
00001000
00000000
00000010
00000100
00001000
00000000
,
00010000
00001000
00010000
00001000
00010000
00001000
01000000
00000000
00100000
01000000
00010000
00000000
00100000
01000000
00010000
00000000
,
00001000
00010000
00000100
00000000
00010000
00001000
01000000
00000000
00001000
00010000
00000010
00000000
00010000
00001000
00100000
00010000
,
10000000
00000000
00100000
00010000
00000000
00001000
00020000
00000000
00000000
00000000
00031000
00000100
00000010
00000000
00000100
00000000
,
00000002
00000000
00000000
00000023
00000000
00000000
00002030
00000000
00000000
00000000
00003020
00000000
00000000
00000000
00000130
00000000
,
00001000
00000000
00000100
00010000
00000000
00010000
00001000
00000000
00010000
01000000
10000000
00000000
00010000
01000000
10000000
00000000
,
02000000
00000000
00000000
03200000
00000000
00000000
20300000
00000000
00000000
00000000
32000000
00000000
00000000
00000000
03010000
00000000
,
00001000
00000000
00000100
00000010
00000100
00000000
00000001
00000000
00001000
00000100
00000010
00000001
00001000
00000100
00000010
00000001
,
00001000
00000000
00000001
00000100
00000000
00000001
00000010
00000000
00001000
00000000
00010000
00001000
00000000
00010000
00100000
00000000
,
01000000
00010000
10000000
00010000
00000000
00100000
00010000
00000000
10000000
01000000
10000000
00010000
10000000
00000000
01000000
00010000
,
00001000
00000000
00000010
00000100
00000010
00000000
00001000
00000010
00000000
00000100
00000010
00000000
00000001
00000000
00000100
00000000
,
00001000
00000000
00010000
00001000
01000000
00000000
00001000
00000000
00011000
00000000
00001000
00010000
00000100
00000000
00010000
00000000
,
00001000
00000000
00010000
01000000
00000000
00100000
01000000
00010000
01000000
00100000
00000000
01000000
00010000
00000000
00001000
00000000
,
00000100
00000010
00000100
00000000
00000001
00001000
00000010
00000100
00000001
00000000
00001000
00000100
00010000
00000000
00001000
00000000
,
00010000
00000000
00001000
00000010
00000000
00000100
00000010
00000000
00001000
00000010
00000000
00000100
00010000
00000000
00001000
00010000
,
00000000
00100000
01000000
00000000
00100000
00010000
00000000
00100000
01000000
00000000
00001000
00010000
00100000
01000000
00010000
00000000
,
00100000
00000000
00010000
10000000
00100000
00000000
10000000
01000000
00000000
01010000
00000000
00010000
00001000
00000100
00000010
00000000
,
00001000
00000000
00000001
00000010
00000100
00000000
00001000
00000001
00000000
00001001
00000000
00000001
00000100
00001000
00010000
00000000
,
00001000
00010000
00001000
00010000
00000100
00010000
00001000
00010000
00001000
00100000
00001000
00100000
00010000
00000000
10020000
00000000
,
00000000
00000000
10030000
00100000
01000000
00000000
00100000
10000000
01000000
00100000
00010000
01000000
00100000
10000000
01000000
00010000
,
00002000
00000000
00000000
00000000
,
00000000
00000000
00000000
00000000
,
00003000
00000000
00000000
00000000
,
00000100
00000001
00000100
00000001
00001000
00000000
00000001
00000010
00000100
00000000
00000010
00000001
00000000
00000100
00001000
00010000
,
00001000
00000000
00010000
01000000
10000000
00000000
00010000
01000000
00100000
00000000
00010000
00100000
01000000
00100000
10000000
00000000
,
01000000
00000000
00010000
00001000
00000100
00000000
00001000
00000100
00000010
00000000
00000001
00000010
00000100
00000010
00001000
00000000
,
00000001
00000000
00000010
00001000
00010000
00000000
00000100
00010000
00001000
00000000
00010000
01000000
00100000
01000000
10000000
00000000
,
00100000
01000000
00010000
10000000
00000000
10010000
00000000
10000000
01000000
00100000
01000000
00100000
00010000
01000000
00100000
00000000
,
10000000
01000000
00010000
00001000
00000000
00011000
00000000
00001000
00000100
00000010
00000100
00000010
00001000
00000100
00000010
00000001
,
00001000
00000000
00000001
00000100
00001000
00000000
00010000
00001000
00100000
00000000
00001000
00010000
00000010
00000000
00010000
00001000
,
00010000
00100000
01000000
00100000
00010000
00100000
10000000
00010000
10000000
01000000
00100000
00001000
00010000
00001000
00010000
00001000
;

//---------------dance-double - t7r----------------
#NOTES:
     dance-double:
     t7r:
     Challenge:
     19:
     :
00000000
00000000
00000000
00000000
,
00000000
00000000
00000000
00000000
,
00000000
00000000
00000000
00000000
,
00000000
00000000
00000000
00000000
,
00000000
00000000
00000000
00000000
,
00000000
00000000
00000000
00000000
,
00000000
00000000
00000000
00000000
,
00000001
00000010
00000001
00000010
00000100
00000010
00000001
00000100
00000010
00000000
00001000
00000001
00000100
00000010
00001000
00000000
,
00000100
00010000
00000100
00010000
00001000
00010000
00001000
01000000
00100000
00000000
01000000
00010000
10000000
01000000
00100000
00000000
,
01000000
10000000
01000000
10000000
00010000
01000000
00100000
10000000
00010000
00000000
10000000
00100000
01000000
00010000
10000000
00000000
,
00010000
00100000
00010000
00100000
00001000
00010000
00001000
00010000
00001000
00000010
00001000
00000010
00000100
00000010
00000001
00001000
,
00000001
00000000
00000100
00001000
00000100
00000000
00000001
00000010
00000000
00000100
00000000
00000001
00000100
00001000
00000001
00000000
,
00000100
00000000
00001000
00010000
00001000
00010000
00000000
00001000
00000000
00010000
00000000
01000000
10000000
00100000
01000000
00010000
,
10000000
00000000
01000000
00010000
01000000
00000000
10000000
00100000
00000000
01000000
00000000
10000000
01000000
00010000
10000000
01000000
,
00010000
00000000
00000000
00001000
00000000
00000000
00010000
00000000
00000000
00001000
00000000
00000000
00000000
00000000
00000000
00011000
00000000
00000000
00000000
00000000
00000000
00001000
00000000
00000000
00000100
00000000
00000000
00000010
00000000
00000000
00000100
00000000
00000000
00000001
00000000
00000000
00001000
00000000
00000001
00000000
00001000
00000000
00000001
00000000
00000000
00000010
00000000
00000000
,
00000100
00000000
00000000
00010000
00000000
00000000
00001000
00000000
00000000
00010000
00000000
00000000
00000000
00000000
00000000
00011000
00000000
00000000
00000000
00000000
00000000
00010000
00000000
00000000
01000000
00000000
00000000
00100000
00000000
00000000
01000000
00000000
00000000
10000000
00000000
00000000
00010000
00000000
10000000
00000000
00010000
00000000
10000000
00000000
00000000
00100000
00000000
00000000
,
01000000
00100000
01000000
00100000
00000000
00000000
10000000
00010000
10000000
00010000
00000000
00000000
10000000
00100000
10000000
00100000
00000000
00000000
00010000
00001000
00010000
00001000
00000000
00000000
,
00000010
00000100
00000010
00000100
00001000
00000001
00001000
00000001
00000100
00000010
00000100
00000010
00001000
00000001
00000100
00001000
,
00010000
00000000
00001000
00000100
00001000
00000100
00001000
00000000
00010000
00000000
00001000
01000000
00001000
01000000
00001000
00000000
,
00010000
00000000
00001000
00000100
00000010
00000100
00000001
00001000
00000001
00000010
00000100
00001000
00000001
00000100
00001000
00010000
,
00001000
00000000
00000000
00000000
00000000
00000000
00010000
00000000
00000000
01000000
00000000
00000000
00010000
00000000
00000000
01000000
00000000
00000000
00010000
00000000
00000000
00000000
00000000
00000000
00001000
00000000
00010000
00000000
00001000
00000000
00010000
00000000
00000000
00000000
00000000
00000000
00001000
00000000
00000000
00000000
00000000
00000000
00011000
00000000
00000000
00000000
00000000
00000000
,
00000000
00000000
00001000
00000100
00000001
00001000
00000001
00000010
00000100
00001000
00000001
00000100
00000010
00001000
00000100
00010000
,
00001000
00000000
00010000
00100000
00010000
00100000
00020000
00000000
00000000
00000000
00031000
00010000
00001000
00010000
00001000
00000000
,
00000000
00000000
00010000
01000000
10000000
00010000
10000000
00100000
01000000
00010000
10000000
01000000
00100000
00010000
10000000
00100000
,
00010000
00000000
00000000
00000000
00000000
00000000
00001000
00000000
00000000
00000010
00000000
00000000
00001000
00000000
00000000
00000010
00000000
00000000
00002000
00000000
00000000
00000000
00000000
00000000
00000000
00000000
00000000
00000000
00000000
00000000
00013000
00000000
00000000
00001000
00000000
00000000
00010000
00000000
00001000
00000000
00010000
00000000
00001000
00000000
00000000
00000000
00000000
00000000
,
00010000
00000000
00000100
00000000
00010000
00000000
00000100
00000000
00000000
00000000
00000000
00000000
00011000
00000000
00000000
00000000
00000000
00000000
00001000
00000000
00000000
00010000
00000000
00000000
01000000
00000000
00000000
10000000
00000000
00000000
00100000
00000000
00000000
01000000
00000000
00000000
00020000
00000000
00000000
00000000
00000000
00000000
00000000
00000000
00000000
00000000
00000000
00000000
,
10030000
00000000
01000000
00010000
01000000
00100000
01000000
00000000
00100000
00000000
00001000
00010000
00001000
00010000
00001000
00000000
,
00000000
00000000
00000100
00000010
00000100
00000001
00001000
00000100
00000010
00000001
00000100
00000010
00001000
00000001
00000010
00001000
,
00010000
00000000
00000000
00000000
00000000
00000000
00001000
00000000
00000000
00000100
00000000
00000000
00001000
00000000
00000000
00000100
00000000
00000000
00001000
00000000
00000000
00000000
00000000
00000000
00010000
00000000
00001000
00000000
00010000
00000000
00001000
00000000
00000000
00000000
00000000
00000000
00010000
00000000
00000000
00000000
00000000
00000000
00012000
00000000
00000000
00000000
00000000
00000000
,
00000000
00000000
00013000
01000000
00100000
01000000
10000000
00100000
01000000
00010000
10000000
01000000
00100000
00010000
10000000
00100000
,
10000000
00000000
01000000
00010000
00001000
00000000
00012000
00000000
00000000
00000000
00003200
00000000
00000000
00000000
00000320
00000000
,
00000000
00000000
00001030
00000001
00001000
00000001
00000010
00000100
00001000
00000010
00000100
00000001
00001000
00000001
00000100
00001000
,
00010000
00000000
00000000
00000000
00000000
00000000
00001000
00000000
00000000
00000000
00000000
00000000
00010000
00000000
00001000
00000000
00010000
00000000
00002000
00000000
00000000
00000000
00000000
00000000
00000000
00000000
00000000
00000000
00000000
00000000
00023000
00000000
00000000
00000000
00000000
00000000
00000000
00000000
00000000
00000000
00000000
00000000
00130000
00000000
00000000
01000000
00000000
00000000
,
00100000
00000000
10000000
00000000
00100000
00000000
10000000
00000000
00000000
00000000
00000000
00000000
10010000
00000000
00000000
00000000
00000000
00000000
10000000
00000000
00000000
01000000
00000000
00000000
00100000
00000000
00000000
01000000
00000000
00000000
10000000
00000000
00000000
00100000
00000000
00000000
01000000
00000000
00000000
00010000
00000000
00000000
00100000
00000000
00000000
00001000
00000000
00000000
,
00010000
00001000
00000100
00000010
00001000
00000000
00000001
00001000
00000000
00001001
00000000
00000001
00000100
00001000
00010000
00001000
,
00010000
00000000
00000000
00001000
00000000
00000000
00000010
00000000
00000100
00000000
00000010
00000000
00000100
00000000
00000000
00000000
00000000
00000000
00000010
00000000
00000000
00000001
00000000
00000000
00000000
00000000
00000000
00000011
00000000
00000000
00000000
00000000
00000000
00000001
00000000
00000000
00000100
00000000
00000000
00000000
00000000
00000000
00000010
00000000
00000000
00000000
00000000
00000000
,
00001000
00000100
00010000
00001000
00010000
00000000
01000000
10000000
00000000
10010000
00000000
10000000
00100000
00010000
00001000
00010000
,
00001000
00000000
00000000
00010000
00000000
00000000
01000000
00000000
00100000
00000000
01000000
00000000
00100000
00000000
00000000
00000000
00000000
00000000
01000000
00000000
00000000
10000000
00000000
00000000
00000000
00000000
00000000
11000000
00000000
00000000
00000000
00000000
00000000
10000000
00000000
00000000
00100000
00000000
00000000
00000000
00000000
00000000
01000000
00000000
00000000
00001000
00000000
00000000
,
00010000
00001000
00000100
00000001
00001000
00000100
00000010
00000001
00000000
00001001
00000000
00000001
00000010
00000001
00000100
00001000
,
00010000
00100000
10000000
00010000
00100000
01000000
10000000
00010000
00000000
10010000
00000000
10000000
00100000
01000000
00010000
10000000
,
01000000
00010000
00001000
00000100
00000010
00001000
00000001
00000100
00000000
00000101
00000000
00000001
00000011
00000000
00000001
00001000
,
00000001
00000100
00000100
00001000
00010000
00010000
00001000
00000000
00011000
00000000
00001000
00010000
01000000
10000000
00100000
01000000
,
00100000
10000000
00100000
10000000
00010000
01000000
00010000
01000000
00010000
00100000
00010000
00100000
01000000
10000000
00010000
00000000
,
10000000
01000000
10000000
01000000
00100000
00010000
00100000
00010000
00100000
00001000
00100000
00001000
00010000
00001000
00010000
00000000
,
00000100
00001000
00000100
00001000
00000001
00000100
00000001
00000100
00000010
00001000
00000010
00001000
00000001
00000010
00000100
00000000
,
00000010
00000000
00000001
00000100
00001000
00010000
00001000
00000000
00011000
00000000
00010000
01000000
00000000
00010000
00001000
00000100
,
00000010
00001000
00000010
00001000
00000001
00000010
00000100
00001000
00000001
00000000
00000100
00001000
00010000
00000000
00001000
00010000
,
00100000
10000000
00100000
10000000
00100000
00010000
00100000
00010000
00100000
01000000
00100000
01000000
00010000
00100000
01000000
10000000
,
00020000
00000000
00000000
00000000
10030000
00000000
01000000
00010000
00001000
00000000
00000100
00000001
00001000
00000000
00000001
00000000
,
00001000
00000010
00001000
00000000
00000100
00000000
00010000
00001000
00010000
00000000
00001000
00000000
01000000
00010000
01000000
00000000
00010000
00000000
10000000
01000000
10000000
00000000
00010000
00000000
,
10000000
00000000
00000000
00000000
00000000
00000000
01000000
00000000
00000000
00100000
00000000
00000000
00010000
00000000
00000000
10000000
00000000
00000000
00020000
00000000
00000000
00000000
00000000
00000000
10030000
00000000
01000000
00000000
10000000
00000000
00010000
00000000
00000000
10000000
00000000
00000000
01000000
00000000
00000000
00010000
00000000
00000000
00001000
00000000
00000000
00000000
00000000
00000000
,
00021000
00000000
00000000
00000000
00000000
00000000
00030100
00000000
00000000
00001000
00000000
00000000
00000010
00000000
00000000
00000100
00000000
00000000
00000002
00000000
00000000
00000000
00000000
00000000
00000000
00000000
00000000
00000000
00000000
00000000
00001003
00000000
00000010
00000000
00001000
00000000
00000002
00000000
00000000
00000000
00000000
00000000
00000000
00000000
00000000
00000000
00000000
00000000
,
00000103
00001000
00010000
00000000
00001000
00010000
01000000
00010000
00001000
00000000
00010000
00001000
00000100
00001000
00010000
00000000
,
00001000
00000000
00000000
00010000
00000000
00000000
00100000
00000000
00000000
01000000
00000000
00000000
00010000
00000000
00000000
00000000
00000000
00000000
10010000
00000000
00000000
00000000
00000000
00000000
10000000
00000000
01000000
00000000
10000000
00000000
00010000
00000000
00000000
01000000
00000000
00000000
00100000
00000000
01000000
00000000
00010000
00000000
01000000
00000000
00000000
00010000
00000000
00000000
,
10000000
01000000
10000000
01000000
10000000
00010000
10000000
00010000
10000000
01000000
01000000
00010000
00001000
00001000
00010000
00000000
,
00001000
00000100
00001000
00000100
00000010
00000100
00000001
00001000
00000001
00000100
00000100
00001000
00010000
00010000
00001000
00000000
,
00010000
00000000
01000000
00000000
00010000
00000000
01000000
00000000
00000000
00000000
00000000
00000000
00001000
00000000
00000100
00000000
00001000
00000000
00000100
00000000
00000000
00000000
00000000
00000000
00010000
00000000
00100000
00000000
00010000
00000000
00100000
00000000
00000000
00000000
00000000
00000000
00001000
00000000
00000010
00000000
00001000
00000000
00000010
00000000
00000000
00000100
00000000
00000000
,
00001000
00000000
00000001
00000100
00000000
00001000
00011000
00000000
00000000
00000000
00010000
01000000
10000000
00010000
01000000
00100000
,
20000000
00000000
00000000
32000000
00000000
00000000
03020000
00000000
00000000
00000000
00032000
00000000
00000000
00000000
00003100
00000000
,
00000010
00000000
00001000
00000001
00000000
00000001
00000010
00000000
00000001
00000100
00000001
00000100
00000010
00001000
00000001
00001000
,
00000002
00000000
00000000
00000023
00000000
00000000
00002030
00000000
00000000
00000000
00023000
00000000
00000000
00000000
00130000
00000000
,
01000000
00000000
00010000
00100000
01000000
10000000
00010000
00000000
10000000
01000000
00100000
01000000
00010000
01000000
00100000
01000000
,
10000000
00000000
00100000
00010000
00000000
00010000
00001000
00000000
00000010
00000000
00000100
00001000
00000000
00001000
00000001
00000000
,
00000100
00001000
00010000
00001000
00000000
00001000
00010000
00000000
01000000
00010000
00001000
00000100
00000010
00000100
00000001
00001000
,
00000001
00000000
00000010
00000100
00000001
00000000
00000100
00000010
00000000
00000001
00001000
00000000
00000001
00000000
00000100
00000000
,
00001000
00000000
00000000
00000000
00000000
00000000
00010000
00000000
00001000
00000000
00010000
00000000
00000100
00000000
00000000
00000000
00000000
00000000
00010000
00000000
00001000
00000000
00010000
00000000
00001000
00000000
00000000
00000000
00000000
00000000
00010000
00000000
00000000
01000000
00000000
00000000
10000000
00000000
00000000
00100000
00000000
00000000
01000000
00000000
00000000
00010000
00000000
00000000
,
10000000
01000000
10000000
01000000
00100000
01000000
00100000
01000000
00100000
00010000
00100000
00010000
00100000
00001000
00100000
00001000
,
00010000
00001000
00010000
00001000
00010000
00000010
00010000
00000010
00000100
00000000
00000001
00000010
00000100
00001000
00000001
00001000
,
00000010
00000000
00000001
00000010
00000000
00001000
00000001
00000000
00000010
00001000
00000000
00010000
00001000
00000000
00010000
00001000
,
00000000
00010000
00100000
00000000
10000000
00010000
00000000
10000000
01000000
00100000
00010000
10000000
00100000
00010000
00001000
00000010
,
00000001
00000000
00000000
00000000
00000000
00000000
00000100
00000000
00000010
00000000
00000100
00000000
00000001
00000000
00000000
00000000
00000000
00000000
00000010
00000000
00000000
00001000
00000000
00000000
00000000
00000000
00000000
00011000
00000000
00000000
00000000
00000000
00000000
00001000
00000000
00000000
00010000
00000000
00000000
01000000
00000000
00000000
10000000
00000000
00000000
00100000
00000000
00000000
,
01000000
00000000
00000000
00000000
00000000
00000000
00100000
00000000
10000000
00000000
00010000
00000000
10000000
00000000
00000000
00000000
00000000
00000000
00100000
00000000
00000000
00010000
00000000
00000000
00000000
00000000
00000000
00001000
00000000
00000000
00010000
00000000
00000000
00000000
00000000
00000000
00001000
00000000
00000000
00000010
00000000
00000000
00000001
00000000
00000000
00001000
00000000
00000000
,
00000100
00000000
00000000
01000000
00000000
00000000
00000010
00000000
00000000
00100000
00000000
00000000
00011000
00000000
00012000
00000000
,
00000000
00000000
00013000
01000000
10000000
00000000
00100000
01000000
00010000
00100000
00001000
00010000
00001000
00000100
00000001
00000010
,
00000200
00000000
00000000
00000000
,
00000000
00000000
00000000
00000000
,
00000300
00000000
00000000
00000000
,
10000000
01000000
10000000
01000000
00100000
00010000
00100000
00010000
10000000
00000000
01000000
00010000
00000000
00001000
00010000
00001000
,
00000100
00000001
00000010
00000100
00001000
00000100
00000010
00000001
00000100
00000000
00001000
00010000
00001000
00000000
00010000
00000000
,
01000000
10000000
00100000
01000000
00010000
10000000
01000000
00100000
00010000
00000000
10000000
00100000
10000000
00000000
00010000
00000000
,
10000000
00100000
01000000
00010000
00100000
01000000
10000000
00100000
00010000
00000000
00001000
00010000
00001000
00000000
00000010
00000000
,
00000001
00000100
00001000
00000001
00000000
00000110
00000000
00001000
00000001
00000010
00001000
00010000
00001000
00000000
00011000
00000000
,
00010000
01000000
10000000
00010000
00000000
01100000
00000000
10000000
00100000
00010000
00001000
00010000
00001000
00000010
00000100
00000010
,
00000001
00000100
00000001
00000000
00001000
00000000
00000001
00000010
00000001
00000000
00001000
00000000
00000100
00010000
00000100
00000000
00010000
00000000
00001000
00010000
00001000
00000000
00010000
00000000
,
01000000
00000000
10000000
00000000
01000000
00000000
10000000
00000000
00100000
00000000
01000000
00000000
00100000
00000000
01000000
00000000
00010000
00000000
00100000
00000000
00010000
00000000
00100000
00000000
00001000
00000000
00000000
00010000
00000000
00000000
00001000
00000000
00000000
00000100
00000000
00000000
00000001
00000000
00000000
00001000
00000000
00000000
00000001
00000000
00000000
00001000
00000000
00000000
;
