#TITLE:Saiph†;
#ARTIST:BEMANI Sound Team "Yvya";
#TITLETRANSLIT:Saiph (SPECIAL);
#ARTISTTRANSLIT:Yvya;
#BANNER:Saiph (SPECIAL).png;
#BACKGROUND:Saiph (SPECIAL)-bg.png;
#JACKET:Saiph (SPECIAL)-jacket.png;
#CDTITLE:./CDTITLES/GITADORA.PNG;
#MUSIC:Saiph (SPECIAL).ogg;
#SAMPLESTART:85.37;
#SAMPLELENGTH:15;
#BPMS:0=162;
#BGCHANGES:0=../../../BGAs/tm0007.mp4=1=0=0=1=====;

//---------------dance-single - t7r----------------
#NOTES:
     dance-single:
     t7r:
     Challenge:
     20:
     :
0000
0000
0000
0000
,
0000
0000
0000
0000
,
0000
0000
0000
0000
,
0000
0000
0000
0000
,
0000
0000
0000
0000
,
0000
0000
0000
0000
,
0000
0000
0000
0000
,
1000
0100
1000
0100
0010
0100
0010
0100
1000
0100
1000
0001
0100
1000
0100
0001
,
1000
0010
1000
0010
0100
0010
0100
0010
1000
0010
1000
0001
0010
1000
0010
0001
,
1000
0100
1000
0100
0010
0100
0010
0100
1000
0100
1000
0001
0100
1000
0100
0001
,
1000
0010
0001
1000
0100
0010
1000
0100
0001
0100
1000
0001
0010
0100
0010
0001
,
1000
0100
1000
0100
0010
0100
0010
0100
0001
0100
1000
0001
0100
1000
0100
0001
,
1000
0010
1000
0010
0100
0010
0100
0010
0001
0010
1000
0001
0010
1000
0010
0001
,
1000
0100
1000
0100
0001
0100
0001
0100
0010
0001
0100
1000
0100
0010
1000
0001
,
1000
0000
0000
0100
0000
0000
0010
0000
0000
1000
0000
0000
0000
0000
0000
0011
0000
0000
0000
0000
0000
0001
0000
0000
1001
0000
0000
0000
0000
0000
0001
0000
0000
0100
0000
0000
0001
0000
0010
0000
0100
0000
1000
0000
0100
0000
0010
0000
,
0001
0000
0000
0100
0000
0000
0010
0000
0000
0001
0000
0000
0000
0000
0000
1010
0000
0000
0000
0000
0000
1000
0000
0000
1001
0000
0000
1000
0000
0000
0100
0000
0000
0010
0000
0000
0001
0000
0100
0000
0010
0000
1000
0000
0000
0001
0000
0000
,
1000
0010
1000
0010
1000
0010
0100
0001
0100
0001
0100
0001
1000
0100
1000
0100
1000
0100
0001
0100
0001
0100
0001
0100
,
1000
0000
0100
0000
1000
0000
0100
0000
1000
0000
0100
0000
0010
0000
0100
0000
0010
0000
0100
0000
0010
0000
0100
0000
0010
0000
0001
0000
0010
0000
0001
0000
0010
0000
0001
0000
1000
0000
0000
0001
0000
0000
1000
0000
0000
0001
0000
0000
,
0101
0000
0100
1000
0001
0010
0100
0000
0011
0000
0100
1000
0001
0010
0100
0000
,
0010
0000
1000
0100
0001
0100
0010
0001
1000
0100
0100
0001
0100
0100
1000
0000
,
1100
0000
0000
0000
0000
0000
0100
0000
0000
0001
0000
0000
1000
0000
0000
0010
0000
0000
0100
0000
0000
0000
0000
0000
1000
0000
0010
0000
1000
0000
0010
0000
0100
0000
0001
0000
1000
0000
0000
0000
0000
0000
1001
0000
0000
0000
0000
0000
,
0000
0000
0001
0010
0010
1000
0010
0010
0001
0100
1000
0001
0010
1000
0001
1000
,
1010
0000
0010
0100
1000
0001
0021
0000
0000
0000
1030
0100
0001
0100
0010
0000
,
0000
0000
0001
0100
0100
1000
0100
0100
0001
0010
1000
0001
0100
0010
0001
0100
,
1100
0000
0000
0000
0000
0000
0100
0000
0000
0010
0000
0000
0001
0000
0000
1000
0000
0000
2100
0000
0000
0000
0000
0000
0000
0000
0000
0000
0000
0000
3100
0000
0001
0000
1000
0000
0001
0000
0010
0000
0001
0000
1000
0000
0000
0000
0000
0000
,
0001
0000
1000
0000
0001
0000
0100
0000
0010
0000
1000
0000
0001
0000
0000
0000
0000
0000
1000
0000
0000
0100
0000
0000
0010
0000
0000
1000
0000
0000
0010
0000
0000
0001
0000
0000
1000
0000
0000
0001
0000
0000
1000
0000
0000
0000
0000
0000
,
1001
0000
1000
0100
0001
1000
0001
0000
0101
0000
0001
0100
1000
0001
1000
0000
,
0010
0000
1000
0100
0010
1000
0010
0100
1000
0001
0100
0010
0001
0010
0100
0001
,
1001
0000
0000
0000
0000
0000
0001
0000
0000
0010
0000
0000
1000
0000
0000
0001
0000
0000
1000
0000
0000
0000
0000
0000
0010
0000
0100
0000
0010
0000
0100
0000
1000
0000
0001
0000
1000
0000
0000
0000
0000
0000
2010
0000
0000
0000
0000
0000
,
0000
0000
3001
0010
0100
0001
0100
0010
0001
1000
0010
0100
1000
0100
0010
1000
,
0001
0000
0100
0100
0100
0100
0020
0000
0000
0000
0130
0001
0100
1000
0100
0000
,
0010
0000
0001
0100
0010
0001
0010
1000
0001
0100
1000
0100
0010
1000
0001
1000
,
1001
0000
0000
1000
0000
0000
0100
1000
0001
0020
0000
0000
0000
0000
0000
0031
0000
0000
1000
0010
0100
0001
0000
0000
,
1000
0000
0100
0000
1000
0000
0100
0000
0010
0000
0000
0000
0011
0000
0000
0000
0000
0000
1000
0000
0000
0001
0000
0000
1000
0000
0000
0100
0000
0000
0010
0000
0000
1000
0000
0000
0010
0000
0000
0001
0000
0000
1000
0000
0000
0001
0000
0000
,
1001
0001
0100
0010
0011
0000
0010
1100
0000
0101
0000
1000
0100
0001
0100
0010
,
0001
0000
0000
0100
0000
0000
1000
0000
0100
0000
0001
0000
0100
0000
0000
0000
0000
0000
0001
0000
0000
1010
0000
0000
0000
0000
0000
0011
0000
0000
0000
0000
0000
1000
0000
0000
1001
0000
0000
0000
0000
0000
0001
0000
0000
0000
0000
0000
,
1001
1000
0100
0010
1010
0000
0010
0101
0000
1100
0000
0001
0100
1000
0100
0010
,
1000
0000
0000
0100
0000
0000
0001
0000
0100
0000
1000
0000
0100
0000
0000
0000
0000
0000
1000
0000
0000
0011
0000
0000
0000
0000
0000
1010
0000
0000
0000
0000
0000
0001
0000
0000
1001
0000
0000
0000
0000
0000
1000
0000
0000
0001
0000
0000
,
1000
0000
0000
0010
0000
0000
0100
0000
1000
0000
0100
0000
0001
0000
0000
0000
0000
0000
0100
0000
0000
0011
0000
0000
0000
0000
0000
1010
0000
0000
0000
0000
0000
0001
0000
0000
1001
0000
0000
0000
0000
0000
0001
0000
0000
1000
0000
0000
,
0001
0000
0000
0010
0000
0000
0100
0000
0001
0000
0100
0000
1000
0000
0000
0000
0000
0000
0100
0000
0000
1010
0000
0000
0000
0000
0000
0011
0000
0000
0000
0000
0000
1000
0000
0000
1001
0000
0000
0000
0000
0000
1000
0000
0000
0010
0000
0000
,
0100
0000
0000
0001
0000
0000
0100
0000
1000
0000
0100
0000
0010
0000
0000
0000
0000
0000
0100
0000
0000
0011
0000
0000
0000
0000
0000
1010
0000
0000
0000
0000
0000
0001
0000
0000
1001
0000
0000
0000
0000
0000
0001
0000
0000
1000
0000
0000
,
0001
0100
0100
1000
0100
0100
0110
0000
1001
0000
0001
0100
1000
0100
0010
1000
,
0001
0010
0001
0010
0100
0001
0100
0001
0100
1000
0100
0001
0100
0010
0001
1000
,
0001
0100
0001
0100
0010
0001
0010
0001
0010
1000
0010
0001
0010
0100
0001
1000
,
0100
0001
0100
0001
0100
1000
0100
1000
0001
0100
0010
0001
0010
0100
0001
1000
,
0010
1000
0010
1000
0010
0001
0010
0001
0010
0000
1100
0001
0010
0000
0110
0000
,
0001
0010
1000
0010
0001
0100
1000
0001
0010
0100
0001
0100
0010
0001
0010
1000
,
0001
0010
0100
1000
0001
1000
0001
0010
0100
1000
0001
1000
0001
0100
0010
1000
0001
1000
0001
0100
0010
1000
0001
1000
,
0002
0000
0000
0000
1003
0100
0010
1000
0010
0100
1000
0001
0100
0010
0001
0010
,
1000
0100
1000
0100
1000
0100
0010
0001
0010
0001
0010
0001
1000
0010
1000
0010
1000
0010
0100
0001
0100
0001
0100
0001
,
1000
0000
0000
0100
0000
0000
0001
0000
0000
1000
0000
0000
0010
0000
0000
0100
0000
0000
1100
0000
0000
0000
0000
0000
1000
0000
0100
0000
1000
0000
0100
0000
1000
0000
0100
0000
0010
0000
0100
0000
0010
0000
0100
0000
0010
0000
0100
0000
,
1000
0000
0000
0010
0000
0000
0001
0000
0000
1000
0000
0000
0100
0000
0000
0010
0000
0000
1020
0000
0000
0000
0000
0000
0000
0000
0000
0000
0000
0000
0130
0000
0010
0000
0100
0000
2001
0000
0000
0000
0000
0000
0000
0000
0000
0000
0000
0000
,
3001
0100
0010
0001
0010
0100
0001
1000
0001
0010
0100
0001
1000
0010
0100
1000
,
0010
0000
0000
0100
0000
0000
0010
0000
0000
0100
0000
0000
0010
0000
0000
1000
0000
0000
0001
0000
0000
0000
0000
0000
1000
0000
0100
0000
1000
0000
0100
0000
1000
0000
0100
0000
1000
0000
0001
0000
1000
0000
0001
0000
1000
0000
0001
0000
,
1000
0100
0100
0100
0001
0100
0100
0100
1000
0100
0100
0100
1000
0001
1000
0001
,
1000
0100
0100
0100
0010
0100
0100
0100
0001
0100
0100
0100
0010
0001
1000
0001
,
1000
0010
1000
0010
1000
0010
0001
0010
0001
0010
0001
0010
1000
0100
1000
0100
1000
0100
0001
0100
0001
0100
0001
0100
,
1000
0000
0100
1010
0000
0001
1100
0000
0000
0000
0010
0100
0001
1000
0001
0010
,
0001
0000
1000
0100
0000
0100
0001
0000
0100
0100
1000
0100
0000
0100
0001
0000
,
0100
0000
1000
0100
0000
0100
0001
0000
0100
0100
0001
0100
0100
1000
0100
0010
,
0100
0000
0001
0100
0000
0100
1000
0000
0100
0100
0001
0100
0000
0100
1000
0000
,
0100
0001
0100
1000
0100
0001
0100
0010
0100
0100
0100
0100
0001
0010
0100
1000
,
0001
0010
0001
0010
0001
0010
1000
0010
1000
0010
1000
0010
0100
1000
0100
1000
0100
1000
0001
0100
0010
1000
0001
1000
,
0001
0010
0001
0010
1000
0010
1000
0010
0100
1000
0100
0001
0100
1000
0100
0010
,
0001
0000
1000
0010
0100
0000
0010
0010
0000
1000
0001
0000
1001
0000
0010
0000
,
1100
0000
0000
0000
0000
0000
0001
0000
0100
0000
0001
0000
1000
0000
0100
0000
1000
0000
0100
0000
1000
0000
0100
0000
0010
0000
0001
0000
0010
0000
0001
0000
0010
0000
0001
0000
1000
0000
0000
0010
0000
0000
0100
0000
0000
0001
0000
0000
,
1000
0100
0100
0001
0100
0100
1000
0100
1000
0010
0100
1000
0001
0010
0100
0001
,
1000
0100
0001
0100
1000
0010
0001
0010
0100
0000
0001
0010
1000
0010
0100
1000
,
0001
0100
0100
1000
0100
0100
0001
0010
0010
1000
0010
0010
0001
0100
0100
0010
,
0100
0000
0000
0100
0000
0000
1000
0000
0000
0100
0000
0000
0100
0000
0000
0010
0000
0000
0100
0000
0000
0100
0000
0000
1000
0000
0100
0000
0010
0000
0001
0000
0010
0000
0100
0000
1000
0000
0100
0000
0010
0000
0001
0000
1000
0000
0001
0000
,
1001
0000
0000
0000
0000
0000
0100
0000
0010
0000
0100
0000
1001
0000
0000
0000
0000
0000
0100
0000
0000
1010
0000
0000
0000
0000
0000
1010
0000
0000
0100
0000
0000
0000
0000
0000
1000
0000
0000
0100
0000
0000
0010
0000
0000
0001
0000
0000
,
1001
0000
0000
0000
0000
0000
0010
0000
0100
0000
0010
0000
1001
0000
0000
0000
0000
0000
0100
0000
0000
0011
0000
0000
0000
0000
0000
0011
0000
0000
0100
0000
0000
0000
0000
0000
0001
0000
0000
0010
0000
0000
0100
0000
0000
1000
0000
0000
,
0001
0010
0001
0010
1000
0010
0001
0100
0001
0100
1000
0100
0010
0100
0001
1000
0010
1000
0001
0100
0010
2000
0000
0000
,
0000
0000
0000
0000
0000
0000
3100
0000
0000
0000
0000
0000
1000
0000
0000
0010
0000
0000
0100
0000
0000
0001
0000
0000
1000
0000
0100
0000
1000
0000
0100
0000
0001
0000
0100
0000
0001
0000
0100
0000
1000
0000
0010
0000
0100
0000
0001
0000
,
2000
0000
0000
0000
,
0000
0000
0000
0000
,
3000
0000
0000
0000
,
0001
0010
0001
0010
1000
0010
1000
0010
0001
0100
1000
0100
0010
1000
0001
1000
,
0001
0000
0011
0000
1010
0000
1000
0100
0000
0100
0001
0000
0110
0000
0001
0000
,
1000
0000
1010
0000
0001
0001
0000
0110
0000
0100
1000
0100
0010
0100
0010
0000
,
1001
0000
1010
0000
0011
0000
1000
1000
0000
0100
0001
0100
0010
0100
0010
0000
,
1000
0000
0000
0100
0000
0000
0001
0000
0000
1000
0000
0000
0000
0000
0000
0110
0000
0000
0000
0000
0000
1001
0000
0000
0001
0000
0000
0100
0000
0000
1000
0000
0000
0100
0000
0000
0001
0000
0010
0000
0001
0000
0010
0000
0100
0000
1000
0000
,
0001
0000
0000
0100
0000
0000
1000
0000
0000
0001
0000
0000
0000
0000
0000
0110
0000
0000
0000
0000
0000
1001
0000
0000
1000
0000
0000
0100
0000
0000
0001
0000
0000
0100
0000
0000
1000
0000
0010
0000
1000
0000
0010
0000
0100
0000
0001
0000
,
0010
0001
1000
0100
1000
0001
0100
0010
1000
0001
0010
0100
1000
0001
0100
0010
1000
0001
0010
0100
1000
0001
0100
0010
,
1000
0000
0100
0000
0010
0000
0001
0000
0100
0000
0010
0000
1000
0000
0100
0000
0010
0000
0001
0000
0100
0000
0010
0000
1000
0000
0000
0100
0000
0000
0001
0000
0000
0100
0000
0000
1000
0000
0000
0001
0000
0000
1001
0000
0000
1001
0000
0000
;

//---------------dance-double - t7r----------------
#NOTES:
     dance-double:
     t7r:
     Challenge:
     20:
     :
00000000
00000000
00000000
00000000
,
00000000
00000000
00000000
00000000
,
00000000
00000000
00000000
00000000
,
00000000
00000000
00000000
00000000
,
00000000
00000000
00000000
00000000
,
00000000
00000000
00000000
00000000
,
00000000
00000000
00000000
00000000
,
00000001
00000100
00000001
00000100
00000010
00000100
00000010
00000100
00001000
00000100
00001000
00000100
00010000
00100000
01000000
10000000
,
00010000
00100000
00010000
00100000
10000000
00100000
10000000
00100000
01000000
00100000
01000000
00100000
00001000
00000100
00000010
00001000
,
00000001
00000010
00000001
00000010
00000100
00000010
00000100
00000010
00001000
00000010
00001000
00000010
00010000
01000000
00100000
10000000
,
00010000
00100000
10000000
00010000
01000000
00100000
00010000
00001000
00000100
00000001
00000100
00001000
00000100
00000010
00000001
00001000
,
00000001
00000100
00000001
00000100
00000010
00000001
00000010
00000001
00000010
00001000
00010000
00100000
00010000
01000000
10000000
01000000
,
00010000
00100000
00010000
00100000
01000000
00010000
01000000
00010000
01000000
00100000
00010000
00001000
00000010
00000100
00000001
00001000
,
00000001
00000010
00000001
00000010
00000100
00000001
00000100
00000001
00000100
00001000
00010000
01000000
00100000
10000000
01000000
00100000
,
01000000
00000000
00000000
00100000
00000000
00000000
10000000
00000000
00000000
00100000
00000000
00000000
00000000
00000000
00000000
10100000
00000000
00000000
00000000
00000000
00000000
00100000
00000000
00000000
00110000
00000000
00000000
00000000
00000000
00000000
00001000
00000000
00000000
00010000
00000000
00000000
00000010
00000000
00001000
00000000
00000001
00000000
00000100
00000000
00000001
00000000
00001000
00000000
,
00000001
00000000
00000000
00000010
00000000
00000000
00000100
00000000
00000000
00000001
00000000
00000000
00000000
00000000
00000000
00000101
00000000
00000000
00000000
00000000
00000000
00000100
00000000
00000000
00010100
00000000
00000000
00000100
00000000
00000000
00010000
00000000
00000000
00001000
00000000
00000000
01000000
00000000
00010000
00000000
10000000
00000000
00010000
00000000
00000000
10000000
00000000
00000000
,
00010000
00100000
00010000
00100000
00010000
00100000
01000000
10000000
00010000
10000000
00000000
00000000
01000000
00100000
01000000
00100000
01000000
00100000
00001000
00010000
00000010
00000100
00000000
00000000
,
00000001
00000000
00000010
00000000
00000001
00000000
00000010
00000000
00000001
00000000
00000010
00000000
00000100
00000000
00010000
00000000
00001000
00000000
00010000
00000000
00000000
00000000
00000000
00000000
00001000
00000000
01000000
00000000
00001000
00000000
01000000
00000000
00001000
00000000
01000000
00000000
00100000
00000000
00000000
10000000
00000000
00000000
00010000
00000000
00000000
10000000
00000000
00000000
,
11000000
00000000
01000000
00010000
00001000
00000100
00000001
00000000
00000101
00000000
00000100
00001000
00010000
01000000
10000000
00000000
,
00000000
00000000
01000000
10000000
01000000
00010000
01000000
00010000
00001000
00000100
00000010
00001000
00000001
00000100
00000010
00000000
,
00001010
00000000
00000000
00000000
00000000
00000000
00000010
00000000
00000000
00001000
00000000
00000000
00010000
00000000
00000000
00100000
00000000
00000000
10000000
00000000
00000000
00000000
00000000
00000000
00100000
00000000
01000000
00000000
00100000
00000000
01000000
00000000
10000000
00000000
00010000
00000000
10000000
00000000
00000000
00000000
00000000
00000000
10010000
00000000
00000000
00000000
00000000
00000000
,
00000000
00000000
10000000
01000000
01000000
00010000
00000100
00000100
00000001
00000100
00001000
00010000
00100000
10000000
00100000
01000000
,
00100000
00000000
01000000
10000000
01000000
00010000
00002000
00000000
00000000
00000000
00003100
00001000
00010000
00000100
00010000
00000000
,
00000000
00000000
10000000
01000000
01000000
00010000
00000100
00000100
00000001
00000010
00000100
00001000
00010000
00100000
10000000
00100000
,
01000000
00000000
00000000
00000000
00000000
00000000
10000000
00000000
00000000
00100000
00000000
00000000
00010000
00000000
00000000
00001000
00000000
00000000
00020000
00000000
00000000
00000000
00000000
00000000
00000000
00000000
00000000
00000000
00000000
00000000
00030010
00000000
00001000
00000000
00000010
00000000
00001000
00000000
00000001
00000000
00000010
00000000
00000100
00000000
00000000
00000000
00000000
00000000
,
00000010
00000000
00000001
00000000
00000010
00000000
00000001
00000000
00001000
00000000
00000001
00000000
00000100
00000000
00000000
00000000
00000000
00000000
00000010
00000000
00000000
00001000
00000000
00000000
00010000
00000000
00000000
00100000
00000000
00000000
00010000
00000000
00000000
01000000
00000000
00000000
00100000
00000000
00000000
10000000
00000000
00000000
01000000
00000000
00000000
00000000
00000000
00000000
,
11000000
00000000
01000000
00010000
00001000
00010000
00001000
00000000
00000010
00000001
00001000
00000001
00000100
00000001
00000010
00000000
,
00000000
00000000
00000001
00000010
00001000
00000010
00001000
00010000
01000000
00100000
00010000
00100000
00010000
01000000
00100000
00000000
,
10100000
00000000
00000000
00000000
00000000
00000000
00100000
00000000
00000000
00010000
00000000
00000000
00001000
00000000
00000000
00010000
00000000
00000000
00001000
00000000
00000000
00000000
00000000
00000000
00000100
00000000
00000001
00000000
00000100
00000000
00000001
00000000
00001000
00000000
00000001
00000000
00001000
00000000
00000000
00000000
00000000
00000000
00001002
00000000
00000000
00000000
00000000
00000000
,
00000000
00000000
00000013
00000001
00000100
00000010
00000001
00000010
00001000
00010000
01000000
00100000
00010000
00100000
10000000
01000000
,
11000000
00000000
01000000
01000000
01000000
01000000
00200000
00000000
00000000
00000000
00310000
00001000
00000100
00001000
00000001
00000000
,
00000100
00000000
00000001
00000010
00000100
00000001
00000100
00001000
00010000
00100000
10000000
00100000
01000000
10000000
00010000
01000000
,
01100000
00000000
00000000
01000000
00000000
00000000
00100000
10000000
00010000
00200000
00000000
00000000
00000000
00000000
00000000
00310000
00000000
00000000
10000000
01000000
00100000
00010000
00000000
00000000
,
00000100
00000000
00000001
00000000
00000100
00000000
00000001
00000000
00000010
00000000
00000000
00000000
00000011
00000000
00000000
00000000
00000000
00000000
00000001
00000000
00000000
00000010
00000000
00000000
00000001
00000000
00000000
00000100
00000000
00000000
00001000
00000000
00000000
01000000
00000000
00000000
00010000
00000000
00000000
10000000
00000000
00000000
00010000
00000000
00000000
10000000
00000000
00000000
,
00010000
10000000
01000000
00100000
10000000
00000000
00100000
00011000
00000000
00011000
00000000
00000100
00000110
00000000
00000000
00000000
,
00001000
00000000
00000000
00000001
00000000
00000000
00000100
00000000
00000010
00000000
00001000
00000000
00000001
00000000
00000000
00000000
00000000
00000000
00000010
00000000
00000000
00011000
00000000
00000000
00000000
00000000
00000000
00011000
00000000
00000000
00000000
00000000
00000000
01000000
00000000
00000000
01100000
00000000
00000000
00000000
00000000
00000000
01000000
00000000
00000000
00000000
00000000
00000000
,
00010000
01000000
00100000
00010000
10000000
00000000
01000000
00011000
00000000
00011000
00000000
00000100
00000110
00000000
00000000
00000000
,
00000001
00000000
00000000
00000010
00000000
00000000
00001000
00000000
00000001
00000000
00000100
00000000
00000010
00000000
00000000
00000000
00000000
00000000
00000100
00000000
00000000
00011000
00000000
00000000
00000000
00000000
00000000
00011000
00000000
00000000
00000000
00000000
00000000
01000000
00000000
00000000
01100000
00000000
00000000
00000000
00000000
00000000
01000000
00000000
00000000
00000000
00000000
00000000
,
10000000
00000000
00000000
01000000
00000000
00000000
00010000
00000000
00100000
00000000
00010000
00000000
00100000
00000000
00000000
00000000
00000000
00000000
01000000
00000000
00000000
10100000
00000000
00000000
00000000
00000000
00000000
10100000
00000000
00000000
00000000
00000000
00000000
01000000
00000000
00000000
00010000
00000000
00000000
00001000
00000000
00000000
00000010
00000000
00000000
00000000
00000000
00000000
,
00000001
00000000
00000000
00000100
00000000
00000000
00001000
00000000
00000100
00000000
00001000
00000000
00000100
00000000
00000000
00000000
00000000
00000000
00000010
00000000
00000000
00001100
00000000
00000000
00000000
00000000
00000000
00001100
00000000
00000000
00000000
00000000
00000000
00000010
00000000
00000000
00001000
00000000
00000000
00010000
00000000
00000000
01000000
00000000
00000000
00000000
00000000
00000000
,
00100000
00000000
00000000
01000000
00000000
00000000
00010000
00000000
00100000
00000000
00001000
00000000
00010000
00000000
00000000
00000000
00000000
00000000
00000100
00000000
00000000
00011000
00000000
00000000
00000000
00000000
00000000
00011000
00000000
00000000
00000000
00000000
00000000
00000010
00000000
00000000
00000110
00000000
00000000
00000000
00000000
00000000
00000100
00000000
00000000
00000001
00000000
00000000
,
00001000
00000100
00000100
00010000
01000000
01000000
00010000
00000000
00011000
00000000
00001000
01000000
00100000
10000000
00010000
00000000
,
10000000
01000000
10000000
01000000
00100000
10000000
00100000
10000000
00100000
00010000
00100000
00010000
00001000
00000010
00000100
00000001
,
00001000
00000100
00001000
00000100
00000010
00001000
00000010
00001000
00000010
00000001
00000100
00000010
00001000
00010000
00100000
01000000
,
00100000
00010000
00100000
00010000
01000000
10000000
01000000
10000000
01000000
00100000
10000000
01000000
00100000
00010000
00001000
00000010
,
00000100
00000001
00000100
00000001
00000100
00001000
00000100
00001000
00010000
00000000
00011000
01000000
00100000
00000000
10010000
00000000
,
10000000
00100000
00010000
00100000
10000000
01000000
00010000
01000000
00010000
00001000
00000010
00000100
00000001
00000010
00000100
00001000
,
00010000
00001000
00010000
00001000
00010000
00001000
01000000
00010000
01000000
00010000
00000000
00000000
10000000
01000000
10000000
01000000
10000000
01000000
00100000
01000000
10000000
00100000
00000000
00000000
,
02000000
00000000
00000000
00000000
03010000
01000000
10000000
01000000
00100000
10000000
01000000
00100000
00010000
00001000
00000010
00000100
,
00000001
00000010
00000001
00000010
00000001
00000010
00000100
00001000
00000100
00001000
00000000
00000000
00010000
01000000
00010000
01000000
00010000
01000000
00100000
10000000
00100000
10000000
00000000
00000000
,
00010000
00000000
00000000
01000000
00000000
00000000
10000000
00000000
00000000
00010000
00000000
00000000
00001000
00000000
00000000
00000000
00000000
00000000
00011000
00000000
00000000
00000000
00000000
00000000
00000010
00000000
00000100
00000000
00000010
00000000
00000100
00000000
00000010
00000000
00000100
00000000
00000001
00000000
00000100
00000000
00000001
00000000
00000100
00000000
00000001
00000000
00000100
00000000
,
00000001
00000000
00000000
00000010
00000000
00000000
00001000
00000000
00000000
00010000
00000000
00000000
00001000
00000000
00000000
00000000
00000000
00000000
01100000
00000000
00000000
00000000
00000000
00000000
00010000
00000000
00000000
01000000
00000000
00000000
00100000
00000000
01000000
00000000
00001000
00000000
00010000
00000000
00000000
00000000
00000000
00000000
00000000
00000000
00000000
00000000
00000000
00000000
,
00001000
00000100
00000001
00001000
00010000
01000000
10000000
00010000
00100000
01000000
00010000
00001000
00000100
00000010
00000001
00000100
,
00000001
00000000
00000000
00000010
00000000
00000000
00000001
00000000
00000000
00001000
00000000
00000000
00000001
00000000
00000000
00000000
00000000
00000000
00001001
00000000
00000000
00000000
00000000
00000000
00000001
00000000
00000010
00000000
00000001
00000000
00000010
00000000
00000001
00000000
00000010
00000000
00000100
00000000
00010000
00000000
00000100
00000000
00010000
00000000
00000000
00000000
00000000
00000000
,
00001000
01000000
01000000
01000000
01000000
01000000
00100000
00000000
01000000
00001000
00010000
00001000
00010000
00000010
00010000
00001000
,
00010000
00000100
00000100
00000100
00000100
00000100
00000010
00000000
00000001
00000100
00000010
00010000
00001000
00010000
00001000
00010000
,
00001000
00000010
00000001
00000010
00000000
00000000
00001000
00010000
00001000
00010000
00000000
00000000
10000000
01000000
00010000
01000000
00000000
00000000
00001000
00010000
00001000
00010000
00000000
00000000
,
00011000
00000000
00000100
00011000
00000000
01000000
00011000
00000000
00000000
00000000
00000010
00001000
00000001
00000100
00000001
00000010
,
00000001
00000000
00000100
00001000
00000000
00001000
00010000
00000000
01000000
01000000
00010000
01000000
00000000
01000000
10000000
00000000
,
01000000
00000000
10000000
01000000
00000000
01000000
00010000
00000000
00001000
00010000
00000100
00010000
00001000
01000000
00001000
00010000
,
00000010
00000000
00001000
00000100
00000000
00000100
00000001
00000000
00000100
00000100
00001000
00010000
00000000
00010000
00001000
00000000
,
01000000
00100000
01000000
00100000
00001000
00010000
00001000
00010000
00000010
00001000
00000010
00000001
00000010
00000100
00000001
00001000
,
00000001
00000000
00000010
00000000
00000001
00000000
00001000
00000000
00000000
00000200
00000000
00000000
00000000
00000000
00000000
00010300
00000000
00000000
00001000
00000000
00000000
00000000
00000000
00000000
01000000
00000000
00010000
00000000
01000000
00000000
00100000
00000000
00000000
20000000
00000000
00000000
00000000
00000000
00000000
31000000
00000000
00000000
00100000
00000000
00000000
00000000
00000000
00000000
,
00010000
00000000
01000000
00000000
00010000
00000000
00100000
00000000
00000000
00002000
00000000
00000000
00000000
00000000
00000000
00013000
00000000
00000000
00001000
00000000
00000000
00000000
00000000
00000000
00000100
00000000
00000000
00000001
00000000
00000000
00000100
00000000
00000000
00001000
00000000
00000000
01000000
00000000
00000000
00010000
00000000
00000000
00100000
00000000
00000000
01000000
00000000
00000000
,
10000000
00000000
00100000
10000000
01000000
00000000
00010000
00010000
00000000
00001000
00000100
00000000
00000110
00000000
00000010
00000000
,
00001001
00000000
00000000
00000000
00000000
00000000
00000001
00000000
00000010
00000000
00000100
00000000
00001000
00000000
00000000
00000100
00000000
00000000
00010000
00000000
00000000
00001000
00000000
00000000
01000000
00000000
00010000
00000000
01000000
00000000
00010000
00000000
01000000
00000000
00010000
00000000
10000000
00000000
00000000
00010000
00000000
00000000
10000000
00000000
00000000
00010000
00000000
00000000
,
10000000
01000000
01000000
00010000
01000000
01000000
10000000
01000000
00010000
00001000
00000010
00000100
00001000
00000010
00000100
00000001
,
00001000
00000100
00000001
00001000
00000010
00000100
00010000
00001000
00010000
00000000
00001000
01000000
10000000
01000000
00100000
10000000
,
00010000
00100000
10000000
00010000
01000000
00001000
00000100
00000010
00000001
00000100
00001000
00000001
00000010
00000100
00000001
00001000
,
00000001
00000000
00000000
00000100
00000000
00000000
00001000
00000000
00000000
00010000
00000000
00000000
00100000
00000000
00000000
01000000
00000000
00000000
00010000
00000000
00000000
00000000
00000000
00000000
10000000
00000000
01000000
00000000
10000000
00000000
01000000
00000000
00100000
00000000
00010000
00000000
10000000
00000000
00010000
00000000
10000000
00000000
00010000
00000000
00000000
00000000
00000000
00000000
,
10010000
00000000
00000000
00000000
00000000
00000000
01000000
00000000
00010000
00000000
00001000
00000000
00000100
00000000
00000000
00000000
00000000
00000000
00000010
00000000
00000000
00011000
00000000
00000000
00000000
00000000
00000000
00011000
00000000
00000000
00000010
00000000
00000000
00000000
00000000
00000000
00001000
00000000
00000000
00000010
00000000
00000000
00000100
00000000
00000000
00000001
00000000
00000000
,
00001001
00000000
00000000
00000000
00000000
00000000
00000100
00000000
00001000
00000000
00010000
00000000
01000000
00000000
00000000
00000000
00000000
00000000
00100000
00000000
00000000
00011000
00000000
00000000
00000000
00000000
00000000
00011000
00000000
00000000
00100000
00000000
00000000
00010000
00000000
00000000
01000000
00000000
00000000
00100000
00000000
00000000
10000000
00000000
00000000
00010000
00000000
00000000
,
10000000
00000000
00000000
01000000
00000000
00000000
01000000
00000000
00000000
00010000
00000000
00000000
00000100
00000000
00000000
00000100
00000000
00000000
00000001
00000000
00000000
00000100
00000000
00000000
00000100
00000000
00000000
00010000
00000000
00000000
01000000
00000000
00000000
01000000
00000000
00000000
10000000
00000000
00100000
00000000
01000000
00000000
00002000
00000000
00000000
00000000
00000000
00000000
,
00000000
00000000
00000000
00000000
00003010
00000000
00000001
00000100
00001000
00010000
01000000
10000000
00100000
01000000
10000000
01000000
,
00020000
00000000
00000000
00000000
,
00000000
00000000
00000000
00000000
,
00030000
00000000
00000000
00000000
,
10000000
01000000
10000000
01000000
00100000
10000000
00100000
10000000
00100000
00010000
00001000
00000010
00000100
00000001
00001000
00000001
,
00000010
00000000
00000101
00000000
00001100
00000000
00001000
00010000
00000000
00010000
00100000
00000000
00010000
01000000
00100000
10000000
,
01000000
00000000
10100000
00000000
00110000
00010000
00000000
00010000
00001000
00000000
00000010
00000100
00000001
00001000
00000010
00001000
,
00000001
00000000
00000101
00000000
00001100
00000000
00010000
00010000
00000000
00001000
01000000
00100000
10000000
01000000
00100000
00001000
,
00011000
00000000
00000000
00000000
00000000
00000000
00000001
00000000
00000000
00000100
00000000
00000000
00000000
00000000
00000000
00010100
00000000
00000000
00000000
00000000
00000000
00001000
00000000
00000000
00010000
00000000
00000000
01000000
00000000
00000000
10000000
00000000
01000000
00000000
00100000
00000000
01000000
00000000
00000000
00100000
00000000
00000000
00001000
00000000
00000000
00010000
00000000
00000000
,
00011000
00000000
00000000
00000000
00000000
00000000
10000000
00000000
00000000
01000000
00000000
00000000
00000000
00000000
00000000
01001000
00000000
00000000
00000000
00000000
00000000
00001000
00000000
00000000
00010000
00000000
00000000
00000010
00000000
00000000
00000100
00000000
00000000
00000001
00000000
00000000
00001000
00000000
00000100
00000000
00010000
00000000
00000100
00000000
00000000
00010000
00000000
00000000
,
00001000
01000000
00001000
01000000
00001000
01000000
00001000
00010000
00001000
00010000
00001000
00010000
00000100
00010000
00000100
00010000
00000100
00010000
00000100
00001000
00000100
00001000
00000100
00001000
,
00000001
00000000
00000010
00000000
00001000
00000000
00000010
00000000
00000000
00000000
00000000
00000000
00010000
00000000
01000000
00000000
10000000
00000000
01000000
00000000
00000000
00000000
00000000
00000000
00100000
00000000
00000000
01000000
00000000
00000000
00001000
00000000
00000000
00010000
00000000
00000000
00001000
00000000
00000000
00010000
00000000
00000000
00011000
00000000
00000000
00011000
00000000
00000000
;
