#TITLE:SHION(VENUS mix);
#ARTIST:VENUS;
#BANNER:SHION(VENUS mix).png;
#BACKGROUND:SHION(VENUS mix)-bg.png;
#JACKET:SHION(VENUS mix)-jacket.png;
#CDTITLE:./CDTITLES/POP'N MUSIC.PNG;
#MUSIC:SHION(VENUS mix).ogg;
#SAMPLESTART:0.232;
#SAMPLELENGTH:15;
#BPMS:0=190;

//---------------dance-single - t7r----------------
#NOTES:
     dance-single:
     t7r:
     Beginner:
     5:
     :
0000
0000
0000
0000
,
0000
0000
0000
0000
,
0000
0000
0000
0000
,
0000
0000
0000
0000
,
0000
0000
0000
0000
0000
0000
0000
1000
,
0000
0000
0000
0000
0000
0000
0000
0001
,
0000
0000
0000
0000
0000
0000
0000
0100
,
0000
0000
0010
0000
,
0100
0000
0000
0000
,
0001
0000
0001
0000
,
0001
0000
0000
0000
,
1000
0000
1000
0000
,
1000
0000
0000
0000
,
0010
0000
0010
0000
,
0010
0000
0000
0000
,
1000
0000
0100
0000
,
0010
0000
0010
0000
,
0000
0001
0000
0001
,
0001
0000
0100
0000
,
0000
0010
0000
0010
,
0010
0000
1000
0000
,
0000
0100
0000
0100
,
0100
0000
0010
0000
,
0000
0001
0000
0001
,
0001
0000
0000
0000
,
0000
1000
0000
1000
,
0000
0001
0000
0001
,
0000
0100
0000
0100
,
0000
0010
0000
0010
,
0010
0000
0000
0000
,
1000
0000
0000
0000
,
0001
0000
0001
0000
,
0010
0000
0000
0000
,
0001
0000
0001
0000
,
1000
0000
1000
0000
,
0010
0000
0100
0000
,
0010
0000
0000
0000
,
1000
0000
1000
0000
,
0001
0000
0001
0000
,
0010
0000
0100
0000
,
0010
0000
0000
0000
,
0000
0001
0001
0000
,
0001
0000
0001
0000
,
1000
0000
1000
0000
,
0010
0000
1000
0000
,
0100
0000
0000
0000
,
0010
0000
0010
0000
,
0001
0000
1000
0000
,
0010
0000
0100
0000
,
0010
0000
1000
0000
,
0001
0000
1000
0000
,
0100
0000
0000
0000
,
0100
0000
0000
0000
,
0000
0010
0000
0010
,
0000
0001
0000
0001
,
0000
1000
0000
1000
,
0000
0010
0010
0000
,
0000
0100
0000
0100
,
0000
0001
0000
0001
,
0000
1000
0000
1000
,
0000
0100
0100
0000
,
0000
0010
0000
0100
,
0000
0010
0000
0001
,
0000
1000
0000
0010
,
0010
0000
0100
0000
,
0000
0010
0000
0100
,
0000
0001
0000
1000
,
1000
0000
0001
0000
,
0010
0000
0001
0000
,
1000
0000
0100
0000
,
0010
0000
0001
0000
,
0100
0000
0000
0000
,
0010
0000
0000
0000
,
1000
0000
0000
0000
,
0001
0000
0010
0000
,
0001
0000
0000
0000
,
1000
0000
0000
0000
,
0010
0000
0100
0000
,
0010
0000
0000
0000
,
0000
1000
0000
1000
,
0000
0001
0000
0001
,
0000
0010
0000
0010
,
0000
0100
0000
0100
,
0100
0000
0000
0000
,
0010
0000
0001
0000
,
1000
0000
0000
0000
,
0010
0000
0000
0100
,
0100
0000
0000
0001
,
0000
1000
0000
0001
,
0000
0010
0000
0001
,
0000
1000
0000
0100
,
0100
0000
0000
0000
,
1000
0000
0000
0000
,
0010
0000
0100
0000
,
0001
0000
1000
0000
,
0001
0000
0000
0000
,
0010
0000
0000
0000
,
0001
0000
1000
0000
,
0100
0000
0000
0000
,
1000
0000
1000
0000
,
0010
0000
0010
0000
,
0100
0000
0100
0000
,
0001
0001
0001
0000
,
0010
0000
0100
0000
,
1000
0000
0010
0000
,
0100
0000
0001
0000
,
1000
0000
0000
1001
0000
0000
0000
0000
;

//---------------dance-single - Super_Ray----------------
#NOTES:
     dance-single:
     Super_Ray:
     Easy:
     8:
     :
0000
0000
0000
0000
,
0000
0000
0000
0000
,
0000
0000
0000
0000
,
0000
0000
0000
0000
,
0000
0000
0000
0000
0000
0000
0000
2000
,
0000
0000
0000
0000
3100
0000
0000
0002
,
0000
0000
0000
0000
0103
0000
0000
0020
,
0000
0000
0000
0000
2030
0000
0000
3001
,
0000
0001
0000
0001
0000
0000
0000
0000
,
1000
0100
0001
0000
,
0010
1000
0001
0000
,
1000
0001
0010
0100
,
1000
0001
1000
0000
,
0010
0100
0001
0000
,
0010
1000
0001
0000
,
1000
0100
0010
0001
,
1000
0000
0000
1000
0000
0000
1000
0000
0000
0000
0000
0000
0000
0000
0000
0000
,
0010
1000
0000
0001
,
0000
1000
0000
0010
,
0100
0001
0000
0100
,
0000
0010
0000
0100
,
0001
0010
0000
0100
,
0000
1000
0000
0001
,
0100
1000
0000
0010
,
0000
0001
1000
0100
,
0010
0000
0100
0000
,
0010
0000
0001
0010
,
0100
0000
0010
0000
,
0001
0000
1000
0100
,
0002
0010
0000
0013
,
2000
0100
0000
3100
,
0001
1000
0100
0010
,
0001
1000
0000
0000
,
0001
0010
1000
0000
,
0010
0000
0001
0000
,
1000
0100
0001
0000
,
0100
0000
1000
0000
,
0001
0010
1000
0000
,
0100
0000
0001
0000
,
1000
0100
0001
0000
,
0010
0000
1000
0000
,
1001
0010
0001
0000
,
1000
0000
0010
0000
,
0001
0100
1000
0000
,
0010
0000
1001
0000
,
2000
0000
3002
0000
,
0100
0100
0103
0000
,
0020
0000
0230
0000
,
1000
1000
1300
0000
,
0002
0000
0203
0000
,
0010
0010
0310
1000
,
0002
0000
2000
3003
,
0100
0000
0000
0010
0000
0000
0110
0000
0000
0000
0000
0000
0000
0000
0000
0000
,
1000
0001
1000
0000
,
0100
0010
0100
0000
,
0001
0010
0001
0000
,
0100
0010
1000
0000
,
0001
0010
0100
1000
,
0001
0010
0100
1000
,
0001
1000
0010
0100
,
0001
0010
0100
0000
,
2000
0100
3100
0000
,
0020
0100
0130
0000
,
0001
0010
0100
1000
,
0001
0100
1000
0100
,
0001
1000
0100
0000
,
0010
0001
1000
0000
,
0100
0010
0100
0000
,
1000
0100
0010
0001
,
1001
1100
0101
0110
,
1001
0110
1001
0000
,
0220
0000
0000
0330
,
2000
0000
0000
3000
,
0002
0000
0000
0003
,
1000
0001
0010
0200
,
2000
0000
0000
3300
,
0022
0000
0000
0033
,
2000
0000
3002
0000
,
0023
0000
0030
0000
,
1000
0001
1000
0100
,
0000
0010
0100
0010
,
0000
0001
0100
0001
,
0000
1000
0010
1000
,
0000
0100
0001
0100
,
0000
0001
0010
0001
,
0000
1000
0001
1000
,
0100
1000
0100
0010
,
0001
1000
0100
0010
,
0000
0100
1000
0001
,
0000
0100
1000
0100
,
0000
0001
1000
0100
,
0000
0001
0100
1000
,
0010
0100
0001
1000
,
0001
0000
0000
0100
0000
0000
0010
0000
,
0000
0000
0000
0000
,
1000
0001
0010
0100
,
0000
0010
0001
1000
,
0000
0010
0100
0001
,
0000
0100
0010
1000
,
0001
0100
1000
0000
,
0010
1000
0001
0000
,
0001
0010
0100
1000
,
0010
0001
0010
0000
,
1000
0001
0100
0000
,
1000
0100
0001
0000
,
1000
0100
0010
0001
,
0110
0000
0000
0110
0000
0000
2002
0000
0000
0000
0000
0000
3003
0000
0000
0000
;

//---------------dance-single - t7r----------------
#NOTES:
     dance-single:
     t7r:
     Medium:
     11:
     :
0000
0000
0000
0000
,
0000
0000
0000
0000
,
0000
0000
0000
0000
,
0000
0000
0000
0000
,
0000
0000
0000
0000
0000
0000
0000
2000
,
0000
0000
0001
0000
3100
0000
0000
0002
,
0000
0000
1000
0000
0103
0000
0000
0110
,
0000
0000
0000
0000
1001
0000
0000
1000
,
0000
0100
0000
0010
0000
0001
0000
1002
,
0000
0103
0010
0100
,
0001
0010
0001
0000
1000
0001
0000
0000
,
1000
0100
1000
0000
0001
0000
0100
0000
,
0001
0010
0001
0000
1000
0001
0000
0000
,
0200
0000
0000
0000
0310
0000
0000
0100
,
0000
0001
1000
0000
0100
1000
0000
0000
,
0001
0010
0001
0000
1000
0000
0010
0000
,
1000
0000
0000
0001
0000
0000
1000
0000
0010
0000
0000
0000
0110
0000
0000
0000
,
0001
0010
0200
1300
,
0010
0000
0100
0000
0001
1000
0001
0000
,
1000
0010
0200
0301
,
1000
0000
0100
0000
0010
0001
0010
0000
,
0001
0000
0100
0020
0000
0000
0130
0000
,
0001
0000
1000
0000
0100
1000
0001
0000
,
1000
0000
0100
0020
0000
0000
0031
0000
,
0100
0000
0010
0000
1000
1000
0000
0000
,
0000
0000
1001
0000
0001
0100
0000
0001
,
0000
0010
0001
0000
1000
0010
1000
0000
,
0001
0000
1000
0000
0100
0010
0000
0100
,
0000
1000
0001
0000
0100
0010
0100
0000
,
0002
0010
1003
0000
,
2000
0100
3001
0000
,
1000
0000
0001
0100
0000
0010
0100
0000
,
0001
0000
1001
0000
0010
0100
0010
0100
,
0000
0000
0010
0000
1001
0000
1000
0100
,
0000
0001
0000
0100
1000
0000
0001
0000
,
0100
1000
0000
0200
0000
0000
0000
0310
,
0100
0000
0000
0010
1000
0001
1000
0000
,
0001
0000
0010
1000
0000
0010
0000
0001
,
0000
1000
0010
0001
,
0010
0000
0100
0001
0000
1000
0000
0001
,
0000
0000
0010
0000
0001
1000
0001
1000
,
0010
0100
0101
0000
,
0010
0100
1100
0000
,
1000
0010
0000
0200
0000
0000
0000
0301
,
0010
0000
0000
0001
1000
0100
1000
0000
,
0010
0100
1001
0000
,
0100
0010
1001
0000
,
1000
0000
0100
0001
0000
0100
0000
1000
,
0000
0000
0001
0000
0100
0001
1000
0000
,
0001
0000
0100
1000
0000
0100
0000
0001
,
0000
1000
0001
0010
,
1001
0000
1100
0000
,
0001
0000
0000
1000
0000
0000
0001
0000
0010
0000
0000
0000
0001
0000
2000
0000
,
0000
0000
0100
0000
3001
0000
0000
0001
,
0100
0000
0010
0000
1000
0000
0000
1000
,
0100
0000
0010
0000
0001
0000
0000
0001
,
1000
0000
0010
0000
0100
0000
0000
0001
,
2000
0010
3100
0000
,
1000
0100
1000
0000
0001
0000
0000
0020
,
0000
0031
1000
0020
0000
1030
0001
0200
,
0000
0301
1000
0200
0000
1300
0001
0000
,
0000
0000
1000
0020
0000
0130
0001
0020
,
0000
0130
1000
0000
0010
0000
0100
0002
,
0000
1003
0100
0010
,
0001
0100
0001
0000
0100
1000
0100
0002
,
0000
0000
0013
0000
1000
0000
0010
0002
,
0000
0000
2003
0000
3010
0001
0000
0020
,
0000
0130
0001
0020
0000
0130
1000
0020
,
0000
0130
0001
0020
0000
0130
1000
0000
,
0001
0010
1000
0100
,
1001
0000
0110
0000
0001
1000
0001
0000
,
0020
0000
0000
0000
,
0000
0000
0000
0000
,
0030
0000
0000
0000
,
0002
0000
0003
0000
,
2002
0000
0000
0000
,
3003
0000
0000
0000
,
0220
0000
0000
0330
,
0000
0000
0000
0000
0001
0001
0000
2000
,
0000
0000
3001
0000
0100
0000
0010
0002
,
0000
0000
0013
0000
0100
0000
0001
2000
,
0000
0000
3100
0000
0010
0000
1000
0020
,
0000
0130
0010
0001
,
1000
0000
0001
0100
0001
0000
1000
0000
,
0000
0001
1000
0000
0001
0010
0001
0000
,
1000
0000
0010
1000
0001
0000
0010
0000
,
0000
0001
1000
0000
0100
1000
0001
0000
,
0100
0210
0001
0310
,
1000
0000
0001
0000
0010
0001
0100
0000
,
0001
0000
0010
0000
0100
1000
0001
0000
,
0100
0000
0010
0000
1000
0000
0100
0002
,
0000
0103
1000
0000
0100
0001
0100
0000
,
1000
0001
1000
0000
0010
0000
0100
0000
,
0001
0000
0100
2000
0000
3100
0001
0000
,
0100
0010
0100
0000
0010
0000
1000
0002
,
0000
0000
0013
0000
0100
0000
0001
0200
,
0000
0000
0310
0000
0001
0000
1000
0020
,
0000
0000
0130
0000
1000
0000
0100
0020
,
0000
0000
1030
0000
0001
0000
0000
2001
,
0000
0000
3100
0000
1000
0010
1000
0000
,
0001
0010
0001
0000
1000
0100
0000
0000
,
1000
0001
0100
0000
0001
1000
0100
0000
,
1000
0001
0100
0000
0001
0001
0000
0000
,
0010
0001
0100
0010
,
1000
0000
0100
0000
0010
0001
0000
0000
,
1001
0000
0000
0110
0000
0000
0011
0000
,
0001
0000
0000
1000
0000
0000
0200
0000
0000
0000
1000
0000
1300
0000
0000
0000
;

//---------------dance-single - t7r & Super_Ray----------------
#NOTES:
     dance-single:
     t7r & Super_Ray:
     Hard:
     13:
     :
0000
0000
0000
0000
,
0000
0000
0000
0000
,
0000
0000
0000
0000
,
0000
0000
0000
0000
,
0000
0000
0000
0000
0000
0000
0000
2001
,
0000
0000
0100
0000
3001
0000
0000
1002
,
0000
0000
0010
0000
1003
0000
0000
0202
,
0000
0303
0000
0000
2020
0000
3030
1000
,
0000
1001
0000
0110
0000
1001
0000
0001
,
0020
0000
0001
0000
0130
0010
0100
0000
,
0010
0001
1000
0000
0010
1000
0000
0000
,
0001
0010
0100
0000
0001
0010
0100
0000
,
0001
0010
0100
1000
0010
0100
0000
0000
,
0020
0000
1000
0000
0130
0010
0100
0000
,
0010
1000
0001
0000
0010
0001
0000
0000
,
1000
0000
0001
0100
0000
0100
1000
0000
,
0100
0000
0000
0100
0000
0000
0010
0000
0100
0000
0000
0000
1001
0000
0000
0000
,
1000
0100
1000
0010
2000
0000
3001
0000
,
1000
0000
0100
0000
0010
0001
1000
0000
,
0001
0100
0001
0010
0002
0000
1003
0000
,
0001
0000
0100
0000
0010
1000
0001
0000
,
2000
0000
0010
0000
3001
1000
0100
0000
,
1000
0000
0100
0000
0010
0001
1000
0000
,
0002
0000
0100
0000
1003
0001
0010
0000
,
0001
0000
0100
0000
0010
0100
0010
1000
,
0000
0000
0110
0000
1000
0010
0100
0001
,
0000
0001
0010
0000
0001
1000
0001
0100
,
0000
0000
0110
0000
0001
0010
0100
1000
,
0000
1000
0010
0000
1000
0100
0010
0002
,
0100
0100
0010
0010
,
1000
1000
0100
0103
,
0001
0000
0100
1000
0000
0001
0010
0000
,
1000
0100
0100
1000
0100
0001
1000
0001
,
0000
0000
1001
0000
0001
0100
0001
0010
,
0000
0001
0000
1000
0010
0000
1000
0000
,
0001
0010
0000
0200
0000
0000
0000
0301
,
0100
0000
0000
1000
0010
0100
0010
0000
,
0001
0000
1000
0100
0000
0001
0000
0010
,
0000
0100
0010
0000
1000
0010
0100
0000
,
0010
0000
0001
0010
0000
1000
0000
0001
,
0000
0100
0100
0001
0100
1000
0001
1000
,
0000
0000
0110
0000
1010
0000
1000
0100
,
0000
0001
0000
0100
0010
0000
0001
0000
,
1000
0010
0000
0200
0000
0000
0000
0301
,
0020
0000
0000
0031
1000
0010
0100
0010
,
2000
0000
3100
0010
0000
0001
0000
0100
,
0000
1000
0100
0000
0010
0100
0001
0000
,
1001
0000
1000
0100
0000
0001
0000
0101
,
0000
1000
0100
0010
0001
1000
0010
0000
,
0101
0000
0001
0100
0000
1000
0000
1100
,
0000
0001
0100
0000
0001
1000
0010
0000
,
2000
0100
3002
0100
,
1003
0000
0000
0001
0000
0000
2001
0000
0000
0000
3010
0000
0100
0000
0002
0000
,
0000
0013
0100
0000
0001
0000
0100
2000
,
0000
0000
3010
0000
0100
0000
1000
0200
,
0000
0000
0310
0000
0100
0000
0001
0010
,
0001
0000
0100
0000
0001
0010
0100
1000
,
0001
0000
0011
0000
0000
0001
1000
0000
,
0100
0000
0110
0000
0000
1000
0001
0000
,
1001
0000
0000
0110
0000
0000
0101
0000
0000
1001
0000
0000
0010
0000
1000
0000
,
0001
0000
1000
0000
0001
0010
0100
2000
,
0000
0000
3001
0000
1000
0010
0100
0002
,
0000
0000
1003
0000
0010
0100
0001
0010
,
0100
1000
0001
0010
0100
0010
0001
0100
,
1000
0100
0001
0010
1000
0010
0001
2000
,
0000
0000
3001
0000
1000
0001
0010
0200
,
0000
0000
1300
0000
0001
0010
0100
1000
,
0000
0010
0100
0001
0000
1000
0010
0100
,
0000
0001
0100
1000
0000
0100
0001
0010
,
0100
1000
0100
0001
0100
1000
0001
0100
,
0010
0100
0001
1000
0001
0010
0100
2000
,
0002
0000
0000
3003
,
0220
0000
0000
0330
,
1001
0000
0001
0010
,
0100
1000
0010
0100
,
0002
0000
0000
0003
,
2000
0000
0000
3000
,
0220
0000
0000
0330
,
0000
0000
0000
0000
0001
1000
0000
0120
,
0000
0000
1030
0000
0010
0000
1000
0001
,
0000
0100
0010
0000
0001
0100
0010
1000
,
0000
0001
1000
0000
0010
0100
0001
0010
,
0000
0100
1000
0000
0010
0000
0001
0000
,
1000
0100
0010
0000
0100
1000
0001
0000
,
0100
0010
1000
0100
0010
0001
1000
0000
,
0010
1000
0001
0000
0001
0100
1000
0000
,
0001
1000
0100
0010
0001
1000
0010
0000
,
1000
0000
0001
0000
0010
0100
0010
0000
,
0001
0000
1000
0000
0010
0100
0001
0000
,
1000
0000
0010
0000
0100
0001
0010
0000
,
0100
0000
1000
0000
0001
0010
0100
0000
,
1000
0100
1000
0000
0100
0001
0100
0000
,
0001
0010
0001
0000
1000
0001
1000
0000
,
0002
0000
0000
2003
0000
0000
3001
0000
,
0100
0000
0001
0000
1000
0001
0000
0102
,
0000
0000
1003
0000
0010
0000
1000
0001
,
0000
0010
0100
0000
0001
1000
0100
0010
,
0000
0001
1000
0000
0010
0100
0010
1000
,
0000
0001
0010
0000
0100
0000
0000
0000
,
0001
0100
1000
0000
0100
0000
0000
0000
,
0001
1000
0100
0000
0010
0000
0000
0000
,
0001
0010
0100
1000
0100
0000
0001
0100
,
1000
0100
0001
0000
,
1000
0010
0001
0010
1000
0001
0010
0000
,
0001
1000
0100
0010
0001
1000
0100
0000
,
1001
0000
0000
1100
0000
0000
1001
0000
,
1001
0000
0000
1100
0000
0000
0202
0000
0000
0000
0000
0000
0303
0000
0000
0000
;

//---------------dance-single - Super_Ray & t7r----------------
#NOTES:
     dance-single:
     Super_Ray & t7r:
     Challenge:
     15:
     :
0000
0000
0000
0000
,
0000
0000
0000
0000
,
0000
0000
0000
0000
,
0000
0000
0000
0000
,
0000
0000
0000
0000
0000
0000
0000
1002
,
0000
0000
0010
0000
0013
0000
0000
2010
,
0000
0000
0010
0000
3010
0000
0000
2002
,
0000
0000
3003
0000
1100
0000
0000
1001
,
0000
0110
0000
1010
0000
0101
0000
0001
,
1000
0100
0001
0010
0001
0000
1000
0000
,
0010
1000
0100
0010
0001
0000
0100
0000
,
0010
0100
0010
1000
0001
0010
1000
0010
,
0001
1000
0100
0001
0100
0000
1000
0000
,
0010
0100
0001
0010
0100
0000
0001
0000
,
1000
0100
0010
0001
0100
0000
1000
0000
,
0100
0001
0010
0100
1000
0010
0001
0010
,
1000
0000
0000
0001
0000
0000
1001
0000
0000
0000
0000
0000
0110
0000
0000
0000
,
0001
1000
0100
0010
0000
0001
0010
1000
,
0000
0010
0001
1000
0100
0000
0001
0000
,
0100
1000
0100
0010
0000
0001
0100
1000
,
0000
0100
0001
1000
0010
0000
0100
0000
,
0001
0010
0100
1000
0000
0100
0001
0100
,
0000
1000
0010
0100
0001
0000
1000
0000
,
0100
0001
0100
1000
0000
0010
0001
0010
,
0000
1000
0100
0000
0010
0010
0010
0010
,
0000
0000
0100
0000
0010
1000
0000
0101
,
0000
0000
0000
0000
1000
1000
1000
1000
,
0000
0000
0001
1000
0100
0010
0000
1001
,
0000
0000
0000
0000
1000
0100
0010
0001
,
1000
0100
0001
0100
0000
1000
0001
0010
,
0100
0010
0001
1000
0000
0001
1000
0000
,
0110
0000
0000
1001
0000
0000
0110
0000
,
1001
0010
1001
0000
0010
1000
0100
0010
,
1001
0000
0000
0000
1001
0000
0000
1000
,
0001
0000
0010
0100
0010
0000
0001
0000
1000
0000
0010
0000
1000
0000
0001
0000
,
0100
0000
0000
0000
1001
0000
0000
0100
,
0010
0000
1000
0100
0010
0000
0100
0000
1000
0000
0001
0000
0010
0000
0100
0000
,
1000
0000
0000
0000
0101
0000
0000
1000
,
0010
0000
0100
0001
0010
0000
0001
0000
1000
0000
0100
0000
0010
0000
0000
0000
,
0001
0000
0000
0000
0110
0000
0000
1000
,
0010
0000
0100
0001
0100
0000
0010
0000
1000
0000
0100
0000
0001
0000
0100
0000
,
1000
0000
0001
0000
1001
0000
0001
1000
,
0000
0110
0000
0001
1000
0000
0110
0000
,
0001
1000
0000
0120
0000
0000
0000
0100
,
0130
0000
0000
0000
0001
1000
0100
0010
,
0100
0000
1000
0001
0000
1100
0000
0101
,
0000
0001
0100
1000
,
0010
0000
0000
1001
0000
0110
0000
1001
,
0000
0000
0001
1000
0100
0000
1100
0000
,
0101
0000
0000
0001
0000
0100
0000
1000
,
0000
0010
0001
1000
,
0002
0000
0000
2000
0000
0000
3003
0000
,
1001
0000
0000
0101
0000
0000
1000
0000
0001
0000
1000
0000
0001
0000
1000
0000
,
0100
0000
0010
0000
0001
0000
0100
1000
0100
0000
0001
0000
1000
0000
0100
0000
,
1000
0000
0001
0000
0100
0000
0010
0100
0001
0000
1000
0000
0100
0000
0010
0000
,
1001
0000
0000
1100
0000
0000
0101
0000
0000
0110
0000
0000
1001
0000
1000
0100
,
1000
0000
0001
0010
0001
0000
0100
0010
0100
0000
0010
1000
0010
0000
1000
0100
,
1000
0001
1000
0001
0100
0010
1000
0100
,
1000
0100
0001
0100
1000
0001
0010
0100
,
1000
0000
0100
1000
0000
0100
1000
0000
0000
0000
0001
0000
0100
0000
0010
0000
,
0100
0000
0001
0100
0000
0001
0100
0000
0001
0000
1000
0000
0100
0000
0010
0000
,
0000
0000
1001
0002
0000
1003
0010
0200
,
0000
1300
0100
0010
0100
0001
0010
2000
,
0000
0000
3010
0100
0010
0000
0001
0000
1000
0000
0010
0000
0100
0000
0001
0000
,
0010
0000
0001
1000
0001
0000
0100
0000
0010
0000
1000
0000
0001
0000
0200
0000
,
0000
0000
1300
0000
0100
0000
0010
0100
0010
0000
1000
0000
0100
0010
0002
0000
,
0000
0000
0023
0000
1030
0010
0001
2000
,
0000
3010
0001
0020
0000
1030
0100
0002
,
0000
1003
0010
0200
0000
1300
0001
0100
,
0001
0000
0010
0001
1000
0000
0010
1000
0001
0000
1000
0100
0010
0000
0001
0100
,
0010
0000
0110
0000
0101
0100
0001
0010
,
0002
0000
0000
1003
,
0020
0000
0000
0000
,
0230
0000
0301
1000
,
0100
0000
0001
0000
0100
0000
0010
0001
,
2000
0000
0000
0010
0000
0000
3001
0000
,
1002
0000
0000
0010
0000
0000
1003
0000
,
1200
0000
0010
0010
0000
0001
0000
1000
,
0000
0000
0000
0000
0310
0110
0000
2001
,
0000
3010
0100
0000
0001
0010
0100
2000
,
0000
3010
1000
0100
0010
0001
0100
0020
,
0000
0031
0010
0100
0010
1000
0001
0020
,
0000
1030
0010
0100
0010
0001
1000
0000
,
0001
0100
0001
0010
0001
0100
0010
1000
,
0000
0000
1000
0000
0001
0000
1000
0000
0100
0010
0001
0000
0100
0000
0010
0000
,
1000
0100
1000
0001
1000
0010
0100
0010
,
1000
0000
0001
1000
0010
0000
0100
0000
1010
0000
0100
0000
2001
0000
0000
0000
,
3010
0100
0001
1000
0001
0010
0100
1000
,
0010
0100
0001
1000
0100
0010
0001
1000
,
0001
0000
0100
0000
1000
0000
0100
0010
1000
0000
0001
0000
1000
0000
0100
0000
,
1000
0010
0001
0010
0100
0001
0011
0000
,
1000
0100
0010
1000
0001
0100
0010
0001
,
1000
0000
0010
0000
0100
0000
1000
0000
0100
0001
1000
0000
0001
0000
0010
0000
,
0001
0100
1000
0100
0001
0100
0010
0100
,
1000
0000
0100
0010
1000
0000
0100
0000
0011
0000
0100
0000
1001
0000
2100
0000
,
0000
3100
0010
1000
0010
0100
1000
1020
,
0000
0031
0010
0100
0001
0100
0010
2010
,
0000
3100
0010
1000
0010
0100
1000
1001
,
0000
0101
2001
0000
0010
0000
3100
1200
,
0000
0000
0301
0000
0100
0000
1000
0000
0001
0000
0010
0001
0010
0000
0001
0100
,
0001
0000
1000
0000
0100
0000
0010
0001
1000
0000
0010
0000
0100
0000
0000
0000
,
0010
0000
1000
0100
1000
0000
0001
0000
1000
0000
0010
1000
0010
0000
1000
0001
,
0100
0000
0001
1000
0100
0000
1000
0000
0001
0000
0010
0000
0110
0000
0000
0000
,
1000
0000
0010
1000
0010
0000
1000
0100
1000
0000
0001
0000
0100
0000
0010
0000
,
0100
0000
0001
0010
0001
0000
1000
0001
1000
0000
0001
0000
0100
0000
0010
0000
,
1001
0100
0100
1001
0010
0010
1001
0001
,
1100
0000
0000
0101
0000
0000
0110
0000
1002
0000
0010
0000
1003
0000
0000
0000
;

//---------------dance-double - t7r----------------
#NOTES:
     dance-double:
     t7r:
     Easy:
     8:
     :
00000000
00000000
00000000
00000000
,
00000000
00000000
00000000
00000000
,
00000000
00000000
00000000
00000000
,
00000000
00000000
00000000
00000000
,
00000000
00000000
00000000
00000000
00000000
00000000
00000000
20000000
,
00000000
00000000
30100000
00000000
01000000
00000000
00000000
00020000
,
00000000
00000000
00130000
00000000
00001000
00000000
00000000
00020000
,
00000000
00000000
00030000
00000000
00011000
00000000
00000000
00010000
,
00000000
00001000
00000000
00010000
00000000
00000000
00000000
00002000
,
00000000
00013000
00001000
00000000
,
00010000
01000000
01000000
00000000
,
10000000
00100000
01000000
00010000
,
10000000
01000000
00100000
00000000
,
00001000
00010000
00001000
00000000
,
00010000
00000100
00001000
00000000
,
00000010
00000000
00000000
00000100
00000000
00000000
00000001
00000000
,
00000010
00000000
00000000
00000010
00000000
00000000
00000010
00000000
00000000
00000000
00000000
00000000
00000000
00000000
00000000
00000000
,
00000001
00000100
00000001
00000000
,
00000010
00000100
00001000
00000000
,
00000100
00010000
00001000
00000000
,
00010000
00001000
01000000
00000000
,
00200000
00000000
01300000
00010000
,
10000000
00000000
01000000
00100000
,
00002000
00000000
00013000
00001000
,
00000100
00000000
00000010
00000000
,
00000000
00001001
00000001
00000010
,
00000000
00000001
00000100
00000001
,
00000000
00001000
00000010
00001000
,
00000000
00000100
00010000
00000100
,
00020000
00000000
00001000
00000000
,
01000000
00000000
00031000
00000000
,
01000000
00000000
00000000
01000000
00000000
00000000
00100000
00000000
,
01000000
00010000
10000000
00010000
,
10000000
01000000
00010000
00000000
,
00001000
00010000
00001000
00000000
,
00010000
00001000
00000200
00000000
,
00000310
00000000
00000100
00000001
,
00001000
00000000
00000001
00000010
,
00001000
00000000
00000010
00000001
,
00001000
00000000
00000001
00000100
,
00001000
00000000
00010000
00001000
,
00010000
00000000
01000000
00100000
,
00010000
00000000
10000000
00100000
,
01000000
00000000
00020000
00000000
,
00130000
00000000
00001000
00010000
,
00001000
00000000
00010000
00010000
,
00000000
01000000
10000000
00100000
,
01000000
00000000
00000000
00010000
00000000
00010000
00000000
00010000
,
00000000
00000000
00100000
00001000
,
00010000
00000000
00000000
00001000
00000000
00001000
00000000
00001000
,
00000000
00000010
00000100
00000010
,
00001001
00000000
00000101
00000000
,
00000001
00000000
00000000
00001000
00000000
00000000
00001001
00000000
00000000
00000000
00000000
00000000
00000000
00000000
00000002
00000000
,
00000000
00000000
00000013
00000000
00000100
00000000
00000000
00000010
,
00000000
00000000
00000001
00000000
00000100
00000000
00000000
00000010
,
00000000
00000000
00001000
00000000
00000100
00000000
00000000
00010000
,
00000000
00000000
00001000
00000000
00010000
00000000
00000000
00001000
,
00000000
00000000
01000000
00000000
00010000
00000000
00000000
01000000
,
00000000
00000000
00100000
00000000
10000000
00000000
00000000
01000000
,
00000000
00000000
00010000
00000000
00001000
00000000
00000000
00010000
,
00000000
00001000
00000010
00000000
,
00000000
00000100
00001000
00000000
,
00000001
00000100
00000001
00000000
,
00001000
00000010
00001000
00000000
,
00000100
00010000
00000100
00000000
,
00010000
00001000
00020000
00000000
,
01030000
10000000
00200000
00000000
,
01300000
00010000
00200000
00000000
,
00301000
00000000
00010000
00000000
,
00001000
00000100
00000100
00000100
,
00000010
00000010
00001001
00000000
,
00000002
00000000
00000000
00000000
,
00000000
00000000
00000000
00000000
,
00000003
00000000
00000000
00000000
,
00000020
00000000
00000000
00000030
,
00002200
00000000
00000000
00003300
,
00022000
00000000
00000000
00033000
,
02020000
00000000
00000000
00000000
,
03030000
00000000
00000000
00000000
01000000
00000000
00000000
20010000
,
00000000
31000000
00100000
00000000
,
00010000
10000000
00010000
00000000
,
10000000
00100000
01000000
00000000
,
00010000
00100000
00001000
00000000
,
00010000
00001000
00000100
00000000
,
00000010
00000100
00000010
00000000
,
00001000
00000001
00000010
00000000
,
00000100
00010000
00001000
00010000
,
00000000
00011000
00010000
00000000
,
01000000
00100000
00010000
00000000
,
10000000
00100000
01000000
00000000
,
00010000
00100000
00001000
00000000
,
00010000
00001000
00000100
00000001
,
00000010
00000100
00000010
00000001
,
00000100
00001000
00010000
00000000
,
00001000
00000000
00010000
00000000
01000000
00000000
00000000
00100000
,
00000000
00000000
00010000
00000000
10000000
00000000
00000000
00100000
,
00000000
00000000
00010000
00000000
00001000
00000000
00000000
00000010
,
00000000
00000000
00000100
00000000
00010000
00000000
00000000
00011000
,
00000000
00011000
00000000
00000000
00000000
00000000
00000000
00000000
,
00010000
01000000
10000000
00000000
,
00100000
01000000
00010000
00000000
,
10000000
00100000
01000000
00010000
,
00001000
00000010
00000100
00000000
,
00000001
00000010
00001000
00000000
,
00010000
00100000
10000000
00000000
,
00100000
00000000
00000000
01100000
00000000
00000000
01010000
00000000
,
00001000
00000000
00000000
00010000
00000000
00000000
00022000
00000000
00000000
00000000
00000000
00000000
00033000
00000000
00000000
00000000
;

//---------------dance-double - t7r----------------
#NOTES:
     dance-double:
     t7r:
     Medium:
     10:
     :
00000000
00000000
00000000
00000000
,
00000000
00000000
00000000
00000000
,
00000000
00000000
00000000
00000000
,
00000000
00000000
00000000
00000000
,
00000000
00000000
00000000
00000000
00000000
00000000
00000000
00000002
,
00000000
00000000
00000100
00000000
00000013
00000000
00000000
00002001
,
00000000
00000000
00000100
00000000
00003001
00000000
00000000
00000200
,
00000000
00000000
00000000
00000000
00002300
00000000
00000000
00013000
,
00000000
00001000
00000000
00010000
00000000
01000000
00000000
20000000
,
00000000
30100000
01000000
00000000
,
00010000
00100000
00010000
00000000
10000000
00000000
00000000
00000000
,
00100000
01000000
00010000
00000000
00100000
00000000
00010000
00000000
,
10000000
00000000
01000000
00000000
00010000
00001000
00000000
00000000
,
00000100
00000001
00001000
00000000
,
00000001
00000010
00000100
00000000
,
00001100
00000000
00000000
00010100
00000000
00000000
00010000
00000000
,
00001000
00000000
00000000
00010000
00000000
00000000
00001000
00000000
00010000
00000000
00000000
00000000
00011000
00000000
00000000
00000000
,
00001000
00010000
01000000
00000000
,
10000000
00000000
00100000
00000000
01000000
00010000
01000000
00000000
,
00010000
00100000
01000000
00000000
,
10000000
00000000
00100000
00000000
00010000
00001000
00010000
00000000
,
00001000
00000000
00000100
00000000
00000000
00000010
00000100
00000000
,
00000001
00000000
00000010
00000000
00000000
00000001
00001000
00000000
,
00000001
00000000
00000100
00000000
00000000
00001000
00010000
00000000
,
01000000
00000000
10000000
00000000
00100000
00100000
00000000
00000000
,
00000000
10010000
10000000
01000000
,
00000000
10000000
00100000
00000000
00010000
00000000
00001000
00000000
,
00000000
00010000
00000100
00001000
,
00000000
00000010
00000100
00000000
00000001
00000000
00000010
00000000
,
00000001
00000000
00000100
00000010
00000000
00000000
00001000
00000000
,
00000100
00000000
00010000
00001000
00000000
00000000
00010000
00000000
,
00100000
00000000
00000000
10000000
00000000
00000000
01000000
00000000
,
00010000
00001000
00010000
00000000
00000000
00000000
00000000
00000000
,
00001000
00010000
00011000
00000000
,
00001000
00000010
00000100
00000000
,
00001000
00000000
00000010
00000000
00000002
00000000
00000000
00000013
,
00000100
00000000
00000000
00000000
00000001
00000010
00000001
00000000
,
00000100
00000000
00001000
00010000
00000000
00001000
00000000
00010000
,
00000000
01000000
10000000
00100000
,
00010000
00000000
00001000
00010000
00000000
00001000
00000000
00010000
,
00000000
00001000
00000010
00000001
,
00000000
00000000
00000110
00000000
00000001
00000000
00000000
00000100
,
00000000
00001000
00000000
00010000
00001000
00000000
00000000
00000000
,
00010000
00000000
01000000
00000000
00200000
00000000
00000000
00310000
,
10000000
00000000
00000000
00000000
00100000
01000000
00100000
00000000
,
10000000
01000000
10010000
00000000
,
10000000
00000000
00100000
00000000
10000000
00010000
10000000
00000000
,
01000000
00000000
00010000
00001000
00000000
00010000
00000000
00001000
,
00000000
00000100
00000010
00000100
,
00000001
00000000
00000010
00001000
00000000
00010000
00000000
00001000
,
00000000
00010000
01000000
10000000
,
01100000
00000000
10010000
00000000
,
10000000
00000000
00000000
01000000
00000000
00000000
00100000
00000000
00001000
00000000
00000000
00000000
00010000
00000000
00002000
00000000
,
00000000
00000000
00003100
00000000
00000010
00000000
00000100
00000001
,
00000000
00000000
00000010
00000000
00000100
00000000
00000010
00000001
,
00000000
00000000
00000100
00000000
00000010
00000000
00001000
00000100
,
00000000
00000000
00010000
00000000
00001000
00000000
00010000
01000000
,
00000000
00000000
00100000
00000000
00010000
00000000
10000000
00100000
,
00000000
01000000
00010000
00100000
,
00010000
10000000
01000000
00010000
,
00001000
00000100
00000001
00000000
,
00000000
00000000
00000010
00000002
00000000
00000000
00000103
00000000
,
00000001
00000000
00001000
00000200
00000000
00000000
00010300
00002000
,
00000000
00013000
01000000
10000000
,
00010000
00000000
00100000
00000000
00001000
00000000
00010000
00002000
,
00000000
00000000
00003100
00000000
00000001
00000000
00001000
00000002
,
00000000
00000000
00000013
00000000
00001000
00000000
00010000
00002000
,
00000000
01003000
00010000
02000000
00000000
03001000
00010000
00002000
,
00000000
00013000
00000100
00020000
00000000
00031000
00010000
00000000
,
00000100
00000100
00000010
00000010
,
00000001
00000000
00001000
00000000
00000100
00010000
00001000
00000000
,
00022000
00000000
00000000
00000000
,
00000000
00000000
00000000
00000000
,
00033000
00000000
00000000
00000000
,
02000000
00000000
00000000
03000000
,
02200000
00000000
00000000
03300000
,
20000000
00000000
00000000
30000000
,
00020000
00000000
00000000
00030000
,
00000000
00000000
00000000
00000000
10000000
10000000
00000000
20010000
,
00000000
00000000
31000000
00000000
00100000
00000000
00001000
00020000
,
00000000
00000000
00030010
00000000
00001000
00000000
00000010
00000200
,
00000000
00000000
00000301
00000000
00000010
00000000
00000001
00001000
,
00000000
00000001
00000100
00000000
00000010
00000000
00010000
00000000
,
00000100
00010000
00001000
00000000
00010000
00000000
00001000
01000000
,
00000000
01000000
00010000
00000000
10000000
00000000
00010000
00000000
,
10000000
01000000
00100000
00000000
00001000
00000000
00010000
00001000
,
00000000
00001000
00010000
00000000
00000010
00001000
00000010
00000000
,
00000100
00000000
00000001
00000000
00000010
00000000
00000100
00000010
,
00000000
00000001
00000100
00000010
,
00001000
00000000
00000100
00010000
00001000
00000000
00010000
00000000
,
00001000
00000000
01000000
00010000
01000000
00000000
00100000
00000000
,
10000000
00000000
01000000
00010000
00000000
00001000
00010000
00000000
,
00001000
00000100
00000000
00000010
00000100
00000000
00000001
00000000
,
00000020
00001000
00000130
00000000
,
00000020
00000000
00000001
00000000
00000130
00000000
00000010
00000002
,
00000000
00000000
00000103
00000000
00001000
00000000
00010000
00002000
,
00000000
00000000
00013000
00000000
01000000
00000000
10000000
00200000
,
00000000
00000000
01300000
00000000
00010000
10000000
00000000
01000000
,
00000000
10000000
00020000
00000000
01030000
00000000
00000000
00200000
,
00000000
10300000
01000000
00010000
,
00001000
00010000
00001000
00000000
00010000
00000010
00000000
00000000
,
00000100
00000001
00000100
00000000
00001000
00010000
00001000
00000000
,
00010000
01000000
00010000
00000000
01000000
10000000
00000000
00000000
,
00100000
00000000
01000000
00000000
00010000
00000000
00000000
20000000
,
00000000
00000000
30100000
00000000
00010000
00001000
00000000
00010000
,
00000100
00000000
00001000
01000000
00000000
00010000
00001000
00000000
,
00010000
00000000
00000000
00001000
00000000
00000000
00022000
00000000
00000000
00000000
00000000
00000000
00033000
00000000
00000000
00000000
;

//---------------dance-double - t7r----------------
#NOTES:
     dance-double:
     t7r:
     Hard:
     13:
     :
00000000
00000000
00000000
00000000
,
00000000
00000000
00000000
00000000
,
00000000
00000000
00000000
00000000
,
00000000
00000000
00000000
00000000
,
00000000
00000000
00000000
00000000
00000000
00000000
00000000
20000000
,
00000000
00000000
01000000
00000000
30010000
00000000
10000000
00200000
,
00000000
00000000
01000000
00000000
10300000
00000000
00010000
02000000
,
00000000
00000000
03010000
00000000
00100000
00000000
00001000
00010000
,
00000000
00011000
00000000
00001000
00000000
00000100
00000000
00000001
,
00001000
00000001
00000010
00000000
00000001
00000000
00000100
00000000
,
00001000
00010000
00001000
00000000
00100000
00010000
00000000
00000000
,
10000000
01000000
00100000
00000000
10000000
01000000
00100000
00000000
,
10000000
01000000
00100000
00001000
00010000
00001000
00000000
00000000
,
00000010
00000001
00000100
00000000
00000001
00000000
00000010
00000000
,
00001000
00010000
00001000
00000000
00010000
01000000
00000000
00000000
,
10010000
00000000
10000000
00100000
00000000
00100000
00010000
00000000
,
00001000
00000000
00000000
00010000
00000000
00000000
00001000
00000000
00000100
00000000
00000001
00000000
00001000
00000000
00000000
00000000
,
00000001
00000010
00000100
00002000
00000000
00003010
00001000
00000001
,
00000100
00000001
00000010
00000000
00000100
00010000
00001000
00000000
,
00010000
00001000
01000000
00020000
00000000
00130000
00010000
10000000
,
00100000
01000000
00010000
00000000
00100000
01000000
10000000
00000000
,
01000000
00000000
00010000
00001000
00010000
00000100
00010000
00000000
,
00001000
00000000
01000000
00010000
10000000
00010000
00100000
00000000
,
01000000
00000000
00010000
00001000
00000010
00000100
00001000
00000000
,
00000100
00000000
00010000
00001000
00100000
00010000
10000000
00010000
,
00000000
00000000
01100000
00000000
10000000
00100000
00000000
10000000
,
01000000
00000000
00100000
00000000
00010000
00100000
00001000
00010000
,
00000000
00001000
00000100
00000000
00000010
00000100
00000001
00001000
,
00000000
00000001
00000010
00000000
00000001
00001000
00000001
00000200
,
00001000
00001000
00000010
00000010
,
00000001
00000000
00000301
00000000
00000010
00000100
00010000
00000000
,
00001000
00020000
00000000
01030000
00020000
00000000
00031000
00000100
,
00000010
00000100
00001001
00000000
00000001
00000010
00000001
00001000
,
00000100
00000000
00010000
00000000
00001000
00010000
01000000
10000000
,
00000000
00010000
10000000
00100000
01000000
00000000
00100000
00000000
,
10000000
01000000
00000000
00020000
00000000
00000000
00000000
00031000
,
00001000
00000000
00000000
00000100
00000010
00000100
00000001
00000000
,
00001000
00000000
00000001
00000010
00000000
00001000
00000000
00020000
,
00000000
00000000
00130000
01000000
00010000
10000000
00010000
00000000
,
10000000
00000000
01000000
00010000
00000000
00001000
00000000
00000200
,
00000000
00000310
00000100
00000001
00001000
00000100
00000010
00000001
,
00001000
00000000
00000001
00000000
00000110
00000000
00000001
00000010
,
00000000
00000100
00000000
00000001
00000100
00000000
00001000
00000000
,
00000100
00010000
00000000
00002000
00000000
00000000
00000000
01003000
,
01000000
00000000
00000000
00010000
00100000
01000000
00100000
00000000
,
00020000
00000000
10030000
00100000
00000000
01000000
00000000
10000000
,
00000000
01000000
00010000
00100000
00001000
00000000
00010000
00000000
,
00011000
00000000
00001000
00000100
00000000
00000010
00000000
00000110
,
00000000
00000010
00001000
00000000
00000001
00000010
00000001
00000000
,
00000100
00000000
00001000
00010000
00000000
00001000
00000000
00011000
,
00000000
00001000
00010000
00000000
01000000
10000000
00100000
00000000
,
20000000
31000000
00020000
00031000
,
00000100
00000000
00000000
00000010
00000000
00000000
00000100
00000000
00000001
00000000
00001000
00000000
00000001
00000000
00000020
00000000
,
00000000
00000031
00000100
00000000
00000001
00000010
00000100
00002000
,
00000000
00003100
00010000
00000000
00001000
00010000
00001000
01000000
,
00010000
00100000
10000000
00100000
,
00010000
01000000
00100000
00000000
10000000
01000000
00100000
00020000
,
00000000
00130000
00001000
00000000
00010000
00001000
00000010
00000002
,
00000000
00000103
00000010
00000000
00000100
00000001
00001000
00000200
,
00000000
00010300
00001000
02000000
00000000
03001000
00010000
00000200
,
00000000
00010300
00001000
00000100
00000010
00000100
00000001
00001000
,
00000000
00000000
00000001
00000020
00000000
00000031
00000100
00000002
,
00000000
00001003
00000100
00001000
00000100
00010000
00001000
02000000
,
00000000
03010000
00100000
00000000
00010000
10000000
00010000
00000000
,
10000000
01000000
00100000
00000000
00010000
00001000
00000010
00000200
,
00000000
00000310
00001000
00000000
00000001
00000010
00000001
00000200
,
00000000
00001300
00020000
00000000
01030000
10000000
00010000
00200000
,
00000000
10300000
00100000
00020000
00000000
10030000
00100000
00020000
,
00000000
00031000
00000100
00000002
00000000
00001003
00000100
00000001
,
00000100
00000100
00010000
00010000
,
00011000
00000000
00011000
00000000
00001000
00010000
01000000
10000000
,
00200000
00000000
00000000
00000000
,
00000000
00000000
00000000
00000000
,
00300000
00000000
00000000
00000000
,
20000000
00000000
30000000
00000000
,
20020000
00000000
00000000
30030000
,
00220000
00000000
00000000
00330000
,
00022000
00000000
00000000
00033000
,
00001000
00000000
00000010
00000000
00000100
00000100
00000000
00002001
,
00000000
00003001
00000010
00000000
00000001
00000100
00000001
00002000
,
00000000
00003100
00010000
00000000
00000100
00010000
00001000
02000000
,
00000000
03010000
00100000
00000000
00010000
10000000
00010000
00000000
,
10000000
00100000
01000000
00010000
,
10000000
01000000
10000000
00000000
01000000
00100000
01000000
00020000
,
00000000
00031000
00010000
00000000
00001000
00000100
00001000
00000000
,
00000100
00000001
00001000
00000000
00000010
00000100
00000010
00002000
,
00000000
00013000
00100000
00000000
00010000
00000000
10010000
00000000
,
10000000
00100000
01000000
00100000
10000000
01000000
00100000
00020000
,
00000000
00130000
00001000
00000000
00010000
00001000
00010000
00000000
,
00001000
00000010
00000100
00000010
00000001
00001000
00000001
00000200
,
00000000
00000310
00001000
00000000
00000001
00000010
00000100
00000010
,
00000001
00000100
00000001
00001000
00000100
00001000
00000100
00010000
,
00000100
00010000
00001000
00010000
00001000
01000000
00001000
00010000
,
01000000
00000000
10000000
00100000
01000000
00000000
00100000
10000000
,
00000000
00010000
00100000
00000000
00001000
00010000
00001000
00000020
,
00000000
00000031
00001000
00000000
00000001
00000100
00000010
00002000
,
00000000
00003100
00010000
00000000
00001000
00010000
00100000
20000000
,
00000000
30010000
00100000
00000000
00010000
01000000
00000000
10010000
,
00000000
10000000
00100000
00000000
01000000
00010000
10000000
01000000
,
10000000
00100000
01000000
00000000
00010000
00100000
01000000
00000000
,
00010000
00001000
00000100
00000001
00001000
00000010
00000100
00000000
,
00000001
00000010
00000100
00000000
00000001
00000010
00000100
00000000
,
00000001
00000010
00000100
00010000
00001000
00010000
01000000
00000000
,
00100000
01000000
10000000
00000000
00100000
01000000
00010000
00100000
,
00001000
00010000
00001000
00000010
00000100
00001000
00000001
00000000
,
00000100
00000000
00001000
00010000
00000000
01000000
10000000
00010000
,
10000000
00000000
00000000
00010000
00000000
00000000
00002000
00000000
00000000
00000000
00000001
00000000
00003001
00000000
00000000
00000000
;

//---------------dance-double - t7r----------------
#NOTES:
     dance-double:
     t7r:
     Challenge:
     16:
     :
00000000
00000000
00000000
00000000
,
00000000
00000000
00000000
00000000
,
00000000
00000000
00000000
00000000
,
00000000
00000000
00000000
00000000
,
00000000
00000000
00000000
00000000
00000000
00000000
00000000
00000002
,
00000000
00000000
00000103
00000000
00000001
00000000
00000010
00000001
00000010
00000000
00000001
00000000
00001000
00000000
00000020
00000000
,
00000000
00000000
00001030
00000000
00000100
00000000
00010000
00001000
00010000
00000000
00001000
00000000
01000000
00000000
00020000
00000000
,
00000000
00000000
00000000
00030000
20020000
00000000
30030000
11000000
,
00000000
01100000
00000000
00110000
00000000
10010000
00000000
10000000
,
00100000
01000000
00010000
00100000
01000000
10000000
00100000
01000000
,
00010000
00000000
00100000
00000000
00001000
00000000
00010000
00001000
00010000
00000000
00000100
00000000
00001000
00000000
00000000
00000000
,
00000001
00000100
00000010
00000100
00000001
00000010
00000100
00000010
,
00000001
00000100
00001000
00010000
01000000
10000000
00100000
00000000
,
10000000
00000000
01000000
00000000
10000000
00100000
10000000
00000000
00010000
00000000
01000000
00000000
00010000
00000000
00100000
00000000
,
01000000
00000000
00100000
00000000
00001000
00000000
00010000
00001000
00010000
00000000
00001000
00000000
00000100
00000000
00000000
00000000
,
00000010
00001000
00000100
00010000
00001000
00000010
00000100
00010000
,
00001000
00000000
00000000
00011000
00000000
00000000
00001000
00000000
00010000
00000000
01000000
10000000
00010000
00000000
00000000
00000000
,
10000000
00100000
01000000
10000000
02000000
00000000
03100000
10000000
,
00010000
00100000
01000000
00100000
00010000
01000000
00001000
00010000
,
00001000
00000100
00000010
00000100
00000002
00000000
00000013
00000001
,
00000100
00000001
00000010
00000100
00000010
00000001
00001000
00000100
,
00010000
00001000
00010000
02000000
00000000
13000000
00100000
01000000
,
00100000
10000000
00010000
00100000
01000000
10000000
00100000
01000000
,
00010000
00100000
00001000
00020000
00000000
00031000
00000100
00000010
,
00001000
00000100
00000010
00000001
00001000
00001000
00000010
00000100
,
00000010
00000000
00001001
00000001
00000100
00000001
00000010
00000001
,
00000100
00001000
00000100
00000010
00000100
00000001
00000010
00000100
,
00010000
00000000
00001000
00010000
00100000
01000000
00100000
10000000
,
01000000
00010000
01000000
10000000
01000000
00100000
00001000
00010000
,
00001000
00010000
01000000
10000000
00200000
00000000
01300000
00100000
,
10000000
01000000
10000000
01000000
10000000
00000000
00100000
01000000
00100000
01000000
00100000
00000000
01000000
00000000
00010000
00000000
,
00100000
00001000
00010000
00001000
00000010
00000001
00000100
00000010
,
00000100
00000000
00000010
00001000
00000001
00000000
00000010
00000000
00000001
00000000
00000100
00000000
00001000
00000000
00010000
00000000
,
01000000
00000000
00000000
00000000
11000000
00000000
00000000
00000000
10000000
00100000
10000000
00000000
00010000
00000000
00100000
00000000
,
00000000
01000000
10000000
00100000
01000000
00000000
00100000
00000000
,
10000000
00000000
01000000
00000000
00000000
00000000
00200000
00000000
00000000
00000000
00000000
00000000
00000000
00000000
00301000
00010000
,
00001000
00000000
00000000
00000010
00000100
00001000
00000010
00000100
,
00001000
00000000
00000100
00000001
00000010
00000001
00001000
00000002
,
00000000
00000000
00000103
00000000
00001000
00000000
00000100
00000010
00000100
00000000
00000001
00000000
00000010
00000000
00000200
00000000
,
00000000
00010300
00001000
00010000
01000000
10000000
00000000
10100000
,
00000000
10000000
10000000
01000000
00010000
00001000
00000100
00000001
,
00000010
00000000
00000000
00000000
00000100
00000000
00000000
00000000
00001100
00000000
00001000
00000000
00000010
00000000
00000100
00000001
,
00000100
00000001
00000100
00000000
00000001
00000000
00000010
00000001
00001000
00000000
00000001
00000000
00000100
00000010
00000100
00000000
,
00000001
00000000
00000010
00000000
00000000
00000000
00002000
00000000
00000000
00000000
00000000
00000000
00000000
00000000
00013000
00001000
,
00010000
00000000
00000000
01000000
00100000
00010000
01000000
00100000
,
00020000
00000000
00000000
00000000
00130000
00000000
00000000
00000000
10000000
00000000
00000000
01000000
00000000
00000000
11000000
00000000
,
00000000
10000000
00000000
00000000
00100000
00000000
01000000
00010000
10000000
00000000
00100000
00000000
01000000
00000000
00000000
00000000
,
10100000
00000000
10000000
00000000
00010000
00000000
10000000
00000000
01000000
00100000
00010000
00000000
10000000
00000000
00200000
00000000
,
00000000
00000000
00310000
00000000
00100000
00000000
01000000
00000000
00010000
00000000
00100000
00010000
00100000
00000000
00000000
00000000
,
00001000
00000000
00010000
00000000
00001000
00000000
00000010
00000000
00000000
00000000
00000001
00000000
00000100
00000010
00002000
00000000
,
00000000
00000000
00003001
00000000
00000010
00000000
00000001
00000100
00000010
00000000
00000100
00000000
00000001
00000000
00000010
00000000
,
00000200
00000000
00000000
00010300
00002000
00000000
00000000
00013000
,
01000000
00000000
00000000
11000000
00000000
00000000
10000000
00000000
00100000
10000000
00100000
00000000
01000000
00010000
10000000
01000000
,
00000000
10000000
00010000
00000000
10000000
00000000
00100000
10000000
00100000
00000000
10000000
00000000
00010000
00000000
00100000
00000000
,
01000000
00000000
10000000
00100000
10000000
00100000
01000000
00000000
00100000
00000000
10000000
00000000
01000000
00000000
00010000
00000000
,
00001000
00000000
00000000
00000100
00000010
00000000
00000100
00000000
00000001
00000000
00000010
00000000
00000100
00000000
00001000
00000000
,
00000001
00000000
00000010
00000001
00000010
00000000
00000001
00000000
00000100
00000000
00000010
00001000
00000010
00000000
00001000
00000000
,
00000001
00000100
00000010
00000100
00000001
00000100
00001000
00010000
,
00100000
01000000
00010000
00100000
01000000
10000000
01000000
00010000
,
01000000
00000000
00100000
00010000
00000000
10000000
00010000
00000000
10000000
00100000
00000000
01000000
00010000
00000000
10000000
00000000
,
00010000
10000000
01000000
00010000
00001000
00000010
00000100
00000020
,
00000000
00000031
00000100
00000002
00000000
00001003
00000010
00002000
,
00000000
00003001
00000010
00000001
00000100
00000010
00001000
00000200
,
00000000
00000000
00010300
00001000
00010000
00000000
00001000
00000000
00010000
00000000
01000000
00000000
10000000
00000000
00100000
00000000
,
10000000
01000000
10000000
01000000
00100000
00000000
00010000
00000000
01000000
00000000
00010000
00100000
00010000
00000000
02000000
00000000
,
00000000
00000000
03010000
00000000
00100000
00000000
01000000
10000000
01000000
00000000
10000000
00100000
10000000
00000000
00200000
00000000
,
00000000
00000000
00000000
00000000
00320000
00000000
00000000
00000000
00031000
00010000
00001000
00000000
00000010
00000000
00000200
00000000
,
00000000
00000000
00001300
00000000
00000010
00000000
00000200
00000000
00000000
00000000
00000301
00000000
00000010
00000001
00002000
00000000
,
00000000
00000000
00003001
00000000
00000100
00000000
00002000
00000000
00000000
00000000
00013000
00000000
01000000
10000000
00010000
00000000
,
10000000
00000000
00100000
01000000
00010000
00000000
00100000
01000000
10000000
00000000
00100000
01000000
00100000
00000000
10000000
00000000
,
00010000
00000000
00011000
00000000
00010000
01000000
01100000
00000000
,
20020000
00000000
00000000
00000000
,
00000000
00000000
00000000
00000000
,
30030000
00000000
00000000
00000000
,
00200000
00000000
00300000
00000000
,
20020000
00000000
00000000
30030000
,
00022000
00000000
00000000
00033000
,
00002002
00000000
00000000
00000000
,
00003003
00000000
00000000
00000000
00001000
00001000
00000000
00000002
,
00000000
00000103
00000010
00000000
00001000
00000100
00000010
00000002
,
00000000
00000103
00000010
00000100
00001000
00000100
00000001
00002000
,
00000000
00003100
00010000
00001000
00010000
01000000
10000000
00020000
,
00000000
10030000
00100000
01000000
00100000
10000000
00010000
00000000
,
10000000
01000000
00100000
10000000
00010000
01000000
00010000
00001000
,
00000000
00000000
00010000
00000000
00001000
00000000
01000000
00000000
00001000
00010000
00001000
00000000
00000100
00000000
00000010
00000000
,
00000100
00000001
00000010
00000100
00000001
00000100
00000010
00000001
,
00000100
00000000
00001000
00010000
00001000
00000000
01000000
00000000
00010000
00000000
00100000
00000000
00120000
00000000
00000000
00000000
,
10030000
00100000
01000000
10000000
00010000
00100000
01000000
00010000
,
00100000
00001000
00010000
00001000
00000010
00000100
00001000
00000010
,
00000100
00000000
00000001
00000000
00001000
00000000
00000100
00000010
00000001
00000000
00000100
00000000
00000010
00000000
00001000
00000000
,
00000001
00000010
00000100
00000010
00000001
00000100
00000101
00000001
,
00001000
00000100
00000010
00001000
00000010
00000001
00001000
00000010
,
00001000
00000000
00000100
00000000
00010000
00000000
00001000
00000000
00010000
00001000
00010000
00000000
01000000
00000000
10000000
00000000
,
00100000
01000000
00010000
00100000
01000000
10000000
00100000
01000000
,
00000000
00000000
00100000
10000000
00010000
00000000
00000000
00000000
10000000
00000000
01000000
00000000
00010000
00000000
00012000
00000000
,
00000000
00013000
00000100
00000000
00001000
00000001
00000010
00000200
,
00000000
00000310
00000001
00000100
00000010
00001000
00000001
00000020
,
00000000
00001030
00010000
00000000
00100000
01000000
00010000
10010000
,
00000000
10000000
12000000
00000000
03100000
00000000
00010000
10000000
,
00100000
01000000
10000000
00010000
00100000
01000000
00010000
00100000
,
00001000
00000000
00010000
00000000
00001000
00000000
00000100
00000010
00001000
00000000
00000001
00000000
00000010
00000000
00000000
00000000
,
00000001
00000000
00000100
00000000
00000010
00000000
00001000
00000100
00001000
00000000
00000001
00000100
00000001
00000000
00001000
00000001
,
00001000
00000001
00000100
00000010
00001000
00000100
00010000
00001000
,
00010000
00100000
01000000
00010000
00100000
01000000
10000000
01000000
,
00100000
00000000
01000000
00000000
00010000
00000000
00001000
00010000
00001000
00000000
00000100
00000000
00000001
00000000
00001000
00000000
,
00000010
00001000
00000100
00010000
00001000
00000010
00000100
00010000
,
00001000
00000000
00000000
00011000
00000000
00000000
00001000
00000000
00010000
00000000
01000000
00000000
11000000
00000000
00000000
00000000
;
