#TITLE:SESSION With You!;
#ARTIST:PartyCrew(from GD&pm);
#ARTISTTRANSLIT:PartyCrew(from GD&pm);
#BANNER:SESSION With You!.png;
#BACKGROUND:SESSION With You!-bg.png;
#JACKET:SESSION With You!-jacket.png;
#CDTITLE:./CDTITLES/POP'N MUSIC.PNG;
#MUSIC:SESSION With You!.ogg;
#SAMPLESTART:73.333;
#SAMPLELENGTH:15;
#BPMS:0=180;

//---------------dance-single - t7r----------------
#NOTES:
     dance-single:
     t7r:
     Beginner:
     4:
     :
0000
0000
0000
0000
,
0000
0000
0000
0000
,
0000
0000
0000
0000
,
0000
0000
0000
0000
,
0000
0000
0000
0000
,
0000
0000
0000
0000
,
0000
0000
0000
0000
,
0000
0000
0000
0000
,
0000
0000
0000
0000
,
0001
0000
0001
0000
,
0001
0000
0000
0000
,
1000
0000
0000
0000
,
0010
0000
0000
0000
,
0100
0000
0000
0000
,
0001
0000
0000
0000
,
0010
0000
0000
0000
,
0100
0000
0000
0000
,
1000
0000
0000
0000
,
0001
0000
0000
0000
,
0100
0000
0000
0000
,
0100
0000
0000
0000
,
0010
0000
0000
0000
,
0010
0000
0000
0000
,
1000
0000
0000
0000
,
0001
0000
0000
0000
,
0010
0000
0000
0000
,
0001
0000
0000
0000
,
1000
0000
1000
0000
,
1000
0000
0000
0000
,
0010
0000
0010
0000
,
0010
0000
0000
0000
,
0100
0000
0000
0000
,
0001
0000
0000
0000
,
0010
0000
0010
0000
,
0010
0000
0000
0000
,
1000
0000
0000
0000
,
0100
0000
0000
0000
,
0010
0000
0000
0000
,
1000
0000
0000
0000
,
0001
0000
0000
0000
,
0100
0000
0000
0000
,
0010
0000
0000
0000
,
0001
0000
0000
0000
,
1000
0000
1000
0000
,
1000
0000
0000
0000
,
0001
0000
0000
0000
,
0001
0000
0000
0000
,
0010
0000
0010
0000
,
0010
0000
0000
0000
,
0100
0000
0100
0000
,
0100
0000
0000
0000
,
0010
0000
0000
0000
,
0000
0000
0000
0001
,
0001
0000
0000
0000
,
0000
0000
0000
0000
,
0000
1000
0000
1000
,
1000
0000
1000
0000
,
0000
0010
0000
0010
,
0010
0000
0010
0000
,
0000
0100
0000
0100
,
0100
0000
0100
0000
,
0000
0001
0000
0001
,
0001
0000
0001
0000
,
0010
0000
0000
0000
,
0000
0000
0000
0000
,
1000
0000
0000
0000
,
0000
0000
0000
0000
,
0100
0000
0100
0000
,
0100
0000
0000
0000
,
0010
0000
0010
0000
,
0010
0000
0000
0000
,
1000
0000
0000
0000
,
0001
0000
0000
0000
,
0010
0000
0010
0000
,
0010
0000
0000
0000
,
0001
0000
0000
0000
,
1000
0000
0000
0000
,
0010
0000
0000
0000
,
0100
0000
0000
0000
,
0001
0000
0000
0000
0000
0000
0000
1000
,
0000
0000
0000
1000
0000
0000
0000
0000
,
0001
0000
0001
0000
,
0100
0000
0100
0000
,
0010
0000
0010
0000
,
1000
0000
0001
0000
,
1001
0000
0000
0000
;

//---------------dance-single - Super_Ray----------------
#NOTES:
     dance-single:
     Super_Ray:
     Easy:
     7:
     :
0000
0000
0000
0000
,
0000
0000
0000
0000
,
0000
0000
0000
0000
,
0000
0000
0000
0000
,
0000
0000
0000
0000
,
0000
0000
0000
0000
,
0000
0000
0000
0000
,
0000
0000
0000
0000
,
0000
0000
0000
0000
,
1000
0100
1000
0100
,
0010
0001
0010
0001
,
0100
0000
0010
0000
1000
0000
0010
0100
,
0000
0001
0000
0200
0000
0000
0000
0000
,
0310
0010
0100
0100
,
0001
0001
1000
1000
,
0100
0000
0010
0000
0001
0000
1000
0200
,
0000
0000
0310
0002
0000
0000
1003
0200
,
0000
0000
0310
0200
0000
0000
0310
2002
,
0000
0000
0000
3003
,
1000
1000
1000
0000
,
0001
0001
0001
0000
,
0001
0010
1000
0000
,
0100
0001
1000
0000
,
0001
0000
1000
0100
0000
0000
0010
0000
,
0100
0000
1000
0001
0000
0000
0000
0000
,
1000
0000
0001
0000
0010
0100
0010
0000
,
0001
0000
1000
0100
0000
0000
0000
0000
,
0001
1000
1000
0000
0000
0000
0001
0000
,
0100
0010
0010
0000
0000
0000
1000
0000
,
0001
0010
0010
0000
0000
0000
1000
0000
,
0100
0010
0010
0000
0000
0000
0010
0000
,
0001
1000
0100
0010
,
0001
0000
1000
0100
0000
0000
0000
0010
,
0001
0000
0010
0000
0100
0000
1000
0001
,
0000
1000
0000
0010
0100
0000
0000
0000
,
0002
0000
0023
0000
,
2030
0000
3200
0000
,
0301
1000
0100
0001
,
0100
0000
0001
0000
,
2000
0000
3020
0000
,
0032
0000
0203
0000
,
1300
0000
0001
1000
0000
0100
0000
1000
,
0000
0000
0000
0001
1000
0000
0000
0000
,
0002
0000
2003
0000
,
3200
0000
0302
0000
,
0103
0000
1000
0100
0000
1000
0000
0001
,
0000
0000
0000
0000
0000
0000
0010
1000
,
0010
0000
0100
0000
0001
0000
1000
0100
,
0010
0000
0001
0000
1000
0000
0001
0010
,
0100
1000
0001
0010
,
0101
0110
1001
1010
,
2002
0000
0000
0000
,
0000
3003
0000
0110
,
2002
0000
0000
3003
,
0000
0100
0100
0000
0010
0010
0000
0000
,
1000
0100
0001
0100
,
1000
1000
1000
0000
0001
0001
0001
0000
,
0010
0100
0010
1000
,
0100
0100
0100
0000
0010
0010
0010
0000
,
0001
0100
0010
1000
,
0001
0010
0010
0000
0100
1000
1000
0000
,
0001
1000
0010
0100
,
0001
0010
0100
0000
0001
0000
1000
0000
,
0001
0010
0100
1000
0001
0000
2000
0000
,
0000
0000
3000
0000
,
0010
1000
0010
0100
0001
0000
2000
0000
,
0000
3000
0000
0000
,
0010
0100
0010
0100
,
0001
1000
0010
0100
,
0001
0010
0100
1000
,
0001
1000
0010
1000
,
1001
0000
0000
1010
0000
0000
2002
0000
,
0000
3003
0000
0000
,
1000
0000
0001
0000
0010
0001
0010
0000
,
0001
0000
1000
0000
0100
1000
0100
0000
,
1000
0000
0001
0000
0100
0000
0010
1000
,
0000
0001
0000
0220
0000
0000
0330
0000
,
0001
1000
1000
0000
0001
0010
0010
0000
,
0001
0100
0010
1000
,
0001
0000
0010
0000
0100
0000
1000
0020
,
0000
0000
0130
0020
0000
0000
0030
0000
,
0100
0000
0010
0000
1000
0000
0001
1000
,
0000
0100
0010
0000
0000
0000
0100
0000
,
1000
0000
0001
1000
0000
1000
0100
0010
,
0000
1000
0100
0010
0000
0100
0010
0000
,
0220
0000
0330
0000
;

//---------------dance-single - t7r----------------
#NOTES:
     dance-single:
     t7r:
     Medium:
     10:
     :
0000
0000
0000
0000
,
0000
0000
0000
0000
,
0000
0000
0000
0000
,
0000
0000
0000
0000
,
0000
0000
0000
0000
,
0000
0000
0000
0000
,
0000
0000
0000
0000
,
0000
0000
0000
0000
,
0000
0000
0000
0000
,
0001
0000
1100
0000
0001
0010
0001
0000
,
2000
0000
0100
3001
,
1000
0000
0010
0000
0100
0000
0001
0010
,
0000
0100
0000
0120
0000
0000
0031
0000
,
1000
0000
0010
0200
0000
0000
0000
0000
,
0301
0000
0010
0200
0000
0000
0000
0000
,
1300
0000
0100
0002
0000
0000
0000
0103
,
0000
0010
0001
0200
0000
0310
1000
0200
,
0000
0310
0001
2000
0000
3001
1000
0002
,
0000
0000
0000
1003
,
0010
0010
0000
1000
,
0100
0010
0001
0000
,
0100
0000
0000
0010
0000
0010
0000
0010
,
0000
0000
1000
0001
,
0010
0000
0100
1000
0000
0000
0100
0000
,
0001
0000
0100
0010
0000
0000
0000
0000
,
0001
0000
1000
0010
0000
0001
0010
0000
,
0100
0000
0010
0200
0000
0000
0300
0000
,
0001
0000
0100
0000
0000
0010
1000
0000
,
0001
0000
0010
0000
0000
0100
1000
0000
,
0100
0000
0001
0100
0000
1000
0000
0010
,
0000
0000
0000
0100
0001
0000
1000
0000
,
0001
0000
1001
0000
1000
0100
1000
0000
,
0001
0000
1000
0020
0000
0000
0031
0000
,
0010
1000
0010
1000
0010
0000
0000
0110
,
0000
1000
0000
0001
1000
0002
0000
0000
,
2003
0100
3001
0000
,
0002
0100
1003
0000
,
2000
0010
0100
3100
,
0001
0100
0110
0000
,
1010
0000
0000
0100
0010
0000
0000
0000
,
0011
0000
0000
0100
0010
0000
0000
0000
,
1001
0000
0001
0100
0000
0110
0000
0102
,
0000
0000
0000
1003
0001
0100
0001
0000
,
1000
0010
2000
0000
,
3001
0010
0002
0000
,
1003
0000
0100
0001
0000
1100
0000
0120
,
0000
0130
1000
0000
0001
0000
1000
0010
,
2000
0000
0001
0000
3001
0000
0001
0010
,
0002
0000
1000
0000
1003
0000
0010
0100
,
0002
0100
1000
0013
,
2000
0100
0001
3010
,
0100
0000
0010
0100
0100
0000
0001
0100
,
0000
0100
0001
0000
0100
0010
0000
0010
,
1000
0000
0100
1000
1000
0000
0100
0010
,
0000
0001
1000
0000
0010
0010
0000
0000
,
1000
0100
1000
1100
,
0001
0100
0001
0000
1000
0000
1100
0000
,
0001
0010
1000
0010
,
0001
0100
0001
0000
0020
0000
0030
0000
,
0001
0100
0001
0101
,
1000
0100
1000
0000
0001
0000
0101
0000
,
1000
0010
0001
0010
,
1000
0100
1000
0000
0020
0000
0030
0000
,
1000
0000
0100
0001
0000
0000
0210
0000
,
0000
0000
1300
0000
0001
1000
0001
0000
,
0100
0000
0010
1000
0000
0000
0210
0000
,
0000
0000
0301
0000
1000
0001
1000
0000
,
0100
0001
0100
1000
,
0100
0010
0100
0000
0020
0000
0031
0000
,
0100
1000
0100
0001
,
0100
0010
0100
0000
0010
0000
1000
0001
,
1000
0000
0000
0101
0000
0000
1100
0000
,
0001
0010
0001
0000
1000
0000
1001
0000
,
0001
0000
0100
0000
0001
0010
0100
0000
,
2000
0010
0001
3100
,
1000
0000
0100
0000
0010
0001
0000
0100
,
0000
1100
0000
0200
0000
0301
0010
0000
,
0001
1000
0020
0130
,
0001
1000
0200
0310
,
0001
0000
0010
0200
0000
1300
0001
0020
,
0000
0031
1000
0020
0000
1030
0001
0000
,
0101
0000
0001
0000
2000
0000
3001
0010
,
0000
0010
0001
0000
1000
0100
1000
0000
,
0001
0000
0100
1000
0000
0100
0001
0200
,
0000
0310
1000
0002
0000
0013
0001
0000
,
2002
0000
3003
0000
;

//---------------dance-single - Super_Ray----------------
#NOTES:
     dance-single:
     Super_Ray:
     Hard:
     13:
     :
0000
0000
0000
0000
,
0000
0000
0000
0000
,
0000
0000
0000
0000
,
0000
0000
0000
0000
,
0000
0000
0000
0000
,
0000
0000
0000
0000
,
0000
0000
0000
0000
,
0000
0000
0000
0000
,
0000
0000
0000
0000
,
0000
0000
0001
0000
1000
0100
0010
0001
,
0100
1000
0100
0001
1000
0001
0010
0100
,
2000
0000
0000
3002
0000
0003
0000
1100
,
0000
0110
0000
0101
0000
0000
0000
0000
,
1000
0100
0001
0100
1000
0001
0010
1000
,
0020
0000
0000
0002
0000
0000
0033
0000
,
2000
0000
0000
3020
0000
0030
0000
2000
,
0000
3010
0100
0002
0000
0103
0010
2000
,
0000
3100
0010
0002
0000
0103
0010
2002
,
0000
0000
3003
0000
,
0010
1000
0100
0000
0010
0000
0001
0100
,
0010
0000
1000
0000
0100
0010
0100
0000
,
1000
0000
0001
0100
0000
0010
0000
1000
,
0000
0000
0010
1000
,
0010
0000
1000
0100
0010
0001
1000
0010
,
0100
0000
0001
0100
0000
0000
0000
0010
,
1000
0001
0100
1000
0100
0001
0000
1000
,
0010
0000
0100
0010
0000
0000
0000
0000
,
0010
0100
0001
0000
0100
0000
0010
1000
,
0100
0000
0010
0000
0001
1000
0100
0000
,
0010
0000
0001
1000
0000
0010
0000
0100
,
0000
0000
0000
0000
1000
0100
0001
0100
,
1000
0000
0001
0100
0010
1000
0010
0100
,
0001
0000
1000
0100
0000
0000
0000
0010
,
0001
0100
1000
0100
0001
1000
0100
0010
,
0000
0100
0000
1000
0001
0000
0000
0000
,
2000
0000
3200
0000
,
0302
0000
0023
0000
,
1030
0001
0100
1000
,
0100
0000
0010
0000
,
0002
0000
0023
0000
,
2030
0000
3002
0000
,
1003
0000
0010
0100
0000
0001
0000
1000
,
0000
0000
0000
1001
1001
0000
0000
0000
,
0002
0000
0203
0000
,
2300
0000
3002
0000
,
1003
0000
0010
0100
0000
0001
0000
1000
,
0000
0000
0000
0000
0000
0000
1000
0100
,
0001
0000
0001
0100
1000
0000
0001
0010
,
1000
0000
1000
0010
0001
0000
0001
0010
,
0100
0010
0001
1000
,
0100
0010
0001
1000
,
0100
0001
0100
0000
1000
0100
1000
0000
,
0010
0001
0010
0000
1000
0010
1000
0000
,
0010
0001
0010
0000
1000
0010
1000
0000
,
0000
1000
1000
0000
0001
0001
0000
0000
,
1000
0100
0001
0100
1000
0010
0001
0010
,
1000
0010
0100
0010
1000
0100
0010
0000
,
0001
0100
1000
0100
0001
1000
0100
0010
,
0001
0100
1000
0100
0001
1000
0100
0100
,
0100
1000
0001
1000
0100
1000
0001
0100
,
1000
0100
0001
0100
0010
0100
0001
0000
,
1000
0010
0001
0010
1000
0010
0100
0001
,
0010
0100
1000
0100
0001
0100
1000
0000
,
0001
1000
0100
0010
0001
0100
0020
0000
,
0000
0130
0100
0100
,
0010
0100
0001
0010
0100
1000
0020
0000
,
0000
0030
0000
0000
,
1000
0100
0001
0100
1000
0000
0001
0100
,
1000
0100
0001
0000
1000
0010
0001
0010
,
1000
0000
0001
0000
1000
0100
0010
0001
,
0100
1000
0100
0001
1000
0010
0100
0001
,
1010
0000
0000
0101
0000
0000
2020
0000
,
0000
3030
0000
0000
,
1000
0000
0001
0000
1000
0100
0010
0100
,
1000
0001
0100
1000
0100
0001
1000
0010
,
0200
0000
0000
0020
0000
0330
0000
1100
,
0000
0101
0000
1100
0000
0000
0000
0000
,
0001
0100
1000
0100
0001
1000
0100
0001
,
0200
0000
0000
2000
0000
0000
3300
0000
,
0020
0000
0000
0002
0000
0030
0003
2000
,
0000
3100
0010
0002
0000
0013
0100
0000
,
1001
0000
0010
1000
0100
0010
0001
0100
,
0000
0000
0000
0010
0000
0000
1000
0000
0000
0000
0000
0000
0001
0000
0010
0000
0001
0000
1000
0000
0100
0000
0010
0000
,
0001
1000
0100
0010
0000
0100
0010
1000
,
0000
0100
0001
0010
0000
0100
0010
0000
,
2002
0000
3003
0000
;

//---------------dance-single - t7r----------------
#NOTES:
     dance-single:
     t7r:
     Challenge:
     15:
     :
0000
0000
0000
0000
,
0000
0000
0000
0000
,
0000
0000
0000
0000
,
0000
0000
0000
0000
,
0000
0000
0000
0000
,
0000
0000
0000
0000
,
0000
0000
0000
0000
,
0000
0000
0000
0000
,
0000
0000
0000
0000
,
0010
0000
0000
0000
1100
0000
0000
1000
0010
0000
0010
0000
0100
0000
0001
0000
,
0100
0100
0010
1000
0100
0001
0100
1000
,
0020
0000
1030
0001
0200
0000
0301
0010
,
0000
0000
0011
0000
0001
0000
1000
0001
0100
0000
0001
1000
0010
0000
1000
0000
,
0001
0100
1000
0001
0010
0010
0100
0001
,
1000
0100
0001
1000
0010
0010
0100
1000
,
0001
0100
0010
0001
0001
0010
1000
2001
,
0000
0000
3100
0000
0010
0000
0012
0000
0000
0000
0103
0010
0100
0000
0210
0000
,
0000
0000
0301
1000
0001
0000
1001
0000
1000
0010
0100
0010
1000
0000
2010
0000
,
0000
0000
0000
0000
0000
0000
0000
0000
0000
0000
3001
0010
0100
0000
0000
0000
,
0010
0000
0010
0000
0001
0100
0010
0100
,
1000
0000
1000
0000
0100
0010
0100
0001
,
0010
0000
1000
0010
0000
0001
0000
1000
,
0000
0010
0100
0000
0001
0000
0001
0000
,
1000
0000
1000
0000
0010
0000
0100
0010
0100
0000
0100
0000
0001
0000
0000
0000
,
0011
0000
1000
0200
0000
1300
0001
0000
,
0100
0000
1000
0000
0100
0001
0100
0000
0010
0000
0100
0010
1000
0000
0001
0000
,
0012
0000
0000
0000
0000
0000
0000
0000
1003
0001
1000
0001
1000
0000
0001
0000
,
1000
0000
0100
0000
0010
0000
0000
0001
0100
0000
0100
0000
0010
0000
0000
0000
,
1000
0000
0010
0000
0100
0000
0000
0001
0010
0000
0010
0000
0100
0000
0010
0000
,
0001
0100
1000
0001
0010
0010
0100
0001
,
1000
0000
0100
0000
0001
0000
0100
0010
0100
0000
0010
0000
0001
0000
1000
0000
,
0001
0000
0000
0000
0101
0000
0000
0100
1000
0000
1000
0000
0001
0000
0010
0000
,
0110
0000
0000
0000
1000
0000
2100
0000
0000
0000
3001
1000
0001
1000
0001
0000
,
0100
1000
0100
0001
0100
0100
0010
0010
,
0000
0000
1000
0010
0100
0000
0001
1000
0001
0000
1001
0000
0000
0000
0000
0000
,
2100
0001
0010
0010
,
3001
0010
0100
0000
0020
0000
0031
1000
,
0200
0000
0302
0000
0203
0000
1300
0010
,
0001
0010
0100
0001
1000
0100
0010
0010
,
0001
0000
0000
0100
0000
0000
0100
1000
0100
0000
0010
0100
0000
0000
0000
0000
,
0001
0000
0000
0010
0000
0000
0010
1000
0010
0000
0000
0000
0010
0000
0001
0000
,
1000
0000
0001
0101
0000
1100
0000
0102
,
0000
0000
0000
0000
0000
0000
1003
0000
0000
0010
0000
0000
1000
0000
0000
0000
0000
0000
0001
0000
0000
0000
0000
0000
1000
0000
0000
0000
0100
0000
0000
0000
0010
0000
0000
0000
0001
0000
0000
0000
1000
0000
0000
0000
0001
0000
0000
0000
,
0100
0000
0000
0001
0100
0000
1000
0000
1000
0000
0001
0000
0010
0000
0000
0000
,
0100
0000
0000
0001
0010
0000
1000
0000
1000
0000
0001
0000
0100
0000
0000
0000
,
0110
0000
0010
0011
0000
1010
0000
1002
,
0000
0103
0100
0100
0010
0100
1001
0000
,
1000
0000
0100
0000
0001
0000
0100
0000
0010
0000
0001
0100
0001
0000
1000
0000
,
0001
0000
0100
0000
1000
0000
0100
0000
0010
0000
1000
0001
1000
0000
0001
0000
,
0010
0000
0000
0010
0001
0000
0000
0001
0100
0000
0000
0100
0010
0000
1000
0000
,
0001
0100
0000
0000
1000
0100
0000
0000
0001
0100
0000
0000
1001
0000
0000
0000
,
1000
0000
0100
0000
0010
0000
0100
0000
0100
0000
0100
0000
0001
0000
0100
0010
,
0100
0100
0010
0100
0100
1100
0000
0101
,
0001
0100
0010
0100
0100
0100
1000
1100
,
0000
0100
0101
0000
1001
1002
0000
0000
,
1003
0100
0010
0100
0001
0100
0010
0100
,
0001
0000
0100
0000
1000
0000
0001
0000
0010
0000
1000
0000
0010
0000
0001
1000
,
0001
0100
0010
0100
1000
0100
0001
0100
,
0010
0000
0110
0000
0000
0000
0101
0000
0000
0000
1000
0100
1000
0000
0001
0000
,
1000
0000
0100
0000
1000
0010
0000
0000
1000
0000
0100
0000
1000
0010
0000
0000
,
0100
0000
0001
0000
0010
0000
1000
0000
0001
0000
0100
0000
0010
0001
0000
0000
,
0100
0000
0001
0000
0010
0100
0000
0000
0010
0000
0001
0000
1000
0010
0000
0000
,
0100
0000
0010
0100
0010
0000
1000
0001
1000
0000
0001
1000
0001
1000
0001
0000
,
0101
0000
1000
1100
0000
0001
0102
0000
,
0000
0000
1003
0000
1000
0000
0010
0000
0010
0000
0100
0001
0100
0001
0100
0000
,
0110
0000
0000
0010
1000
0000
1001
0000
0000
0000
0001
0000
0021
0000
0000
0000
,
0000
0000
0031
0000
0001
0000
0001
0000
1000
0000
1000
0000
0001
0010
0001
0000
,
1000
0000
0100
0000
0010
0100
0010
0000
0100
0000
0001
0000
0100
0010
0100
0000
,
1000
0010
0001
0000
0220
0000
0330
0000
,
0001
0000
1000
0100
0000
0000
1000
0000
0001
0000
0010
0001
0000
0000
0100
0000
,
0010
0000
1000
0010
1000
0000
0010
0001
0010
0000
0100
0000
0010
0000
1000
0000
,
1001
0000
0100
0000
0010
0000
1001
0000
0010
0100
0010
0000
0210
0000
0000
0000
,
0301
0010
0001
0000
1000
0010
1000
0000
0001
0100
0001
0000
1001
0000
0000
0000
,
1000
0000
0000
0000
1100
0000
0000
0100
0001
0000
1000
0000
0010
0000
0100
0000
,
1000
0001
0100
1000
0001
0010
0010
0010
,
0200
0000
0000
0000
0000
0000
0302
0000
0000
0000
1003
0001
1000
0000
1001
0000
,
0000
0000
1100
0000
0000
0000
1002
0000
0000
0000
0103
0010
1000
0001
1000
0000
,
0001
0010
1000
0001
0001
0001
0100
1000
,
0001
0100
1000
0001
0001
0001
0010
0100
,
0010
0000
1000
0010
1000
0000
0001
0010
0001
0000
1000
0000
1000
0000
1002
0000
,
0000
0000
0103
0010
0100
0010
0200
0000
0000
0000
0301
0000
0010
0000
0100
0000
,
1000
0000
0100
0001
0100
1000
0100
0020
,
0000
0000
0000
0031
0000
0000
1000
0000
0000
0000
0000
0000
0001
0000
0100
0000
1000
0000
0100
0000
0001
0000
1000
0000
,
0001
0010
0001
0000
1000
0000
0020
0000
0000
0000
1030
0000
0000
0000
1002
0000
,
0000
0000
0103
0000
0010
0000
1000
0000
0001
0010
0001
0010
0001
0000
0000
0000
,
0220
0000
0330
0000
;
