#TITLE:Retrograde;
#ARTIST:Aleyna Tilki;
#BANNER:Retrograde.png;
#BACKGROUND:Retrograde-bg.png;
#JACKET:Retrograde-jacket.png;
#CDTITLE:./CDTITLES/NONE.PNG;
#MUSIC:Retrograde.ogg;
#SAMPLESTART:60.923;
#SAMPLELENGTH:15;
#BPMS:0=130;

//---------------dance-single - t7r----------------
#NOTES:
     dance-single:
     t7r:
     Beginner:
     1:
     :
0000
0000
0000
0000
,
0000
0000
0000
0000
,
0000
0000
0000
0000
,
0000
0000
0000
0000
,
0000
0000
0000
0000
,
0001
0000
0000
0000
,
0000
0100
0000
0000
,
0010
0000
0000
0000
,
0000
1000
0000
0000
,
0100
0000
0100
0000
,
0100
0000
0000
0000
,
0010
0000
0010
0000
,
0010
0000
0000
0000
,
1000
0000
1000
0000
,
1000
0000
0000
0000
,
0001
0000
0001
0000
,
0001
0000
0000
0000
,
0000
0100
0000
0000
,
0000
0100
0000
0000
,
0000
0010
0000
0000
,
0000
0010
0010
0000
,
1000
0000
0000
0000
,
0001
0000
0000
0000
,
0010
0000
0000
0000
,
0000
0000
0000
0001
,
0001
0000
0000
0000
,
0000
0100
0000
0000
,
0010
0000
0000
0000
,
0000
1000
0000
0000
,
0100
0000
0000
0000
,
0000
0010
0000
0000
,
0001
0000
1000
0000
,
0001
0000
0000
0000
,
1000
0000
1000
0000
,
0001
0000
0001
0000
,
0100
0000
0100
0000
,
0010
0000
0010
0000
,
1000
0000
1000
0000
,
0100
0000
0100
0000
,
0010
0000
0010
0000
,
0001
0000
0000
0000
,
1000
0000
1000
0000
,
1000
1000
1000
0000
,
0001
0000
0001
0000
,
0001
0001
0001
0000
,
0100
0000
0100
0000
,
0100
0100
0100
0000
,
0010
0000
0010
0000
,
0000
0010
0000
0010
,
0010
0000
0000
0000
,
0000
0000
0000
0000
,
1000
0000
0000
0000
,
0001
0000
1000
0000
;

//---------------dance-single - t7r----------------
#NOTES:
     dance-single:
     t7r:
     Easy:
     4:
     :
0000
0000
0000
0000
,
0000
0000
0000
0000
,
0000
0000
0000
0000
,
0000
0000
0000
0000
,
0000
0000
0000
0000
,
0020
0000
0000
0000
,
0000
0230
0000
0000
,
0302
0000
0000
0000
,
1003
0020
0000
0000
,
1030
0000
0100
0000
,
0010
0000
0001
0000
,
0100
0000
0000
0000
,
0100
0000
0000
0000
,
0001
0000
0010
0000
,
0100
0000
1000
0000
,
0010
0000
0000
0000
,
0010
0000
0000
0000
,
1000
0000
1000
0100
,
1000
0000
0001
0100
,
0001
0000
0001
0000
,
0010
0000
0010
0010
,
0001
0000
0001
0100
,
0001
0000
1000
0010
,
2000
0000
0000
3000
,
0002
0000
0000
0013
,
0200
0000
0000
0300
,
0000
2000
0000
3000
,
0002
0000
0000
0003
,
0000
0200
0000
0300
,
0001
0010
0200
0300
,
0000
2000
0000
3000
,
0010
0100
0002
0003
,
0000
0100
0100
0000
,
0010
1000
0001
0000
,
0010
0001
1000
0000
,
0001
0010
1000
0000
,
1000
0010
0001
0000
,
0100
0010
1000
0000
,
0100
0010
0001
0000
,
1000
0010
0001
0000
,
0001
0010
1000
0000
,
0010
0010
0001
0001
,
0100
1000
0100
0000
,
0010
0010
1000
1000
,
0100
0001
0100
0000
,
0010
0001
1000
0000
,
0010
0100
0001
0000
,
0010
0010
0100
0100
,
1000
1000
0001
0100
,
0020
0000
0000
0030
,
0000
2000
0000
3000
,
0002
0000
0000
0003
,
0000
0010
0100
0100
;

//---------------dance-single - t7r----------------
#NOTES:
     dance-single:
     t7r:
     Medium:
     7:
     :
0000
0000
0000
0000
,
0000
0000
0000
0000
,
0000
0000
0000
0000
,
0000
0000
0000
0000
,
0000
0000
0000
0000
,
0002
0000
0000
0000
,
0000
2003
0000
0000
,
3020
0000
0000
0000
,
0130
0002
0000
0000
,
1003
0000
0000
0100
1000
0000
0000
0100
,
1000
0000
0000
0001
1000
0001
0000
0001
,
0100
0000
0000
0001
0100
0000
0000
0001
,
0100
0000
0000
0010
0100
0001
0000
0001
,
0010
0000
0000
0100
0010
0000
0000
0100
,
0010
0000
0000
0100
0010
0001
0000
0001
,
1000
0000
0000
0010
1000
0000
0000
0010
,
1000
0000
0000
0001
1000
0010
0000
0010
,
0100
0000
0001
0000
1000
0100
0010
0000
,
0001
0000
1000
0000
0010
0100
0001
0000
,
0010
0000
0010
0001
1000
0000
1000
0000
,
0100
0000
0100
0010
0001
0000
1000
0000
,
0010
0000
0100
0010
1000
0000
0100
0000
,
0010
0000
0001
0100
0010
0000
1000
0000
,
2001
0000
3010
0100
0002
0000
0013
0000
,
0001
0000
0100
0000
0010
1000
1000
1000
,
0002
0000
0000
0003
,
0000
0020
0000
0030
,
2000
0000
0000
3000
,
0000
0200
0000
0300
,
0001
0100
2020
3030
,
1000
0200
1000
0310
,
0001
0000
0100
0000
0010
1000
0001
0000
,
1000
0000
0010
0100
0010
0000
0110
0000
,
1000
0000
0100
0010
0001
0000
0001
0000
,
0100
0000
0010
1000
0001
0000
0001
0000
,
1000
0000
0010
0001
0010
0000
1000
0000
,
0001
0000
0010
1000
0010
0000
0001
0000
,
0100
0000
0010
0100
0001
0000
0001
0000
,
0010
0200
0010
1300
,
0001
0000
0100
1000
0100
0000
0001
0000
,
1000
0000
0100
0001
0100
0000
1000
0000
,
1001
0010
0100
0000
,
0001
0010
0001
0000
1000
0010
1000
0001
,
0100
0100
0010
0010
,
1000
0100
0010
0001
0100
0010
0010
0000
,
1000
0001
0010
0000
,
1000
0010
0001
0000
0100
0000
0010
0000
,
0001
0010
1000
0000
,
0001
0010
1000
0000
0010
0100
1000
0000
,
0002
0100
1000
0013
,
0001
0100
0010
0010
,
2000
0100
0001
3010
,
0100
0000
0000
0000
0001
0000
0000
0000
1000
0000
0000
0001
0000
0001
0000
0000
;

//---------------dance-single - t7r----------------
#NOTES:
     dance-single:
     t7r:
     Hard:
     12:
     :
0000
0000
0000
0000
,
0000
0000
0000
0000
,
0000
0000
0000
0000
,
0000
0000
0000
0000
,
0000
0000
0000
0000
,
0020
0000
0000
0000
,
0000
2030
0000
3001
,
0020
0000
0000
0000
,
0031
2000
3001
0000
,
1000
0000
0000
0100
0000
0000
0010
0000
1000
0000
0000
0010
0000
0000
0001
0000
,
1000
0000
0000
0010
0000
0000
0110
0000
0000
0000
1001
0000
0000
0000
1000
0000
,
0001
0000
0000
0100
0000
0000
0010
0000
0001
0000
0000
0010
0000
0000
1000
0000
,
0001
0000
0000
0010
0000
0000
0110
0000
0000
0000
1001
0000
0000
0000
0001
0000
,
1000
0000
0000
0010
0000
0000
0100
0000
1000
0000
0000
0100
0000
0000
0001
0000
,
1000
0000
0000
0001
0000
0000
0110
0000
0000
0000
0011
0000
0000
0000
1000
0000
,
0001
0000
0000
0010
0000
0000
0100
0000
0001
0000
0000
0100
0000
0000
1000
0000
,
0001
0000
0000
0100
0000
0000
0110
0000
0000
0000
1010
0000
0000
0000
0001
0000
,
1000
0000
0000
1000
0100
0000
1000
0000
0010
0000
0000
0010
1000
0000
0000
0000
,
0001
0000
0000
0001
0100
0000
0001
0000
0010
0000
0000
0010
0001
0000
0000
0000
,
1000
0100
0001
0000
0100
0010
0001
1000
,
0001
0000
0100
0000
1000
0000
0000
0000
0100
0000
0001
0010
0000
0001
0000
0000
,
1000
0000
0000
1000
0010
0000
1000
0000
0100
0000
0000
0100
1000
0000
0000
0000
,
0001
0000
0000
0001
0010
0000
0001
0000
0100
0000
0000
0100
0001
0000
0000
0000
,
2001
0000
3010
0000
1000
0100
0001
0000
,
0100
0010
0001
1000
0010
1000
1000
1000
,
2001
0000
0000
0000
,
3010
0200
0000
0000
,
0302
0000
0000
0000
,
0013
0200
0000
0000
,
1300
0000
0000
0100
0001
0000
0100
0000
0020
0000
0000
0000
0000
0000
0000
0000
,
0031
0000
0200
0000
1300
0100
0010
0000
,
1000
1000
0100
0100
0010
0010
0001
0001
,
1000
0001
1000
0000
0001
1000
0001
0000
0100
0000
0000
0100
0010
0000
0000
0000
,
0100
0000
0000
0001
0000
0100
0000
1000
0100
0000
0000
0010
0100
0000
0000
0000
,
0010
0000
0000
1000
0000
0010
0000
0001
0010
0000
0000
0100
0010
0000
0000
0000
,
1000
0100
0001
0010
1000
0001
1000
0000
,
0001
0100
1000
0010
0001
1000
0001
0000
,
1100
0000
0000
0100
0000
0001
0000
0100
0010
0000
0000
0001
1000
0000
0000
0000
,
0101
0000
0000
0100
0000
1000
0000
0100
0010
0000
0000
1000
0010
0000
0000
0000
,
1000
0010
0001
0100
1000
0001
1000
0000
,
0001
0010
1000
0100
0001
1000
0001
0000
,
1000
0000
0000
1000
0100
0000
0000
0100
0010
0000
0000
0010
1000
0000
0000
1000
,
0010
0001
0100
1000
0100
0010
1000
0010
,
0001
0000
0000
0001
0010
0000
0000
0010
0100
0000
0000
0100
0001
0000
0000
0001
,
1000
0100
0001
0100
1000
0010
0110
0000
,
0001
0000
0000
0100
0010
0000
0000
0001
0010
0000
0000
1000
0001
0000
0000
1000
,
0100
1000
0010
0001
0010
0100
0001
0100
,
1000
0000
0000
0100
0010
0000
0000
1000
0001
0000
0000
0010
1000
0000
0000
0001
,
0100
1000
0001
0100
0010
1000
0001
0000
,
2000
0100
0001
3010
,
0001
0100
0001
1000
,
0002
0010
1000
0103
,
0001
0000
0000
0000
0010
0000
0000
0000
0100
0000
0000
1000
0000
0001
0000
1000
;

//---------------dance-single - t7r----------------
#NOTES:
     dance-single:
     t7r:
     Challenge:
     14:
     :
0000
0000
0000
0000
,
0000
0000
0000
0000
,
0000
0000
0000
0000
,
0000
0000
0000
0000
,
0000
0000
0000
0000
,
2000
0100
0100
0100
,
0010
3002
0010
1000
,
0203
0010
0010
0010
,
1300
0200
0302
0003
,
1000
0000
0000
0100
1000
0000
0001
0000
1000
0000
0000
0100
1000
0000
0001
0000
,
1000
0000
0000
0100
1000
0000
0001
0000
1000
0000
0010
0000
0001
0000
0010
0000
,
0100
0000
0000
0001
0100
0000
0010
0000
0100
0000
0000
1000
0100
0000
0010
0000
,
0100
0000
0000
0001
0100
0000
0010
0000
0100
0000
0001
0000
0010
0000
1000
0000
,
0010
0000
0000
0100
0010
0000
0100
0000
0001
0000
0000
0100
0010
0000
0100
0000
,
1000
0000
0000
0100
0010
0000
0100
0000
1000
0000
0010
0000
0001
0000
0010
0000
,
0100
0000
0000
0001
1000
0000
0100
0000
0010
0000
0000
0001
0100
0000
1000
0000
,
0100
0000
0000
0010
0100
0000
0001
0000
1000
0000
0100
0000
0001
0000
0100
0000
,
1000
0100
0000
0100
0010
0100
0000
0100
1000
0100
0000
0100
1000
0000
0001
0000
,
0100
0010
0000
0010
0100
0010
0000
0010
0001
0000
0010
0000
1000
0000
0001
0000
,
1000
0100
0010
0100
1000
0001
0100
0010
,
0100
0000
1000
0000
0100
0000
0001
0000
0010
0000
1000
0010
0000
0010
0000
0010
,
0001
0000
0000
0100
0010
0100
0000
0100
1000
0100
0000
0100
0010
0000
0100
0000
,
0001
0000
0000
0010
0100
0010
0000
0010
1000
0010
0000
0010
0001
0000
1000
0000
,
0002
0100
1003
0000
0010
0100
0001
0000
,
1000
0100
0010
1000
0001
0100
1100
1100
,
2002
3003
MMMM
2000
,
3010
0200
0000
0000
,
0302
0000
0000
0000
,
0013
0200
0000
0000
,
1300
0000
0000
0001
0100
0000
0010
0000
1000
0100
1000
0000
0001
0100
0001
0000
,
1000
0010
1000
0000
0001
0010
0001
0000
1000
0100
1000
0000
0001
1000
0001
0000
,
1000
1000
0100
0100
0001
0001
0100
0100
,
1000
0001
1000
0001
1000
0001
1000
0001
0010
0000
0000
0010
1000
0000
0010
0000
,
0110
0000
0000
1000
0000
0100
0000
0001
0100
0000
0000
0010
0100
0000
0010
0000
,
0001
0100
2010
0000
3001
0010
1100
0000
,
0001
0100
0010
0001
1000
0100
0010
1000
,
0001
0010
0100
0001
1000
0010
0100
1000
,
1001
0000
0000
0001
0000
0100
0000
1000
0100
0000
0000
0010
0100
0000
0010
0000
,
1000
0100
0012
0000
1003
0010
0101
0000
,
1000
0100
0010
1000
0001
0100
0010
0001
,
1000
0010
0100
1000
0001
0010
0100
0001
,
1001
0000
1000
0000
0100
0000
0010
0000
1000
0000
0010
0000
0001
0000
0100
0001
,
0100
1000
0100
0010
0100
0001
0010
0100
,
0001
0000
0100
0010
0100
0000
1000
0000
0010
0000
0100
0010
0100
0000
0010
0000
,
0001
0000
0010
0100
0010
0000
1000
0000
0001
0000
0110
0000
1001
0000
0010
0000
,
1001
0000
1000
0100
0010
0000
0001
0100
0010
0000
1000
0001
1000
0000
0010
0001
,
0010
0001
0010
0100
0001
0010
1000
0010
,
0011
0000
0001
0100
0010
0000
1000
0100
0010
0000
0001
0100
0010
0000
1000
0000
,
0001
0000
0100
1000
0100
0000
0010
0000
0100
0000
0100
0000
1001
0000
0000
0000
,
1000
0000
0000
0100
0010
0000
0100
0000
0001
0000
0000
0100
0010
0000
0100
0000
,
1000
0000
0000
0010
0100
0000
0010
0000
0001
0000
0010
0000
0100
0000
0010
0000
,
1000
0000
0000
0001
0010
0000
1000
0000
0001
0000
0000
1000
0010
0000
0001
0000
,
1000
0000
0000
0001
0100
0000
0010
0000
0100
0000
0001
0100
0000
0100
0000
1000
;

//---------------dance-double - t7r----------------
#NOTES:
     dance-double:
     t7r:
     Easy:
     4:
     :
00000000
00000000
00000000
00000000
,
00000000
00000000
00000000
00000000
,
00000000
00000000
00000000
00000000
,
00000000
00000000
00000000
00000000
,
00000000
00000000
00000000
00000000
,
20000000
00000000
00000000
00000000
,
00000000
31000000
00000000
00000000
,
00020000
00000000
00000000
00000000
,
00000000
00031000
00000000
00000000
,
00010000
00000000
00001000
00000000
,
01000000
00000000
00100000
00000000
,
20000000
00000000
30000000
00000000
,
02000000
00000000
03000000
00000000
,
00010000
00000000
00001000
00000000
,
00010000
00000000
00000010
00000000
,
00000200
00000000
00000300
00000000
,
00000020
00000000
00000030
00000000
,
00010000
00001000
00010000
00000000
,
00001000
00001000
00001000
00000000
,
02000000
00000000
03100000
00000000
,
20000000
00000000
31000000
00000000
,
10000000
00010000
10000000
00000000
,
01000000
00010000
00001000
00000000
,
00022000
00000000
00000000
00033000
,
00000020
00000000
00000030
00000000
,
00000200
00000000
00000300
00000000
,
00000000
00000002
00000000
00000003
,
00000020
00000000
00000030
00000000
,
00000000
00002000
00000000
00003000
,
00010000
00000000
00022000
00033000
,
00000000
02000000
00000000
03000000
,
00100000
00000000
20020000
30030000
,
20000000
00000000
00000000
30000000
,
10000000
00000000
01000000
01000000
,
00010000
00000000
00000010
00001000
,
00000001
00000010
00001000
00000000
,
00010000
00100000
10000000
00000000
,
00100000
00000000
00011000
00000000
,
00000010
00000000
00011000
00000000
,
00001000
00000100
00000001
00000010
,
00001000
00010000
01000000
10000000
,
00100000
00100000
10000000
10000000
,
01000000
00010000
00001000
00000100
,
00000010
00000010
00001000
00001000
,
00000001
00000010
00001000
00020000
,
00030100
00000100
00010000
00010000
,
00001000
00010000
00100000
10000000
,
00010000
00010000
10000000
10000000
,
01000000
00010000
00001000
00000010
,
00002002
00000000
00000000
00000000
,
00003003
00000001
00001000
00000100
,
00020000
00000000
00000000
00030000
,
00000000
01000000
10000000
00010000
;

//---------------dance-double - t7r----------------
#NOTES:
     dance-double:
     t7r:
     Medium:
     8:
     :
00000000
00000000
00000000
00000000
,
00000000
00000000
00000000
00000000
,
00000000
00000000
00000000
00000000
,
00000000
00000000
00000000
00000000
,
00000000
00000000
00000000
00000000
,
20000000
00000000
00000000
00000000
,
00000000
32000000
00000000
00000000
,
03020000
00000000
00000000
00000000
,
00031000
02000000
00000000
00000000
,
03100000
00000000
00000000
10000000
00010000
00000000
00000000
10000000
,
00010000
00000000
00000000
10000000
01000000
00010000
00000000
00010000
,
00001000
00000000
00000100
00000000
,
00000001
00000000
00000000
00000000
00000010
00000100
00000000
00000100
,
00010000
00000000
00000000
00001000
01000000
00000000
00000000
00010000
,
01000000
00000000
00000000
00010000
10000000
00100000
00000000
00100000
,
02000000
00000000
03001000
00010000
00001000
00000000
00000000
00000000
,
00000200
00000000
00000310
00000100
00000001
00000010
00000000
00000010
,
00000001
00000000
00000010
00001000
00010000
00000000
00001000
00000000
,
01000000
00000000
00100000
10000000
00010000
00000000
10000000
00000000
,
01000000
00000000
00010000
00001000
00000100
00000000
00000100
00000000
,
00000010
00000000
00001000
00010000
00100000
00000000
00010000
00000000
,
10000000
00000000
00100000
00010000
00001000
00000000
00000100
00000000
,
00000010
00000000
00001000
00010000
00100000
00000000
00010000
00000000
,
20010000
00000000
00000000
31000000
00100000
00000000
00000000
00000000
,
00001000
00000000
00010000
00000000
00000010
00000100
00000100
00000100
,
00000002
00000000
00000000
00000000
,
00000013
00002000
00000000
00000000
,
00023000
00000000
00000000
00000000
,
01030000
20000000
00000000
00000000
,
30100000
00010000
00022000
00033000
,
00000010
00000200
00000001
00000300
,
00000010
00000100
00000001
00000001
,
00000010
00000000
00001000
00010000
00001000
00000000
00010000
00000000
,
00011000
00000000
00000010
00000100
00000001
00000000
00000001
00000000
,
00000010
00000000
00000200
00000000
00010300
00001000
00010000
00000000
,
00001000
00000000
00000100
00000001
00000100
00000000
00001000
00000000
,
00010000
00000000
01000000
10000000
01000000
00000000
00010000
00000000
,
00011000
00000000
01000000
00000000
00100000
10000000
00010000
00000000
,
00010000
00000000
10000000
00000000
01000000
00010000
00001000
00000000
,
00001000
00000000
00010000
00000000
00001000
00000100
00000001
00000000
,
00000010
00000000
00001000
00000000
00010000
01000000
10000000
00000000
,
10010000
00000000
01100000
00000000
00100000
10000000
00010000
00000000
,
00100000
00010000
00001000
00000000
00000010
00001000
00000001
00000000
,
00001000
00000000
00001010
00000000
00001000
00000100
00000001
00000000
,
00000100
00010000
00001000
00000000
01000000
00100000
00200000
00000000
,
10300000
00000000
11000000
00000000
10000000
00100000
00010000
00000000
,
00001000
00010000
00000100
00000000
00001000
00000010
00000100
00000001
,
00000010
00000000
00000011
00000000
00000001
00000100
00001000
00000000
,
00010000
00001000
02000000
00000000
03100000
10000000
01000000
00000000
,
20000000
00100000
00010000
31000000
,
10000000
00100000
00010000
00001000
,
00000200
00000001
00001000
00000310
,
00010000
00100000
10000000
00010000
;

//---------------dance-double - t7r----------------
#NOTES:
     dance-double:
     t7r:
     Hard:
     12:
     :
00000000
00000000
00000000
00000000
,
00000000
00000000
00000000
00000000
,
00000000
00000000
00000000
00000000
,
00000000
00000000
00000000
00000000
,
00000000
00000000
00000000
00000000
,
00000002
00000000
00000000
00000000
,
00000000
00000203
00000000
00000000
,
00002300
00000000
00000000
00000000
,
00013000
00002000
00000000
00003000
,
01000000
00000000
00000000
00010000
00000000
00000000
01000000
00000000
00100000
00000000
00000000
10000000
00000000
00000000
01000000
00000000
,
00010000
00000000
00000000
00001000
00000000
00000000
00000100
00000000
00000000
00000000
00000001
00000000
00000000
00000000
00001000
00000000
,
00000001
00000000
00000000
00000010
00000000
00000000
00000100
00000000
00010000
00000000
00000000
00001000
00000000
00000000
01000000
00000000
,
00100000
00000000
00000000
00010000
00000000
00000000
00100000
00000000
00000000
00000000
10010000
00000000
00000000
00000000
10000000
00000000
,
01000000
00000000
00000000
00010000
00000000
00000000
01000000
00000000
00100000
00000000
00000000
00001000
00000000
00000000
00000100
00000000
,
00000010
00000000
00000000
00001000
00000000
00000000
00000001
00000000
00000000
00000000
00000101
00000000
00000000
00000000
00001000
00000000
,
00000010
00000000
00000000
00010000
00000000
00000000
00001000
00000000
01000000
00000000
00000000
00100000
00000000
00000000
00010000
00000000
,
00100000
00000000
00000000
10000000
00000000
00000000
00010000
00000000
10000000
00000000
01000000
00000000
00000000
00000000
00010000
00000000
,
00001000
00000000
00000000
00001000
01000000
00000000
00000000
00000000
00100000
00000000
10000000
00000000
00010000
00000000
00000000
00000000
,
10000000
01000000
00100000
00000000
00001000
00010000
00000010
00000100
,
00000001
00000000
00000000
00000001
00000010
00000000
00000000
00000000
00000100
00000000
00010000
00000000
00001000
00000000
00010000
00000000
,
01000000
00000000
10000000
00000000
01000000
00000000
00100000
00000000
00001000
00000000
00010000
00000000
00000000
00001000
00000000
00000100
,
00000010
00000000
00000000
00001000
00000001
00000000
00000000
00000000
00000010
00000000
00001000
00000000
00010000
00000000
00000000
00000000
,
00100000
01000000
00010000
00000000
10000000
00100000
00010000
00001000
,
00000020
00000000
00000130
00001000
00000001
00000000
00000011
00000000
,
00000010
00001000
00010000
01000000
10000000
00100000
00100000
00100000
,
02000000
00000000
00000000
00000000
,
03001000
00020000
00000000
00000000
,
00030020
00000000
00000000
00000000
,
00000130
00000002
00000000
00000000
,
00000013
00000000
00000000
00001000
00010000
00000000
00000000
00000000
00022000
00000000
00000000
00000000
00033000
00000000
00000000
00000000
,
01000000
01200000
00010000
10300000
,
01000000
00000000
00000000
00010000
00001000
00000000
00000000
00000000
00011000
00000000
00000000
00000000
00010000
00000000
00000010
00000000
,
00000020
00000000
00000000
00000130
,
00000001
00000000
00000000
00000100
00000000
00000010
00000000
00010000
00001000
00000000
00000000
00000000
00011000
00000000
00000000
00000000
,
00001000
00000000
00000000
00100000
00000000
01000000
00000000
10000000
00010000
00000000
00000000
00000000
10010000
00000000
00000000
00000000
,
10000000
00100000
00010000
00001000
00000010
00000000
00000120
00000000
,
00000031
00000010
00001000
00010000
00100000
00000000
10200000
00000000
,
10300000
00000000
00000000
01000000
00000000
01000000
00000000
00010000
00001000
00000000
00000000
00000000
00011000
00000000
00000000
00000000
,
00000010
00000100
00000002
00000000
00000013
00001000
00020000
00000000
,
00031000
00000100
00000001
00000010
00001000
00000000
00011000
00000000
,
00010000
00100000
10000000
01000000
00010000
00000000
00011000
00000000
,
00001001
00000000
00000000
00000001
00001000
00000000
00000000
00000000
00000010
00000000
00001000
00000000
00010000
00000000
00000000
00000000
,
10000000
01000000
10000000
01000000
00010000
00001000
00000010
00000100
,
00001000
00000000
00000000
00001000
00000010
00000000
00000000
00000000
00000001
00000000
00000010
00000000
00001000
00000000
00000000
00000000
,
00010000
00100000
01000000
00010000
00001000
00000100
00000001
00001000
,
00001001
00000000
00000000
00001000
00000001
00000000
00000000
00000000
00000010
00000000
00000001
00000000
00000100
00000000
00000001
00000000
,
00001000
00000100
00001000
00000000
00000001
00000100
00001000
00010000
,
00100000
00000000
00000000
00100000
10000000
00000000
00000000
00000000
01000000
00000000
10000000
00000000
00010000
00000000
00000000
00000000
,
10000000
01000000
00010000
00001000
00000100
00000010
00000110
00000000
,
00001002
00000100
00001000
00000013
,
00000001
00000100
00001000
00000000
00100000
00100000
00010000
00000000
,
20000000
01000000
00010000
30100000
,
10000000
00000000
01000000
00000000
00010000
00000000
00000000
00000000
00001000
00000000
00010000
00001000
00000000
00001000
00000000
00010000
;

//---------------dance-double - t7r----------------
#NOTES:
     dance-double:
     t7r:
     Challenge:
     14:
     :
00000000
00000000
00000000
00000000
,
00000000
00000000
00000000
00000000
,
00000000
00000000
00000000
00000000
,
00000000
00000000
00000000
00000000
,
00000000
00000000
00000000
00000000
,
00200000
00010000
00010000
00010000
,
00001000
00320000
00032000
00000010
,
00003002
00000010
00000010
00001000
,
00000203
00002300
00013000
00001000
,
00010000
00000000
00000000
01000000
00100000
00000000
01000000
00000000
10000000
00000000
00000000
00100000
01000000
00000000
00100000
00000000
,
00010000
00000000
00000000
00100000
01000000
00000000
00100000
00000000
10000000
00000000
01000000
00000000
00010000
00000000
00001000
00000000
,
00000100
00000000
00000000
00000010
00000100
00000000
00001000
00000000
00000100
00000000
00000000
00000010
00000100
00000000
00000001
00000000
,
00000100
00000000
00000000
00000010
00001000
00000000
00000001
00000000
00000010
00000000
00001000
00000000
00010000
00000000
00100000
00000000
,
10000000
00000000
00000000
01000000
00100000
00000000
01000000
00000000
00010000
00000000
00000000
01000000
00100000
00000000
01000000
00000000
,
10000000
00000000
00000000
00100000
01000000
00000000
00100000
00000000
00010000
00000000
00001000
00000000
00000010
00000000
00000001
00000000
,
00001000
00000000
00000000
00000010
00000100
00000000
00000010
00000000
00000001
00000000
00000000
00000010
00000100
00000000
00000010
00000000
,
00002000
00000000
00000000
00003001
00000100
00001000
00010000
01000000
,
10000000
00100000
00000000
00100000
10000000
00010000
00000000
00010000
00100000
00000000
00001000
00000000
00010000
00000000
00001000
00000000
,
00000100
00000010
00000000
00000010
00000100
00000001
00000000
00000001
00000010
00000000
00001000
00000000
00010000
00000000
00100000
00000000
,
01000000
00000000
00010000
01000000
00100000
00000000
10000000
01000000
00100000
00000000
00010000
00000000
00001000
00000000
00000010
00000000
,
00000100
00000000
00000001
00000000
00000100
00000000
00001000
00000000
00010000
00000000
01000000
10000000
00000000
10000000
00000000
00010000
,
10000000
01000000
00000000
01000000
00100000
00010000
00000000
00010000
00001000
00000000
00000000
00000010
00001000
00000000
00000001
00000000
,
00000010
00000001
00000000
00000001
00000100
00000010
00000000
00000010
00001000
00000000
00000010
00000000
00001000
00000000
00010000
00000000
,
00200000
00000000
00000000
00310000
01000000
00000000
10000000
00000000
01000000
00000000
00100000
00000000
10000000
00000000
01000000
00000000
,
00010000
00001000
00000100
00000010
00001000
00000001
00000001
00000001
,
00002002
00003003
MMMMMMMM
00000000
,
00002000
00100000
00013000
00001000
,
00010000
01000000
10000000
00100000
,
01000000
00000000
00010000
00100000
00001000
00000000
00010000
00000000
,
00001000
00000000
00000000
00000100
00000001
00000000
00001000
00000000
00000002
00000000
00000000
00000000
00000013
00000000
00000000
00000000
,
00000001
00000000
00000000
00000100
00000010
00000000
00001000
00000000
00000200
00000000
00000000
00000000
00010300
00000000
00000000
00000000
,
00001000
00001000
00010000
00010000
01000000
01000000
10000000
10000000
,
00100000
01000000
00100000
01000000
00100000
01000000
00100000
01000000
00100000
00000000
00000000
10000000
00010000
00000000
00000000
00000000
,
10000000
00000000
00000000
01000000
00000000
00100000
00000000
10000000
00100000
00000000
00000000
01000000
10000000
00000000
00000000
00000000
,
00100000
00000000
00000000
01000000
00000000
00010000
00000000
00100000
00001000
00000000
00000000
00010000
00001000
00000000
00000000
00000000
,
00000010
00000100
00001000
00010000
00000010
00000100
00001000
00000000
,
00000100
00001000
00010000
00100000
00010000
00001000
00000100
00001000
,
00000001
00000000
00000000
00000100
00000000
00000010
00000000
00000001
00000010
00000000
00000000
00000100
00000001
00000000
00000000
00000000
,
00000010
00000000
00000000
00000100
00000000
00001000
00000000
00000010
00010000
00000000
00000000
00001000
00010000
00000000
00000000
00000000
,
00100000
01000000
00010000
00001000
00100000
01000000
00010000
00000000
,
01000000
00010000
00001000
00000010
00001000
00010000
01000000
00010000
,
10010000
00000000
10000000
00000000
01000000
00000000
00010000
00000000
00001000
00000000
00000100
00000000
00000001
00000000
00001000
00000010
,
00001000
00000001
00000010
00001000
00000010
00000001
00000100
00001000
,
00000001
00000000
00000000
00000010
00000100
00000000
00000010
00000000
00001000
00000000
00000000
00000100
00010000
00000000
00001000
00000000
,
00010000
00000000
00000000
01000000
10000000
00000000
00100000
00000000
01000000
00000000
01100000
00000000
10010000
00000000
00010000
00000000
,
10010000
00000000
10000000
00000000
00100000
00000000
00010000
00000000
00001000
00000000
00000010
00000000
00000001
00000000
00001000
00000100
,
00001000
00000001
00000100
00001000
00000100
00000001
00000010
00001000
,
00000001
00000000
00000000
00000100
00000010
00000000
00000100
00000000
00001000
00000000
00000000
00000010
00010000
00000000
00001000
00000000
,
00010000
00000000
00000000
00100000
10000000
00000000
01000000
00000000
00100000
00000000
00010000
10000000
00100000
00000000
01000000
00000000
,
00010000
00000000
00000000
00001000
00000100
00000000
00001000
00000000
00000010
00000000
00000000
00000100
00000001
00000000
00000010
00000000
,
00000001
00000100
00001000
00010000
01000000
10000000
00100000
01000000
,
00100000
00000000
00000000
10000000
01000000
00000000
10000000
00000000
00100000
00000000
00000000
01000000
00010000
00000000
00100000
00000000
,
00001000
00000000
00000000
00010000
00001000
00000000
00000010
00000000
00000001
00000000
00000100
00000010
00000000
00000010
00000000
00010000
;
