#TITLE:Rain (feat. Sara Kay);
#ARTIST:Klaypex;
#BANNER:Rain (feat. Sara Kay).png;
#BACKGROUND:Rain (feat. Sara Kay)-bg.png;
#JACKET:Rain (feat. Sara Kay)-jacket.png;
#CDTITLE:./CDTITLES/NONE.PNG;
#MUSIC:Rain (feat. Sara Kay).ogg;
#SAMPLESTART:74.482;
#SAMPLELENGTH:15;
#BPMS:0=145;

//---------------dance-single - t7r----------------
#NOTES:
     dance-single:
     t7r:
     Beginner:
     2:
     :
0000
0000
0000
0000
,
0000
0000
0000
0000
,
0000
0000
0000
0000
,
0000
0000
0000
0000
,
0000
0000
0000
0000
,
0010
0000
0000
0000
,
1000
0000
0000
0000
,
0001
0000
0000
0000
,
0100
0000
0000
0000
,
0001
0000
0000
0000
,
1000
0000
0000
0000
,
0010
0000
0000
0000
,
0100
0000
0000
0000
,
0001
0000
0000
0000
,
0010
0000
0000
0000
,
0100
0000
0000
0000
,
1000
0000
0000
0000
,
0000
0000
0000
0000
,
0000
0000
0000
0000
,
0010
0000
0010
0000
,
0010
0000
0000
0000
,
0100
0000
0100
0000
,
0100
0000
0000
0000
,
0001
0000
0001
0000
,
0001
0000
0000
0000
,
1000
0000
1000
0000
,
1000
0000
0000
0000
,
0010
0000
0010
0010
,
0010
0000
0000
0000
,
1000
0000
1000
1000
,
1000
0000
0000
0000
,
0001
0000
0001
0001
,
0001
0000
0000
0000
,
0010
0000
0010
0010
,
0010
0000
0000
0000
,
0001
0000
0000
0000
,
0100
0000
0000
0000
,
0010
0000
0000
0000
,
1000
0000
0000
0000
,
0100
0000
0000
0000
,
0010
0000
0000
0000
,
0001
0000
0000
0000
,
1000
0000
0000
0000
,
0000
0000
0000
0000
,
0000
0000
0000
0000
,
0010
0000
0010
0000
,
1000
0000
1000
0000
,
0001
0000
0001
0000
,
0010
0010
0010
0000
,
0001
0000
0001
0000
,
1000
0000
1000
0000
,
0010
0000
0010
0010
,
0010
0000
0000
0000
,
0100
0000
0100
0100
,
0100
0000
0010
0000
,
1000
0000
1000
0000
,
0000
0001
0001
0001
,
0000
0000
0010
0000
,
0000
0000
0001
0000
,
1000
0000
0010
0000
,
0100
0000
0000
0000
,
0001
0000
1000
0000
,
0100
0000
0000
0000
,
1000
0000
0001
0000
,
0010
0000
0000
0000
,
0001
0000
0000
0000
,
0100
0000
0000
0000
,
0010
0000
0000
0000
,
1000
0000
0000
0000
,
1001
0000
0000
0000
;

//---------------dance-single - t7r----------------
#NOTES:
     dance-single:
     t7r:
     Easy:
     6:
     :
0000
0000
0000
0000
,
0000
0000
0000
0000
,
0000
0000
0000
0000
,
0000
0000
0000
0000
,
0000
0000
0000
0000
,
0010
1000
0001
0000
,
0010
0000
0010
0010
,
0001
1000
0010
0000
,
0100
0000
0100
0100
,
0002
0000
0100
0000
,
0000
0000
1000
1003
,
2000
0000
0100
0000
,
0001
0000
0001
3001
,
0010
0100
1000
0000
,
0010
0100
0001
0000
,
1000
0100
0010
0001
,
0200
0000
0301
1000
,
0020
0000
0000
0000
,
0000
0000
0000
0030
,
2002
3003
0200
0310
,
0010
1000
0001
0001
,
0010
0001
0010
0001
,
1000
0000
0000
0000
0010
0000
0000
0000
0200
0300
0000
0000
0200
0300
0000
0000
,
2002
3003
0020
0130
,
0200
2300
3001
0001
,
0100
1000
0100
0001
,
0020
0000
0100
0130
,
0012
0000
2003
3002
,
1003
0100
0010
0010
,
0001
0001
1000
1000
,
0010
0000
0000
0000
0100
0000
0000
0000
0020
0030
0000
0000
0020
0030
0000
0000
,
2002
3003
1000
0100
,
0002
0103
0010
0010
,
0001
0001
1000
1000
,
0020
0000
0100
0130
,
0001
0000
0011
0000
,
1000
0001
0100
0000
,
0010
0000
1001
0000
,
1000
0100
0010
0000
,
0100
0000
1100
0000
,
1000
0010
0100
0000
,
0010
0000
1001
0000
,
0001
0100
0010
0000
,
2000
0000
0000
0000
,
0000
0000
0000
3000
,
2002
3003
0022
0033
,
1000
0100
0001
0001
,
0100
0100
1000
1000
,
0010
0000
0100
0000
0020
0030
0000
0000
0020
0030
0000
0000
0020
0030
0000
0000
,
2002
0000
3003
0000
0002
2003
3002
0003
,
2000
3010
0001
0001
,
0010
0010
0010
0000
0100
0100
0100
0000
,
0002
0000
1000
1003
,
2200
0000
3300
0000
2000
3002
2003
3000
,
0020
0130
0001
0001
,
1000
1000
1000
0000
0001
0001
0001
0000
,
0200
0300
0000
0000
0020
0030
0000
0000
2000
3000
0000
0000
0002
0003
0000
0000
,
0022
0000
0033
0000
1000
0001
0100
0000
,
0020
2030
3001
0001
,
1000
1000
0001
0000
0100
0100
0010
0000
,
1000
0010
0001
0100
,
2100
0000
3001
0000
,
0100
0010
1001
0000
,
0102
0000
1003
0000
,
0010
0100
1001
0000
,
0002
0010
1003
0000
,
2000
0010
3001
0000
,
0200
1000
0310
0000
,
2000
0000
3200
0300
,
2002
0000
0000
0000
,
0000
0000
0000
0000
,
0000
0000
3003
0000
;

//---------------dance-single - t7r----------------
#NOTES:
     dance-single:
     t7r:
     Medium:
     9:
     :
0000
0000
0000
0000
,
0000
0000
0000
0000
,
0000
0000
0000
0000
,
0000
0000
0000
0000
,
0000
0000
0000
0000
,
2000
0100
0001
3010
,
0200
0000
0010
0310
,
2000
0010
0001
3100
,
0020
0000
1000
0031
,
1002
0000
0000
0000
0103
0010
0000
0000
,
1000
0200
0000
0000
1000
0000
1300
0000
,
1020
0000
0000
0000
0130
0010
0000
0000
,
1000
0002
0000
0000
0010
0000
0013
0000
,
0002
0000
0000
0000
0103
0010
0000
0000
,
1000
0200
0000
0000
0010
0000
0310
0000
,
0001
2000
0000
0000
3010
0100
0000
0001
,
0000
0020
0000
0031
1000
0000
0010
0000
,
0200
0000
0000
0000
,
0000
0000
0000
0300
,
0002
0000
0000
0013
0002
0000
1003
1000
,
0002
0000
0000
0000
0203
0000
0000
0000
0320
0030
0000
0000
0020
0030
0000
0000
,
1000
0100
1000
0000
0001
0100
0001
0000
,
1000
0010
0110
0110
,
2000
0000
0000
3010
2000
0000
3001
0001
,
2000
0000
0000
0000
3200
0000
0000
0000
0320
0030
0000
0000
0020
0030
0000
0000
,
0001
0100
0001
0000
1000
0100
1000
0000
,
0002
0000
1000
1003
,
2001
0000
0000
3100
0020
0000
0032
0000
,
2003
0000
0000
0000
3020
0000
0000
0000
0032
0003
0000
0000
0002
0003
0000
0000
,
1000
0100
0010
0000
1000
0100
0010
0000
,
0100
1010
0011
1100
,
1002
0000
0000
0013
0200
0000
1300
1000
,
0001
0000
0100
0000
2000
0000
0000
0000
3200
0300
0000
0000
0200
0300
0000
0000
,
0010
1000
0010
0000
0100
0001
0010
0000
,
0200
0000
0010
0310
,
2001
0000
0000
0000
3010
0100
0000
0000
,
0001
0010
1001
0000
,
0201
0000
0000
0000
0310
1000
0000
0000
,
0100
0010
1001
0000
,
1200
0000
0000
0000
0310
0001
0000
0000
,
0100
1001
0010
0000
,
0201
0000
0000
0000
0310
1000
0000
0000
,
0100
0011
0100
1010
,
0002
0000
0000
0000
,
0000
0000
0000
0003
,
2001
0000
0000
0000
3100
0002
0000
0000
,
0103
0000
0010
0000
0100
0000
0000
0000
2000
3000
0000
0000
2000
3000
0000
0000
,
0001
0100
0001
0100
0001
1000
0001
1000
,
0010
0000
2020
3030
0022
0033
2002
3003
,
1200
0000
0000
0310
0002
0203
0320
0000
,
2030
0000
0000
0000
3002
0000
0000
0000
0023
0030
0000
0000
0020
0030
0000
0000
,
0001
1000
0001
1000
0010
0100
0010
0100
,
0001
0001
0002
0000
0010
0000
1003
0000
,
1020
0000
0000
1030
0200
0000
0302
0000
,
0103
0000
1000
0000
0010
0000
0000
0000
0200
0300
0000
0000
0200
0300
0000
0000
,
0010
1000
0010
1000
0010
0001
0010
0001
,
0010
0000
0220
0330
0202
0303
2020
3030
,
1002
0000
0000
0013
1000
0010
0001
0001
,
2000
0000
0000
0000
3020
0000
0000
0000
0032
0003
0000
0000
0002
0003
0000
0000
,
1000
0100
0010
0000
1000
0100
0010
0000
,
0001
0000
0110
0000
1000
0001
0010
0000
,
0002
0000
0000
0103
1000
0100
0000
0100
,
0010
1000
1001
0002
,
2003
0000
0000
3100
0001
0100
0000
0000
,
0000
0200
0000
0000
0310
0010
0001
0000
,
0200
0000
0310
0000
,
2000
0000
3001
0000
,
0020
0000
0130
1000
,
0002
0000
0103
0000
,
2002
0000
0000
0000
,
0000
0000
0000
0000
,
0000
0000
3003
0000
;

//---------------dance-single - t7r----------------
#NOTES:
     dance-single:
     t7r:
     Hard:
     14:
     :
0000
0000
0000
0000
,
0000
0000
0000
0000
,
0000
0000
0000
0000
,
0000
0000
0000
0000
,
0000
0000
0000
0000
,
0001
0100
0010
1000
,
0002
0000
0010
1003
,
0001
0100
0010
1000
,
0200
0000
0310
0010
,
2001
0000
0000
0000
3100
0010
0000
0001
,
0100
1000
0110
0002
,
0023
0000
0000
0000
1030
0010
0000
0001
,
0100
0020
0000
0030
0110
0000
0001
0001
,
2000
0000
0000
3010
0100
1000
0000
0000
,
0100
0002
0000
1003
0110
0000
1000
0000
,
0001
0020
0000
0031
0100
0010
0000
0001
,
0000
0010
0000
0100
0010
1000
0000
0001
,
0020
0000
0000
0000
,
0000
0000
0000
0030
,
2001
0000
0000
3100
0001
0100
0010
0010
,
0001
0000
0100
0000
0020
0000
0000
0000
0032
0003
0000
0020
0030
0000
2000
3000
,
0001
0000
0010
0000
0001
0000
0001
0000
1000
0010
1000
0000
0001
0000
0001
0000
,
1000
0100
0020
0000
2030
0000
3002
0000
,
0203
0000
0000
0000
0000
0000
0000
0000
0000
0310
0000
0000
0001
0000
0000
0100
0000
0000
0010
0000
1000
0000
0010
0000
,
0100
0001
2000
0000
3010
0020
0000
0031
,
0010
0000
0010
0000
0100
0001
0100
0000
0010
0000
0010
0000
1000
0000
1000
0000
,
0200
0000
0010
0310
,
1002
0000
0000
0103
2000
0000
3002
0000
,
0013
0000
1000
0000
0100
0000
0001
0000
2000
3000
0000
0020
0030
0000
0002
0003
,
1000
0010
0100
0000
0010
0000
0010
0000
1000
0000
0001
0000
0001
0000
0001
0000
,
0010
1000
0002
0000
0203
0000
0320
0000
,
0032
0000
0000
0000
0000
0000
0000
0000
0000
0103
0000
0000
0010
0000
0000
1000
0000
0000
0001
0000
0010
0000
0001
0000
,
2000
0000
3002
0000
0203
0000
0000
0000
2300
3000
0000
0200
0300
0000
0002
0003
,
1000
0000
1000
0000
0010
0100
0010
0100
0010
1000
0010
0000
0100
0000
0100
0000
,
0002
0000
1000
1003
,
1200
0000
0000
0301
0100
1000
0000
0001
,
1000
0010
0100
0000
1010
0000
0002
0000
,
0203
0000
0000
1300
0100
0001
0000
0010
,
1000
0002
0000
0000
0103
0000
0010
0010
,
0002
0000
0000
1003
0010
0001
0000
0010
,
1000
0100
0000
0000
0011
0000
2000
0000
,
3200
0000
0000
0301
0100
1000
0000
0010
,
0000
0100
0000
0100
0010
0100
0001
0001
,
2000
0000
0000
0000
,
0000
0000
0000
3001
,
1200
0000
0000
1300
0010
0200
0000
0000
,
1300
0000
0100
0000
0002
0000
0000
0000
0023
0030
0000
0200
0300
0000
0002
0003
,
0100
0000
0100
0000
0100
0000
0100
0000
0010
0001
0010
0001
1000
0001
1000
0001
,
1000
0100
2200
3300
0202
0303
2200
3300
,
0012
0000
0000
1003
0020
0032
2003
0000
,
3100
0001
0010
0100
0001
2000
0000
3010
,
0100
0010
0100
0010
0001
1000
0001
1000
0010
0000
0010
0000
0110
0000
0110
0000
,
0100
0000
0001
0100
0000
0100
1000
0000
0001
0000
0010
0100
0010
0000
0010
0000
,
2001
0000
0000
3100
0002
2003
3020
0000
,
0031
0000
0100
0000
0020
0000
0000
0000
0032
0003
0000
0020
0030
0000
2000
3000
,
0001
0010
0100
0010
0001
0000
0001
0100
0010
0000
0010
0000
1000
0000
1000
0000
,
0001
0010
0210
0310
0021
0031
2020
3030
,
0210
0000
0000
0000
0000
0000
0000
0000
0000
0301
0000
0000
0100
0000
0000
0010
0000
0000
1000
0000
0100
0000
0010
0000
,
0200
0000
2300
0000
3002
0000
0000
0000
0023
0030
0000
2000
3000
0000
0002
0003
,
0100
0000
0100
0000
0010
0001
0100
0010
1000
0001
1000
0001
0100
0010
0100
0010
,
1000
0000
0100
0100
0010
0000
0100
0100
0001
0000
0100
1000
0000
1000
0001
0000
,
1001
0001
0100
0010
0001
0010
1000
0001
,
0010
0100
1000
0001
2000
0000
3020
0000
,
0031
0000
0010
0000
0100
0000
0001
1000
0100
0000
0010
0000
0000
0000
0010
0000
,
0001
0010
1000
0001
0100
0100
2000
3002
,
0203
0000
0000
0000
0310
0000
1000
0002
,
0000
1000
1003
0000
,
0100
0020
0000
0000
0130
0000
1000
0002
,
0100
0000
1000
0003
,
2002
0000
0000
0000
,
0000
0000
0000
0000
,
0000
0000
3003
0000
;

//---------------dance-single - t7r----------------
#NOTES:
     dance-single:
     t7r:
     Challenge:
     15:
     :
0000
0000
0000
0000
,
0000
0000
0000
0000
,
0000
0000
0000
0000
,
0000
0000
0000
0000
,
0000
0000
0000
0000
,
1000
0100
1000
0000
0001
0100
0000
0001
0010
0000
0001
0100
0000
0001
1000
0001
,
0020
0032
0000
0000
2003
0000
3010
0000
,
1000
0010
1000
0000
0001
0010
0000
0001
1000
0000
0100
0010
0000
0100
1000
0001
,
0200
0320
0000
0000
1030
0000
1001
0000
,
0012
0000
0000
0000
0103
0010
0000
0010
,
2000
3200
0320
0032
1003
0000
1001
0000
,
2010
0000
0000
0000
0000
0000
3010
0100
0001
0000
0010
0000
0000
0000
0010
0000
,
0002
2003
3020
0230
0310
1000
0001
0001
,
1002
0000
0000
0103
0110
0010
0000
1000
,
0100
1000
0001
0000
0100
0001
1000
0001
0010
0000
0000
0000
0011
0000
0000
0000
,
1000
0000
0200
0000
0000
0000
0310
0001
1000
0000
0001
0000
0100
0010
0100
0000
,
0002
0023
0230
2300
3010
0100
0110
0000
,
2002
0000
0000
0000
,
0000
0000
0000
0000
0000
3003
0200
0300
,
2001
0000
0000
3100
0010
0001
0100
0100
,
0010
0000
1000
0000
0200
0000
0000
0000
0310
0000
0000
0010
0000
0000
0010
0000
,
0001
0000
0100
0000
0100
0000
0100
0000
0001
0010
0001
0010
0100
1000
0100
1000
,
0001
0000
0100
0000
2200
0000
3300
0000
0102
0000
0103
0001
2000
0000
3000
0000
,
1002
0000
0000
0000
0000
0000
0000
0000
0000
0103
0000
0000
0010
0000
0000
1000
0000
0000
0100
0000
0010
0000
0100
0000
,
2000
0000
3020
0000
0032
0000
0013
0000
1000
0000
0000
1000
0000
0000
1000
0000
,
0001
0000
0010
0000
0001
0100
0001
0100
0010
0000
1010
0000
1000
0000
0100
0000
,
0020
0000
1000
0031
,
1002
0000
0000
0103
0002
0023
2030
0000
,
3002
0000
0203
0000
2300
0000
0000
0000
3010
0000
0000
0010
0000
0000
0010
0000
,
1000
0100
1000
0100
0010
0000
0010
0001
0100
0000
0100
0000
0010
0000
0010
0000
,
1000
0000
0100
0000
0102
0000
0103
0000
2100
0000
3100
1000
0002
0000
0003
0000
,
2001
0000
0000
0000
0000
0000
0000
0000
0000
3100
0000
0000
2000
0000
0000
3020
0000
0000
0130
0000
1000
0000
0100
0000
,
0002
0000
0023
0000
1030
0000
0010
0000
0100
0000
0000
0100
0000
0000
0100
0000
,
1000
0000
1000
0000
0001
0100
0010
0100
0001
0010
0100
0010
0001
0000
0001
0000
,
2001
0000
0000
0000
0100
0000
3001
0100
,
0010
0000
1000
0000
1000
0000
0100
0000
0010
0000
0001
0000
0001
0000
0100
0010
,
0100
0000
0001
0000
0001
0000
0100
0010
0100
0000
1000
0000
0200
0000
0000
0000
,
0310
0000
1000
0000
1000
0000
0001
1000
0010
0000
1000
0000
1000
0000
0100
0010
,
0100
0000
0001
0000
0001
0000
0100
0010
0100
0000
1000
0000
0001
0000
0001
0000
,
1000
0000
0010
0100
0001
0000
0001
0000
0010
0000
0100
0000
1000
0000
0100
1000
,
0001
0000
0100
0010
1000
0000
1000
0000
0010
0000
0000
0000
0110
0000
0000
0000
,
0001
0000
0100
0001
0100
0000
1000
0100
0010
0000
0100
0000
0001
0000
1000
0000
,
0020
0230
0302
2003
3200
0000
0310
0010
,
0002
0000
0000
0000
,
0000
0000
0000
0000
0000
0000
0000
0000
1003
0100
1000
0100
0010
0001
0010
0001
,
2000
0000
0000
3010
0002
0023
2030
0000
,
3002
0000
0023
0000
0230
0000
0302
0000
0103
0000
0000
0100
0000
0000
0100
0000
,
1000
0000
0100
0000
0100
0000
0001
0100
1000
0100
0001
0100
1000
0100
0001
0100
,
0010
0000
0100
0000
0220
0000
0330
0000
2001
0000
3100
1000
0002
0000
0003
0000
,
2001
0000
0000
3100
0002
2003
3020
0000
,
0032
0000
0203
0000
0320
0000
0032
0000
0013
0000
0000
0010
0000
0000
0010
0000
,
1000
0100
0100
0001
0100
1000
0100
0001
0100
0000
0110
0000
1001
0000
1100
0000
,
0001
0000
0100
0100
0000
1000
0001
0000
0010
0000
0010
1000
0000
0001
0010
0000
,
1002
0000
0000
0203
0320
0032
2003
0000
,
3002
0000
0023
0000
2030
0000
3200
0000
0301
0000
0000
0001
0000
0000
0001
0000
,
0100
0100
1000
0100
0001
0100
1000
0100
0010
0000
0110
0000
1001
0000
1100
0000
,
0001
0000
0010
0000
1002
0000
0013
0000
0201
0000
0310
1000
0002
0000
0003
0000
,
1200
0000
0000
0000
0000
0000
0000
0000
0000
1300
0000
0000
0200
0000
0000
0302
0000
0000
1003
0000
0010
0000
0100
0000
,
2000
0000
3020
0000
0032
0000
2003
0000
3100
0000
0000
0100
0000
0000
0100
0000
,
0001
0000
0010
0000
0010
1000
0010
0100
0010
0001
0010
0100
0010
0000
1001
0000
,
0011
0000
0010
0001
0100
0000
0100
1000
0010
0000
0010
0001
1000
0100
0010
0001
,
1000
0100
0010
0100
0101
0001
0100
1000
,
0010
0000
0100
0010
0001
0000
0010
0000
1000
0000
0001
0000
1001
0000
0001
0000
,
1000
0000
0010
0000
0100
0000
0010
1000
0001
0000
0010
0000
1000
0000
0010
0000
,
0100
0000
0010
0001
1000
0000
0010
0000
0100
0000
0010
0000
0001
0000
0001
0000
,
1000
0100
0001
0010
0100
1000
0001
0000
,
1000
0100
0010
1000
0001
0100
1000
0000
,
0010
0200
0000
0000
0301
0000
0010
0200
,
0000
1300
0002
0000
0000
1000
1000
1003
,
2002
0000
0000
0000
,
0000
0000
0000
0000
,
0000
0000
3003
0000
;
