#TITLE:RISE UP;
#ARTIST:Super Momo Tarosans;
#BANNER:RISE UP.png;
#BACKGROUND:RISE UP-bg.png;
#JACKET:RISE UP-jacket.png;
#CDTITLE:./CDTITLES/GITADORA.PNG;
#MUSIC:RISE UP.ogg;
#SAMPLESTART:63.928;
#SAMPLELENGTH:15;
#BPMS:0=168;

//---------------dance-single - t7r----------------
#NOTES:
     dance-single:
     t7r:
     Beginner:
     4:
     :
0000
0000
0000
0000
,
0000
0000
0000
0000
,
0000
0000
0000
0000
,
0000
0000
0000
0000
,
0000
0000
0000
0000
,
0010
0000
0000
0000
,
1000
0000
0000
0000
,
0001
0000
0000
0000
,
0100
0000
0000
0000
,
0001
0000
0001
0000
,
0001
0000
0000
0000
,
1000
0000
0000
0000
,
0010
0000
0000
0000
,
1000
0000
1000
0000
,
1000
0000
0000
0000
,
0001
0000
0001
0000
,
0001
0000
0000
0000
,
0000
0100
0000
0100
,
0100
0000
0100
0000
,
0000
0010
0000
0010
,
0010
0000
0010
0000
,
0000
1000
0000
1000
,
1000
0000
1000
0000
,
0001
0000
0001
0000
,
1000
0000
1000
0000
,
0010
0000
0000
0000
,
0010
0000
0000
0000
,
0100
0000
0000
0000
,
0100
0000
0000
0000
,
0001
0000
0001
0001
,
0001
0000
0001
0000
,
1000
0000
1000
1000
,
1000
0000
1000
0000
,
0010
0000
0010
0010
,
0010
0000
0010
0000
,
0100
0000
0100
0100
,
0100
0000
0100
0000
,
0001
0000
0000
0000
,
1000
0000
0000
0000
,
0100
0000
0000
0000
,
0010
0000
0000
0000
,
0001
0000
0000
0000
,
1000
0000
0000
0000
,
0010
0000
0010
0000
,
0100
0000
0000
0000
,
0010
0000
0000
0000
,
0000
0000
0000
1000
,
1000
0000
0001
0000
,
1000
0000
0000
0000
,
0010
0000
0000
0000
,
0000
0000
0000
0100
,
0100
0000
0010
0000
,
0100
0000
0000
0000
,
0010
0000
0000
0000
,
1000
0000
0001
0000
,
0010
0000
0000
0000
,
0001
0000
1000
0000
,
0010
0000
0000
0000
,
0100
0000
0001
0000
,
0010
0000
0000
0000
,
0100
0000
1000
0000
,
0001
0000
0000
0000
,
1000
0000
0000
0000
,
0010
0000
0010
0000
,
0010
0010
0010
0000
,
0100
0000
0000
0000
,
0001
0000
0000
0000
,
1000
0000
0000
0000
,
0100
0000
0000
0000
,
0000
0000
0010
0000
,
0000
0000
1001
0000
,
0000
0000
0000
0000
,
0000
0000
0000
0000
,
0010
0000
0000
0000
;

//---------------dance-single - t7r----------------
#NOTES:
     dance-single:
     t7r:
     Easy:
     6:
     :
0000
0000
0000
0000
,
0000
0000
0000
0000
,
0000
0000
0000
0000
,
0000
0000
0000
0000
,
0000
0000
0000
0000
,
0020
0000
1030
0000
,
0100
0010
0001
0000
,
0200
0000
0310
0000
,
1000
0001
0010
0000
,
0002
0000
0103
0000
,
0010
1000
0001
0100
,
0020
0000
1030
0001
,
0000
1000
1001
0000
,
0001
0010
0001
0010
,
0100
1000
0100
1000
,
0001
0100
0001
0100
,
0010
1000
0010
1000
,
0000
0001
0000
0001
,
0001
0000
1000
0100
,
0000
1000
0000
1000
,
1000
0000
0010
1000
,
0001
0010
0000
0100
,
0100
0000
0010
0001
,
1000
1001
0000
0110
,
0000
0001
1000
0001
,
1000
0100
0010
0010
,
0001
0100
0010
0010
,
1000
0001
0010
0010
,
0000
0001
1000
0000
,
0001
0100
0002
0003
,
1000
0100
2000
3000
,
0010
0100
0020
0030
,
1000
0001
0020
0030
,
0100
1001
0000
1001
,
0010
0110
0000
0110
,
0001
1000
0010
0000
,
1000
0100
0010
0000
,
0001
0100
1000
0100
,
0002
0000
1003
0001
,
1000
0100
0001
0100
,
2000
0000
3001
1000
,
0001
0010
1000
0010
,
0002
0000
1003
0001
,
1000
0010
0001
0010
,
0100
0000
0000
0100
0000
0000
0100
0000
0000
0000
0000
0000
0000
0000
0000
0000
,
0020
1000
0000
1000
,
0030
0100
0000
0100
,
0010
1000
0001
0000
,
0010
0001
1000
0000
,
0020
0100
0000
0100
,
0030
0001
0000
0010
,
1000
0000
0001
0000
,
1000
0100
0010
0000
,
0001
0100
0010
0100
,
1000
0100
0001
0001
,
1000
0100
0010
0100
,
0001
0100
1000
1000
,
0010
0100
0010
0001
,
0010
0010
1000
0001
,
1000
0200
0000
0310
,
0000
0001
1000
0010
,
0110
0000
0000
0000
0000
0000
0000
0001
,
1000
0000
0000
0000
0000
0000
0000
0001
,
1000
0000
0000
0001
1000
0000
0000
0001
,
1000
0001
1000
0001
1000
0000
0000
0000
,
0001
0010
0200
1300
,
1000
0010
0200
0301
,
0001
1000
0020
0130
,
0000
0010
1000
0001
,
0000
1000
0100
0010
,
0000
0001
0200
0000
,
0010
0000
0010
0000
,
0010
0000
0010
0000
,
0301
0000
0000
0000
;

//---------------dance-single - t7r----------------
#NOTES:
     dance-single:
     t7r:
     Medium:
     9:
     :
0000
0000
0000
0000
,
0000
0000
0000
0000
,
0000
0000
0000
0000
,
0000
0000
0000
0000
,
0000
0000
0000
0000
,
1000
0100
0010
0100
,
1000
1010
1000
1100
,
0001
0100
0010
0100
,
0001
0011
0001
0101
,
0002
1000
0203
0000
,
0310
1010
1000
1001
,
2000
0001
0010
3100
,
0000
0000
1000
0000
0000
0001
0000
0000
2000
0000
0000
0000
3000
0000
0000
0000
,
0001
0100
0001
0000
1000
0000
1000
0000
,
0001
0010
0001
0000
1000
0000
0100
0000
,
1000
0010
1000
0000
0001
0000
0001
0000
,
1000
0100
0010
0001
,
1000
0100
0001
0100
,
1000
0010
0100
0110
,
0001
0100
1000
0100
,
0001
0010
0100
0110
,
1000
0010
0001
0010
,
0100
0010
1000
1001
,
0100
1100
0000
1100
,
1000
1001
0001
0100
,
0020
1000
1030
0001
,
1000
0100
0010
0001
,
0100
0010
0010
1000
,
0000
0000
0001
0000
0000
1000
0000
0000
0002
0000
0000
0000
0003
0000
0000
0000
,
1000
0100
0000
1000
0100
0000
0010
0100
,
0000
0010
0100
0000
1000
0000
1001
0000
,
0001
0100
0000
0001
0100
0000
0010
0100
,
0000
0010
0100
0000
0001
0000
0101
0000
,
0100
1001
0000
1010
,
0000
0011
0001
1001
,
1000
0010
0000
1000
0010
0000
0100
0010
,
0000
0100
0010
0000
1000
0000
0001
0000
,
2000
0000
0000
0100
0000
0000
3001
0000
,
0000
1000
0000
0000
0001
0000
1001
0000
,
0002
0000
0000
0100
0000
0000
1003
0000
,
0000
0001
0000
0000
0100
0000
0110
0000
,
0020
0000
0000
1000
0000
0000
0130
0000
,
0000
0001
0000
0000
0010
0000
0100
0000
,
1000
0000
0000
0001
0000
0000
1000
0000
0000
1000
0000
0000
0001
0000
0000
0000
,
0100
0000
0000
0010
0000
0000
0110
0000
0000
0000
0000
0000
0000
0000
0000
0000
,
0020
1000
0000
1000
,
0030
0000
0100
0000
0001
0010
0001
0000
,
1000
0000
0000
0000
0100
0000
0000
0000
0010
0000
0000
0100
0000
0000
1000
0000
,
0000
0001
0100
0000
0010
0100
0001
0000
,
0020
0001
0000
0001
,
0030
0000
0100
0000
0010
0001
1000
0000
,
0010
0000
0100
0000
0001
0000
1000
0100
,
0000
0010
0100
0000
1000
0000
0001
0000
,
1000
0010
1000
0000
0010
0000
0100
0000
,
0001
0010
0001
0000
1000
0000
0001
0000
,
1000
0100
1000
0000
0100
0000
0100
0000
,
0001
0100
1000
0000
1001
0000
0001
0000
,
0012
1000
0103
0000
,
0010
1000
0010
0000
1000
0000
0001
0000
,
1000
0000
1100
0000
1000
0001
0100
0001
,
0000
0000
1000
0000
0000
1000
0000
0000
0001
0000
0000
0001
0000
0000
0100
0000
,
0010
0000
0000
0000
0000
0000
0000
0100
,
0010
0000
0000
0000
0000
0000
0000
0100
,
0100
0000
0000
0010
0010
0000
0000
0100
,
0100
0010
0010
0100
0100
0000
1001
0000
,
0001
0000
0000
0010
0000
0000
0002
0000
0000
0000
1003
0000
0010
0000
0000
0000
,
1000
0000
0000
0001
0000
0000
2000
0000
0000
0000
3100
0000
0010
0000
0000
0000
,
0001
0000
0000
0100
0000
0000
0002
0000
0000
0000
0103
0000
0010
0000
0000
0000
,
0000
1000
0100
0000
1000
0001
1000
0001
,
0000
0000
0100
0000
0000
0100
0000
0000
0100
0000
0000
0000
0010
0000
0010
0000
,
0000
0000
1000
0000
0000
0001
0000
0000
2000
0000
0000
0000
0000
0000
0000
0000
,
0100
0000
0100
0000
,
0100
0000
0100
0000
,
3001
1000
0000
0000
0000
0000
0000
0000
;

//---------------dance-single - t7r----------------
#NOTES:
     dance-single:
     t7r:
     Hard:
     13:
     :
0000
0000
0000
0000
,
0000
0000
0000
0000
,
0000
0000
0000
0000
,
0000
0000
0000
0000
,
0000
0000
0000
0000
,
0010
0001
1000
0100
,
1000
0000
0000
0010
0100
0000
0000
0000
0001
0000
0000
0010
0100
0000
0000
0000
,
1000
0010
0100
0001
,
0010
0000
0000
0100
1000
0000
0000
0000
0010
0000
0000
0100
0001
0000
0000
0000
,
0100
0010
1000
0001
,
0010
0000
0000
0001
0100
0000
0000
0000
0010
0000
0000
1000
0100
0000
0000
0000
,
1000
0000
0010
0000
0100
0000
0001
1000
,
0000
0000
0100
0000
0000
0010
0000
0000
0220
0000
0000
0000
0330
0000
0000
0000
,
0001
0000
0000
0001
0010
0000
0000
0010
0100
0000
0000
0100
1000
0000
0000
1000
,
0001
0000
0000
0001
0100
0000
0000
0100
0010
0000
0000
0010
1000
0000
0000
1000
,
0100
0000
0000
0100
0010
0000
0000
0010
0001
0000
0000
0001
1000
0000
0000
1000
,
0010
0000
0000
0010
0100
0000
0000
0100
0001
0000
1000
0000
0001
0000
1000
0000
,
0001
0011
0001
1001
,
0001
0100
0010
1000
0100
0000
1100
0000
,
1000
1010
1000
1001
,
1000
0100
0010
0001
0100
0000
0101
0000
,
0001
1001
1000
1010
,
0001
0100
0010
1000
0100
0000
0011
0000
,
1001
0000
1000
0100
0000
0001
0100
0000
,
1000
0010
0000
0100
0010
1000
0001
0000
,
1000
0000
0000
1000
0100
0000
0000
0100
0010
0000
0001
0000
0100
0000
0000
0000
,
0001
0000
0000
0001
0010
0000
0000
0010
0100
0000
1000
0000
0010
0000
0000
0000
,
0100
0000
0000
0100
0001
0000
0000
0001
1000
0000
0010
0000
0100
0000
0010
0000
,
0000
0000
1000
0000
0000
0001
0000
0000
1001
0000
0000
0001
0000
0000
0010
0000
,
0001
0100
0001
1000
0100
1000
0001
0010
,
0001
1000
0010
1000
0100
0010
0001
0000
,
1000
0010
1000
0001
0010
0001
1000
0100
,
1000
0001
0100
0001
0100
0010
1000
0000
,
0100
0011
0100
1010
,
0100
1001
0010
0110
,
1000
0100
0010
0001
0100
0010
1000
0010
,
0100
0001
0010
0100
1000
0001
0100
0000
,
1010
0000
0000
1000
0000
0000
0100
0000
0000
0000
0000
0000
0011
0000
0000
0000
,
0001
1000
0100
0000
1000
0001
0100
0000
,
0110
0000
0000
0010
0000
0000
1000
0000
0000
0100
0000
0000
1100
0000
0000
0000
,
1000
0010
0100
0000
0001
1000
0100
0000
,
0011
0000
0000
0001
0000
0000
0100
0000
0000
0000
0000
0000
1010
0000
0000
0000
,
1000
0100
0010
0000
0001
0100
0010
0000
,
1000
0000
0000
0010
0000
0000
0001
0000
0000
0010
0000
0000
0100
0000
0001
0000
,
1000
0000
0000
1001
0000
0000
0210
0000
0000
0000
0000
0000
0301
0000
0000
0000
,
0020
0100
1000
0001
,
0130
0000
0110
0000
0001
1000
0010
0000
,
1000
0000
0000
0000
0010
0000
0000
0000
0001
0000
0000
1000
0000
0000
0100
0000
,
0000
0001
0100
0000
0010
1000
0001
0000
,
0020
0100
0001
1000
,
0130
0000
0110
0000
1000
0001
0010
0001
,
0100
0000
1000
0100
0010
0000
1000
0100
,
0000
0001
0100
0000
1000
0001
0100
0000
,
1020
0000
0001
0000
1030
0100
0010
0000
,
0001
0010
0100
0001
0100
0000
1100
0000
,
0021
0000
1000
0000
0031
0100
0010
0000
,
1000
0010
0100
1000
0100
0000
0101
0000
,
2001
0000
0100
0000
3001
1000
0100
0000
,
0010
0001
0100
0010
1000
0000
0110
0000
,
1000
0001
0100
0000
0001
1000
0100
0010
,
0000
0000
0011
0000
0000
0001
0000
0000
1001
0000
0000
1000
0000
0000
0010
0000
,
0200
0000
0000
0000
0000
0000
0000
0310
,
2010
0000
0000
0000
0000
0000
0000
3001
,
1001
0000
0000
1000
1001
0000
0000
0001
,
0001
1000
1000
0001
1001
0000
0110
0000
,
1000
0000
0000
1000
0100
0000
0020
0000
0000
0000
0031
0000
0100
0000
1000
0000
,
0100
0000
0000
0100
0010
0000
2000
0000
0000
0000
3001
0000
0010
0000
1000
0000
,
0010
0000
0000
0010
0100
0000
2000
0000
0000
0000
3001
0000
0100
0000
0010
0000
,
0000
0000
0100
0000
0100
0000
0000
0000
0110
0000
0000
0110
0000
0000
0001
0000
,
0000
0000
1100
0000
0000
1100
0000
0000
1001
0000
0000
0000
0001
0000
1000
0001
,
0000
0000
0011
0000
0000
0011
0000
0000
1200
0000
0000
0000
0000
0000
0000
0000
,
0010
0000
0010
0000
,
0010
0000
0010
0000
,
1300
0001
0100
0000
0000
0000
0000
0000
0000
0000
0000
0000
0000
0000
0000
0000
;

//---------------dance-single - t7r----------------
#NOTES:
     dance-single:
     t7r:
     Challenge:
     17:
     :
0000
0000
0000
0000
,
0000
0000
0000
0000
,
0000
0000
0000
0000
,
0000
0000
0000
0000
,
0000
0000
0000
0000
,
1000
0000
0100
0010
0001
0000
0100
0000
0010
0000
1000
0001
0010
0000
0001
0000
,
1000
0000
0100
1000
0010
0000
0100
0000
0001
0000
0010
0001
0100
0000
0001
0000
,
1000
0000
0010
0100
0001
0000
0010
0000
0100
0000
1000
0001
0010
0000
0001
0000
,
0100
0000
0010
1000
0100
0000
0010
0000
0100
0000
0010
0001
0100
0000
0010
0000
,
1000
0000
0100
1000
0010
0000
1000
0100
0010
0000
0100
1000
0010
0000
1000
0000
,
0001
0000
0100
0001
0010
0000
0001
0100
0010
0000
0100
0001
0010
0000
0001
0000
,
1001
0000
0001
0100
0010
0000
1000
0100
0010
0000
0100
1000
0001
1000
0001
1000
,
0010
0000
0110
0000
0000
0101
0000
0000
2010
0000
0000
0000
3001
1000
0001
1000
,
0001
0010
0100
1000
0100
0010
0001
0100
0010
1000
0010
0100
0001
1000
0100
0010
,
0100
1000
0010
0100
0001
1000
0100
0010
0100
1000
0010
0100
0001
1000
0010
0100
,
0001
0010
0100
1000
0100
0010
0001
1000
0010
0100
0001
0100
0010
1000
0100
0010
,
0001
0000
0100
0010
1000
0000
0100
0010
0001
0000
1000
0001
1000
0001
1000
0001
,
1000
0000
0100
0000
1100
0000
0100
0000
1000
0000
0010
1000
0000
0010
0001
0000
,
0010
0100
0101
0001
0010
0000
0011
0000
,
0001
0000
0100
0000
0101
0000
0100
0000
0001
0000
0010
1000
0000
0010
0001
0000
,
1000
0000
0100
0000
0101
0000
0001
0100
0010
0000
0001
1000
0001
1000
0001
1000
,
0002
0203
2300
3002
0023
0230
0302
0023
,
2030
3002
0203
0320
0031
0000
0011
0000
,
1001
0000
1010
0010
0001
0010
1010
0000
,
0011
0000
0010
1000
0010
0000
0001
0100
0010
1000
0100
0010
0001
0100
0010
0100
,
0001
0010
0100
1000
0010
0100
0001
1000
0100
0010
0001
1000
0010
0100
0010
1000
,
0001
0100
0010
1000
0100
0010
0100
1000
0001
0100
0010
1000
0001
0010
0001
1000
,
0010
0100
0010
1000
0100
0010
0001
0100
0010
1000
0001
0010
0100
0010
0001
1000
,
0001
0100
0010
0000
0000
0110
0000
0000
1010
0000
0000
1001
0000
0000
1100
0000
,
1000
0100
0010
0100
0001
0000
0100
0010
0100
0001
0100
0000
0001
0100
0010
0100
,
1000
0000
0001
0100
0010
0100
1000
0000
0100
0001
1000
0100
0010
0001
1000
0000
,
0001
0010
0100
0010
1000
0000
0010
0100
0010
1000
0010
0000
1000
0010
0100
0010
,
0001
0000
1000
0010
0100
0010
0001
0000
0010
1000
0001
0010
0100
1000
0001
0010
,
0100
0010
1001
0010
0100
0010
1100
0010
,
0100
0010
1001
0010
0101
0000
1100
0000
,
0001
0010
0100
0001
0100
0000
1000
0010
0100
1000
0100
0000
0001
0100
0010
1000
,
0100
0000
0001
0100
1000
0000
0001
0100
1000
0100
0010
1000
0100
0010
0001
1000
,
0010
0000
1000
0100
0000
0000
1001
0000
0000
0000
0001
0000
1010
0000
0010
0100
,
0010
1000
0010
0000
0001
0010
1000
0001
0010
0100
0010
0001
0010
0001
1000
0000
,
1001
0000
1000
0100
0000
0100
0001
0000
1000
0010
0000
0010
0001
1000
0001
1000
,
0001
0010
0100
0010
1000
0010
0100
0010
0001
0100
0010
0100
1000
0100
0010
0100
,
0001
0000
1000
0100
0000
0000
1100
0000
0000
0011
0000
0000
1001
0000
0001
1000
,
0010
0000
0100
0001
1000
0000
0001
0010
0100
1000
0010
0100
0001
1000
0100
1000
,
0010
0000
1000
0100
0000
0100
0001
0000
1000
0010
0000
0010
0001
1000
0001
1000
,
0001
0000
0000
0110
0000
0000
1002
0000
0000
0000
0000
0000
1003
0000
0000
0000
,
0020
0000
1000
0001
0000
0000
0001
1000
0000
0000
1000
0001
0000
0000
0001
1000
,
0030
1000
0001
1000
0100
0010
1000
0010
,
0100
0000
0000
0000
1100
0000
0000
0000
0011
0000
0001
0100
0000
1000
0100
0000
,
0010
0100
0101
0000
0010
0100
1100
0000
,
0020
0000
1000
0100
0000
0000
0001
0100
0000
0000
1000
0100
0000
0000
0001
0100
,
0030
1000
0001
0100
0010
0001
0010
0100
,
0101
0000
0000
0000
0001
0000
0010
0001
1000
0000
0010
1000
0001
0000
1001
0000
,
0000
0000
1000
0000
0001
0000
0010
0100
1000
0010
0100
0001
1000
0100
0010
0001
,
0020
0000
0001
0000
0001
0000
0100
0000
0001
0000
0000
0001
0000
0000
1000
0000
,
0000
0031
0010
1000
0001
0100
1000
0000
,
0020
1000
1000
0000
0100
0100
0100
0000
,
0031
0000
0010
0000
1000
0000
0100
0010
0001
0000
0100
0000
1010
0000
0000
0000
,
1002
0010
0010
0000
1000
1000
1000
0000
,
0100
0100
0013
0001
1000
0100
0001
0100
,
0010
0000
0000
0000
1001
0000
0000
0001
1000
0001
1000
0100
0010
0001
0100
0010
,
1000
0000
1010
0000
0000
0101
0000
0000
1100
0000
0000
0011
0000
0000
1001
0000
,
0110
0000
0000
0000
0000
0000
0000
1001
,
1001
0000
0000
0000
0000
0000
0000
0110
,
1001
0000
0000
0000
0100
0010
0100
0000
1001
0000
0001
0000
1000
0100
0010
0001
,
0100
0000
1000
0100
0001
0000
1000
0100
0001
0000
0100
1000
0001
0100
0010
1000
,
0001
0000
0010
1000
0010
0000
0100
0000
0001
0000
0100
0010
0001
0000
1000
0000
,
0001
0000
0100
1000
0100
0000
0010
0000
0001
0000
0010
0100
0001
0000
1000
0000
,
0100
0000
0001
0100
0001
0000
0100
0000
0010
0000
0001
1000
0010
0100
0001
1000
,
0010
0100
0001
0010
0100
1000
0001
0010
0001
0100
0010
0100
1000
0100
0010
0100
,
0001
0000
1001
0000
0000
1100
0000
0000
0011
0000
0001
1000
0010
0100
0010
0100
,
0001
1000
0100
0000
0000
1100
0000
0000
0012
0000
0000
0000
0000
0000
0000
0000
,
1000
0000
1000
0000
,
1000
0000
1000
0000
,
1003
0100
0001
0000
0000
0000
0000
0000
0000
0000
0000
0000
0000
0000
0000
0000
;

//---------------dance-double - t7r----------------
#NOTES:
     dance-double:
     t7r:
     Easy:
     6:
     :
00000000
00000000
00000000
00000000
,
00000000
00000000
00000000
00000000
,
00000000
00000000
00000000
00000000
,
00000000
00000000
00000000
00000000
,
00000000
00000000
00000000
00000000
,
02000000
00000000
03010000
00000000
,
00100000
00001000
00010000
00000000
,
00000200
00000000
00001300
00000000
,
00000010
00000100
00000001
00000000
,
00000020
00000000
00000130
00000000
,
00010000
00001000
00010000
01000000
,
20000000
00000000
30100000
01000000
,
00000000
00010000
10010000
00000000
,
10000000
00100000
10000000
00100000
,
01000000
00010000
01000000
00010000
,
00100000
00001000
00100000
00001000
,
00010000
00000100
00000010
00000001
,
00000100
00000010
00000000
00000010
,
00001000
00000000
00000100
00010000
,
00001000
00100000
00000000
00010000
,
10000000
00000000
01000000
00100000
,
00001000
00010000
00000000
00000010
,
00000100
00000000
00000010
00001000
,
00000100
00010100
00000000
00011000
,
00000000
00001000
01000000
00010000
,
10000000
01000000
00100000
00100000
,
00001000
00010000
00000100
00000100
,
00001000
00000010
00000100
00000100
,
00000000
00000001
00000010
00001000
,
00010000
01000000
00010000
01000000
,
10000000
00010000
01000000
00001000
,
00100000
00001000
00100000
00001000
,
00010000
00001000
00000100
00000001
,
00000010
00000110
00000000
00001001
,
00000000
00001100
00000100
00010000
,
00001000
00010000
01000000
10000000
,
00100000
01000000
00010000
00100000
,
00002000
00000000
00013000
00000000
,
00000100
00001000
00000010
00000100
,
00000002
00000000
00000013
00000000
,
00000100
00010000
00001000
00010000
,
00200000
00000000
10300000
00000000
,
01000000
00010000
01000000
00100000
,
00001000
00010000
00001000
00000100
,
00000001
00000000
00000000
00000001
00000000
00000000
00000001
00000000
00000000
00000000
00000000
00000000
00000000
00000000
00000000
00000000
,
00000020
00000001
00000000
00000100
,
00000030
00001000
00000000
00010000
,
00001000
01000000
00010000
00000000
,
10000000
01000000
10000000
00000000
,
00200000
10000000
00000000
01000000
,
00300000
00010000
00000000
00001000
,
00010000
00000000
00000100
00000000
,
00001000
00000010
00000100
00000000
,
00000001
00000010
00000001
00000010
,
00001000
00010000
00001000
00001000
,
00010000
01000000
00010000
01000000
,
10000000
00010000
10010000
00000000
,
10000000
01000000
10000000
01000000
,
00010000
00001000
00010000
00010000
,
00001000
00000010
00001000
00000010
,
00000001
00000100
00000110
00000000
,
00011000
00000000
00000000
00000000
00000000
00000000
00000000
00001000
,
00010000
00000000
00000000
00000000
00000000
00000000
00000000
00010000
,
10000000
00000000
00000000
00010000
10000000
00000000
00000000
10000000
,
00010000
00001000
00000001
00000000
,
00000100
00001000
00000200
00000300
,
00000010
00010000
00002000
00003000
,
00100000
00010000
02000000
03000000
,
00100000
10000000
01000000
01000000
,
00010000
00001000
00011000
00000000
,
00000000
00000010
00000210
00000000
,
00000001
00000000
00000001
00000000
,
00000001
00000000
00000001
00000000
,
00000310
00000000
00000000
00000000
;

//---------------dance-double - t7r----------------
#NOTES:
     dance-double:
     t7r:
     Medium:
     9:
     :
00000000
00000000
00000000
00000000
,
00000000
00000000
00000000
00000000
,
00000000
00000000
00000000
00000000
,
00000000
00000000
00000000
00000000
,
00000000
00000000
00000000
00000000
,
00000100
00010000
00001000
00100000
,
00001000
00010000
01000000
10000000
,
00100000
01000000
00100000
10000000
,
01000000
00010000
00001000
00000100
,
00000010
00001000
00000100
00010000
,
00001000
00010000
00100000
01000000
,
00020000
00000000
00100000
00000000
10030000
00000000
01000000
00100000
,
00000000
00000000
01000000
00000000
00000000
10000000
00000000
00000000
00010000
00000000
00000000
00000000
00000000
00000000
00000000
00000000
,
10000000
01000000
10000000
00000000
01000000
00000000
00100000
00000000
,
00010000
00100000
00010000
00000000
00100000
00000000
00001000
00000000
,
00010000
00001000
00010000
00000000
00000100
00000000
00001000
00000000
,
00000010
00000000
00000110
00000000
00001000
00000001
00001000
00000000
,
00000001
00000010
00000100
00000010
,
00000001
00000100
00000001
00000000
00000100
00000000
00001000
00000000
,
00010000
00100000
01000000
00100000
,
10000000
01000000
10000000
00000000
01000000
00000000
00010000
00000000
,
01000000
10000000
00000000
01000000
10000000
00000000
01000000
00100000
,
00000000
01000000
00100000
00000000
00001000
00000000
00010000
00000000
,
00001000
00000110
00000000
00000110
,
00000000
00001001
00000001
00000010
,
00000001
00000000
00000100
00000000
00000010
00001000
00000010
00000000
,
00001000
00000000
00000100
00000000
00010000
00001000
00010000
00000000
,
00001000
00000000
01000000
00000000
00100000
10000000
00100000
10000000
,
00000000
00000000
00010000
00000000
00000000
10000000
00000000
00000000
02000000
00000000
00000000
00000000
03000000
00000000
00000000
00000000
,
10000000
00100000
00000000
10000000
00100000
00000000
10000000
00010000
,
00000000
10000000
00010000
00000000
10000000
00000000
01000000
00000000
,
00010000
00001000
00000000
00010000
00001000
00000000
00000010
00000001
,
00000000
00000010
00000001
00000000
00000100
00000000
00000010
00000000
,
00000100
00001001
00000000
00000110
,
00000000
00010010
00010000
00001000
,
00010000
01000000
00000000
00010000
01000000
00000000
10000000
00010000
,
00000000
10000000
00010000
00000000
01000000
00000000
00001000
00000000
,
00100000
00000000
00000000
00001000
00000000
00000000
00011000
00000000
,
00000000
00010000
00000000
00000000
00000010
00000000
00000100
00000000
,
00000001
00000000
00000000
00000010
00000000
00000000
00000100
00000000
,
00000000
00010100
00000000
00000000
00010000
00000000
00001000
00000000
,
00010000
00000000
00000000
00100000
00000000
00000000
10000000
00000000
,
00000000
10010000
00000000
00000000
10000000
00000000
01000000
00000000
,
10000000
00000000
00000000
00010000
00000000
00000000
01000000
00000000
00000000
00001000
00000000
00000000
00010000
00000000
00000000
00000000
,
00001000
00000000
00000000
00000100
00000000
00000000
00000110
00000000
00000000
00000000
00000000
00000000
00000000
00000000
00000000
00000000
,
00000020
00001000
00000000
00001000
,
00000030
00000000
00000100
00000000
00000001
00000010
00000001
00000000
,
00001000
00000000
00000000
00000000
00000100
00000000
00000000
00000000
00010000
00000000
00000000
00001000
00000000
00000000
00010000
00000000
,
00000000
01000000
10000000
00000000
00010000
00000000
01000000
00000000
,
00200000
10000000
00000000
10000000
,
00300000
00000000
01000000
00000000
00010000
00100000
00010000
00000000
,
10000000
00000000
00100000
01000000
00010000
00000000
00100000
00001000
,
00000000
00010000
00001000
00000000
00000010
00000000
00000100
00000000
,
00000010
00000001
00000010
00000000
00000001
00000000
00000100
00000000
,
00001000
00010000
00100000
10000000
,
00010000
00100000
00010000
00000000
10000000
00000000
01000000
00000000
,
00100000
00001000
00010000
00001000
,
00021000
00000010
00000000
00030010
,
00000100
00000001
00001000
00000000
00000100
00010000
00001000
00000000
,
00010000
00000000
01000000
00000000
10000000
00000000
00100000
01000000
,
00000000
00000000
00100000
00000000
00000000
00100000
00000000
00000000
10000000
00000000
00000000
00010000
00000000
00000000
10000000
00000000
,
01000000
00000000
00000000
00000000
00000000
00000000
00000000
10000000
,
00010000
00000000
00000000
00000000
00000000
00000000
00000000
01000000
,
00001000
00000000
00000000
00010000
00000100
00000000
00000000
00001000
,
00000001
00001000
00010000
00000000
10000000
00000000
10010000
00000000
,
10000000
00000000
00000000
01000000
00000000
00000000
00200000
00000000
00000000
00000000
01300000
00000000
10000000
00000000
00000000
00000000
,
00010000
00000000
00000000
01000000
00000000
00000000
00020000
00000000
00000000
00000000
00130000
00000000
00001000
00000000
00000000
00000000
,
00010000
00000000
00000000
00001000
00000000
00000000
00000200
00000000
00000000
00000000
00000301
00000000
00001000
00000000
00000100
00000000
,
00000000
00000000
00010000
00000000
00001000
00000000
00000000
00000000
00010000
00000000
00000000
01000000
00000000
00000000
00100000
00000000
,
00000000
00000000
00010000
00000000
00000000
10000000
00000000
00000000
00100000
00000000
00000000
00000000
00010000
00000000
00001000
00000000
,
00000000
00000000
00000100
00000000
00000000
00000010
00000000
00000000
00020000
00000000
00000000
00000000
00000000
00000000
00000000
00000000
,
00001000
00000000
00001000
00000000
,
00001000
00000000
00001000
00000000
,
00031000
01000000
00000000
00000000
00000000
00000000
00000000
00000000
;

//---------------dance-double - t7r----------------
#NOTES:
     dance-double:
     t7r:
     Hard:
     13:
     :
00000000
00000000
00000000
00000000
,
00000000
00000000
00000000
00000000
,
00000000
00000000
00000000
00000000
,
00000000
00000000
00000000
00000000
,
00000000
00000000
00000000
00000000
,
10000000
00000000
00000000
10000000
00100000
00000000
00000000
00000000
01000000
00000000
00000000
00000000
00010000
00000000
00000000
00000000
,
00100000
00000000
00000000
00001000
00010000
00000000
00000000
00000000
00000100
00000000
00000000
00001000
00000001
00000000
00000000
00000000
,
00000100
00000000
00000000
00000100
00000010
00000000
00000000
00000000
00001000
00000000
00000000
00000000
00000100
00000000
00000000
00000000
,
00010000
00000000
00000000
00001000
00010000
00000000
00000000
00000000
01000000
00000000
00000000
10000000
00100000
00000000
00000000
00000000
,
10000000
00000000
00000000
10000000
01000000
00000000
00000000
00000000
00010000
00000000
00000000
00000000
00001000
00000000
00000000
00000000
,
00000100
00000000
00000000
00000001
00000010
00000000
00000000
00000000
00000100
00000000
00000000
00010000
00001000
00000000
00000000
00000000
,
00012000
00000000
01000000
00000000
00010000
00000000
00103000
01000000
,
00000000
00000000
10000000
00000000
00000000
00010000
00000000
00000000
02000000
00000000
00000000
00000000
03000000
00000000
00000000
00000000
,
00010000
00100000
00001000
00000000
00000100
00000000
00000010
00000000
,
00001000
00000100
00010000
00000000
01000000
00000000
00100000
00000000
,
00010000
01000000
10000000
00000000
01000000
00000000
00010000
00000000
,
00100000
00001000
00010000
00000000
00001000
00000100
00000001
00000000
,
00000100
00001001
00000001
00000011
,
00000010
00001000
00010000
00000000
00001000
00000000
00011000
00000000
,
01000000
10010000
10000000
10100000
,
00100000
00010000
00001000
00000000
00010000
00000000
00011000
00000000
,
00001000
00000200
00000000
00000301
00002000
00000000
00003100
00020000
,
00000000
00031000
00010000
00000000
01000000
00000000
10010000
00000000
,
10100000
00000000
10000000
00100000
00000000
00010000
00001000
00000000
,
00000010
00000001
00000000
00000010
00000100
00010000
00001000
00000000
,
00010000
00000000
00000000
00010000
01000000
00000000
00000000
00000000
10000000
00000000
00000000
00000000
00010000
00000000
00000000
00000000
,
00100000
00000000
00000000
00100000
00001000
00000000
00000000
00000000
00010000
00000000
00000100
00000000
00001000
00000000
00000000
00000000
,
00000010
00000000
00000000
00000010
00000001
00000000
00000000
00000000
00000010
00000000
00000000
00000000
00000100
00000000
00000000
00000000
,
00000001
00000000
00000010
00000000
00000000
00001000
00000000
00000000
00010000
00000000
00000000
01000000
00000000
00000000
10000000
00000000
,
00010000
01000000
00010000
10000000
01000000
00000000
01000000
00010000
,
00000000
00010000
00001000
00000000
00000100
00000000
00001001
00000000
,
00001000
00000010
00001000
00000001
00000010
00000000
00000010
00001000
,
00000000
00001000
00010000
00000000
00100000
00000000
01100000
00000000
,
10000000
01000000
00000000
00010000
00001000
00000000
00000010
00000100
,
00000000
00001000
00010000
00000000
01000000
00000000
01010000
00000000
,
10000000
00100000
10000000
00010000
00100000
00000000
00100000
00001000
,
00010000
00001000
00000100
00000001
00001000
00000000
00001100
00000000
,
00000100
00000000
00000000
00010000
00000000
00000000
00001000
00000000
00000000
00000000
00000000
00000000
00011000
00000000
00000000
00000000
,
00001000
00010000
00100000
00000000
10000000
01000000
00100000
00000000
,
01000000
00000000
00000000
10000000
00000000
00000000
00100000
00000000
00000000
10000000
00000000
00000000
00100000
00000000
01000000
00000000
,
00000000
00010000
00100000
00000000
00001000
00010000
00000100
00000000
,
00001000
00000000
00000000
00000010
00000000
00000000
00000100
00000000
00000000
00000001
00000000
00000000
00000010
00000000
00000100
00000000
,
00000000
00010000
00001000
00000000
00010000
00000100
00001000
00000000
,
00000100
00000000
00000000
00001000
00000000
00000000
00010000
00000000
00000000
00100000
00000000
00000000
00010000
00000000
00001000
00000000
,
00000001
00000000
00000000
00001000
00000000
00000000
00001100
00000000
00000000
00000000
00000000
00000000
00011000
00000000
00000000
00000000
,
00200000
00010000
01000000
10000000
,
01300000
00000000
01100000
00000000
10000000
01000000
10000000
00000000
,
00100000
00000000
00000000
00000000
00010000
00000000
00000000
00000000
00001000
00000000
00000000
00000100
00000000
00000000
00000001
00000000
,
00000000
00001000
00000100
00000000
00000010
00000001
00001000
00000000
,
00000020
00000001
00000100
00001000
,
00000130
00000000
00000110
00000000
00000001
00000010
00000100
00000000
,
00010000
00000000
00001000
00010000
01000000
00000000
10000000
00010000
,
00000000
01000000
00010000
00000000
00100000
00001000
00010000
00000000
,
00000020
00000000
00000000
00000000
00001000
00000000
00000000
00000000
00000130
00000000
00000000
00000001
00000000
00000000
00000010
00000000
,
00000000
00001000
00010000
00000000
01000000
00000000
10000000
00000000
,
00200000
00000000
10000000
00000000
01300000
00000000
00010000
00100000
,
01000000
00000000
10000000
01000000
00010000
00000000
00001000
00000000
,
00000020
00000001
00000130
00000010
,
00000001
00000100
00000001
00000000
00001000
00000100
00010000
00000000
,
00001000
00010000
00100000
00000000
10000000
01000000
00100000
00001000
,
00000000
00000000
00011000
00000000
00000000
00011000
00000000
00000000
00010000
00000000
00000000
00001000
00000000
00000000
00000100
00000000
,
00000001
00000000
00000000
00000000
00000000
00000000
00000000
00010000
,
00000100
00000000
00000000
00000000
00000000
00000000
00000000
10000000
,
01000000
00000000
00000000
00010000
00001000
00000000
00000000
00000010
,
00000001
00000100
00001000
00010000
00100000
00000000
10100000
00000000
,
10000000
00000000
00000000
10000000
01000000
00000000
00200000
00000000
00000000
00000000
00310000
00000000
01000000
00000000
00000000
00000000
,
00001000
00000000
00000000
00001000
00010000
00000000
00000200
00000000
00000000
00000000
00001300
00000000
00000010
00000000
00000000
00000000
,
00000100
00000000
00000000
00000100
00000001
00000000
00000020
00000000
00000000
00000000
00001030
00000000
00010000
00000000
01000000
00000000
,
00000000
00000000
00100000
00000000
00100000
00000000
00000000
00000000
00001000
00000000
00000000
00011000
00000000
00000000
00010000
00000000
,
00001000
00000000
00000100
00000000
00000000
00000101
00000000
00000000
00001100
00000000
00000000
00000000
00000100
00000000
00010000
00000000
,
00001000
00000000
00010000
00000000
00000000
01010000
00000000
00000000
21000000
00000000
00000000
00000000
00000000
00000000
00000000
00000000
,
00010000
00000000
00010000
00000000
,
00010000
00000000
00010000
00000000
,
31000000
00010000
00001000
00000000
00000000
00000000
00000000
00000000
00000000
00000000
00000000
00000000
00000000
00000000
00000000
00000000
;

//---------------dance-double - t7r----------------
#NOTES:
     dance-double:
     t7r:
     Challenge:
     16:
     :
00000000
00000000
00000000
00000000
,
00000000
00000000
00000000
00000000
,
00000000
00000000
00000000
00000000
,
00000000
00000000
00000000
00000000
,
00000000
00000000
00000000
00000000
,
10000000
00000000
01000000
00100000
00010000
00000000
10000000
00000000
00100000
00000000
01000000
00010000
00100000
00000000
00001000
00000000
,
00010000
00000000
00000100
00001000
00000100
00000000
00001000
00000000
00000010
00000000
00000100
00000001
00000100
00000000
00000001
00000000
,
00000010
00000000
00000100
00010000
00001000
00000000
00010000
00000000
00001000
00000000
01000000
00010000
00100000
00000000
00010000
00000000
,
10000000
00000000
00100000
10000000
00100000
00000000
01000000
00000000
00010000
00000000
00100000
00001000
00100000
00000000
00001000
00000000
,
00010000
00000000
00001000
00000100
00000001
00000000
00001000
00000000
00000100
00000000
00010000
00001000
01000000
00000000
00010000
00000000
,
00100000
00000000
10000000
00100000
10000000
00000000
00100000
00000000
00001000
00000000
00010000
00001000
00010000
00000000
00001000
00000000
,
00000010
00000000
00000000
00000010
00000001
00000000
00000000
00000001
00000100
00000000
00001000
00010000
00001000
00010000
00001000
00010000
,
00001000
00000000
01001000
00000000
00000000
01100000
00000000
00000000
01020000
00000000
00000000
00000000
10030000
00010000
10000000
00010000
,
10000000
01000000
10000000
01000000
00100000
00010000
00100000
00010000
01000000
00001000
00010000
00000000
00000100
00010000
00001000
00000000
,
00010000
00000100
00010000
00000100
00001000
00000010
00001000
00000010
00000100
00000001
00001000
00000000
00000001
00000010
00000100
00000000
,
00000010
00000001
00000010
00000001
00000100
00000010
00000100
00000010
00001000
00000100
00010000
00000000
00001000
00010000
01000000
10000000
,
00010000
00000000
01000000
10000000
01000000
00000000
00010000
00100000
00001000
00000000
00010000
00001000
00010000
00001000
00010000
00001000
,
00010000
00000000
00000100
00000000
00001100
00000000
00001000
00000000
00000001
00000000
00000100
00001000
00000000
00000000
00000100
00000000
,
00000001
00000010
00001000
00010000
00100000
00000000
10100000
00000000
,
10000000
00000000
01000000
00000000
00010000
00000000
01000000
00000000
00100000
00000000
00001000
00010000
00000000
00000000
00001000
00000000
,
00010000
00000000
00100000
00000000
10000000
00000000
01000000
00100000
00001000
00000000
00010000
00000100
00001000
00000000
00000001
00000000
,
00002000
00003200
00000320
00002030
00023000
02030000
03200000
00320000
,
00032000
00003020
00000230
00002300
00013000
00000000
00011000
00000000
,
01010000
00000000
01100000
00100000
10000000
01000000
01010000
00000000
,
00011000
00000000
00001000
00000100
00000010
00000000
00001000
00000100
00000010
00000001
00000010
00000001
00001000
00000100
00010000
00001000
,
00010000
00000000
01000000
10000000
01000000
00000000
10000000
00100000
01000000
00100000
00000000
00100000
10000000
00000000
00010000
10000000
,
00010000
00000000
01000000
10000000
01000000
00000000
00010000
00100000
00001000
00010000
00000000
00010000
00001000
00000000
00000100
00000000
,
00000001
00000000
00000010
00001000
00000010
00000000
00000100
00010000
00001000
00010000
00000000
00010000
00100000
01000000
00100000
00000000
,
10000000
00000000
10010000
00000000
00000000
11000000
00000000
00000000
01100000
00000000
00000000
00101000
00000000
00000000
00011000
00000000
,
00001000
00010000
00001000
00010000
01000000
00000000
00010000
00001000
00010000
00001000
00000100
00000000
00001000
00010000
00001000
00010000
,
01000000
00000000
00010000
00001000
00010000
00001000
00000100
00000000
00000001
00000000
00000010
00000100
00010000
00000000
00001000
00010000
,
00001000
00010000
00001000
00010000
00100000
00000000
00010000
00001000
00010000
00001000
00000010
00000000
00001000
00010000
00001000
00010000
,
00100000
00000000
00010000
00001000
00010000
00001000
00000010
00000001
00000100
00000000
00000010
00001000
00000100
00000000
00010000
00000000
,
00011000
10010000
00011000
00001001
,
00011000
10010000
01100000
01100000
,
10000000
01000000
10000000
01000000
00100000
00000000
00001000
00010000
00001000
00010000
00000010
00000000
00000100
00000001
00000100
00000001
,
00001000
00000000
00000100
00000010
00000001
00000000
00000100
00001000
00010000
00001000
01000000
00010000
10000000
01000000
00100000
00010000
,
10000000
00000000
01000000
10000000
00000000
00000000
11000000
00000000
00000000
00000000
01000000
00000000
10010000
00000000
00000000
00000000
,
10000000
00000000
00100000
01000000
00010000
00000000
00100000
00000000
00001000
00000000
00010000
00000100
00001000
00000010
00001000
00000000
,
00000010
00000000
00000100
00000001
00000000
00000100
00001000
00000000
00010000
00000100
00000000
00010000
00001000
00000000
00010000
00100000
,
01000000
00010000
01000000
00000000
10000000
00000000
01000000
00000000
00010000
00100000
00001000
00010000
00001000
00000000
00000010
00000000
,
00000001
00000000
00000100
00000001
00000000
00000000
00000101
00000000
00000000
00000001
00000000
00000000
00001000
00000000
00000100
00000010
,
00000001
00000000
00000100
00000010
00001000
00000000
00010000
00000000
00100000
01000000
10000000
00000000
10010000
00000000
00010000
00000000
,
10000000
00000000
01000000
00010000
00000000
00010000
00001000
00000000
00000100
00000001
00000000
00000001
00001000
00000001
00001000
00000001
,
00000100
00000000
00000000
00001000
00000000
00000000
00011000
00000000
00000000
00000000
00000000
00000000
00001000
00000000
00000000
00000000
,
00200000
00000000
00010000
10000000
00000000
00000000
10000000
00010000
00000000
00000000
00010000
10000000
00000000
00000000
10000000
00010000
,
00300000
00010000
01000000
00100000
10000000
01000000
00010000
00001000
,
00000100
00000000
00000000
00000000
00000101
00000000
00000000
00000000
00000011
00000000
00000010
00001000
00000000
00000010
00000001
00000000
,
00000100
00000010
00001010
00000000
00001000
00000001
00000100
00000000
,
00000020
00000000
00001000
00000100
00000000
00000000
00000001
00000100
00000000
00000000
00001000
00000100
00000000
00000000
00000001
00000100
,
00000030
00001000
00000001
00000100
00001000
00010000
00100000
10000000
,
00010000
00000000
00000000
00000000
10000000
00000000
00010000
01000000
00010000
00000000
10000000
01000000
10000000
00000000
10010000
00000000
,
00000000
00000000
10000000
00000000
01000000
00000000
00010000
00001000
00010000
00001000
00010000
00000100
00001000
00000010
00000100
00000001
,
00000010
00000000
00000001
00000000
00000100
00000000
00001000
00000000
00010000
00000000
00000100
00001000
00000000
00010000
00100000
00000000
,
00010000
10000000
01000000
00100000
10000000
00000000
10100000
00000000
,
00100000
00010000
01000000
10000000
00010000
00100000
01000000
00010000
,
00100000
00000000
00001000
00000000
00010000
00000000
00001000
00000100
00000010
00000000
00001000
00000000
00001001
00000000
00000000
00000000
,
00000001
00000000
00000010
00000000
00000100
00000000
00000001
00000100
00000000
00010000
00001000
00000000
00010000
00000000
01000000
00000000
,
10000000
00000000
00100000
00000000
01000000
00000000
00001000
00010000
00000100
00000000
00001000
00000000
00000010
00000000
00000001
00000000
,
00000010
00000000
00000100
00000000
00000001
00000000
00000010
00000100
00010000
00000000
00001000
00010000
00001000
00010000
00001000
00010000
,
01000000
00000000
11000000
00000000
00000000
10100000
00000000
00000000
01100000
00000000
00000000
01001000
00000000
00000000
00101000
00000000
,
00011000
00000000
00000000
00000000
00000000
00000000
00000000
00011000
,
00001010
00000000
00000000
00000000
00000000
00000000
00000000
00011000
,
00101000
00000000
00000000
00000000
00001000
00100000
00010000
00000000
00110000
00000000
00010000
00000000
10000000
01000000
00100000
00000000
,
00110000
00000000
00100000
00000000
00101000
00000000
00001000
00000000
00011000
00000000
00010000
00000010
00001000
00000100
00000010
00000001
,
00001000
00000000
00000100
00000001
00000100
00000000
00000010
00000000
00000001
00000000
00000100
00001000
00010000
00000000
00001000
00000000
,
00010000
00000000
00100000
10000000
00100000
00000000
10000000
00000000
00010000
00000000
10000000
01000000
00100000
00000000
10000000
00000000
,
00100000
00000000
00001000
00010000
00000100
00000000
00010000
00000000
00001000
00000000
00000100
00000001
00001000
00000000
00000100
00000000
,
00010000
00000000
00001000
00010000
01000000
10000000
01000000
00000000
10000000
00000000
00100000
00010000
00000000
00010000
00001000
00000000
,
00000100
00000000
00000110
00000000
00000000
00001010
00000000
00000000
00001001
00000000
00000001
00000010
00000100
00010000
00000100
00010000
,
00001000
00000000
00011000
00000000
00000000
01010000
00000000
00000000
02100000
00000000
00000000
00000000
00000000
00000000
00000000
00000000
,
00001000
00000000
00001000
00000000
,
00001000
00000000
00001000
00000000
,
03010000
00001000
00000001
00000000
00000000
00000000
00000000
00000000
00000000
00000000
00000000
00000000
00000000
00000000
00000000
00000000
;
