#VERSION:0.83;
#TITLE:Queendom;
#SUBTITLE:;
#ARTIST:Red Velvet;
#TITLETRANSLIT:;
#SUBTITLETRANSLIT:;
#ARTISTTRANSLIT:;
#GENRE:;
#CREDIT:;
#MUSIC:Queendom.ogg;
#BANNER:Queendom.png;
#BACKGROUND:Queendom-bg.png;
#CDTITLE:./CDTITLES/NONE.PNG;
#SAMPLESTART:54.000;
#SAMPLELENGTH:15.000;
#SELECTABLE:YES;
#OFFSET:0.000;
#BPMS:0.000=120.000;
#STOPS:;
#LABELS:28.000=t7r,
108.000=Ben32892,
140.000=t7r,
156.000=Ben32892,
208.000=t7r,
220.000=Ben32892
;
#BGCHANGES:;
#FGCHANGES:;

//--------------- dance-single - t7r ----------------
#NOTEDATA:;
#STEPSTYPE:dance-single;
#DESCRIPTION:t7r;
#DIFFICULTY:Beginner;
#METER:3;
#RADARVALUES:0,0,0,0,0;
#CREDIT:t7r;
#NOTES:
0000
0000
0000
0000
,
0000
0000
0000
0000
,
0000
0000
0000
0000
,
0000
0000
0000
0000
,
0000
0000
0000
0000
,
0000
0000
0000
0000
,
0000
0000
0000
0000
,
1000
0000
0000
0000
,
0001
0000
0000
0000
,
0100
0000
0000
0000
,
0010
0000
0000
0000
,
1000
0000
1000
0000
,
1000
0000
0000
0000
,
0001
0000
0001
0000
,
0001
0000
0000
0000
,
0100
0000
0100
0000
,
0100
0000
0000
0000
,
0010
0000
0010
0000
,
0010
0000
0000
0000
,
2000
0000
3000
0000
,
0001
0000
0001
0000
,
0200
0000
0300
0000
,
0010
0000
0010
0000
,
1000
0000
1000
0000
,
0100
0000
0100
0000
,
0010
0000
0010
0000
,
0001
0000
0000
0000
,
1001
0000
1000
0000
,
1000
0000
0001
0000
,
0001
0000
0100
0000
,
0100
0000
0010
0010
,
0010
0000
1000
0000
,
1000
0000
0001
0000
,
0001
0000
0010
0000
,
0010
0000
0001
0001
,
0001
0000
0000
0000
,
0100
0000
0000
0000
,
0010
0000
0000
0000
,
1000
0000
0000
0000
,
0100
0000
0100
0000
,
0100
0000
0000
0000
,
0010
0000
0010
0000
,
0010
0000
0000
1001
,
0000
0000
0000
0000
,
0010
0000
1000
1000
,
1000
0000
0001
0001
,
0001
0000
0010
0010
,
0010
0000
0001
1000
,
0001
0000
1000
1000
,
1000
0000
0100
0100
,
0100
0000
0010
0010
,
0010
0000
0001
1000
,
0001
0000
0100
0000
,
0010
0000
0010
0000
,
1000
0000
0100
0000
,
0010
0010
0010
0010
,
0000
0001
0000
1000
,
0000
0010
0000
0100
,
0100
0000
0010
0000
,
1000
1000
1000
1000
,
1000
0000
0000
0000
;

//--------------- dance-single - t7r & Ben32892 ----------------
#NOTEDATA:;
#STEPSTYPE:dance-single;
#DESCRIPTION:t7r & Ben32892;
#DIFFICULTY:Easy;
#METER:5;
#RADARVALUES:0,0,0,0,0;
#CREDIT:t7r & Ben32892;
#NOTES:
0000
0000
0000
0000
,
0000
0000
0000
0000
,
0000
0000
0000
0000
,
0000
0000
0000
0000
,
0000
0000
0000
0000
,
0000
0000
0000
0000
,
0000
0000
0000
0000
,
0010
0000
1000
1000
,
0001
0000
0010
0010
,
0001
0000
1000
0100
,
0010
0010
0001
0001
,
1000
0010
0000
0100
,
0000
0010
0000
0010
,
1000
0001
0000
0010
,
0200
0000
0310
0010
,
0002
0000
0100
0103
,
0020
0000
1000
1030
,
0001
0010
0100
1000
,
0001
1000
2002
3003
,
0010
0000
0010
0000
,
0100
0000
0100
0000
,
0001
0000
0001
0000
,
1000
0000
1000
0000
,
0100
1000
0100
0000
,
0001
0100
0001
0000
,
0100
0010
0001
1000
,
0020
0000
0000
0130
,
1001
0000
0001
0100
,
0001
0000
0010
0100
,
1000
0000
0010
1000
,
0010
0100
0001
1001
,
0001
0000
1000
0100
,
0110
0000
0001
0100
,
0110
0000
1000
0010
,
1000
0100
0010
1001
,
0001
1000
0000
0010
,
0000
0100
0000
0001
,
0000
0010
0000
0100
,
0000
1000
1000
1000
,
0001
0100
0020
0030
,
1000
0100
0020
0030
,
0001
0001
1000
1000
,
0010
0100
0010
0110
,
0002
0000
0000
0013
,
1001
1000
0100
0100
,
0010
0001
0100
0100
,
0010
1000
0001
0001
,
1000
0100
0010
1001
,
1000
0010
0100
0100
,
0001
1000
0100
0100
,
1000
0001
0010
0010
,
0001
0100
0010
1001
,
0001
0010
1000
0010
,
0000
0001
0100
0001
,
0100
0100
1000
0100
,
0001
1000
0010
1001
,
0000
0100
0010
1010
,
0000
0100
0010
0011
,
0001
1000
0100
1100
,
1000
0001
0100
0010
,
2002
3003
0000
0000
;

//--------------- dance-single - Ben32892 ----------------
#NOTEDATA:;
#STEPSTYPE:dance-single;
#DESCRIPTION:Ben32892;
#DIFFICULTY:Medium;
#METER:8;
#RADARVALUES:0,0,0,0,0;
#CREDIT:Ben32892;
#NOTES:
0000
0000
0000
0000
,
0000
0000
0000
0000
,
0000
0000
0000
0000
,
0000
0000
0000
0000
,
0000
0000
0000
0000
,
0000
0000
0000
0000
,
0000
0000
0000
0000
,
1001
0000
0000
0000
0000
0000
0000
0000
0001
0000
0000
0001
0000
0000
0200
0000
,
0000
0000
0000
0000
0300
0000
0000
0000
0010
0000
0000
1000
0000
0000
0002
0000
,
0000
0000
0003
0000
0000
0000
0000
0000
0010
0000
0000
0100
0000
0000
0200
0000
,
0000
2300
3002
0103
,
0020
0000
0000
0000
2030
0000
3001
0200
,
0000
0000
0300
0000
0020
0000
1030
0200
,
0000
0000
0300
0000
0020
0000
0031
2000
,
0000
3000
0110
1001
,
0002
0000
0010
0000
1003
0010
0100
0000
,
0020
0000
0100
0000
1030
0001
0010
0000
,
0200
0000
0010
0000
1300
0001
0100
0020
,
1000
0200
0330
0000
,
2000
0010
0000
0100
,
0000
0000
0000
0000
3001
0000
0000
0000
0001
0000
0000
1000
0000
0000
0020
0000
,
0000
0100
0000
1000
,
0000
0000
0000
0000
0130
0000
0000
0000
0001
0000
0000
0001
0000
0000
1000
0000
,
0100
1000
0100
0000
0010
0001
1000
0000
,
1000
0001
1000
0000
0001
0100
0010
0000
,
1000
0010
0100
0001
1000
0100
0020
0002
,
0000
0000
0033
0011
,
1001
0000
0000
0000
0001
0000
0100
0000
0010
0000
0000
1000
0000
0000
0002
0000
,
0000
0000
0003
0000
1000
0000
0001
0000
1000
0000
0000
0100
0000
0000
0020
0000
,
0000
0000
0030
0000
0001
0000
0100
0000
0010
0000
0000
1000
0000
0000
0200
0000
,
0000
0310
0010
0100
0010
0000
1001
0000
,
1100
0000
0000
0000
1000
0000
0010
0000
0100
0000
0000
0001
0000
0000
0020
0000
,
0000
0000
0030
0000
0100
0000
0010
0000
0001
0000
0000
1000
0000
0000
0020
0000
,
0000
0000
0030
0000
0100
0000
0010
0000
1000
0000
0000
0100
0000
0000
0020
0000
,
0000
0031
0001
1000
0010
0000
0110
0000
,
0002
0000
0000
0000
1003
0000
0000
0000
0010
0000
0000
0010
0000
0000
2000
0000
,
0000
0000
0000
0000
3100
0000
0000
0000
0010
0000
0000
0010
0000
0000
0002
0000
,
0000
0000
0000
0000
1003
0000
0000
0000
0010
0000
0000
0010
0000
0000
0200
0000
,
0000
0301
1000
0100
0010
0000
0110
0000
,
0001
0100
0010
0100
0001
0000
0101
0000
,
1000
0100
0010
0100
1000
0000
1100
0000
,
0001
0100
0010
1000
0001
0100
0010
1000
,
0001
1000
0001
1000
0200
0000
0310
0000
,
0002
0000
0000
1003
,
1010
0000
0000
0000
0001
0000
0010
0000
0100
0000
0000
1000
0000
0000
2002
0000
,
0000
3003
0000
0000
1000
0000
0001
0000
0010
0000
0000
0100
0000
0000
0220
0000
,
0000
0330
0000
0000
0001
0000
1000
0000
0010
0000
0000
0100
0000
0000
0120
0000
,
0000
1030
0100
0010
0001
1000
0010
0000
,
0110
0000
0000
0000
1000
0000
0001
0000
0010
0000
0000
0100
0000
0000
2000
0000
,
0001
0000
0000
0000
3001
0000
0100
0000
0010
0000
0000
1000
0000
0000
0200
0000
,
0010
0000
0000
0000
0310
0000
0001
0000
1000
0000
0000
0010
0000
0000
0200
0000
,
0000
0310
0100
0001
1000
0100
0010
0000
,
0001
0100
0010
1000
0001
0100
0001
0000
,
1000
0100
0010
0001
1000
0100
1000
0000
,
0001
0010
0100
1000
0010
0100
0001
0000
,
0020
0230
2300
3002
,
0103
0010
1000
0001
0100
0001
0010
0000
,
0100
0010
0001
1000
0100
1000
0010
0000
,
0100
0010
1000
0100
0001
0100
1000
0001
,
0200
0320
2030
3001
,
2002
3003
0000
0000
;

//--------------- dance-single - t7r & Ben32892 ----------------
#NOTEDATA:;
#STEPSTYPE:dance-single;
#DESCRIPTION:t7r & Ben32892;
#DIFFICULTY:Hard;
#METER:12;
#RADARVALUES:0,0,0,0,0;
#CREDIT:t7r & Ben32892;
#NOTES:
0000
0000
0000
0000
,
0000
0000
0000
0000
,
0000
0000
0000
0000
,
0000
0000
0000
0000
,
0000
0000
0000
0000
,
0000
0000
0000
0000
,
0000
0000
0000
0000
,
0020
0000
0000
0000
0130
0000
0001
0000
1000
0000
0000
1000
0100
0000
1000
0000
,
0000
0000
1000
0000
1000
0000
0000
0000
0001
0000
0000
0001
0100
0000
0001
0000
,
1000
0000
0001
0000
0001
0000
0000
0000
0010
0000
0000
0010
0001
0000
0100
0000
,
0000
0100
0020
0000
2030
0000
3100
0000
,
2010
0000
0000
0000
0100
0000
3001
0020
,
0000
0000
0000
0000
0031
0000
0000
0000
0100
0000
0010
1000
0000
0000
0020
0000
,
0000
0000
0000
0000
0130
0000
0000
0000
0001
0000
0010
0100
0000
0000
2000
0000
,
0001
3100
0010
1001
,
1000
0000
0000
0000
1100
0000
0000
0000
0001
0000
0100
0020
0000
0000
0130
0000
,
0001
0000
0000
0000
0011
0000
0000
0000
0010
0000
0100
2000
0000
0000
3010
0000
,
0100
0000
1001
0000
1000
0100
0010
0002
,
0100
1003
0010
0110
,
2000
0000
0000
0000
0100
0000
0000
0000
0001
0000
0000
0000
3010
0000
0000
0010
,
0100
0000
0001
0000
0000
1000
0000
0000
0100
0000
0000
0100
0000
0000
0020
0000
,
0001
0000
0000
0000
0100
0000
0000
0000
1000
0000
0000
0000
0130
0000
0000
0100
,
1000
0000
0010
0000
0000
0100
0000
0000
0001
0000
0000
0001
0000
0000
1000
0000
,
0001
0000
0001
0000
0010
0000
0100
0000
1000
0000
0001
0100
0000
0000
0001
0000
,
1000
0000
1000
0000
0010
0000
0100
0000
0001
0000
1000
0100
0000
0000
1000
0002
,
0000
0000
0103
0100
1000
1000
0100
0002
,
0000
0023
0000
0200
0000
0330
0110
0000
,
1001
0000
0001
0000
0100
0000
0001
0000
0010
0000
0000
0100
1000
0000
0001
0000
,
0100
0000
1000
0000
0100
0000
0001
0000
1000
0000
0000
0010
0100
0000
0001
0000
,
0010
0000
1000
0000
0010
0000
0001
0000
1000
0000
0000
0001
0100
0000
0020
0000
,
0000
1030
0100
0010
0011
1000
0001
0000
,
0101
0000
1000
0000
0100
0000
1000
0000
0010
0000
0000
0100
0001
0000
0010
0000
,
1000
0000
0010
0000
0001
0000
1000
0000
0010
0000
0000
0100
0001
0000
0020
0000
,
0000
0130
1000
0000
0010
0000
0100
0000
1000
0000
0000
0100
0001
0000
0020
0000
,
0000
1030
0010
0001
0011
1000
0010
0000
,
1002
0000
0000
0000
0103
0000
0000
0000
0010
0000
0000
1000
0001
0000
0020
0000
,
0000
0000
0000
0000
0130
0000
0000
0000
1000
0000
0000
0010
0100
0000
0002
0000
,
0000
0000
0000
0000
0103
0000
0000
0000
0010
0000
0000
1000
0001
0000
0020
0000
,
0000
0130
0010
0000
0100
0100
1001
0000
,
1000
0000
0100
0000
0001
0000
0100
0000
1000
0000
0000
0001
0000
0000
0010
0000
,
0001
0000
0100
0000
1000
0000
0100
0000
0001
0000
0000
1000
0000
0000
0010
0000
,
0100
0100
0001
0001
1000
1000
0100
0100
,
0010
0001
0010
0001
1000
0001
1000
0001
0200
0000
0000
0000
0310
0000
0000
0000
,
2000
0000
0000
3001
,
0101
0000
1000
0000
0100
0000
1000
0000
0010
0000
1000
0100
0000
0010
0001
0000
,
1000
0000
0001
0000
0100
0000
0001
0000
0010
0000
0001
0100
0000
0010
1000
0000
,
0100
0000
1000
0000
0001
0000
0010
0000
0100
0000
0010
0001
0000
1000
0020
0000
,
0000
0130
0010
1000
1001
0010
0100
0000
,
0110
0000
0001
0000
1000
0000
0001
0000
0010
0000
0100
0010
0000
0001
0100
0000
,
0010
0000
1000
0000
0010
0000
0001
0000
0010
0000
0100
0010
0000
1000
0002
0000
,
0013
0100
1000
0000
0001
0000
0100
0000
0010
0000
1000
0100
0000
1000
0020
0000
,
0000
0130
0001
0010
0110
1000
1001
0000
,
0110
0000
0001
0000
1000
0100
0000
0010
0000
1000
0000
0010
0100
0000
1000
0000
,
0010
0000
1000
0000
0001
0100
0000
0010
0000
0001
0000
0010
0100
0000
0001
0000
,
1000
0000
1000
0000
0100
0001
0000
0100
0000
0010
0000
1000
0010
0000
0001
0000
,
0011
1010
1100
0101
,
1001
0000
0001
0000
0100
0010
0000
1000
0000
1010
0000
0001
0100
0000
0001
0000
,
0010
0000
0110
0000
1000
0001
0000
0100
0000
0101
0000
0010
1000
0000
0001
0000
,
1100
0000
0100
0000
0010
0001
0000
0100
0000
0110
0000
1000
0001
0000
0010
0000
,
0110
0011
0101
1100
,
2002
3003
0000
0000
;

//--------------- dance-single - t7r & Ben32892 ----------------
#NOTEDATA:;
#STEPSTYPE:dance-single;
#DESCRIPTION:t7r & Ben32892;
#DIFFICULTY:Challenge;
#METER:13;
#RADARVALUES:0,0,0,0,0;
#CREDIT:t7r & Ben32892;
#NOTES:
0000
0000
0000
0000
,
0000
0000
0000
0000
,
0000
0000
0000
0000
,
0000
0000
0000
0000
,
0000
0000
0000
0000
,
0000
0000
0000
0000
,
0000
0000
0000
0000
,
1001
0001
0000
0000
0000
0000
0000
0010
,
0000
0010
0001
0000
0000
0000
0000
1000
,
0000
1000
0010
0000
0000
0000
0000
0100
,
0000
0100
0020
0000
2030
0000
3001
0000
,
0202
0000
0000
0000
0303
0000
1000
0001
0010
0000
0100
0020
0000
0000
0030
0000
,
0001
0000
0100
0000
0010
0000
0100
0000
0001
0000
1000
0200
0000
0000
0300
0000
,
0020
0000
0000
0000
0030
0000
0100
1000
0010
0000
0100
0002
0000
0000
1003
0000
,
0001
0000
0100
0000
0010
0000
0000
0000
0000
2000
0000
0000
0000
0000
0000
3100
0000
0000
0010
0000
0000
0000
0000
0000
,
2100
0000
0000
0000
3001
0000
1000
0001
0010
0000
0100
0010
0000
0000
0001
0000
,
0100
0000
0010
0000
0100
0000
1000
0000
0100
0000
0001
1000
0000
0000
0100
0000
,
0020
0000
0000
0000
0031
0000
1000
0010
0001
0000
0010
0000
0100
0000
0002
0000
,
0000
0000
0000
0010
0000
0000
0023
0000
0000
0000
0000
0000
0130
0000
1000
0001
0000
0000
0001
0000
0100
0010
0000
1000
,
0100
0000
0010
0001
0100
0000
0010
1000
0100
0000
0000
0010
0000
0010
0000
0000
,
0001
0000
0100
0000
1000
0000
0100
0010
1000
0000
0001
0010
0000
0010
0000
0000
,
0000
0000
0100
1000
0001
0100
0010
0000
0001
0000
0010
0100
0000
0000
0001
0000
,
1000
0000
0100
0000
0001
0000
0100
0000
1000
0001
0010
0100
0000
0000
0010
0000
,
0001
0100
0010
0100
0001
0100
0010
1000
,
0100
0010
0100
1000
0100
0010
0001
1000
,
0001
0100
0001
0100
0010
0100
0010
0100
0001
1000
0100
1000
0010
0100
0002
0000
,
0000
0023
0000
0200
0000
0330
1001
0000
,
1000
0000
0000
0100
0010
0000
0100
0000
1000
0000
0001
0100
0000
0001
1000
0000
,
0001
0000
0100
0000
0010
0000
0100
0000
1000
0000
0100
0001
0000
1000
0001
0000
,
0010
0000
0100
0000
0010
0000
1000
0000
0010
0000
0001
0100
0000
0010
2000
0000
,
0000
3100
0010
0100
0001
0100
0110
0000
,
1001
0000
0000
0001
0010
0000
0100
0000
0010
0000
1000
0010
0000
0001
1000
0000
,
0001
0000
0100
0000
0010
0000
0001
0000
0010
0000
1000
0001
0000
0010
0002
0000
,
0103
0010
1000
0000
0100
0000
0001
0000
0100
0000
0010
1000
0000
0010
0002
0000
,
0000
0103
1000
0100
0010
0100
1001
0000
,
0110
0000
0010
0000
0010
0000
1000
0000
0001
0000
0000
0011
0000
0000
0010
0000
,
0000
0000
0001
0000
0001
0000
1000
0000
0010
0000
0000
1010
0000
0000
0100
0000
,
0000
0000
0010
0000
1000
0000
0100
0000
0010
0000
0000
0001
0000
0000
1002
0000
,
0000
0103
1000
0100
0001
0100
0110
0000
,
0010
0000
1000
0000
0100
0000
0001
0000
0200
0000
0000
0320
0000
0000
0032
0000
,
0000
0000
0103
0000
1000
0000
0100
0000
0020
0000
0000
0230
0000
0000
0301
0000
,
1000
0000
1000
0000
0100
0000
0100
0000
1000
0010
1000
0010
1000
0001
1000
0000
,
0001
0100
0001
0100
0010
1000
0001
0000
0100
0100
0100
0000
2002
0000
0000
0000
,
0000
0000
3003
0110
,
1000
0000
0100
0000
0010
0000
1000
0000
0010
0000
0100
1000
0000
0001
1000
0000
,
0001
0000
0100
0000
0010
0000
0001
0000
0010
0000
0100
0001
0000
1000
0001
0000
,
0010
0000
0100
0000
0010
0000
1000
0000
0010
0000
0001
1000
0000
0001
0200
0000
,
0000
1300
0100
0010
1000
0100
0110
0000
,
1001
0000
0001
0000
0100
0000
0010
0000
0001
0000
1000
0100
0000
0001
1000
0000
,
0001
0000
0010
0000
0100
0000
0001
0000
1000
0000
0010
0001
0000
1000
0002
0000
,
0013
0100
1000
0000
0010
0000
0001
0000
0010
0000
0100
0010
0000
1000
0002
0000
,
0000
0103
0010
1000
0001
0010
0011
0000
,
1100
0000
1000
0000
1000
0001
0000
0010
0000
0010
0000
0100
0010
0000
0100
0000
,
1000
0000
0001
0000
0001
0100
0000
0010
0000
0010
0000
1000
0100
0000
0010
0000
,
0100
0000
0100
0000
1000
0001
0000
0100
0000
0100
0000
1000
0100
0000
0001
0000
,
0012
0103
2010
3100
1002
0013
2002
3003
,
1100
0000
0100
0000
0001
0100
0000
0010
0000
0001
0000
0100
0010
0000
1000
0000
,
0001
0000
0100
0000
1000
0100
0000
0010
0000
1000
0000
0100
0010
0000
0001
0000
,
1000
0000
0100
0000
0010
1000
0000
0001
0000
0100
0000
1000
0010
0000
0100
0000
,
0102
0013
2100
3010
1002
0103
2001
3010
,
1001
0000
0000
0000
;
