#TITLE:Pout;
#ARTIST:BEMANI Sound Team "SYUNN";
#ARTISTTRANSLIT:SYUNN;
#BANNER:Pout.png;
#BACKGROUND:Pout-bg.png;
#JACKET:Pout-jacket.png;
#CDTITLE:./CDTITLES/BEATMANIA IIDX.PNG;
#MUSIC:Pout.ogg;
#SAMPLESTART:57.882;
#SAMPLELENGTH:15;
#BPMS:0=170;
#LABELS:0=Song Start,20=t7r 1,36=Gameoson 1,68=t7r 2,100=Gameoson 2,116=t7r 3,164=Gameoson 3,196=t7r 4,228=Gameoson 4,259=t7r 5,276=Gameoson FINAL,308=t7r FINAL,323=END;

//---------------dance-single - Gameoson----------------
#NOTES:
     dance-single:
     Gameoson:
     Beginner:
     2:
     :
0000
0000
0000
0000
,
0000
0000
0000
0000
,
0000
0000
0000
0000
,
0000
0000
0000
0000
,
0000
0000
0000
0000
,
0001
0000
0000
0000
,
0100
0000
0000
0000
,
0010
0000
0000
0000
,
1000
0000
0000
0000
,
0001
0000
0001
0000
,
0002
0000
0003
0000
,
1000
0000
1000
0000
,
2000
0000
3000
0000
,
0010
0000
0010
0000
,
0020
0000
0030
0000
,
2000
0000
3000
0000
,
0002
0000
0003
0000
,
1000
0000
1000
0000
,
0200
0000
0300
0000
,
0010
0000
0010
0000
,
0002
0000
0003
0000
,
1000
0000
1000
0000
,
0020
0000
0030
0000
,
0220
0000
0000
0330
,
0000
0000
0110
0000
,
0001
0000
0001
0000
,
0001
0000
0001
0000
,
1000
0000
1000
0000
,
1000
0000
1000
0000
,
0100
0000
0010
0000
,
0100
0000
0010
0000
,
0001
0000
0001
0000
,
0001
0000
0000
0000
,
1000
1000
0000
0000
,
1000
1000
0000
0000
,
0001
0001
0000
0000
,
0001
0000
1000
0000
,
0001
0001
0000
0000
,
0001
0001
0000
0000
,
1000
0000
0001
0000
,
1001
0000
0000
0000
,
2000
0000
3000
0000
,
0010
0010
0000
0000
,
0100
0100
0000
0000
,
0010
0000
0100
0000
,
0010
0010
0000
0000
,
0010
0010
0000
0000
,
2002
0000
0000
3003
,
0000
0000
1000
0000
,
0002
0000
0000
0000
,
0003
0000
0000
0000
,
0020
0000
0000
0000
,
0030
0000
0000
0000
,
0200
0000
0000
0000
,
0300
0000
0000
0000
,
2000
0000
0000
0000
,
3000
0000
0000
0000
,
0001
0000
0001
0000
,
0200
0000
0300
0000
,
0010
0000
0010
0000
,
2000
0000
3000
0000
,
0001
0000
1000
0000
,
0001
0000
1000
0000
,
2002
0000
0000
3003
,
0000
0000
0001
0000
,
1000
0000
0000
0000
,
0001
0001
0001
0000
,
2000
0000
3000
0000
,
1000
1000
1000
0000
,
0002
0000
0003
0000
,
0020
0000
0030
0000
,
0100
0000
0100
0000
,
1000
0000
0001
0000
,
0200
0000
0000
0000
,
0300
0000
0000
0000
,
0020
0000
0000
0000
,
0030
0000
0000
0000
,
2000
0000
0000
0000
,
3000
0000
0000
0000
,
0001
0000
0001
0000
,
1000
0000
1000
0000
;

//---------------dance-single - Gameoson----------------
#NOTES:
     dance-single:
     Gameoson:
     Easy:
     6:
     :
0000
0000
0000
0000
,
0000
0000
0000
0000
,
0000
0000
0000
0000
,
0000
0000
0000
0000
,
0000
0000
0000
0000
,
0001
0000
0001
0000
,
0010
0000
0001
0000
,
1000
0000
1000
0000
,
0010
0000
1000
0000
,
0002
0000
0010
0000
,
0100
0000
0013
0001
,
2000
0000
0010
0000
,
0100
0000
3010
1000
,
0002
0000
0010
0000
,
2003
0000
0010
0000
,
3002
0010
1003
0000
,
2000
0010
3001
0000
,
1000
0100
0010
0001
,
0200
0000
0010
0000
,
0301
0100
0010
1000
,
0200
0000
0010
0000
,
1300
0001
0100
0000
,
0010
1000
0001
0000
,
2002
0000
0000
3000
0000
0000
0003
0000
,
0000
0000
1001
0000
,
0001
0010
0001
0010
,
0100
0010
0001
0000
,
1000
0010
1000
0010
,
0100
0010
1000
0000
,
0100
0100
0010
0010
,
0001
0001
1000
1000
,
0010
0100
0010
0220
,
0330
0100
0010
1000
,
0002
0023
0130
0000
,
0200
0320
0031
0001
,
2000
3020
0130
0000
,
0200
0310
2000
3001
,
2000
3200
0310
0000
,
0020
0230
1300
1000
,
0001
0100
0010
1000
,
2002
3003
1001
0110
,
0002
0000
0003
0000
,
0002
0023
0130
1000
,
0002
0203
1300
0000
,
2000
3200
0301
0001
,
2000
3200
0301
0000
,
0002
0203
1300
1000
,
2002
0000
0000
0003
0000
0000
3000
0000
,
0000
0000
1000
0010
,
0102
0000
0000
0000
,
0010
0000
0000
0000
,
2003
0000
0000
0000
,
0010
0000
0000
0000
,
3002
0000
0000
0000
,
0100
0000
0000
0000
,
2003
0000
0000
0000
,
0100
0000
3001
0000
,
2001
0000
3020
0000
,
0032
0000
0013
1000
,
0002
0000
0023
0000
,
2030
0000
3010
0001
,
1000
1000
0010
0010
,
0100
0100
0001
1000
,
2002
0000
0000
3000
0000
0000
0003
0000
,
0000
0000
1000
0100
,
0002
0000
0003
0000
,
0110
1000
0001
0100
,
2000
0000
3000
0000
,
0110
0001
1000
0100
,
0010
0001
1001
0000
,
1000
0010
0110
0000
,
1001
0000
1001
0000
,
0001
0010
1000
0010
,
0002
0000
0000
0000
,
0203
0000
0000
0000
,
0320
0000
0000
0000
,
2030
0000
0000
0000
,
3200
0000
0000
0000
,
0320
0000
0000
0000
,
0031
0010
0100
1000
,
0010
0100
0001
1000
;

//---------------dance-single - t7r----------------
#NOTES:
     dance-single:
     t7r:
     Medium:
     9:
     :
0000
0000
0000
0000
,
0000
0000
0000
0000
,
0000
0000
0000
0000
,
0000
0000
0000
0000
,
0000
0000
0000
0000
,
1000
0000
0001
0100
0000
0001
0010
0002
,
0003
1000
0000
1000
0010
0000
0200
0000
,
0302
0000
0013
0200
0000
1300
0020
0100
,
0000
2030
3000
0001
0010
0001
1000
0100
,
0020
0000
0130
2000
0000
0000
3002
0000
,
0000
0000
0010
0000
0000
0000
1003
0010
,
0200
0000
0310
2000
0000
0000
3002
0000
,
0000
0000
0100
0000
0013
0000
0001
0100
,
0020
0000
1030
0200
0000
0000
0310
0002
,
0000
0000
1003
0000
0010
0000
0100
0002
,
0010
0000
1003
0000
0010
0000
1000
0002
,
0100
0000
1003
0000
0100
0010
0010
0000
,
1001
0000
0001
1000
0100
0000
1000
0002
,
0010
0000
1003
0000
0010
0100
0001
0000
,
1000
0000
0001
1000
0200
0000
1300
0002
,
0010
0000
1003
0000
0010
0100
0001
0000
,
1000
0000
0100
0010
0002
0000
0003
0000
,
0100
0000
0010
1000
0002
0000
0013
0000
,
1001
0000
0000
0101
0000
0000
2100
0000
,
3002
0010
1003
0000
,
0001
0000
0100
0000
0001
1000
0100
0000
,
1000
0000
0001
0000
0010
0001
1000
0000
,
0010
0000
0100
0000
0001
0010
0100
0000
,
1000
0020
0030
0000
0100
0001
0000
1000
,
0001
0000
0010
0000
0100
1000
0100
0000
,
1000
0000
0010
0000
0100
0001
0100
0000
,
0001
0010
0100
0000
1000
0010
0100
0002
,
0000
0010
0000
1003
0001
0000
0100
0000
,
0010
0000
1010
0000
1000
0000
0100
0010
,
0000
0100
0000
1000
0001
1000
1000
0000
,
0001
0000
0101
0000
0100
0000
0010
0100
,
0000
0001
0000
0010
0001
0000
1001
0000
,
0001
0000
0011
0000
0010
0000
0100
1000
,
0000
0010
0000
0100
0001
0000
1001
0000
,
1000
0000
0100
0000
0010
0000
0100
0001
,
0000
0100
0000
1000
0001
0000
1001
0000
,
0002
0000
0203
0000
0310
0000
0010
0100
,
0000
1000
0000
0100
0010
1000
1000
0000
,
2000
0000
3200
0000
0310
0000
0010
0100
,
0000
0001
0000
0100
0010
0000
0011
0000
,
0001
0000
0100
1000
0000
0100
0000
0001
,
0000
1000
0100
0100
0001
0000
0100
0000
,
1000
0000
0000
1100
0000
0000
1001
0000
,
0001
0100
0020
0130
,
2001
0000
0000
0000
,
0000
0000
0000
0000
,
3020
0000
0000
0000
,
0000
0000
0000
0000
0130
0000
0001
1000
,
0001
0000
0010
0200
0000
0000
0300
0000
,
1000
0000
0010
0000
0100
0000
0001
2000
,
0010
0000
3001
0000
1000
0000
0001
2000
,
0100
0000
3001
0000
1000
0000
0001
0100
,
0001
0000
0010
0000
0100
0010
0001
0000
,
1000
0000
0010
0000
0100
0001
1000
0000
,
0010
0000
0100
0000
0010
1000
0001
0000
,
0010
0000
0100
0000
0010
0001
1000
0000
,
0001
0000
0010
0000
0100
1000
0100
0000
,
1000
0000
0010
0000
0100
0001
0100
0000
,
0101
0000
0000
1001
0000
0000
1200
0000
,
2300
0010
3001
0000
,
0200
0000
0310
0100
,
1000
0000
0100
0000
0010
0100
0100
0000
,
0002
0100
1003
0001
,
1000
0010
1000
0000
0001
0010
0001
0000
,
1000
0000
0000
0100
0000
0000
0100
0000
1000
0000
0000
0000
0001
0000
0000
0000
,
0100
0000
0000
0010
0000
0000
0010
0000
1000
0000
0000
0000
0001
0000
0000
0000
,
0100
0000
1000
0100
0000
0001
0100
0000
,
0001
0000
0010
1000
0000
0010
0100
0000
,
2000
0000
0000
0000
0000
0000
0000
3002
,
0000
0010
1000
0103
,
0020
0000
0000
0000
1030
0001
0000
2000
,
0000
0010
0001
3100
,
0020
0000
0000
0000
0000
0000
0130
2000
,
0000
3200
0320
0032
,
1003
0020
0230
0302
,
0023
0230
2300
0002
,
0000
0000
0000
0000
,
0000
0000
0000
0000
,
3003
0000
0000
0000
;

//---------------dance-single - G-7 (Gameoson X t7r)----------------
#NOTES:
     dance-single:
     G-7 (Gameoson X t7r):
     Hard:
     12:
     :
0000
0000
0000
0000
,
0000
0000
0000
0000
,
0000
0000
0000
0000
,
0000
0000
0000
0000
,
0000
0000
0000
0000
,
0001
0010
0001
0010
0000
0010
0100
2000
,
3000
0001
0100
0100
0010
1000
0002
0000
,
1003
0100
0010
0001
1000
0100
0100
0010
,
0000
0002
1003
1000
0010
0100
0001
1000
,
0002
0000
0013
0200
0000
0000
1300
0020
,
0100
0000
1030
0000
0001
0000
1000
0100
,
0020
0000
0031
0200
0010
0000
0302
0000
,
1000
0000
0100
0000
0013
0000
0100
1000
,
0020
0000
0130
0001
0020
0000
0130
1000
,
0020
0000
0130
0000
0001
0000
1000
0200
,
0010
0000
1300
0000
0001
0000
0100
0002
,
0010
0000
1003
0000
0010
0100
0100
0000
,
0201
0000
1300
0200
0001
0000
0310
2000
,
0100
0100
0100
0000
3010
0100
0001
1000
,
0200
0000
1300
0200
0001
0000
0310
0002
,
0100
0100
0103
0000
0010
0000
1000
0001
,
2000
0000
3001
0020
1000
0000
1030
0020
,
0001
0230
2300
3010
,
2020
0000
3030
2002
0000
3003
0021
0000
,
1000
0100
0031
0100
,
0010
0000
1010
0000
1000
0010
0100
0001
,
0000
0010
0100
1000
0010
0100
0001
1000
,
0001
0000
0011
0000
0001
0100
0010
1000
,
0000
0100
0010
0001
0100
0010
1000
0001
,
1000
1000
0100
0100
0010
0010
0001
0001
,
0100
0100
0010
0010
1000
1000
0001
0001
,
1000
0100
0001
0100
1000
0010
0001
0010
,
0000
0020
0130
0010
1000
0001
0010
0100
,
1100
0000
1100
0000
0001
1000
0100
0001
,
0000
0100
1000
0001
1000
0010
0010
0000
,
0101
0000
0101
0000
1000
0001
0100
1000
,
0000
0100
0001
0010
0100
0000
0100
0000
,
0011
0000
0011
0000
0001
1000
0010
0001
,
0000
0010
0100
0010
1010
0000
1010
0000
,
1000
0001
0010
0100
1000
0001
0010
1000
,
0000
0010
0100
0010
0011
0000
1001
0000
,
1000
0100
0010
0100
0001
0100
1000
0010
,
0000
0110
0010
0100
0001
0001
0001
1000
,
0002
0000
0103
0010
0100
1000
0100
0010
,
0000
1010
1000
0100
0010
0100
1000
0001
,
0200
0000
1300
0100
0001
1000
0000
0100
,
0001
1000
0010
0001
0100
0100
0100
0010
,
2000
0000
3000
0220
0000
0330
2002
0000
,
0000
3003
2200
3300
,
0002
0000
0013
0200
0000
0000
0310
0002
,
0000
0000
0000
0000
0000
0000
1003
0001
,
2000
0000
3010
0200
0000
0000
0310
2000
,
0000
0000
0000
0000
3001
0000
1000
0100
,
0020
0000
0031
2000
0000
0000
3010
0200
,
0000
0000
0320
0000
2030
0000
3001
0020
,
1000
0000
0100
0000
0032
0000
1003
0020
,
0001
0000
0100
0000
1030
0000
0001
1000
,
0002
0000
0013
0100
1000
0010
0100
0020
,
0001
0000
0100
0000
1030
1000
1000
0100
,
2000
0000
3010
0100
0001
0010
0100
0020
,
1000
0000
0100
0000
0031
0100
0010
1000
,
0001
0001
0100
0100
0010
0010
1000
1000
,
0001
0100
1000
0100
0001
0010
1000
0010
,
0022
0000
0033
2002
0000
3003
1020
0000
,
0001
0000
0100
0000
1030
0100
0010
0001
,
2000
0000
0000
0000
3100
0000
0001
0100
,
1000
0010
0001
0010
1000
0001
0001
0100
,
2000
0000
0100
0000
3100
0000
1000
0100
,
0010
0100
0001
0010
0100
0010
1000
0010
,
0001
0000
0000
1000
0000
0000
0010
0000
1000
0000
0000
0000
0001
0000
1000
0010
,
1000
0000
0000
0001
0000
0000
0010
0000
0001
0000
0000
0000
1000
0000
0010
0000
,
0200
0000
0301
0020
0000
1030
0010
0001
,
0200
0000
1300
0100
0001
0010
0200
0000
,
2300
0000
0000
0000
0000
0000
0000
3020
,
0000
0001
0100
1030
,
0002
0000
0000
0000
0013
0200
0000
0320
,
0000
1000
0100
0031
,
2001
0000
0000
0000
0000
0000
3010
0200
,
0000
0302
0023
0230
,
2300
3002
0203
2300
,
3002
0023
2030
0002
,
0000
0000
0000
0000
,
0000
0000
0000
0000
,
3003
0000
0000
0000
;

//---------------dance-single - G-7 (t7r X Gameoson)----------------
#NOTES:
     dance-single:
     G-7 (t7r X Gameoson):
     Challenge:
     14:
     :
0000
0000
0000
0000
,
0000
0000
0000
0000
,
0000
0000
0000
0000
,
0000
0000
0000
0000
,
0000
0000
0000
0000
,
0001
0010
0010
0100
0000
1000
0001
2000
,
3000
0000
0010
0000
1000
0001
1000
0001
0100
0000
0010
0000
2000
0000
0000
0000
,
3001
0000
0010
0000
0100
0000
1000
0000
0010
0000
0100
0001
0100
0000
0001
0000
,
0000
0000
0020
0000
0000
0000
0031
0000
1000
0100
1000
0000
0001
0000
0100
0000
,
0002
0000
0010
2003
0000
0000
3020
0000
,
0000
0000
0100
0000
0000
0000
0130
0010
,
2000
0000
0010
3002
0000
0000
0023
0000
,
0000
0000
0130
0000
0110
0000
0100
1000
,
0002
0000
0100
2003
0000
0000
0100
3002
,
0000
0000
0013
0000
1100
0000
0001
0020
,
1000
0000
0031
0000
0101
0000
1000
0020
,
0001
0000
1030
0000
0100
0010
0010
0000
,
0002
0000
0100
2003
0000
0000
0100
3002
,
0100
0100
1000
0000
0103
0010
0100
0001
,
2000
0000
0010
3002
0000
0000
0013
2000
,
0100
0100
0010
0000
3002
0000
0103
0001
,
2000
0000
3001
0200
1000
0000
0310
0100
,
0001
0001
2000
0000
3200
0000
0310
0000
,
2002
0000
3003
0220
0000
0330
0201
0000
,
0302
0023
0230
1300
,
1010
0000
0000
0000
0101
0000
0000
0001
1000
0000
0001
0010
0100
0000
0020
0000
,
0000
0000
0130
0000
1000
0000
0001
0000
0100
0010
1000
0000
0001
0000
0010
0000
,
0011
0000
0000
0000
1100
0000
0000
1000
0001
0000
1000
0010
0100
0000
0020
0000
,
0000
0000
0130
0000
0010
1000
0001
0000
0010
0000
0100
0000
1000
0000
0001
0000
,
1000
1000
1000
1000
0100
0100
0010
0010
,
0001
0001
0001
0001
0100
0100
0010
0010
,
1000
0010
1000
0000
0001
0010
0001
0000
1000
0010
1000
0000
0001
0010
0100
0000
,
0000
0000
0200
0000
1300
0001
1000
0000
0010
0000
0100
0000
0001
0010
0100
0000
,
0010
0000
0000
0000
0011
0000
0001
0100
0010
0000
0100
0000
1000
0000
0100
0000
,
0000
0010
1000
0100
0010
0001
1001
1000
,
0100
0000
0000
0000
1100
0000
1000
0010
0100
0000
0010
0000
0001
0000
0010
0000
,
0000
0100
0001
0010
0110
0000
0011
0001
,
1001
0000
0000
0000
1010
0000
1000
0100
0010
0000
0100
0000
0001
0000
0100
0000
,
0000
0010
0001
0100
0110
0000
1010
0000
,
1000
0000
0100
0000
0010
0000
0100
1000
0001
0000
0100
0000
0000
0000
0101
0000
,
0000
0000
1010
0000
1000
0000
0001
0000
0011
0000
0001
1000
0010
0000
0000
0000
,
1000
0001
1000
0001
0010
0000
0100
0000
1000
0000
0010
0000
0100
0000
1100
0000
,
0000
1000
0100
0001
1000
0010
1010
0000
,
0101
0000
0000
0000
1001
0000
0001
0010
0100
0000
0010
0000
0100
0000
0101
0000
,
0000
0100
0010
0001
1001
0000
1010
1000
,
0010
0000
0100
0000
0001
0000
1000
0000
0100
0000
0010
0100
0010
0000
1010
0000
,
0000
0000
1000
0000
0010
0000
0001
0000
1000
0000
0001
0100
0010
0000
1000
0000
,
2002
0000
3003
0022
0000
0033
0220
0000
,
0330
0000
0000
0000
0100
0010
0100
0000
1000
0000
0001
0000
0100
0000
0010
0000
,
2000
0000
3010
0200
0000
0000
0310
0020
,
0000
0000
0000
0000
0000
0000
1030
0001
,
0020
0000
0031
0200
0000
0000
0310
0020
,
0000
0000
0000
0000
0230
0000
1300
0100
,
0020
0000
1030
0200
0000
0000
0310
2000
,
0000
0000
3001
0000
0100
0000
1000
0020
,
0001
0000
0100
0000
1030
0000
0001
0020
,
1000
0000
0100
0000
0031
0000
1000
0001
,
2000
0000
0010
3002
0100
0000
0100
2003
,
0010
0000
0000
0000
3001
0000
0001
0100
0010
0000
0100
0000
1000
0000
0100
0000
,
0002
0000
0010
2003
0100
0000
0100
3002
,
0010
0000
0000
0000
1003
0000
1000
0100
0010
0000
0001
0000
0100
0000
0010
0000
,
1000
1000
1000
1000
0100
0100
0010
0010
,
0001
0010
0001
0000
1000
0010
1000
0000
0001
0010
0001
0000
1000
0010
0100
0000
,
0202
0000
0303
2002
0000
3003
2100
0000
,
3020
0000
0000
0000
0230
0000
0000
0000
0302
0000
0000
0000
1003
0100
0010
0001
,
2000
0000
0000
0000
3001
0000
2000
3010
,
0200
1300
0002
0013
0200
0301
1001
0000
,
2000
0000
0000
0000
0100
0000
0000
0000
3001
0000
0000
0000
0100
0010
1000
0001
,
1000
0000
0010
0000
0001
0000
0010
0000
0100
0000
0001
0000
1000
0001
0010
0000
,
0011
0000
0000
0110
0000
0000
0011
0000
0001
0000
1000
0000
0001
0000
0100
0010
,
1000
0000
0000
0110
0000
0000
1010
0000
1000
0000
0001
0000
1000
0000
0100
0000
,
0210
0000
0301
0201
0000
0310
0110
0100
,
1000
0001
0100
0010
0110
0100
0002
0000
,
2003
0000
0000
0000
0000
0000
0000
3200
,
0000
0001
0010
1300
,
2001
0000
0000
0000
0010
3010
0000
0201
,
0000
1000
0010
0301
,
2001
0000
0000
0000
0000
0000
3100
0020
,
0000
0032
0203
0320
,
2030
3020
0032
2003
,
3200
0302
0023
0200
,
0000
0000
0000
0000
,
0000
0000
0000
0000
,
0330
0000
0000
0000
;

//---------------dance-double - t7r----------------
#NOTES:
     dance-double:
     t7r:
     Easy:
     6:
     :
00000000
00000000
00000000
00000000
,
00000000
00000000
00000000
00000000
,
00000000
00000000
00000000
00000000
,
00000000
00000000
00000000
00000000
,
00000000
00000000
00000000
00000000
,
00010000
00000000
00010000
00000000
,
00000010
00000000
00001000
00000000
,
00000001
00000000
00000001
00000000
,
00000010
00000000
00001000
00000000
,
00020000
00000000
00000010
00000000
,
00000100
00000000
00031000
00010000
,
02000000
00000000
00010000
00000000
,
00100000
00000000
13000000
00100000
,
00010000
00000000
00001000
00000000
,
00000200
00000000
00000001
00000000
,
00000320
00000000
00001030
00000000
,
00000002
00000010
00001003
00000000
,
00000001
00000100
00000010
00001000
,
00000200
00000000
00001000
00000000
,
00010300
00001000
00010000
00100000
,
02000000
00000000
00100000
00000000
,
03010000
10000000
01000000
00000000
,
00100000
00010000
10000000
00000000
,
20020000
00000000
00000000
30000000
00000000
00000000
00030000
00000000
,
00000000
00000000
00011000
00000000
,
00010000
00100000
00010000
00000000
,
00001000
00000000
00010000
00000000
,
00001000
00000010
00001000
00000000
,
00010000
00000000
00001000
00000000
,
00000100
00000100
00000010
00000010
,
00001000
00001000
00000001
00000001
,
00000010
00000000
00001000
00022000
,
00033000
00010000
01000000
10000000
,
00200000
02300000
03010000
00000000
,
20000000
32000000
03010000
00000000
,
00002000
00023000
00030010
00000000
,
00000200
00000310
00002000
00003001
,
00000020
00000230
00001300
00000000
,
00000200
00020300
00031000
00001000
,
00010000
00100000
10000000
01000000
,
02200000
03300000
00001000
00010000
,
00002000
00000000
00003000
00000000
,
00000200
00000302
00001003
00000001
,
00002000
00003200
00000310
00000000
,
00000200
00020300
00031000
00001000
,
00020000
02030000
13000000
00000000
,
00200000
02300000
03001000
00001000
,
00022000
00000000
00000000
00030000
00000000
00000000
00003000
00000000
,
00000000
00000000
00022000
00033000
,
01002000
00000000
00000000
00000000
,
00100000
00000000
00000000
00000000
,
02003000
00000000
00000000
00000000
,
10000000
00000000
00100000
00000000
,
03020000
00000000
00000000
00000000
,
01030000
00000000
00001000
00000000
,
00020000
00000000
00001000
00000000
,
00030100
00001000
00000001
00000000
,
00001002
00000000
00000023
00000000
,
00002030
00000000
00013000
00100000
,
20000000
00000000
32000000
00000000
,
03020000
00000000
00031000
00010000
,
00001000
00001000
00000100
00000100
,
00000001
00000001
00000010
00000001
,
00002002
00000000
00000000
00000003
00000000
00000000
00003000
00000000
,
00000000
00000000
00001000
00010000
,
00022000
00000000
00033000
00000000
,
00011000
00010000
00100000
00010000
,
00002000
00000000
00003000
00000000
,
00010000
00001000
00000010
00001000
,
00010000
00001000
00000100
00000000
,
00000001
00000010
00000110
00000000
,
00011000
00000000
00011000
00000000
,
00001000
01000000
00010000
10000000
,
00200000
00000000
00000000
00000000
,
20300000
00000000
00000000
00000000
,
32000000
00000000
00000000
00000000
,
03020000
00000000
00000000
00000000
,
00032000
00000000
00000000
00000000
,
00003020
00000000
00000000
00000000
,
00000130
00001000
00000001
00000100
,
00001000
00010000
01000000
10000000
;

//---------------dance-double - t7r----------------
#NOTES:
     dance-double:
     t7r:
     Medium:
     10:
     :
00000000
00000000
00000000
00000000
,
00000000
00000000
00000000
00000000
,
00000000
00000000
00000000
00000000
,
00000000
00000000
00000000
00000000
,
00000000
00000000
00000000
00000000
,
00100000
00000000
00010000
10000000
00000000
00010000
01000000
00020000
,
00030000
10000000
00000000
10000000
01000000
00000000
00010000
00000000
,
00002000
00000000
00003100
00000020
00000000
00000130
00000002
00000000
,
00001003
00000200
00000300
00010000
00001000
00010000
01000000
00000000
,
20000000
00000000
30100000
02000000
00000000
00000000
03200000
00000000
,
00000000
00000000
00010000
00000000
00000000
00000000
01300000
00100000
,
20000000
00000000
31000000
00020000
00000000
00000000
00032000
00000000
,
00000000
00000000
01000000
00000000
00100000
00000000
00013000
00001000
,
00000200
00000000
00000310
00002000
00000000
00000000
00003001
00000020
,
00000000
00000000
00000130
00000000
00010000
00000000
00001000
00020000
,
00000100
00000000
00031000
00000000
00010000
00000000
01000000
20000000
,
00100000
00000000
30010000
00000000
10000000
00010000
00010000
00000000
,
10000000
00000000
00100000
01000000
00010000
00000000
10000000
00000000
,
01000000
01000000
00100000
00000000
00001000
00000000
00010000
00001000
,
00000100
00000000
00000010
00000100
00000001
00000000
00000010
00000000
,
00000100
00000100
00010000
00000000
00001000
00000000
00010000
01000000
,
10000000
00000000
00100000
10000000
00200000
00000000
00300000
00000000
,
01000000
00000000
00001000
00010000
00001000
00000000
00010000
00000000
,
00011000
00000000
00000000
00010100
00000000
00000000
00002010
00000000
,
00003002
00000010
00001003
00000000
,
00000001
00000000
00000100
00000000
00000001
00001000
00000010
00000000
,
00001000
00000000
00000100
00000000
00010000
00001000
00010000
00000000
,
00001000
00000000
01000000
00000000
00010000
10000000
00100000
00000000
,
10000000
00000000
01000000
00000000
00100000
00001000
00100000
00000000
,
00001000
00000000
00001000
00000000
00010000
00001000
00000100
00000000
,
00001000
00000000
00001000
00000000
00010000
01000000
10000000
00000000
,
00100000
00000000
01000000
00000000
00010000
00100000
00001000
00010000
,
00000000
00002000
00003000
00000100
00000010
00000100
00000000
00000001
,
00001000
00000000
00001001
00000000
00000001
00000000
00000010
00000100
,
00000000
00000010
00000000
00000000
00000001
00000100
00000100
00000000
,
00001000
00000000
00010000
00000000
00001000
00000000
00010000
00100000
,
00000000
01000000
00000000
00010000
10000000
00000000
01000000
00000000
,
10000000
00000000
10010000
00000000
10000000
00000000
00100000
01000000
,
00000000
00100000
00000000
00000000
10000000
00000000
11000000
00000000
,
01000000
00000000
00010000
00001000
00010000
00001000
00000000
00000100
,
00000000
00000010
00000000
00001000
00000001
00000000
00001001
00000000
,
00000002
00000000
00000203
00000000
00000310
00000000
00000010
00000100
,
00000000
00001000
00000000
00010000
00100000
10000000
10000000
00000000
,
20000000
00000000
32000000
00000000
03100000
00000000
00100000
01000000
,
00000000
00010000
00000000
01000000
00100000
00000000
00110000
00000000
,
00001000
00000000
00010000
00001000
00000000
00000100
00000000
00001000
,
00000000
00010000
01000000
01000000
10000000
00000000
00100000
00000000
,
10000000
00000000
00000000
10100000
00000000
00000000
10010000
00000000
,
10000000
01000000
00020000
00000000
,
00002000
00000000
00000000
00000000
,
00000000
00000000
00000000
00000000
,
00033000
00000000
00000000
00000000
,
00000000
00000000
00000000
00000000
,
00010000
00000000
00001000
00000200
00000000
00000000
00000300
00000000
,
00000010
00000000
00000100
00000000
00000001
00000000
00000010
00000200
,
00001000
00000000
00010300
00000000
00001000
00000000
00010000
02000000
,
00100000
00000000
00010000
00000000
13000000
00000000
00100000
01000000
,
00010000
00000000
10000000
00000000
00100000
10000000
00010000
00000000
,
00100000
00000000
00001000
00000000
00010000
00000100
00001000
00000000
,
00000010
00000000
00000100
00000000
00000001
00001000
00000010
00000000
,
00001000
00000000
00000100
00000000
00010000
00001000
00010000
00000000
,
01000000
00000000
10000000
00000000
00100000
00010000
00001000
00000000
,
00000100
00000000
00000001
00000000
00000010
00001000
00010000
00000000
,
00011000
00000000
00000000
00010100
00000000
00000000
00021000
00000000
,
00032000
01000000
00013000
00000000
,
00012000
00000000
00003100
00000010
,
00000100
00000000
00001000
00000000
00000100
00000001
00000001
00000000
,
00000020
00000000
00001030
00010000
,
01000000
10000000
00010000
00000000
01000000
00000000
00100000
00000000
,
10000000
00000000
00000000
00100000
00000000
00000000
00100000
00000000
10000000
00000000
00000000
00000000
01000000
00000000
00000000
00000000
,
00010000
00000000
00000000
00001000
00000000
00000000
00001000
00000000
00010000
00000000
00000000
00000000
00001000
00000000
00000000
00000000
,
00000010
00000000
00000001
00000100
00000000
00001000
00010000
00000000
,
00001000
00000000
00010000
00100000
00000000
10000000
00010000
00000000
,
20000000
00000000
00000000
00000000
00000000
00000000
00000000
32000000
,
00000000
03010000
00001000
00000100
,
00000020
00000000
00000000
00000000
00000130
00000001
00000000
00002000
,
00000000
00003002
00000023
00002030
,
00023000
00000000
00000000
00000000
00000000
00000000
00031000
02000000
,
00000000
03200000
20300000
30020000
,
10030000
00200000
00320000
00032000
,
00003200
00000302
00000023
00000200
,
00000000
00000000
00000000
00000000
,
00000000
00000000
00000000
00000000
,
00000330
00000000
00000000
00000000
;

//---------------dance-double - t7r----------------
#NOTES:
     dance-double:
     t7r:
     Hard:
     12:
     :
00000000
00000000
00000000
00000000
,
00000000
00000000
00000000
00000000
,
00000000
00000000
00000000
00000000
,
00000000
00000000
00000000
00000000
,
00000000
00000000
00000000
00000000
,
00000001
00000010
00000001
00000010
00000000
00000001
00001000
00000200
,
00000300
00010000
00000000
00001000
01000000
00010000
20000000
00000000
,
31000000
10000000
00100000
00000000
01000000
00010000
00100000
00001000
,
00000000
00020000
00031000
00001000
00000100
00000001
00000000
00001000
,
00000002
00000000
00000013
00000200
00000000
00000000
00001300
00000020
,
00000100
00000000
00001030
00000000
00000001
00000000
00001000
00000100
,
00020000
00000000
00031000
02000000
00100000
00000000
03020000
00000000
,
00100000
00000000
10030000
00000000
00010000
00000000
10000000
01000000
,
00200000
00000000
01300000
10000000
00200000
00000000
01300000
00010000
,
00200000
00000000
00301000
00000000
00010000
00000000
00001000
00020000
,
00000100
00000000
00031000
00000000
00000100
00000000
00000001
00000020
,
00000100
00000000
00000031
00000000
00001000
00000001
00000001
00000000
,
00000200
00000000
00001300
00000200
00000001
00000000
00000310
00002000
,
00000100
00000100
00000100
00000000
00003010
00010000
00001000
00010000
,
02000000
00000000
03010000
02000000
10000000
00000000
03100000
00020000
,
01000000
01000000
01000000
00000000
00130000
00001000
00010000
00001000
,
00000200
00000000
00000301
00000020
00001000
00000000
00001030
00000020
,
00000001
00000230
00020300
00031000
,
00022000
00000000
00033000
02002000
00000000
03003000
01200000
00000000
,
00010000
01000000
10300000
00010000
,
10010000
00000000
11000000
00000000
10000000
01000000
00100000
00010000
,
00000000
10000000
00100000
00010000
00001000
00010000
00001000
00000000
,
00011000
00000000
00010100
00000000
00000100
00001000
00000010
00000100
,
00000001
00000020
00000030
00000001
00000100
00001000
00000000
00010000
,
00001000
00001000
00010000
00010000
01000000
01000000
10000000
00100000
,
10000000
10000000
01000000
01000000
00010000
00010000
00001000
00001000
,
00000100
00000001
00001000
00000000
00000100
00010000
00001000
00010000
,
00100000
02000000
03100000
10000000
00010000
10000000
01000000
00100000
,
00110000
00000000
00110000
00000000
10000000
00100000
01000000
00010000
,
00000000
10000000
01000000
00010000
00001000
00010000
00010000
00000000
,
00011000
00000000
00011000
00000000
00010000
00001000
00000010
00000100
,
00000000
00000010
00000001
00000100
00000010
00000000
00000010
00000000
,
00001010
00000000
00001010
00000000
00000010
00001000
00000100
00010000
,
00000000
00001000
00010000
01000000
00100000
00000000
00110000
00000000
,
10000000
00100000
00010000
00001000
00000100
00000010
00001000
00000001
,
00000000
00000010
00000100
00000010
00000011
00000000
00001001
00000000
,
00000001
00000100
00000010
00000100
00001000
00010000
01000000
10000000
,
00000000
00100000
01000000
00100000
10000000
10000000
10000000
00010000
,
10000000
01000000
00100000
01000000
00010000
00001000
00000100
00000001
,
00000000
00000010
00000100
00000010
00000001
00000010
00000100
00001000
,
00000020
00000000
00000031
00000010
00000100
00001000
00000000
00010000
,
00001000
00010000
01000000
10000000
00100000
00100000
00100000
10000000
,
02000000
00000000
03000000
00220000
00000000
00330000
00022000
00000000
,
00000000
00033000
00000220
00000330
,
00000002
00000000
00000013
00000200
00000000
00000000
00000310
00000002
,
00000000
00000000
00000000
00000000
00000000
00000000
00000103
00001000
,
00020000
00000000
00031000
00200000
00000000
00000000
00310000
20000000
,
00000000
00000000
00000000
00000000
30100000
00000000
10000000
01000000
,
00200000
00000000
00310000
20000000
00000000
00000000
30100000
02000000
,
00000000
00000000
13000000
00000000
01000000
00000000
00010000
00100000
,
00002000
00000000
00013000
00000000
00001000
00000000
00000010
00000001
,
00000200
00000000
00000310
00000000
00001000
00000000
00000001
00001000
,
00000002
00000000
00000013
00000100
00001000
00000010
00000100
00000020
,
00000001
00000000
00000100
00000000
00001000
00001000
00001030
00000001
,
00002000
00000000
00003100
00010000
00001000
00010000
01000000
20000000
,
00100000
00000000
00010000
00000000
31000000
00100000
00001000
00010000
,
00001000
00001000
00010000
00010000
01000000
01000000
10000000
00100000
,
10000000
10000000
01000000
01000000
00010000
00010000
00001000
00001000
,
00022000
00000000
00033000
00000220
00000000
00000330
00001020
00000000
,
00000001
00000000
00000100
00000000
00001030
00000100
00000010
00000001
,
00000200
00000000
00000000
00000000
00001300
00000000
00010000
00001000
,
00010000
01000000
00010000
00001000
00000100
00001000
00001000
00000000
,
00020000
00000000
00001000
00000000
01030000
00000000
10000000
00100000
,
01000000
10000000
01000000
00010000
00100000
00001000
00010000
00001000
,
00000010
00000000
00000000
00000001
00000000
00000000
00000100
00000000
00000010
00000000
00000000
00000000
00010000
00000000
00001000
00010000
,
00001000
00000000
00000000
00010000
00000000
00000000
00100000
00000000
10000000
00000000
00000000
00000000
01000000
00000000
00010000
00000000
,
00002000
00000000
00003100
00000002
00000000
00000013
00000100
00010000
,
00002000
00000000
00013000
02000000
00000000
13000000
00100000
00000000
,
20010000
00000000
00000000
00000000
00000000
00000000
00000000
32000000
,
00000000
00010000
00100000
13000000
,
00200000
00000000
00000000
00000000
00310000
00002000
00000000
00003200
,
00000000
00001000
00000010
00000301
,
00000020
00000000
00000000
00000000
00000000
00000000
00000130
00020000
,
00000000
00032000
02003000
03020000
,
20030000
30200000
00320000
00032000
,
00003200
00000302
00002003
00000002
,
00000000
00000000
00000000
00000000
,
00000000
00000000
00000000
00000000
,
00003003
00000000
00000000
00000000
;

//---------------dance-double - t7r----------------
#NOTES:
     dance-double:
     t7r:
     Challenge:
     14:
     :
00000000
00000000
00000000
00000000
,
00000000
00000000
00000000
00000000
,
00000000
00000000
00000000
00000000
,
00000000
00000000
00000000
00000000
,
00000000
00000000
00000000
00000000
,
10000000
00100000
00100000
01000000
00000000
00010000
10000000
00200000
,
00300000
00000000
01000000
00000000
00001000
00010000
00001000
00010000
00000100
00000000
00001000
00000000
00000020
00000000
00000000
00000000
,
00000130
00000000
00000001
00000000
00001000
00000000
00000100
00000000
00010000
00000000
00001000
00010000
00001000
00000000
00010000
00000000
,
00000000
00000000
01000000
00000000
10000000
01000000
10000000
00000000
00010000
00100000
00010000
00000000
10000000
00000000
00100000
00000000
,
20000000
00000000
01000000
30020000
00000000
00000000
02030000
00000000
,
00000000
00000000
00100000
00000000
00000000
00000000
03100000
10000000
,
02000000
00000000
00010000
03200000
00000000
00000000
00010000
00302000
,
00000000
00000000
00003100
00000000
00000110
00000000
00000010
00001000
,
00000002
00000000
00000010
00002003
00000000
00000000
00000010
00003002
,
00000000
00000000
00000103
00000000
00001000
00000000
00010000
02000000
,
10000000
00000000
03100000
00000000
00010000
00000000
10000000
00200000
,
00010000
00000000
01300000
00000000
00001000
00010000
00010000
00001000
,
00000100
00000000
00000001
00000000
00001000
00000000
00000000
00000001
00000010
00000000
00000001
00000000
00001000
00000000
00000100
00000000
,
00010000
00010000
00001000
00010000
01000000
10000000
00100000
01000000
,
00100000
00000000
10000000
00000000
00010000
00000000
00000000
10000000
01000000
00000000
10000000
00000000
00010000
00000000
00100000
00000000
,
00001000
00001000
00010000
00001000
00000010
00000001
00000100
00000010
,
00002000
00000000
00000001
00003200
00000000
00000000
00010000
00002300
,
00000100
00000100
00003002
00000000
00000203
00000000
00001300
00000000
,
00022000
00000000
00033000
02200000
00000000
03300000
20100000
00000000
,
32000000
03020000
00032000
00003100
,
00000101
00000000
00000000
00000001
00001000
00000000
00000001
00000000
00000010
00000100
00001000
00000000
00000100
00000000
00020000
00000000
,
00000000
00000000
00031000
00000000
00010000
00000000
00100000
00000000
01000000
00010000
10000000
00000000
00010000
00000000
00100000
00000000
,
00110000
00000000
00000000
00000000
10010000
00000000
00000000
10000000
00100000
00000000
01000000
00010000
10000000
00000000
02000000
00000000
,
00000000
00000000
03010000
00000000
00001000
00010000
00001000
00000000
00000010
00000000
00000100
00000000
00000010
00000000
00000001
00000000
,
00000100
00000100
00000100
00000100
00000010
00000010
00010000
00010000
,
00001000
00001000
00001000
00001000
01000000
01000000
00100000
00100000
,
10000000
01000000
10000000
00000000
00010000
01000000
00010000
00000000
00100000
00001000
00100000
00000000
00001000
00010000
00001000
00000000
,
00000000
00000000
00002000
00000000
00003100
00000010
00000100
00000000
00000001
00000000
00000010
00000000
00000100
00001000
00000001
00000000
,
00000100
00000000
00000000
00000000
00000101
00000000
00000001
00000010
00000100
00000000
00000010
00000000
00001000
00000000
00000010
00000000
,
00000000
00000001
00000100
00001000
00010000
00001000
00011000
00010000
,
01000000
00000000
00000000
00000000
11000000
00000000
10000000
00100000
01000000
00000000
00100000
00000000
00010000
00000000
00100000
00000000
,
00000000
10000000
01000000
00010000
00011000
00000000
00010100
00000100
,
00001000
00000000
00000000
00000000
00001001
00000000
00000001
00000100
00000010
00000000
00000100
00000000
00001000
00000000
00000100
00000000
,
00000000
00000001
00000010
00001000
00011000
00000000
00101000
00000000
,
00001000
00000000
00010000
00000000
01000000
00000000
00100000
00000000
00001000
00010000
00001000
00000000
00000000
00000000
00011000
00000000
,
00000000
00000000
00010000
00000000
01000000
00000000
10000000
00000000
10100000
00000000
00100000
01000000
00010000
00000000
00000000
00000000
,
10000000
00010000
10000000
00010000
00100000
00000000
01000000
00000000
10000000
00000000
00100000
00000000
01000000
00000000
11000000
00000000
,
00000000
10000000
01000000
00010000
00100000
00001000
00011000
00010000
,
01000000
00000000
00000000
00000000
10010000
00000000
10000000
01000000
00100000
00000000
00001000
00000000
00010000
00000000
00011000
00000000
,
00000000
00001000
00000100
00000001
00000011
00000000
00001001
00000000
,
00000001
00000000
00001000
00000000
00000100
00000000
00000010
00000000
00000001
00000000
00000100
00000010
00000100
00000000
00001100
00000000
,
00000000
00000000
00001000
00000000
00010000
00000000
01000000
00000000
10000000
00000000
00100000
01000000
00010000
00000000
10000000
00000000
,
22000000
00000000
33000000
02200000
00000000
03300000
00202000
00000000
,
00303000
00000000
00000000
00000000
00001000
00010000
00001000
00000000
00010000
00000000
00001000
00000000
00000100
00000000
00000001
00000000
,
00000020
00000000
00000031
00000200
00000000
00000000
00001300
00002000
,
00000000
00000000
00000000
00000000
00000000
00000000
00013000
01000000
,
20000000
00000000
30100000
02000000
00000000
00000000
03100000
00200000
,
00000000
00000000
00000000
00000000
20300000
00000000
30010000
00100000
,
00002000
00000000
00013000
00002000
00000000
00000000
00003100
00000002
,
00000000
00000000
00000013
00000000
00000100
00000000
00010000
00002000
,
00000100
00000000
01000000
00000000
00013000
00000000
00001000
00020000
,
01000000
00000000
00000100
00000000
00031000
00000000
00010000
00001000
,
00000200
00000000
00000001
00000320
00001000
00000000
00001000
00000230
,
00000001
00000000
00000000
00000000
00000301
00000000
00000001
00000010
00000100
00000000
00010000
00000000
00001000
00000000
00010000
00000000
,
02000000
00000000
10000000
03200000
00010000
00000000
00010000
02300000
,
10000000
00000000
00000000
00000000
13000000
00000000
10000000
00100000
01000000
00000000
00001000
00000000
00010000
00000000
00001000
00000000
,
00000100
00000100
00000100
00000100
00000010
00000010
00010000
00010000
,
00001000
00010000
00001000
00000000
01000000
00010000
01000000
00000000
00010000
10000000
00010000
00000000
10000000
00100000
10000000
00000000
,
20020000
00000000
30030000
22000000
00000000
33000000
01200000
00000000
,
00302000
00000000
00000000
00000000
00023000
00000000
00000000
00000000
00030020
00000000
00000000
00000000
00000130
00000001
00001000
00000001
,
00000020
00000000
00000000
00000000
00000031
00000000
00000200
00001300
,
00020000
00031000
00020000
01030000
20000000
30100000
10100000
00000000
,
20000000
00000000
00000000
00000000
01000000
00000000
00000000
00000000
30010000
00000000
00000000
00000000
10000000
00100000
01000000
00010000
,
10000000
00000000
01000000
00000000
00010000
00000000
00001000
00000000
00000010
00000000
00000001
00000000
00000100
00000010
00001000
00000000
,
00001010
00000000
00000000
00000110
00000000
00000000
00001001
00000000
00000001
00000000
00000100
00000000
00001000
00000000
00010000
00001000
,
00010000
00000000
00000000
00011000
00000000
00000000
00010000
00000000
01000000
00000000
10000000
00000000
00010000
00000000
10000000
00000000
,
20010000
00000000
30100000
02100000
00000000
03010000
00110000
00100000
,
00001000
00010000
00001000
00000010
00000011
00000001
00002000
00000000
,
00003002
00000000
00000000
00000000
00000000
00000000
00000000
00000203
,
00000000
00001000
00000010
00000301
,
00000020
00000000
00000000
00000000
00001000
00001030
00000000
00021000
,
00000000
01000000
00001000
00030100
,
00002000
00000000
00000000
00000000
00000000
00000000
00003001
00000200
,
00000000
00002300
00023000
00230000
,
20300000
32000000
03020000
00032000
,
00003200
00000302
00000023
00000200
,
00000000
00000000
00000000
00000000
,
00000000
00000000
00000000
00000000
,
00000330
00000000
00000000
00000000
;
