#TITLE:ピンクのボーダーライン;
#ARTIST:BEMANI Sound Team "Yvya × OJ" feat. ななひら;
#TITLETRANSLIT:Pink no borderline;
#ARTISTTRANSLIT:Yvya × OJ feat. Nanahira;
#BANNER:Pink no borderline.png;
#BACKGROUND:Pink no borderline-bg.png;
#JACKET:Pink no borderline-jacket.png;
#CDTITLE:./CDTITLES/GITADORA.PNG;
#MUSIC:Pink no borderline.ogg;
#SAMPLESTART:31.579;
#SAMPLELENGTH:15;
#BPMS:0=190;

//---------------dance-single - t7r----------------
#NOTES:
     dance-single:
     t7r:
     Beginner:
     4:
     :
0000
0000
0000
0000
,
0000
0000
0000
0000
,
0000
0000
0000
0000
,
0000
0000
0000
0000
,
0000
0000
0000
0000
,
0010
0000
0000
0000
,
0010
0000
0000
0000
,
1001
0000
0000
0000
,
0100
0000
0000
0000
,
0000
0001
0000
0001
,
0001
0000
0001
0000
,
0000
1000
0000
1000
,
1000
0000
1000
0000
,
0010
0000
0010
0000
,
0100
0000
0100
0000
,
0001
0000
1000
0000
,
0001
0000
0000
0000
,
0000
1000
1000
0000
,
1000
0000
0000
0000
,
0000
0001
0001
0000
,
0001
0000
0000
0000
,
0000
0100
0100
0000
,
0100
0000
0000
0000
,
0010
0000
0010
0000
,
0010
0000
0000
0000
,
1000
1000
1000
0000
,
1000
0000
1000
0000
,
0001
0001
0001
0000
,
0001
0000
0001
0000
,
0100
0100
0100
0000
,
0100
0000
0100
0000
,
0010
0010
0010
0000
,
0010
0000
0000
0000
,
1000
0000
1000
0000
,
0100
0100
0100
0000
,
0010
0000
0010
0000
,
0001
0001
0001
0000
,
0100
0000
0010
0000
,
1000
1000
1000
0000
,
0001
0000
0010
0000
,
0100
0100
0100
0000
,
0010
0000
0000
0000
,
0001
0000
0000
0000
,
1000
0000
0000
0000
,
0010
0000
0000
0000
,
0100
0000
0100
0000
,
1000
0000
1000
0000
,
0001
0000
0001
0000
,
0010
0000
0010
0000
,
1001
0000
0000
0000
,
0100
0000
0100
0000
,
0010
0000
0010
0000
,
1000
0000
0001
0000
,
1000
1000
1000
0000
,
0001
0000
0100
0000
,
0010
0000
0010
0000
,
1000
0000
0100
0000
,
0000
0010
0010
0000
,
1001
0000
0000
0000
,
0100
0000
0000
0000
,
0010
0000
0000
0000
,
1000
0000
0000
0000
,
0001
0000
0001
0000
,
0010
0000
0010
0000
,
0100
0000
0000
0000
,
1000
0000
0000
0000
,
0010
0000
0000
0000
,
0100
0000
0000
0000
,
0010
0000
0000
0000
,
1000
0000
0000
0000
,
0001
0000
0000
0000
,
0010
0000
0010
0000
,
0010
0000
0000
0000
,
0001
0000
0001
0000
,
0001
0000
0000
0000
,
1001
0000
0000
0000
,
1000
0000
0000
0000
,
0010
0000
0000
0000
,
0100
0000
0000
0000
,
1000
0000
0000
0000
,
0001
0000
0001
0000
,
0010
0000
0010
0000
,
0110
0000
0000
0000
,
0100
0000
0000
0000
,
0010
0000
0010
0000
,
1000
0000
1000
0000
,
0001
0000
0001
0000
,
0010
0000
0010
0000
;

//---------------dance-single - t7r----------------
#NOTES:
     dance-single:
     t7r:
     Easy:
     7:
     :
0000
0000
0000
0000
,
0000
0000
0000
0000
,
0000
0000
0000
0000
,
0000
0000
0000
0000
,
0000
0000
0000
0000
,
1000
0100
0100
0000
,
0010
0001
1000
0000
,
2001
0000
0000
0000
,
3020
0000
0130
0000
,
0002
0000
0103
0010
,
1000
0100
0100
0000
,
1000
0010
0100
0001
,
1000
0001
0001
0000
,
0200
0000
0320
0000
,
1030
0001
0001
0000
,
0010
0001
0100
0010
,
1000
0001
2001
0000
,
3001
0010
0010
0000
,
0001
0100
0001
0000
,
1000
0010
0010
0000
,
1000
0100
1000
0000
,
0001
1000
1000
0000
,
0010
0100
0001
0000
,
1000
0000
0100
0000
0010
0000
0000
0001
,
0000
0001
0000
0002
0000
0000
1003
0000
,
0001
0100
0001
0000
,
1000
0100
1000
0000
,
0001
0010
0100
1000
,
0010
0100
0002
0000
,
1003
0100
1000
0000
,
0001
0100
0001
0000
,
1000
0000
0010
0000
0100
0000
0000
0001
,
0000
0001
0000
0000
2002
0000
3003
0000
,
0200
0000
0320
0000
,
1030
0100
1100
0000
,
0001
0010
0100
1000
,
0001
0100
0010
0000
,
2000
0000
3020
0000
,
0130
0001
0101
0000
,
0001
0010
1000
0010
,
0001
0100
0020
0000
,
1030
1000
0100
0000
,
0010
0010
0001
0000
,
1000
0010
0001
0010
,
0100
0010
1000
0001
,
2000
0100
0000
3001
,
0200
1000
0000
0310
,
0100
0100
0010
0010
,
1000
0001
0010
0100
,
0220
0000
0000
0330
,
0001
0100
0001
0000
,
0100
1000
0100
0000
,
0001
0010
0100
1000
,
0001
0010
2000
0000
,
3010
0001
0010
0000
,
1000
0010
1000
0000
,
0010
0000
0100
0000
1000
0000
0000
0010
,
0000
0010
0000
0000
0220
0000
0330
0000
,
2001
0000
3020
0000
,
0230
0000
0302
0000
,
1003
0000
0100
0100
,
1000
0010
0100
0000
,
0001
0010
1000
0010
,
0001
0100
1000
0100
,
0020
0000
2030
0000
,
3002
0000
0013
0010
,
0002
0000
0000
0003
,
1000
0100
0100
0010
,
0001
0100
0020
0000
,
1030
0010
0200
0000
,
0301
0010
0200
0000
,
1300
0001
0101
0000
,
0001
1000
1100
0000
,
1000
1000
0010
0010
,
0100
0100
0001
0010
,
0200
0000
0000
0300
,
2000
0000
0000
0000
,
3020
0000
0000
0000
,
0230
0000
0000
0000
,
0302
0000
0000
0000
,
1003
0000
0100
0000
0001
0000
0000
0100
,
0000
0100
0000
0000
0010
0000
0001
0000
,
2002
0000
0000
3003
,
0220
0000
0000
0330
,
0001
0100
0101
0000
,
1000
0100
1100
0000
,
0001
0010
0011
0000
,
1000
0000
0010
0000
0100
0000
0010
0010
;

//---------------dance-single - t7r----------------
#NOTES:
     dance-single:
     t7r:
     Medium:
     10:
     :
0000
0000
0000
0000
,
0000
0000
0000
0000
,
0000
0000
0000
0000
,
0000
0000
0000
0000
,
0000
0000
0000
0000
,
0100
0000
0001
0000
0010
0000
0000
0100
,
0000
0100
1000
0000
0010
0000
0100
0000
,
2002
0000
0000
3003
,
0200
0000
0301
0000
,
2000
0000
0000
0000
3100
1000
0100
0000
,
1000
0010
0100
0000
,
0002
0000
0000
0000
0013
0001
0010
0000
,
0001
1000
0001
0000
0200
0000
0300
0000
,
0020
0030
2000
3000
,
0001
0010
0002
0003
,
1000
0100
0001
0100
,
0010
0001
0010
0000
0002
0000
0003
0000
,
1000
0000
0010
0000
0100
0000
0000
1000
,
0000
0100
0000
0010
0000
1000
0001
0000
,
0100
0000
0001
0000
0010
0000
0000
0100
,
0000
0001
0000
1000
0000
0001
2000
0000
,
3001
0000
0010
0000
0100
0000
0000
0001
,
0000
0100
0000
0010
0000
0001
1000
0000
,
0010
0000
0100
0000
0110
0000
0001
2000
,
0000
3010
0000
0120
0000
0000
1030
0000
,
0001
0000
0100
0000
0010
0000
1000
0100
,
0000
1000
0010
1000
0000
0001
1000
0001
,
0000
1000
0100
0000
0010
0000
0001
0000
,
0100
0000
0010
2000
0000
3002
0000
0000
,
1003
0000
0010
0000
0100
0000
0001
0010
,
0000
0001
0100
0001
0000
1000
0001
1000
,
0000
0001
0010
0000
0100
0000
1000
0001
,
0000
0100
0000
0100
0020
0000
0130
0000
,
2001
0000
0000
0000
3001
0010
0001
0000
,
2000
0000
3010
0100
0000
0200
0000
0000
,
0302
0000
0000
0000
0013
0100
1000
0000
,
0001
0100
0001
0000
1000
0010
1000
0000
,
0002
0000
0000
0000
1003
0010
0100
0000
,
0010
0000
0000
0010
0000
0000
0010
0000
2000
0000
0000
0000
3000
0000
0000
0000
,
0001
0100
1000
0100
,
0010
1000
0010
0000
2000
0000
3001
0000
,
1000
0000
0100
0010
0000
0100
1000
0000
,
0001
0000
0100
0001
0000
0100
0010
0000
,
0100
0000
0010
1000
0001
0000
0010
0000
,
0100
1000
0100
0001
,
0100
0000
0110
0000
0000
0010
0001
0000
,
0100
0000
0110
0000
0000
0010
1000
0000
,
0001
0010
1000
0010
,
0001
0100
0001
0000
1000
0010
1000
0000
,
0002
0000
0000
1003
,
0001
0000
0010
0000
0100
0000
0000
0001
,
0000
0010
0100
1000
0000
0010
0100
1000
,
0000
0001
0100
0000
0010
1000
0010
0000
,
1000
0000
0100
0020
0000
0032
0000
0000
,
1003
0000
0010
0000
0100
0000
0000
1000
,
0000
0010
0100
0001
0000
0010
0100
0001
,
0000
0010
0100
0000
0001
1000
0100
1000
,
0000
1001
0000
0010
0200
0000
0300
0000
,
0020
0000
2030
0000
,
3200
0000
0302
0000
,
0203
0000
0310
0001
,
1000
0010
1000
0000
0002
0000
1003
0000
,
0001
0100
0001
0000
0100
0000
1000
0000
,
0100
0010
0100
0000
0001
0000
1000
0000
,
0200
0000
0320
0000
,
0032
0000
1003
1000
,
0220
0000
0000
0330
,
1000
0010
0100
0001
,
0010
0000
0100
2000
0000
0000
0000
0000
,
3100
0000
0001
0200
0000
0000
0000
0000
,
0310
0000
0001
2000
0000
0000
3010
0000
,
0100
0000
0101
0000
0000
0001
1000
0000
,
0100
0000
1100
0000
0000
1000
0001
0000
,
0100
0110
0010
0110
,
1000
1001
0001
1001
,
0020
0000
0000
0030
,
0120
0000
1000
0000
0130
0000
0000
0010
,
0000
0010
0000
0001
1000
0000
0010
0000
,
2000
0000
0010
0000
3010
0000
0000
0100
,
0000
0100
0000
0001
1000
0000
0010
0000
,
1000
0000
0100
0000
0001
0000
0100
0010
,
0000
0110
0000
0001
1000
0000
0010
0000
,
0200
0302
0023
2030
,
3020
0000
0032
0000
,
1003
0000
0010
0001
0000
0010
0100
0000
,
0001
0000
0010
1000
0000
0010
0100
0000
,
0010
0000
0001
1000
0000
0010
0100
0000
,
0001
0000
1001
0000
0100
0010
0100
0010
;

//---------------dance-single - t7r----------------
#NOTES:
     dance-single:
     t7r:
     Hard:
     12:
     :
0000
0000
0000
0000
,
0000
0000
0000
0000
,
0000
0000
0000
0000
,
0000
0000
0000
0000
,
0000
0000
0000
0000
,
0001
0000
0100
0000
0100
0000
0010
1000
,
0000
1000
0000
0100
0010
0001
1000
0000
,
2001
0000
0000
0000
,
3200
0000
0310
0000
,
1002
0000
0013
0000
0001
0100
0010
0000
,
1000
1100
2002
3003
,
1000
0100
1000
0000
0001
0010
0001
0000
,
0100
0001
0010
0000
0220
0000
0330
0000
,
0002
0000
0103
0000
0010
1000
0100
0000
,
0010
0110
0022
0033
,
1000
0001
1000
0001
0100
0010
0100
0000
,
0010
1000
0001
0000
0220
0000
0330
0000
,
0001
0000
0100
0000
1000
0000
0100
0010
,
0000
0010
0100
0000
0010
1000
0001
0000
,
1000
0000
0100
0000
0001
0000
0100
0010
,
0000
0010
0100
0000
0010
0001
1000
0000
,
0001
0000
0100
0000
0010
0000
0001
0010
,
0000
0010
0100
0000
0010
0000
1000
0001
,
0100
0001
0100
0000
0010
1000
0010
1000
,
0000
1010
0000
2001
0000
3100
0010
0000
,
0011
0000
0101
0000
0011
0000
0001
0100
,
0000
0010
1000
0100
0000
0010
1000
0100
,
0000
0001
0010
1000
0010
0001
1000
0000
,
0001
0100
0000
0110
0000
1001
0000
0000
,
1100
0000
1010
0000
1100
0000
1000
0001
,
0000
0100
0001
0010
0000
0100
0001
0010
,
0000
1000
0100
0001
0100
1000
0001
2000
,
0000
3010
0000
0100
0010
0000
0110
0000
,
2000
0000
3001
0000
1000
0100
0010
0000
,
0002
0000
0103
0020
0000
1030
0001
1000
,
0020
0000
1030
0000
0001
0010
1000
0010
,
0001
0100
0001
0000
0210
0000
0301
0000
,
1000
0001
0100
0000
0001
1000
0100
0000
,
1000
0000
0000
1000
0000
0000
1000
0000
0020
0000
0000
0000
0030
0000
0000
0000
,
1000
0010
0100
0000
1001
0000
0010
0000
,
0001
0100
1000
0100
0020
0000
2030
0000
,
3001
0000
0000
0001
0010
0000
0100
0000
0000
0000
1000
0000
0001
0000
0000
0000
,
1000
0000
0000
1000
0010
0000
0100
0000
0000
0000
0001
0000
1000
0000
0000
0000
,
0100
0000
0000
0100
0020
0000
0000
0000
0031
0000
0100
0000
1000
0000
0100
0000
,
0010
0100
0001
0000
0020
0000
0130
0000
,
1000
1100
1001
1010
,
0001
0101
1001
0011
,
0001
1000
0100
0000
1000
0001
0100
0000
,
0010
0000
0100
0000
0010
0000
0100
0000
0001
0000
0000
0001
0000
0000
0001
0000
,
0020
0000
0000
0230
,
0310
0000
0011
0000
0101
0000
1000
0100
,
0000
0010
1000
0100
0000
0010
1000
0001
,
0000
0010
1000
0100
0001
0100
0010
0001
,
1000
0010
0100
2000
0000
3200
0000
0310
,
0100
0000
1100
0000
1010
0000
0001
0100
,
0000
0010
0001
0100
0000
0010
0001
1000
,
0000
0001
0010
1000
0010
0100
1000
0001
,
0000
0101
0000
1000
0002
0000
0003
0000
,
0220
0330
0202
0303
,
2200
3300
0022
0033
,
2000
0000
0000
0000
0000
0000
0000
0000
0000
3100
0000
0000
0010
0000
0000
0000
0010
0000
0000
0000
0010
0000
0000
0000
,
0001
0100
0001
0000
0220
0000
0330
0000
,
0001
0000
0100
1000
0100
0000
0001
0000
,
1000
0000
0100
0001
0100
0000
1000
0000
,
0020
0000
0000
0000
0230
0000
0000
0301
,
2000
0000
0010
3010
,
2002
0000
0000
3003
,
1000
0100
0010
0000
,
0001
0000
0100
0020
0000
0000
0000
0000
,
1030
0000
0100
0002
0000
0000
0000
0000
,
0103
0000
1000
0020
0000
0000
0000
0000
,
0130
0000
0101
0000
0001
1000
0100
0000
,
0010
0000
0011
0000
0001
1000
0010
0000
,
1001
0110
1001
0101
,
1000
0000
0000
0100
1000
0000
0000
0000
0001
0000
0000
0100
0010
0000
0000
0000
,
2002
0000
0000
3003
,
0020
0000
0000
0000
0000
0000
0000
0230
,
0000
0000
0001
0301
,
2000
0000
0000
0000
0000
0000
0000
3200
,
0000
0000
0010
0310
,
0001
0100
0001
0000
1000
0100
1000
0001
,
0000
1001
0000
0001
0100
0010
1000
0000
,
0002
0203
2300
3020
,
0032
0000
1003
0000
,
1001
0000
0000
1000
0100
0000
0010
0000
0000
0000
0010
0000
1000
0000
0000
0000
,
0110
0000
0000
0010
0001
0000
0100
0000
0000
0000
0100
0000
1000
0000
0000
0000
,
0101
0000
0000
0001
0010
0000
0100
0000
0000
0000
0100
0000
0001
0000
0000
0000
,
0110
0000
1001
0000
0001
0001
1000
1000
;

//---------------dance-single - t7r----------------
#NOTES:
     dance-single:
     t7r:
     Challenge:
     16:
     :
0000
0000
0000
0000
,
0000
0000
0000
0000
,
0000
0000
0000
0000
,
0000
0000
0000
0000
,
0000
0000
0000
0000
,
1000
0100
0010
0100
1000
0001
0100
0101
,
0000
0000
1001
0000
0000
0000
0001
0010
0001
0000
1000
0010
1000
0000
0001
0000
,
2000
3200
0302
2003
,
3020
0000
0032
0000
,
1003
0000
1010
0000
1000
0010
0100
1000
,
0200
0000
0310
2000
0000
3001
0010
0100
,
0020
0000
1000
0000
0031
0100
1000
0100
,
0001
0000
0010
0100
1000
0000
0010
0000
0100
0000
0001
0000
1000
0000
0100
0000
,
0010
0000
1100
0100
1000
0000
0101
0001
,
1000
0000
0010
0000
0001
0000
0010
0000
0200
0000
0000
0000
0301
0000
1000
0001
,
1000
0100
1000
0100
0010
0100
0010
0100
0010
0001
0010
0001
1000
0010
0100
0001
,
2000
0000
0000
0000
,
3001
0100
0010
0100
0001
0010
0100
0020
,
0000
0000
0031
0000
1000
0000
0010
0000
0100
0000
0001
0000
0010
0000
0001
1000
,
0001
0010
0100
0010
0001
0100
0010
0200
,
0000
0000
0301
0000
1000
0000
0100
0000
0010
0000
0002
0000
2003
0000
3001
1000
,
0010
0000
1000
0000
0100
0000
0010
0000
0100
0000
0001
0000
0100
0000
0010
0001
,
0010
0000
0001
0000
0100
0000
0010
0100
0010
0000
0100
0000
2000
0000
0000
0000
,
3100
0001
0010
0010
0100
1000
0010
0110
,
0000
1001
0000
0102
0000
1003
1001
0000
,
1100
0100
0010
0100
1000
0001
0100
0020
,
0000
1030
0010
0100
0001
0010
0100
1000
,
0001
0000
0100
0001
0010
0000
0001
0000
1000
0000
0010
0000
0100
0000
0001
0000
,
1000
0000
0100
0000
0010
0000
0002
0000
0000
0000
2003
0000
0000
0000
3001
1000
,
0001
1000
0010
0100
0001
0010
0100
2000
,
0000
0000
3001
0010
0100
0000
0010
0000
0001
0000
1000
0000
0020
0000
0000
0000
,
0130
0000
0110
0000
1001
1000
0100
1100
,
0000
0101
0000
0001
1001
0100
1010
0000
,
1002
0000
0000
0000
0013
0000
0000
0000
0001
0000
0100
0000
0010
0000
0100
0001
,
0010
0100
1000
0020
0000
0031
0010
1000
,
0001
0000
0010
0000
0100
0000
1000
0000
0100
0000
0001
0100
1000
0000
0100
0000
,
0010
0001
0100
0001
0010
0000
0001
0000
1000
0010
0100
0001
1000
0000
0001
0000
,
1000
0000
0001
0100
0001
0100
0001
0000
0010
0000
0100
1000
0100
1000
0100
0000
,
0010
0000
0000
0110
0000
0000
1001
0000
0102
0000
0000
0000
0000
0000
0000
0000
,
1003
0000
0010
0100
0001
0000
0010
0000
0100
0000
1000
0001
0100
0000
0001
0000
,
1000
0000
0000
0000
0100
0000
0000
0000
0010
0000
0000
0000
0001
0000
0000
0000
0100
0000
0000
0000
0010
0000
0000
0000
2000
0000
0000
0000
0000
0000
0000
0000
0000
0000
0000
0000
3001
0000
0000
0010
0000
0000
0100
0000
0000
1000
0000
0000
,
0010
0000
0100
0001
0100
0000
0010
0000
0100
0000
1000
0100
0010
0000
0100
0000
,
0001
0000
0010
0100
0010
0000
1000
0000
0010
0000
0100
0010
0100
0000
0001
0000
,
0100
1000
0010
0100
0001
0010
0100
1000
0010
0100
0001
1000
,
0100
0010
0001
0100
0010
1000
0010
0000
0000
0110
0000
0000
,
1001
1000
0100
1000
1001
0001
0100
0001
,
0011
0000
0001
0000
1000
0000
0010
0000
1010
0000
1000
0000
0001
0000
0010
0001
,
1000
0000
0001
0100
0001
0000
1000
0000
0001
0010
0100
0000
1000
0000
0010
0100
,
0001
0000
1000
0010
0100
0001
1000
0100
0010
0000
0001
0100
0010
0000
1000
0001
,
2000
0000
0100
0000
3100
0010
0001
0000
,
0101
0100
1000
0100
0001
1000
0100
0002
,
0000
0103
1000
0001
0010
0100
0001
1000
,
0010
0000
0100
1000
0010
0000
0001
0000
1000
0000
0100
0000
0001
0000
0010
0000
,
0100
0000
1000
0000
0010
0000
0200
0000
0000
0000
0302
0000
0000
0000
1003
0001
,
1000
0001
0010
1000
0001
0100
0010
0002
,
0000
0000
1003
0010
0100
0000
0010
0000
1000
0000
0001
0000
0200
0000
0000
0000
,
0310
0000
0001
0000
0010
0000
1000
0000
0100
0010
0100
0000
0010
0000
0110
0000
,
0000
1001
0000
0001
0202
0000
0303
0000
,
2010
3001
0102
1003
,
2100
3010
0102
0013
,
0200
0000
0000
0000
0000
0000
0000
0000
0000
0000
0000
0000
0000
0000
0000
0000
0000
0000
0310
0000
0000
0001
0000
0000
0010
0000
0000
0000
0100
0000
0000
0000
0010
0000
0000
0000
0001
0000
0000
0000
0100
0000
0000
0000
0010
0000
0000
0000
,
1000
0000
0010
0000
0100
0000
0001
0010
0100
0000
0010
0000
1001
0000
0000
0000
,
1000
0100
0001
0100
0010
0010
0001
0001
,
1000
0000
0010
0000
0001
0000
0010
0000
0100
0000
0100
0001
1000
0000
0001
0000
,
0020
0000
0000
0130
2000
0000
0000
3010
,
0200
0000
0000
0301
1000
0000
0010
0000
,
2002
0000
0000
3003
,
1000
0100
0010
0100
1000
0010
0100
0001
,
0010
0100
1000
0020
0000
0130
0101
0000
,
1001
0001
1000
0020
0000
1030
0100
0100
,
0010
0000
0001
0000
0100
0000
0020
0000
0000
0000
0130
0000
0001
1000
0100
1000
,
0001
0010
0100
0001
0100
0010
0001
1000
,
0001
0100
0010
0001
0010
0100
0001
1000
,
1001
1000
1100
1000
1001
0001
0011
0001
,
1001
0000
0001
0100
0001
0000
1000
0000
1001
0000
0001
0010
0100
0000
1000
0000
,
0020
0000
0000
0030
,
1001
0000
0000
0000
0000
0000
1000
0000
0100
0000
0010
0000
0001
0000
0100
0000
0010
0000
1000
0000
0000
0002
0000
0000
,
0000
0000
0013
0001
0100
0000
0010
0000
0100
0001
0100
0000
0001
0000
1000
0000
,
0001
0000
0010
0100
1000
0000
0010
0100
1000
0000
0100
0000
0001
1000
0020
0000
,
0000
0000
1030
0100
0010
0000
0001
0100
0010
0000
0100
0000
1001
0000
0000
0000
,
0001
0100
1000
0100
0010
0100
0001
0011
,
0100
0000
1001
0000
0000
0000
1000
0100
1000
0000
0001
0100
0010
0000
1000
0000
,
0002
0023
2030
3002
,
0203
0300
0220
0330
,
1001
0000
1000
0010
0100
0000
0001
0010
0001
0000
1000
0000
0001
0000
0010
0100
,
1000
0000
0100
0001
0100
0000
0010
0001
1000
0000
0010
1000
0001
0000
1000
0000
,
1001
0000
0001
0100
0010
0000
1000
0010
1000
0000
0010
0001
0010
0000
0100
0001
,
1000
0000
0100
0010
0001
0000
0100
0010
0001
0010
1000
0001
1000
0000
1001
0000
;

//---------------dance-double - t7r----------------
#NOTES:
     dance-double:
     t7r:
     Easy:
     7:
     :
00000000
00000000
00000000
00000000
,
00000000
00000000
00000000
00000000
,
00000000
00000000
00000000
00000000
,
00000000
00000000
00000000
00000000
,
00000000
00000000
00000000
00000000
,
10000000
00000000
01000000
00000000
01000000
00000000
00000000
00100000
,
00000000
00100000
00000000
00000000
00001000
00000000
00010000
00000000
,
00022000
00000000
00000000
00033000
,
00000020
00000000
00000000
00000030
,
00000200
00000000
00000302
00000000
,
00000013
00000100
00001000
00000000
,
00010000
01000000
10000000
01000000
,
00100000
10000000
00010000
00000000
,
20000000
00000000
32000000
00000000
,
03100000
00010000
00001000
00000000
,
00000010
00000001
00000010
00001000
,
00010000
00100000
02000000
00000000
,
13000000
00000000
01000000
00000000
01000000
00000000
00000000
00010000
,
00000000
00001000
00000000
00010000
00000000
00000000
00000000
00000000
,
00000010
00000000
00000100
00000000
00000010
00000000
00000000
00010000
,
00000000
00000100
00000000
00001000
00000000
00000000
00000000
00000000
,
00000001
00000000
00000100
00000000
00000010
00000000
00000000
00001000
,
00000000
00010000
00000000
00100000
00000000
00000000
01000000
00000000
,
10000000
00000000
01000000
00000000
00010000
00000000
00000000
00001000
,
00000000
00001000
00000000
00022000
00000000
00000000
00033000
00000000
,
00000010
00000001
00000010
00000000
,
00010000
00001000
00010000
00000000
,
01000000
10000000
01000000
00010000
,
00001000
00000000
00000000
00000010
00000000
00000010
00000000
00000000
,
00000100
00000001
00000100
00000000
,
00001000
00100000
00001000
00000000
,
00100000
00000000
00010000
00000000
01000000
00000000
00000000
00100000
,
00000000
00100000
00000000
00000000
02200000
00000000
03300000
00000000
,
20000000
00000000
32000000
00000000
,
03010000
00001000
00000010
00000000
,
00000100
00001000
00010000
01000000
,
00100000
10000000
00010000
00000000
,
00200000
00000000
00302000
00000000
,
00013000
00000010
00000100
00000000
,
00000001
00000010
00001000
00010000
,
00100000
10000000
00200000
00000000
,
01300000
00010000
01010000
00000000
,
10000000
01000000
11000000
00000000
,
10000000
01000000
00010000
00001000
,
00000010
00000001
00000010
00000100
,
00001000
00000001
00000101
00000000
,
00001000
00010000
00011000
00000000
,
00100000
00010000
01000000
00100000
,
10000000
01000000
00100000
00001000
,
00020000
00000000
00000000
00031000
,
01000000
00010000
01000000
00000000
,
10000000
01000000
10000000
00000000
,
01000000
00100000
10000000
01000000
,
00100000
00001000
00020000
00000000
,
00030010
00000001
00000010
00000000
,
00010000
00001000
00010000
00000000
,
00001000
00000000
00100000
00000000
01000000
00000000
00000000
00100000
,
00000000
00100000
00000000
00000000
00022000
00000000
00033000
00000000
,
00000020
00000000
00000230
00000000
,
00000302
00000000
00002003
00000000
,
00003200
00000000
00010300
00000000
,
00001000
01000000
00200000
00000000
,
10300000
01000000
00100000
00000000
,
00001000
00010000
00001000
00000000
,
00020000
00000000
00030020
00000000
,
00000230
00000000
00000302
00000000
,
00001003
00000000
00000000
00000000
,
00000001
00000010
00000100
00000000
,
00010000
00001000
00200000
00000000
,
00310000
01000000
00200000
00000000
,
10300000
01000000
00100000
00001000
,
00010000
00001000
00011000
00000000
,
00000010
00000100
00000110
00000000
,
00000001
00000100
00001000
00010000
,
00100000
01000000
00100000
10000000
,
00020000
00000000
00000000
00030000
,
20010000
00000000
00000000
00000000
,
32000000
00000000
00000000
00000000
,
03020000
00000000
00000000
00000000
,
00030020
00000000
00000000
00000000
,
00000130
00000000
00000001
00000000
00000100
00000000
00000000
00000010
,
00000000
00000010
00000000
00000000
00010000
00000000
00001000
00000000
,
00022000
00000000
00000000
00033000
,
02000000
00000000
00000000
03000000
,
00100000
10000000
10100000
00000000
,
10000000
01000000
01100000
00000000
,
00010000
00001000
00011000
00000000
,
00000010
00000000
00000100
00000000
00000110
00000000
00010000
00010000
;

//---------------dance-double - t7r----------------
#NOTES:
     dance-double:
     t7r:
     Medium:
     10:
     :
00000000
00000000
00000000
00000000
,
00000000
00000000
00000000
00000000
,
00000000
00000000
00000000
00000000
,
00000000
00000000
00000000
00000000
,
00000000
00000000
00000000
00000000
,
00000010
00000000
00000100
00000000
00000100
00000000
00000001
00000010
,
00000000
00000010
00000000
00000100
00010000
00000000
00001000
00000000
,
00022000
00000000
00000000
00033000
,
02000000
00000000
03100000
00000000
,
20000000
00000000
32000000
00000000
,
03010000
00001000
00000010
00000000
00000001
00000000
00000000
00000000
,
00000100
00000000
00010000
00000000
00100000
00010000
10000000
00000000
,
01000000
00100000
00010000
00000000
01000000
00000000
00000000
00000000
,
02100000
00000000
03020000
00000000
,
00031000
00000100
00000010
00000000
00000001
00000000
00000000
00000000
,
00000100
00000010
00010000
00000000
00001000
01000000
00010000
00000000
,
10000000
01000000
00010000
00000000
00000020
00000000
00000000
00000000
,
00000130
00000000
00000001
00000000
00001000
00000000
00000000
00000100
,
00000000
00000100
00000000
00010000
00000000
00001000
00010000
00000000
,
00001000
00000000
01000000
00000000
00100000
00000000
00000000
10000000
,
00000000
10000000
00000000
01000000
00010000
00001000
00000100
00000000
,
00000010
00000000
00000010
00000000
00000100
00000000
00000000
00000001
,
00000000
00000001
00000000
00000010
00000000
00000100
00010000
00000000
,
00001000
00000000
00100000
00000000
10000000
00000000
00010000
00001000
,
00000000
00011000
00000000
00000210
00000000
00000000
00000301
00000000
,
00000010
00000000
00000001
00000000
00001001
00000000
00000001
00000100
,
00000000
00001000
00010000
00001000
00000000
00010000
00001000
00000000
,
01000000
00000000
00100000
00000000
10000000
01000000
10000000
00000000
,
01000000
00000000
00010000
00002000
00000000
00003020
00000000
00000000
,
00000130
00000000
00001000
00000000
00001100
00000000
00000100
00010000
,
00000000
00001000
00010000
00001000
00000000
01000000
00100000
10000000
,
00000000
01000000
00010000
00000000
00000010
00001000
00000000
00000001
,
00000000
00001001
00000000
00000010
00000200
00000000
00000301
00000000
,
00000020
00000000
00000000
00000000
00000130
00010000
00000100
00000000
,
00020000
00000000
00031000
02000000
00000000
03200000
00000000
10300000
,
02000000
00000000
03000000
00000000
00010000
00001000
00000010
00000000
,
00000001
00000010
00000100
00000000
00001000
00000000
00010000
00000000
,
01100000
00000000
10010000
00000000
,
01000000
00000000
01000000
00000000
01000000
00000000
00002000
00000000
00000000
00003000
00000000
00000000
,
00010000
00000010
00000110
00000100
,
00000001
00000010
00001000
00000000
00020000
00000000
00030000
00000000
,
00100000
01000000
00010000
00010000
,
10000000
01000000
00010000
00010000
,
00001000
00000010
00000001
00000100
,
00001000
00010000
00100000
01100000
,
10010000
00000000
01000000
00000000
00000000
00010000
00001000
00000000
,
00000010
00000000
00000100
00000000
00000000
00001000
00000010
00000000
,
00000001
00000010
00000100
00010000
,
00100000
10000000
00100000
00000000
00010000
00000000
00001000
00000010
,
00000200
00000000
00000000
00000301
,
00000010
00000000
00000011
00000000
00001001
00000000
00000000
00000100
,
00000000
00010000
00001000
01000000
00000000
00010000
10000000
00000000
,
00100000
00010000
00001000
00000010
,
00000001
00000000
00000100
00002000
00000000
00023000
00000000
00000000
,
01030000
00000000
01100000
00000000
00110000
00000000
00000000
10000000
,
00000000
01000000
00010000
00001000
00000000
00000010
00000001
00000000
,
00000100
00000000
00000010
00000000
00010000
00001000
01000000
00001000
,
00000000
00010000
00000000
00001000
00020000
00000000
00030000
00000000
,
02000000
00000000
03020000
00000000
,
00030200
00000000
00000320
00000000
,
00000031
00000000
00000100
00010000
,
00200000
00000000
02300000
00000000
,
13000000
00100000
10100000
00000000
,
00010000
00001000
00011000
00000000
,
00000120
00000000
00000230
00000000
,
00000302
00000000
00000000
00001003
00000100
00000000
00010000
00000000
,
00002000
00000000
00000000
00003000
,
01000000
00100000
10000000
00000000
,
01000000
00000000
00000000
00002000
00000000
00000000
00000000
00000000
,
00003010
00000000
00000000
00000002
00000000
00000000
00000000
00000000
,
00000013
00000000
00000000
00020000
00000000
00000000
00130000
00000000
,
10000000
00000000
00010000
00000000
00000000
01000000
00001000
00000000
,
00100000
00000000
00001000
00000000
00000000
00010000
00000010
00000000
,
00000100
00000001
00000100
00000000
00001000
00000000
00010000
00000000
,
01000000
00100000
01000000
00000000
10000000
00000000
00100000
00000000
,
20020000
00000000
00000000
30030000
,
10000000
00000000
00100000
00000000
00100000
00000000
00000000
00001000
,
00000000
00001000
00000000
00000010
00000100
00000000
00000001
00000000
,
00000010
00000000
00001000
00000000
00001000
00000000
00000000
01000000
,
00000000
01000000
00000000
00100000
10000000
00000000
00010000
00000000
,
10010000
00000000
01000000
00000000
00001000
00000000
00100000
00001000
,
00000000
00011000
00000000
00010000
00000010
00000100
00000001
00000000
,
00000020
00002030
00023000
00230000
,
02300000
00000000
03020000
00000000
,
10030000
00000000
01000000
00010000
00000000
00001000
00010000
00000000
,
00000010
00000000
00000001
00000010
00000000
00001000
00010000
00000000
,
01000000
00000000
00100000
10000000
00000000
00010000
10000000
00000000
,
01000000
00000000
00010000
00000000
00001000
00000000
00010000
00001000
;

//---------------dance-double - t7r----------------
#NOTES:
     dance-double:
     t7r:
     Hard:
     13:
     :
00000000
00000000
00000000
00000000
,
00000000
00000000
00000000
00000000
,
00000000
00000000
00000000
00000000
,
00000000
00000000
00000000
00000000
,
00000000
00000000
00000000
00000000
,
00000100
00000001
00001000
00000000
00000100
00000000
00001000
00010000
,
00000000
00010000
00000000
00100000
00010000
01000000
00100000
00000000
,
20020000
00000000
00000000
30030000
,
00200000
00000000
01300000
00000000
,
00020000
00000000
00000000
00000000
00130000
00010000
00001000
00000000
,
00000010
00000110
00002002
00003003
,
00000001
00000010
00000100
00000000
00001000
00010000
00100000
00000000
,
00010000
10000000
00100000
00000000
02200000
00000000
03300000
00000000
,
20000000
31000000
00020000
00031000
,
00000100
00000001
00000010
00000000
00002000
00000000
00003000
00000000
,
00000010
00000001
00000100
00000000
00000010
00010000
00001000
00000000
,
00010000
00001000
00010000
00000000
00022000
00000000
00033000
00000000
,
01000000
00000000
00100000
00000000
10000000
00000000
01000000
00010000
,
00000000
00010000
00001000
00000000
00000100
00000001
00000100
00000000
,
00000001
00000000
00000010
00000000
00001000
00000000
01000000
00010000
,
00000000
00010000
10000000
00000000
00100000
01000000
00010000
00000000
,
10000000
00000000
01000000
00000000
00100000
00000000
00010000
00000010
,
00000000
00000010
00000100
00000000
00000010
00000001
00001000
00000000
,
00000010
00000100
00000010
00000100
00000010
00000000
00001000
00000100
,
00000000
00001001
00000000
00010200
00000000
00010300
00001000
00000000
,
01010000
00000000
11000000
00000000
01010000
00000000
00100000
10000000
,
00000000
01000000
00010000
00001000
00000000
01000000
00010000
00001000
,
00000000
00000010
00001000
00000000
00000001
00000010
00000100
00000000
,
00000010
00000000
00000001
00000200
00000000
00000310
00000000
00000000
,
00001100
00000000
00000101
00000000
00001100
00000000
00000010
00000001
,
00000000
00000100
00001000
00010000
00000000
00000100
00001000
00010000
,
00000000
00100000
00010000
00000000
10000000
00100000
01000000
00010000
,
00000000
10010000
00000000
00100000
02000000
00000000
03100000
00000000
,
20000000
00000000
00000000
00000000
31000000
10000000
00200000
00000000
,
00320000
00000000
00030010
00000002
00000000
00000013
00000100
00001000
,
00020000
00000000
00000000
00000000
00130000
10000000
01000000
00010000
,
00001000
00000010
00000001
00000010
00000200
00000000
00000310
00000000
,
00001002
00000000
00000203
00000000
,
00001300
00000000
00000000
00010000
00000000
00000000
00100000
00000000
20000000
00000000
00000000
00000000
00000000
00000000
00000000
00000000
,
30100000
01000000
00100000
01000000
00001000
00010000
00001000
00010000
,
00000100
00000001
00000100
00000010
00000002
00000000
00001003
00000000
,
00000001
00000000
00000000
00000001
00000100
00000000
00000010
00000000
00000000
00000000
00000010
00000000
00010000
00000000
00000000
00000000
,
00000100
00000000
00000000
00000100
00010000
00000000
00001000
00000000
00000000
00000000
00001000
00000000
00010000
00000000
00000000
00000000
,
00001000
00010000
00100000
10000000
01000000
00010000
00001000
00000010
,
00000001
00000010
00000100
00000010
00000002
00000000
00001003
00000000
,
00000001
00000000
00000101
00000000
00000001
00001000
00000100
00000000
,
00010000
00000000
00011000
00000000
00001000
00010000
00100000
00000000
,
20000000
00000000
31000000
00010000
00000100
00000010
00000001
00000000
,
00000100
00001000
01000000
00100000
20000000
00000000
30010000
00100000
,
00002000
00000000
00000000
00013000
,
00011000
00000000
01001000
00000000
01100000
00000000
10000000
01000000
,
00000000
00010000
00001000
00000010
00000000
00010000
00001000
00000010
,
00000000
00000100
00000001
00000100
00001000
00010000
00100000
01000000
,
00010000
00002000
00000000
00003020
00000000
00000130
00000000
00000000
,
00000101
00000000
00000011
00000000
00001001
00000000
00000001
00000010
,
00000000
00001000
00010000
01000000
00000000
00001000
00010000
01000000
,
00000000
00100000
10000000
00010000
00001000
00000010
00000100
00000001
,
00000000
00000110
00000000
00000001
00002000
00000000
00003000
00000000
,
00000022
00000033
00002200
00003300
,
00022000
00033000
02002000
03003000
,
00200000
00000000
00000000
00000000
00000000
00000000
00000000
00000000
00000000
10300000
00000000
00000000
00010000
00000000
00000000
00000000
00001000
00000000
00000000
00000000
00000100
00000000
00000000
00000000
,
00000010
00000001
00000100
00000000
00000220
00000000
00000330
00000000
,
00000001
00000000
00000100
00001000
00000100
00000000
00010000
00000000
,
00100000
00000000
00010000
00100000
10000000
00000000
00100000
00000000
,
00002000
00000000
00000000
00000000
00023000
00000000
00000000
00030010
,
00000200
00000000
00000001
00000301
,
00002002
00000000
00000000
00003003
,
00000001
00000010
00001000
00010000
,
00100000
00000000
01000000
00020000
00000000
00000000
00000000
00000000
,
00030100
00000000
00000010
00002000
00000000
00000000
00000000
00000000
,
00003001
00000000
00000010
00000200
00000000
00000000
00010300
00000000
,
00001000
00000000
00011000
00000000
01000000
00100000
10000000
00000000
,
01000000
00000000
01100000
00000000
00100000
00001000
00010000
00000000
,
00000010
00000001
00000010
00000000
00010000
00001000
00010000
00000000
,
01000000
10000000
01000000
00000000
00010000
00001000
00000010
00000000
,
00000022
00000000
00000000
00000033
,
00001002
00000000
00000000
00000000
00000000
00000000
00000000
00000103
,
00000000
00000100
00000000
00001000
00100000
00010000
10000000
00000000
,
00200000
00000000
00000000
00000000
00000000
00000000
00000000
01300000
,
00000000
01000000
00000000
00010000
10000000
00000000
10010000
00000000
,
10000000
01000000
10000000
00000000
01000000
00000000
00010000
00001000
,
00000000
00011000
00000000
00000010
00000100
00000001
00000010
00000000
,
00000002
00000203
00002300
00023000
,
00230000
00000000
20300000
00000000
,
30010000
00000000
00000000
00010000
00100000
00000000
00001000
00000000
00000000
00000000
00001000
00000000
00010000
00000000
00000000
00000000
,
00000010
00000000
00000000
00000010
00000100
00000000
00000001
00000000
00000000
00000000
00000001
00000000
00000010
00000000
00000000
00000000
,
00000100
00000000
00000000
00000100
00010000
00000000
00001000
00000000
00000000
00000000
00001000
00000000
00010000
00000000
00000000
00000000
,
00001000
00000000
01001000
00000000
00100000
10000000
00010000
00000010
;

//---------------dance-double - t7r----------------
#NOTES:
     dance-double:
     t7r:
     Challenge:
     16:
     :
00000000
00000000
00000000
00000000
,
00000000
00000000
00000000
00000000
,
00000000
00000000
00000000
00000000
,
00000000
00000000
00000000
00000000
,
00000000
00000000
00000000
00000000
,
10000000
01000000
00100000
01000000
10000000
00100000
01000000
01010000
,
00000000
00000000
00110000
00000000
00000000
00000000
00100000
00001000
00010000
00000000
00001000
00010000
00001000
00000000
00010000
00000000
,
00002000
00003020
00000032
00000203
,
00000320
00000000
00000230
00000000
,
00000301
00000000
00000011
00000000
00000001
00000010
00000100
00000010
,
00000002
00000000
00000103
00000020
00000000
00001030
00000100
00010000
,
00002000
00000000
00103000
00010000
01000000
10000000
01000000
00010000
,
00100000
00000000
01000000
10000000
01000000
00000000
00100000
00000000
00010000
01000000
00010000
01000000
00001000
00000000
00010000
00000000
,
00011000
00000000
00000100
00000000
00011000
00001000
01000000
00100000
,
10000000
00000000
01000000
00000000
00010000
00000000
00001000
00000000
00000200
00000000
00000000
00000000
00000301
00000000
00000010
00000001
,
00000010
00000000
00000001
00000100
00000010
00000000
00001000
00000100
00010000
00000000
00001000
00100000
00010000
00000000
01000000
00100000
,
20000000
00000000
00000000
00000000
,
31000000
00100000
01000000
00010000
01000000
00100000
00001000
00020000
,
00000000
00031000
00000010
00000100
00000010
00000001
00000100
00000010
,
00000100
00000001
00000100
00000010
00000100
00001000
00000100
00000020
,
00000000
00001030
00000100
00010000
00001000
00020000
02030000
13000000
,
00100000
01000000
00010000
01000000
00100000
01000000
10000000
02000000
,
00000000
03100000
10000000
01000000
00010000
00001000
00011000
00000000
,
00010000
00001000
00000100
00000001
00000010
00000100
00000100
00001100
,
00000000
00010100
00000000
00012000
00000000
01003000
10010000
00000000
,
11000000
01000000
00100000
01000000
10000000
00100000
01000000
00020000
,
00000000
00130000
00001000
00010000
00000100
00001000
00000010
00000100
,
00000001
00000000
00000010
00000100
00001000
00000000
00000100
00000000
00000010
00000000
00000001
00000000
00000100
00000000
00001000
00000000
,
00010000
00000000
00001000
00000000
01000000
00000000
00020000
00000000
00000000
00000000
00230000
00000000
00000000
00000000
01300000
00100000
,
01000000
10000000
00100000
01000000
00010000
00100000
00001000
00020000
,
00000000
00031000
00000010
00000001
00000100
00000010
00000200
00000000
,
00000301
00000010
00000100
00010000
00001000
00100000
00010000
01010000
,
00000000
00110000
00000000
00100000
00101000
00001000
00010000
00000000
,
00012000
00000000
00000000
00000000
00013000
00000000
00000000
00000000
01000000
00000000
10000000
00000000
00100000
00000000
01000000
00010000
,
00100000
00010000
00001000
00000020
00000000
00000130
00000001
00000100
,
00000020
00000000
00000000
00000000
00001030
00000000
00000100
00000010
00000100
00000000
00000001
00000000
00000100
00000000
00001000
00000000
,
00000100
00000000
00010000
00001000
00010000
00000000
00001000
00000000
00010000
00001000
01000000
00000000
00010000
00000000
10000000
00100000
,
10000000
00000000
01000000
00100000
01000000
00100000
01000000
00000000
00100000
00000000
00001000
00100000
00001000
00100000
00001000
00000000
,
00010000
00000000
00000000
00011000
00000000
00000000
00010010
00000000
00000020
00000000
00000000
00000000
00000000
00000000
00000000
00000000
,
00000130
00000000
00000001
00000100
00000010
00000000
00000100
00000000
00000010
00000000
00001000
00000100
00010000
00000000
00001000
00000000
,
00100000
00000000
00000000
00000000
00010000
00000000
00000000
00000000
10000000
00000000
00000000
00000000
00100000
00000000
00000000
00000000
01000000
00000000
00000000
00000000
00010000
00000000
00000000
00000000
00200000
00000000
00000000
00000000
00000000
00000000
00000000
00000000
00000000
00000000
00000000
00000000
00301000
00000000
00000000
00010000
00000000
00000000
00001000
00000000
00000000
00000000
00000000
00000000
,
00010000
00000000
00100000
10000000
00100000
00000000
01000000
00000000
00010000
00000000
00100000
00000000
00001000
00000000
00010000
00001000
,
00010000
00000000
00001000
00000010
00001000
00000000
00000020
00000000
00000000
00000000
00000032
00000000
00000000
00000000
00000000
00000000
,
00000103
00000001
00000100
00000010
00001000
00000100
00010000
00001000
00100000
00010000
01000000
00010000
,
10000000
01000000
00100000
00010000
01000000
00100000
01000000
00000000
00000000
01100000
00000000
00000000
,
10000000
00000000
01000000
00000000
00100000
00000000
01000000
10000000
00010000
00000000
01000000
00000000
00010000
00000000
00100000
00000000
,
00001000
00000000
00010000
00001000
00010000
00000000
00001000
00000000
00000100
00000000
00000010
00000000
00000100
00000000
00000001
00000010
,
00000001
00000000
00001000
00000010
00001000
00000000
00000100
00000000
00000010
00000001
00001000
00000000
00000001
00000000
00000100
00000010
,
00000100
00000000
00000001
00000010
00000100
00000010
00000001
00000000
00000100
00000000
00001000
00010000
00001000
00000000
00100000
00010000
,
20000000
00000000
01000000
00000000
31000000
10000000
00010000
00000000
,
10100000
00100000
01000000
10000000
01000000
00100000
01000000
00020000
,
00000000
00130000
00001000
00010000
00001000
00000010
00000001
00000100
,
00000001
00000000
00000010
00000100
00000010
00000000
00000100
00000000
00000001
00000000
00000100
00000000
00000010
00000000
00000001
00000000
,
00000100
00000000
00001000
00000000
00010000
00000000
02000000
00000000
00000000
00000000
23000000
00000000
00000000
00000000
30010000
10000000
,
00010000
10000000
00100000
01000000
10000000
01000000
00100000
02000000
,
00000000
03010000
00100000
00010000
00001000
00000100
00000020
00000000
,
00000031
00000000
00000101
00000000
00001001
00000001
00001000
00001100
,
00000000
00010100
00000000
00010000
00022000
00000000
00033000
00000000
,
02100000
03010000
01200000
10300000
,
21000000
30100000
02020000
03030000
,
00201000
00000000
00000000
00000000
00000000
00000000
00000000
00000000
00000000
00000000
00000000
00000000
00000000
00000000
00000000
00000000
00000000
00000000
00301000
00000000
00000000
00010000
00000000
00000000
00001000
00000000
00000000
00000000
00000100
00000000
00000000
00000000
00000001
00000000
00000000
00000000
00001000
00000000
00000000
00000000
00000100
00000000
00000000
00000000
00000010
00000000
00000000
00000000
,
00000001
00000000
00000100
00000000
00000010
00000000
00000100
00000001
00000100
00000000
00000001
00000000
00001001
00000000
00000000
00000000
,
00000001
00000010
00001000
00000010
00000100
00001000
00010000
00100000
,
00010000
01000000
10000000
00010000
00100000
01000000
00010000
10000000
,
20010000
00000000
00000000
31000000
00200000
00000000
00000000
00301000
,
00020000
00000000
00000000
00030010
00001000
00000000
00000001
00000000
,
00002002
00000000
00000000
00003003
,
00000001
00000100
00000010
00000100
00000001
00000010
00000100
00001000
,
00010000
00100000
01000000
20000000
00000000
30100000
01000000
00010000
,
10000000
01000000
00100000
00020000
00000000
00031000
00000010
00000100
,
00000001
00000000
00000100
00000000
00001000
00000000
00000200
00000000
00000000
00000000
00000310
00000000
00001000
00000001
00001000
00000001
,
00001000
00000100
00000010
00000100
00000001
00000100
00001000
00000001
,
00000100
00001000
00010000
00100000
01000000
00010000
00100000
00010000
,
10010000
00010000
01010000
00000000
00110000
00100000
00101000
00100000
,
00001000
00000000
00010000
00001000
00010000
00000000
00001000
00000000
00000100
00000000
00000010
00000100
00000001
00000100
00000010
00000000
,
00002000
00000000
00000000
00003000
,
00001001
00000000
00000000
00000000
00000000
00000000
00000001
00000000
00000010
00000000
00000100
00000000
00000010
00000000
00000001
00000000
00000100
00000000
00000010
00000000
00000000
00002000
00000000
00000000
,
00000000
00000000
00003010
00010000
00001000
00000000
00010000
00000000
00100000
01000000
00100000
00000000
10000000
00000000
00010000
00000000
,
10000000
00000000
01000000
00100000
00010000
00000000
01000000
00000000
10000000
00000000
01000000
00000000
00100000
01000000
00020000
00000000
,
00000000
00000000
00130000
00000000
00010000
00000000
00001000
00000100
00001000
00000000
00000010
00000000
00001001
00000000
00000000
00000000
,
00000001
00000100
00001000
00000100
00000010
00000100
00000001
00000011
,
00000100
00000000
00001001
00000000
00000000
00000000
00001000
00000100
00010000
00000000
00001000
00000000
00010000
00000000
01000000
00000000
,
20000000
30200000
00320000
00032000
,
00003200
00000300
00000220
00000330
,
00001001
00000000
00000001
00001000
00000010
00000000
00000100
00000000
00000001
00000000
00000010
00000100
00010000
00000000
00001000
00000000
,
00011000
00000000
00001000
00100000
00010000
00000000
01000000
00000000
00100000
00000000
10000000
01000000
00100000
00000000
01000000
00000000
,
11000000
00000000
10000000
00100000
01000000
00000000
00010000
00000000
00100000
00000000
00010000
00100000
00001000
00000000
00010000
00001000
,
00000100
00000000
00000001
00000000
00000011
00000000
00000010
00000000
00000100
00010000
00000100
00010000
00001000
00000000
00011000
00000000
;
