#TITLE:Pārvatī;
#ARTIST:BEMANI Sound Team "U1 overground";
#TITLETRANSLIT:Parvati;
#ARTISTTRANSLIT:U1 overground;
#BANNER:Parvati.png;
#BACKGROUND:Parvati-bg.png;
#JACKET:Parvati-jacket.png;
#CDTITLE:./CDTITLES/BEATMANIA IIDX.PNG;
#MUSIC:Parvati.ogg;
#SAMPLESTART:14.049;
#SAMPLELENGTH:15;
#DISPLAYBPM:103:205;
#BPMS:0=102.5,24=205,72=102.5,76=205,84=102.5,100=205,128=102.5,130=205,140=410,142=102.5,174=205,202=102.5,204=205,252=102.5,256=205,296=102.5;
#STOPS:131=0.43902439024390243902439024390244,
133=0.29268292682926829268292682926829,
136=0.43902439024390243902439024390244,
138=0.29268292682926829268292682926829
;
#BGCHANGES:-2=Parvati.mp4=1=0=0=0,
99999=-nosongbg-=1=0=0=0 // don't automatically add -songbackground-
;

//---------------dance-single - t7r----------------
#NOTES:
     dance-single:
     t7r:
     Beginner:
     6:
     :
0000
0000
0000
0000
,
0000
0000
0000
0000
,
0000
0000
0000
0000
,
0000
0000
0000
0000
,
0000
0000
0000
0000
,
0000
0000
0000
0000
,
0001
0000
0001
0000
,
1000
1000
1000
0000
,
0010
0000
0010
0000
,
0100
0100
0100
0000
,
0001
0000
0010
0000
,
0100
0000
1000
0000
,
0001
0001
0001
0000
,
1000
1000
1000
0000
,
0010
0000
0010
0000
,
0010
0010
0010
0000
,
0100
0000
0100
0000
,
0100
0100
0100
0000
,
0001
0000
1000
0000
,
0100
0000
0100
0000
,
0010
0010
0010
0000
,
1001
0000
0100
0000
,
0010
0000
1000
0000
,
0001
0001
0001
0000
,
1000
1000
1000
0000
,
0010
0000
0010
0000
,
0010
0010
0010
0000
,
0100
0100
0100
0000
,
0001
0001
0001
0000
,
1000
0000
1000
0000
,
1000
1000
1000
0000
,
0001
0000
0001
0000
,
0010
0000
0000
0000
1000
0000
0000
0001
,
0000
0000
0000
0100
0000
0000
0000
0000
,
0000
0010
0000
0000
0000
1000
0000
0000
,
0000
0000
0001
0000
,
0010
0000
0100
0000
,
0001
0000
1000
0000
,
0010
0000
0100
0000
,
1000
0000
0001
0000
,
0001
0000
1000
0000
,
1000
0000
0010
0010
,
0010
0000
0100
0100
,
0100
0000
0001
0000
,
0001
0000
0001
0001
,
0001
0000
1000
1000
,
1000
0000
0010
0010
,
0010
0000
1000
0000
,
1000
0000
0100
0100
,
0100
0000
0010
0000
,
0010
0000
0001
0000
,
1000
1000
1000
0000
,
0010
0010
0010
0000
,
0100
0000
0100
0000
,
0001
0001
0001
0000
,
1000
1000
1000
1000
,
1000
1000
1000
0000
,
0001
0000
0001
0000
,
0000
0010
0010
0000
,
0001
0000
0001
0000
,
1000
1000
1000
0000
,
0010
0000
0010
0000
,
0100
0100
0100
0000
,
0010
0000
0010
0000
,
1000
0000
0001
0001
,
0001
0000
0000
0000
,
0010
0000
0010
0000
,
0010
0010
0010
0000
,
0100
0100
0100
0000
,
0010
0010
0010
0000
,
0001
0001
0001
0001
,
0001
0001
0001
0000
,
1000
1000
1000
1000
,
1000
0000
0000
0000
,
0010
0000
0000
0000
,
0100
0000
0001
1000
;

//---------------dance-single - t7r----------------
#NOTES:
     dance-single:
     t7r:
     Easy:
     11:
     :
0000
0000
0000
0000
,
0000
0000
0000
0000
,
0000
0000
0000
0000
,
0000
0000
0000
0000
,
0000
0000
0000
0000
,
0000
0000
0000
0000
,
0001
0100
0001
0010
,
0100
0100
1000
0001
,
1000
0010
0100
0100
,
0001
0010
0100
0100
,
1000
0010
0001
0010
,
1000
0100
0001
0100
,
1000
0010
0100
0100
,
0100
0001
0010
0100
,
1000
0001
0101
0000
,
0001
1000
1100
0000
,
1000
0010
0100
0001
,
1000
0100
0010
0001
,
2000
0000
3100
0000
0010
0001
1000
0000
,
0001
0100
0010
0010
,
0010
1000
0001
0010
,
0001
1001
0100
0110
,
0010
1000
0001
0010
,
0001
0100
0001
0000
1000
0100
1000
0000
,
0001
0010
0001
0000
1000
0010
1000
0000
,
0001
0010
0010
1000
,
1000
0001
0001
0100
,
1000
0010
0100
0001
,
1000
0010
0002
0000
,
0013
0100
0001
0001
,
0010
0100
1000
1000
,
0001
0000
1000
0001
1000
0001
1000
0000
,
0020
0000
0030
0000
0100
0001
0100
0001
,
1000
0001
1000
0100
1000
0100
1000
0100
,
1000
0100
0010
0100
0010
0001
1000
0001
,
1000
0000
0010
0100
,
0001
0001
1000
0000
0100
0000
0010
0000
,
0001
1000
0010
0000
0100
0001
0100
0000
,
1000
0100
0010
0000
1000
0001
0010
0000
,
0001
0010
0100
1000
0010
0000
0010
0000
,
1000
1000
0001
0001
,
0010
0000
0010
0000
0001
0001
0001
0001
,
0100
0100
0100
0100
0010
1000
0001
0010
,
0001
1000
0100
0000
1000
0000
0100
0000
,
1000
1100
1000
0001
,
0100
0010
1000
0001
,
0010
0011
0001
0100
,
0020
0000
1030
0010
,
0001
0010
0100
0001
,
1000
0001
0010
0001
,
0001
1001
0020
0130
,
0001
0000
0100
0000
0001
0010
0001
0000
,
1000
0000
0100
0000
0000
1000
0010
0000
,
0100
0000
0010
0000
1000
0001
1000
0000
,
0010
0100
2002
3003
,
0001
0011
0001
1001
,
0001
0000
0100
0000
0010
1000
0010
0000
,
1000
0000
0100
0000
0010
0100
0010
0000
,
0001
0100
0010
1001
,
1000
0100
0001
0101
,
0001
0100
1000
1010
,
0100
0000
0010
0000
1000
0001
1000
0000
,
0010
0000
0100
0000
0001
1000
0001
0000
,
2000
0000
3010
0000
1000
0100
0010
0000
,
0001
0000
0100
0000
0001
1000
0001
1000
,
0001
0100
0220
0330
,
1000
1010
1000
1100
,
1000
1010
0110
0110
,
0001
0011
0001
1001
,
0001
0000
0000
0101
0000
0000
0010
0000
0010
0000
0010
0000
,
1000
0001
1000
0000
0010
0100
0010
0000
,
1000
1100
0001
0101
,
0100
0010
0100
0000
0001
1000
0001
1000
,
0001
0010
1000
0100
,
0002
0000
0103
0000
0010
1000
0200
0000
,
0301
0100
0010
0001
1000
0010
0100
1000
;

//---------------dance-single - t7r----------------
#NOTES:
     dance-single:
     t7r:
     Medium:
     14:
     :
0000
0000
0000
0000
,
0000
0000
0000
0000
,
0000
0000
0000
0000
,
0000
0000
0000
0000
,
0000
0000
0000
0000
,
0000
0000
0000
0000
,
0010
0000
1100
0000
0001
1000
0100
1000
,
0010
0101
0010
1100
,
0001
0010
0100
0010
0001
1000
0010
0000
,
1000
0100
0010
0100
1000
0001
0010
0000
,
0001
0100
1000
0100
0001
0100
1000
0100
,
0002
0000
1003
0100
0001
0100
1000
0000
,
0010
0100
0001
0000
1000
1000
1000
1000
,
1000
0000
0000
0000
0001
0000
0000
0000
1000
0100
0000
0000
1100
0000
0000
0000
,
0010
0000
0101
0000
1000
0010
0001
0010
,
1000
0011
0100
1010
,
0001
0010
1000
0010
0001
0100
0010
0000
,
1000
0010
0001
0010
1000
0100
0010
0000
,
0200
0000
0000
1300
0001
0000
0100
0000
0020
0000
1030
0000
0001
0010
2000
0000
,
3010
0001
0100
0000
0010
0010
0010
0010
,
0010
0000
0000
0000
0100
0000
0001
0000
1000
0001
0000
0000
1001
0000
0000
0000
,
2100
0000
0000
0000
0000
0000
3010
0000
0010
1000
0000
0000
0001
0000
1001
0000
0000
0000
1000
0000
1000
0100
0000
0100
,
0010
0000
0000
0001
0000
0001
0100
0000
0000
0010
0000
0010
1000
0000
0000
0001
0000
0001
0010
0001
1000
0010
0000
0000
,
1000
0000
0100
0000
1000
0000
0100
0000
0000
0000
0000
0000
1100
0000
0000
0000
0000
0000
1000
0000
0000
0000
0000
0000
0001
0000
0000
0000
0000
0000
0100
0000
0001
0000
0100
0000
0010
0000
0000
0000
0000
0000
1000
0000
0000
1000
0000
0000
,
0001
0000
0001
0010
0000
0010
1000
0000
1000
0010
0000
0010
0100
0000
1000
0100
0000
0001
0100
0000
0000
0110
0000
0000
,
0001
0000
0100
0010
0100
0001
0100
1000
,
0100
0010
1000
0100
0010
0000
0001
0010
,
0001
0100
1000
0001
0010
0000
1000
0100
,
0001
1000
0010
0001
1000
1000
0001
0000
,
0100
0000
0101
0001
0020
0000
0031
0000
,
0100
0000
1010
0010
2000
0000
3001
0000
,
0200
0000
0310
0010
1000
1000
0001
0001
,
0020
0000
0031
0002
1003
1000
1000
0010
,
0010
0010
0010
0100
0100
0100
0100
0100
,
0100
0001
0001
0001
0001
1000
0100
0010
,
0001
0000
1001
0020
,
1030
0100
1000
0000
0001
0000
0100
0000
1000
0100
0010
0000
1000
0000
1000
0000
,
0001
0010
0100
0000
2000
0000
0000
0000
3001
0010
0000
0001
0100
0000
0010
0000
,
1000
0001
0100
0010
1000
0000
0001
0001
1000
0000
0100
0001
0100
0000
0010
0000
,
1000
0000
0000
0000
0000
0000
0010
0000
0001
0000
0100
0000
0010
0000
0000
0000
0000
0000
0110
0000
0000
0000
0000
0000
0010
0000
0000
1000
0000
0000
1000
0000
0000
0000
0000
0000
0100
0000
0000
0000
0000
0000
2000
0000
0000
0000
0000
0000
,
0000
3010
0010
0000
0100
0000
0002
0000
0000
0013
0010
0000
0000
0100
0100
0000
,
0000
1000
1000
0000
0000
0001
0001
0000
1000
0100
1000
0000
0001
0100
0001
0000
,
1000
0010
1000
0000
0001
0010
0001
0000
1000
0100
0001
0100
1000
0010
0001
0010
,
1000
0000
0000
0001
0000
0000
0000
0000
0000
0100
0000
0000
0020
0000
0000
0000
0000
0000
1030
0000
0000
0000
1000
0000
0001
0000
0000
0000
0000
0000
0000
0000
0001
0000
0000
0000
0100
0000
0000
0000
0000
0000
0000
0000
0100
0000
0000
0000
,
0010
0000
0010
1000
0000
0001
1000
0000
1000
0100
0000
0100
,
0010
0000
0010
0001
0000
0001
1000
0000
0100
0001
0000
0100
,
0010
0000
0000
0011
0000
0000
0001
0000
0100
1000
0000
0100
,
0020
0000
0000
1030
0000
0000
1010
0000
0000
0101
0000
1000
,
0100
0000
0100
0000
0000
0011
0000
0000
0001
0100
0000
0100
,
0020
0000
0000
1030
0000
0001
1000
0000
0000
0001
0100
0001
,
1000
0000
0100
0000
1000
0000
0001
0000
0010
0000
0001
0000
2000
0000
0000
0000
0000
0000
3010
0000
0000
0010
0000
0000
,
1000
0000
0100
0000
1000
0001
0000
0001
0000
0000
1000
0000
0100
0000
0000
0000
,
1000
0010
0100
0001
1000
0010
0100
0001
,
1000
0100
0010
0001
0100
0100
0100
0000
,
0001
0000
0010
0000
1000
0000
0020
0000
0000
0031
0000
0000
,
0101
0000
1100
0000
0101
0001
1000
0010
,
1000
0000
1010
0000
1001
1000
0100
0100
,
0010
0001
0100
0000
0010
0010
0010
0010
,
0010
0000
0000
0000
1000
0000
0001
0000
0100
0010
0000
0000
0110
0000
0000
0000
,
1000
0000
0100
0000
0010
0001
0000
1000
0000
0000
0001
0000
0100
0000
0010
0000
,
1000
0000
0000
0001
0010
0000
0000
0000
0001
0000
0000
1000
0010
0000
0000
0000
,
1000
0001
0100
0010
1000
0100
0010
0000
,
0001
1000
0010
0100
0001
0010
0100
0000
,
0020
0000
0000
0000
0031
0000
1000
0000
0001
0100
1000
0100
0001
1000
0002
0000
,
0013
0000
0001
0000
1000
1000
1000
1000
,
1000
0000
0000
0000
0010
0000
0100
0000
0001
1000
0000
0000
1001
0000
0000
0000
,
0001
0010
1000
0010
0001
0010
1000
0010
,
0011
1100
0101
1100
,
1000
0010
0001
0010
0100
0100
0100
0000
,
0001
0000
0000
0010
0000
0000
1000
0000
0000
0010
0000
0000
0001
0000
0000
0000
0001
0000
0000
0000
0001
0000
0000
0000
,
1000
0100
1000
0100
0001
0100
0001
0100
,
0010
0001
0100
1000
0100
0001
0020
0000
,
0031
0100
1000
0100
0001
0001
0001
0001
,
0001
1000
0010
0001
1000
0100
0001
1000
,
0002
0000
0013
0010
0002
0203
2300
0000
,
3200
0000
0320
0000
2030
0000
3200
0000
0310
0001
0010
1000
0010
0001
1000
0010
;

//---------------dance-single - t7r----------------
#NOTES:
     dance-single:
     t7r:
     Hard:
     17:
     :
0000
0000
0000
0000
,
0000
0000
0000
0000
,
0000
0000
0000
0000
,
0000
0000
0000
0000
,
0000
0000
0000
0000
,
0000
0000
0000
0000
,
0010
0000
0101
0000
1000
1000
1000
1000
,
0100
0000
0000
0010
0001
0000
0000
0000
0100
0000
0000
0010
1000
0000
0000
0000
,
0001
0000
0100
0000
1000
0000
0100
0000
0010
1000
0010
1000
0001
0000
0010
0000
,
0001
0100
0001
0000
1000
0000
0100
0000
1000
0010
1000
0001
1000
0000
0000
0000
,
0100
0001
0100
1000
0100
0001
0100
0010
,
0002
0000
0000
0000
1003
0000
0000
0000
0010
0000
0010
0000
0100
0001
0100
0001
,
1000
0100
0001
0100
0010
0010
0010
0010
,
0010
0000
0001
0000
0100
0000
0001
0010
0100
1000
0010
0000
0100
0000
0000
0000
,
0010
0000
1100
0000
0001
0001
0001
0001
,
0010
0000
0000
0001
0100
0000
0000
0000
0010
0000
0000
1000
0100
0000
0000
0000
,
1000
0000
0010
0000
0001
0000
0010
0000
0100
0001
0100
0001
1000
0000
0001
0000
,
1000
0100
1000
0000
0001
0000
0010
0000
0001
0100
0010
1000
0001
0000
0000
0000
,
1000
0000
0100
1000
0010
0100
0001
0010
0200
0000
0320
0000
0031
0001
0100
0100
,
0010
0001
0010
1000
0001
0001
0001
0001
,
0001
0000
1000
0000
0100
0000
0001
0000
0100
0010
0000
0000
1001
0000
0000
0000
,
0201
0000
0000
0000
0000
0000
0310
1000
0010
1000
0100
1000
0001
0000
1001
0000
0000
0000
1000
0100
1000
0010
1000
0001
,
0010
0000
0001
0100
0001
0010
0001
0000
1000
0100
1000
0010
1000
0000
0000
0010
0000
0010
0100
0001
0100
1000
0100
0010
,
0100
0000
0001
0000
1000
0000
0001
0000
0000
0100
0000
0000
1010
0000
0000
0000
0000
0000
1000
0000
0000
0000
0000
0000
1100
0000
0000
0000
0000
0000
0001
0000
0010
0000
0100
0000
0010
0000
0001
0000
0100
0000
0010
0000
1000
0000
0001
0000
,
0010
0000
0001
0000
0100
0000
0000
0000
1001
0000
0000
0000
0001
0000
0000
0000
1000
0100
1000
0000
0001
0010
0001
0000
1000
0010
1000
0000
0001
0100
0001
0000
,
1001
0000
0001
0010
1000
0010
0100
1000
,
0100
0001
0100
0010
0001
0100
1000
0001
,
1000
0000
0100
0000
0001
0010
0100
1000
0002
0000
0000
0000
1003
0000
0010
0000
,
0001
0010
1000
0000
0001
0010
1000
0000
0010
0000
0010
0000
0100
0010
0100
0000
,
0010
0000
0011
0001
0100
0000
1001
1000
,
0010
0000
1010
1000
0200
0000
1300
0001
,
2000
0000
0000
0000
3001
0010
0001
0010
0100
1000
0100
1000
0001
0100
0010
1000
,
0020
0000
0100
0000
1030
0001
2000
0000
3001
0000
0001
0000
0101
0000
1000
0000
,
1000
0100
1100
0001
0001
0010
0010
0001
,
1001
1000
1000
0010
1010
0010
0010
0100
,
0101
0000
0000
0000
1100
0001
2000
0000
,
3010
0000
0000
1000
0000
0000
0010
0000
0000
0001
0000
0000
0010
0000
0000
1000
0000
0000
0010
0000
0000
0001
0000
0000
0010
0000
0100
0000
0001
0000
0100
0000
0000
0000
0100
0000
0010
0000
0000
0000
0010
0000
1000
0000
0000
0000
1000
0000
,
0001
0000
0010
0000
0100
0000
1000
0000
0010
0000
0100
0000
0002
0000
0000
0000
0000
0000
1003
0000
0000
0000
0000
0000
0101
0000
0000
0001
0000
0000
1000
0000
0000
0100
0000
0000
0020
0000
0000
0000
0000
0000
0130
0000
0000
1000
0000
0000
,
0100
0000
0000
0001
0000
0000
0100
0000
0000
1000
0000
0000
0010
0000
0000
0100
0000
0000
0001
0000
0000
0001
0000
0000
1000
0000
0000
0010
0000
0000
0100
0000
0001
0000
1000
0000
0002
0000
0000
0000
0000
0000
0013
0000
0001
0000
1000
0000
,
0001
0000
0000
0000
0100
0000
1000
0000
0100
0000
0010
0000
1000
0000
0001
0000
0010
0000
0100
0000
1000
0000
0001
0000
1000
0000
0000
0001
0000
0000
0100
0000
0000
0100
0000
0000
1000
0000
0000
0000
0000
0000
0110
0000
0000
0000
0000
0000
,
0000
0000
1000
0000
0100
0000
0100
0000
0001
0000
0000
0000
0110
0000
0000
0000
0000
0000
0001
0000
0010
0000
0010
0000
1000
0000
0010
0000
0010
0000
0001
0100
,
0001
0000
0100
0000
0100
0000
1000
0100
1000
0000
0100
0000
0100
0000
0000
0000
0001
0000
0001
0000
0010
0000
0010
0000
0100
0000
0100
0000
0001
0000
0001
0000
,
1000
0000
1000
0000
0010
0000
0010
0000
0100
0000
0100
0000
1000
0000
1000
0000
0001
0100
0001
0000
1000
0100
1000
0000
0001
0010
0001
0000
1000
0010
1000
0000
,
0001
0000
0000
0000
0000
0000
0120
0000
0000
0000
0000
0000
0000
0000
0000
0000
0000
0000
1030
0000
0000
0001
0000
0000
0200
0000
0000
0000
0000
0000
0000
0000
0000
0000
0000
0000
0301
0000
0000
0000
0000
0000
0000
0000
0001
0000
0000
0000
1000
0000
0000
0000
0000
0000
0000
0000
0000
0000
0000
0000
0000
0000
0000
0000
1000
0000
0000
0000
0000
0000
0000
0000
0100
0000
0000
0000
0000
0000
0000
0000
0000
0000
0000
0000
0000
0000
0000
0000
0100
0000
0000
0000
0000
0000
0000
0000
,
0010
0000
0010
1000
0000
1000
0001
0000
0100
1000
0000
0001
,
0010
0000
1000
0010
0000
0001
0100
1000
0001
0010
1000
0001
,
1000
0010
0100
1000
0000
0100
0001
0010
0100
0001
0100
0010
,
0001
0000
0000
1000
0000
0000
1001
0000
0000
0000
0000
0000
1100
0000
0000
0000
0000
0000
1001
0000
0000
0000
0001
0000
,
0100
0000
0100
1000
0000
0100
0010
0000
0010
1000
0000
1000
,
0200
0000
0310
0001
0000
0001
0100
0000
0001
1000
0001
1000
,
0100
0000
0010
0000
1000
0000
0001
0000
0100
0000
0010
0000
0001
0000
1000
0010
0000
0001
0010
0000
0100
0020
0000
0000
,
1030
0000
0010
0000
1000
0100
0000
0010
0000
0000
0001
0000
0100
0000
1000
0000
,
0001
0010
0001
0010
1000
0000
0001
0000
1000
0100
1000
0100
0001
0000
0100
0000
,
0010
0000
0001
0000
0100
0000
0100
0000
0100
0000
0100
0000
0100
0010
1000
0001
,
0100
0000
0000
0000
0100
0000
0000
0000
0100
0000
0000
0000
1010
0000
0000
0000
0000
0000
0001
0000
0000
0001
0000
0000
,
0101
0000
1100
0000
0101
0001
0100
0001
,
1001
0000
0000
0000
1100
0000
0000
0000
1000
0000
1000
0000
0001
0010
0001
0010
,
0001
0010
0010
0010
1000
1000
1000
1000
,
1000
0000
0010
0000
0001
0000
0100
0010
1000
0001
1000
0100
0010
0001
1000
0001
,
1000
0000
0010
0000
0001
0010
0000
0100
0000
0100
0001
0000
0010
0000
0100
0000
,
1000
0000
0010
0100
0010
0000
1000
0000
0001
0010
0001
0010
0001
0000
0000
0000
,
1000
0000
0100
0000
0010
0000
1000
0000
0010
0100
0010
0100
1000
0000
0001
0000
,
0100
0000
0010
0000
0001
0000
0010
0000
0100
0001
1000
0001
0010
0000
0000
0000
,
0002
0000
0000
0000
0000
0000
0103
0000
1010
0000
0000
0000
0110
0000
0000
0000
0010
1000
0010
1000
0001
0000
0010
0000
0001
0010
0100
1000
0001
0000
0001
0000
,
1000
0100
0001
0100
0010
0010
0010
0010
,
0010
0000
0001
0000
0100
0000
0010
1000
0100
0010
0001
0010
0001
1000
0001
1000
,
0001
0000
0100
0001
0100
0000
1000
0100
1000
0000
0100
0010
0100
0000
0010
1000
,
0001
0010
0100
0010
0001
0100
0010
0100
0001
0010
0100
1000
0001
0000
0001
0000
,
1000
0000
0100
0001
0100
0000
1000
0100
1000
0000
0001
0000
0001
0000
0001
0000
,
0010
0000
0000
0001
0000
0000
0100
0000
0000
0000
0000
0000
0010
0000
0000
1000
0000
0000
0100
0000
0000
0000
0000
0000
0010
0000
0000
0000
0000
0000
0000
0000
0010
0000
0000
0000
0000
0000
0000
0000
0010
0000
0000
0000
0000
0000
0000
0000
,
0001
0010
1000
0001
0100
1000
0001
0100
,
1000
0000
0100
0000
0010
0000
1000
0000
0001
0000
0001
0000
1000
0010
1000
0010
,
1000
0010
0110
0000
0001
0001
0001
0001
,
0001
0000
1000
0100
1000
0010
1000
0000
0001
0010
0100
1000
0001
0000
0100
0000
,
0020
0000
1030
0002
2003
3020
0032
1003
,
0200
0000
0320
0000
2030
0000
3002
0000
0013
1000
0010
0100
1000
0010
0100
0100
;

//---------------dance-single - t7r----------------
#NOTES:
     dance-single:
     t7r:
     Challenge:
     18:
     :
0000
0000
0000
0000
,
0000
0000
0000
0000
,
0000
0000
0000
0000
,
0000
0000
0000
0000
,
0000
0000
0000
0000
,
0000
0000
0000
0000
,
2000
0000
0000
0000
3001
0100
0001
0010
0100
0000
0010
0001
0010
0000
0001
0000
,
1000
0010
0100
0001
0010
0100
1000
0001
1000
0100
0010
0001
1000
0001
1000
0000
,
0001
0000
0001
0000
0100
0000
0100
0000
0001
0010
0100
1000
0010
0000
1000
0000
,
0001
1000
0100
0010
0001
0100
0010
1000
0001
0010
0100
1000
0001
0000
0000
0000
,
1000
0100
0001
0100
0010
1000
0010
0100
,
0020
0000
0001
0000
0130
0000
1000
0000
0010
0000
0010
0000
0100
0001
1000
0010
,
1000
0100
0100
0100
1000
1001
1001
1001
,
1001
0000
0000
0000
0000
0000
1000
0000
0000
0000
0000
0000
1000
0000
0000
0000
0000
0000
0001
0000
0100
0000
0001
0000
1000
0000
0000
0001
0000
0000
0100
0000
0000
0000
0000
0000
0010
0000
0000
0000
0000
0000
0000
0000
0000
0000
0000
0000
,
0100
0000
0001
0000
0100
1000
0100
0010
0100
0000
0001
1000
0100
0000
1000
0000
,
0001
0010
0100
1000
0010
0100
0001
1000
0100
0010
0001
1000
0010
0000
0000
0000
,
1000
0000
0100
0000
0100
0000
0100
0000
1000
0010
0100
0001
0010
0000
0001
0000
,
1000
0010
0100
0001
0010
0100
1000
0010
0100
0001
1000
0001
0010
0000
0000
0000
,
0001
0000
0100
0000
1000
0000
0100
0001
1000
0000
0001
0000
1000
0000
0100
0001
0200
0000
1000
0000
0310
0000
0001
0000
0100
0010
1000
0001
0010
0000
0010
0000
,
0001
0100
0010
0010
1001
1001
1001
1001
,
1001
0000
1000
0000
0100
0000
0001
0100
1000
0000
0010
0000
1001
0000
0000
0000
,
1000
0100
1000
0001
0000
0000
0100
0100
0100
0100
0010
0000
1000
0000
1001
0000
0000
0000
0001
0100
0001
1000
0100
0010
,
0001
0000
0100
1000
0100
0010
0100
0000
0001
0010
1000
0010
0200
0000
0000
0310
0000
0010
0001
1000
0100
0010
0001
1000
,
0010
0000
0100
0000
0010
0000
0001
0000
0000
0010
0000
0000
1000
0000
0000
0000
0100
0000
0010
0000
0001
0000
1000
0000
0010
0000
0000
0000
0100
0000
0001
0000
1000
0000
0001
0000
0010
0000
0100
0000
1000
0000
0010
0000
0100
0000
0001
0000
,
1000
0000
0000
0000
0100
0000
0000
0000
1000
0000
0000
0000
0001
0000
0000
0000
0100
0000
0000
0000
0001
0000
0000
0000
1000
0000
0000
0000
0010
0000
0000
0000
1000
0000
0000
0000
0001
0000
0000
0000
0010
0000
0000
0000
0001
0000
0000
0000
1000
0000
0000
0100
0000
0000
0010
0000
0000
0001
0000
0000
1000
0000
0000
0010
0000
0000
0100
0000
0000
0001
0000
0000
0010
0000
0000
0100
0000
0000
1000
0000
0000
0001
0000
0000
0100
0000
0000
0010
0000
0000
1000
0000
0000
0001
0000
0000
,
2000
0000
3010
0001
1000
0100
0001
0010
,
0100
1000
0100
0001
0200
0000
0310
0001
,
1000
0000
0010
0000
0100
0001
1000
0001
0020
0000
0000
0000
0031
0000
0100
0000
,
0001
0010
0100
1000
0001
0100
0010
1000
0001
0000
0001
0000
1000
0100
0010
0001
,
2000
0000
3100
0001
1000
0010
0100
0001
,
0100
1000
0010
0100
0001
0100
1000
0100
,
0020
0000
0000
0000
0000
0000
0130
0000
0001
0000
0010
0000
0100
0000
1000
0000
0010
0000
0100
0010
0100
0010
0100
0010
,
0100
0001
0010
0100
1000
0010
0200
0000
0310
0000
0010
0000
1020
0000
1030
0000
,
1000
0001
0201
0310
0010
0100
0100
0001
,
1002
1003
1000
0100
1200
0301
0100
1000
,
1010
0000
0000
0000
0000
0000
0000
0000
1000
0010
0100
1000
0200
0000
0301
0000
,
1000
0000
0100
0000
0010
0000
0100
0000
0001
0000
1000
0000
0010
0000
0001
0000
0100
0000
0100
0000
0001
0010
0100
1000
0010
0100
0001
0000
0010
0100
1000
0001
,
1000
0100
0010
0001
1000
0010
0100
0001
0020
0000
0000
0000
0032
0000
0000
0000
1003
0000
0100
0000
0010
0000
1000
0000
0010
0000
0001
0000
1000
0000
0010
0000
,
0100
0000
0000
0010
0000
0000
0001
0000
0000
0010
0000
0000
1000
0000
0000
0001
0000
0000
0010
0000
0000
0010
0000
0000
0001
0000
0000
0000
0001
0000
1000
0000
0100
0000
1000
0000
0001
0000
0100
0000
0010
0000
1000
0000
0100
0000
0010
0000
,
0001
0000
0000
0000
0000
0000
0000
0000
0100
0000
0000
0000
0010
0000
0000
0000
0010
0000
0000
0000
0010
0000
0000
0000
0100
0000
0000
0001
0000
0000
1000
0000
0000
0010
0000
0000
0100
0000
0000
0001
0000
0000
0010
0000
0000
0100
0000
0000
1000
0000
0000
0000
0000
0000
0100
0000
0000
0000
0000
0000
0001
0000
0000
0000
0000
0000
0100
0000
0000
0000
0000
0000
2000
0000
0000
0000
0000
0000
0000
0000
0000
0000
0000
0000
3010
0000
0000
0000
0000
0000
0000
0000
0000
0000
0000
0000
,
1000
0000
0001
0000
0100
0000
1000
0000
0200
0000
0000
0000
0310
0000
0000
0000
0100
0000
0001
0010
0001
0000
1000
0000
0001
0000
1000
0010
1000
0000
0001
0000
,
1000
0100
1000
0100
1000
0000
0001
0000
1000
0010
1000
0010
1000
0000
0001
0000
1000
0000
0100
0010
0001
0000
0100
0010
1000
0000
0010
0100
0001
0000
1000
0001
,
1000
0000
0001
0010
0100
0000
1000
0010
0100
0000
0010
1000
0001
0000
1000
0001
1000
0100
1000
0100
0010
0001
0010
0001
1000
0010
1000
0010
0100
0001
0100
0001
,
0010
0000
0000
0000
0000
0000
0100
0000
0000
1000
0000
0000
0000
0000
0000
0001
0000
0000
0100
0000
0000
0010
0000
0000
1000
0000
0000
0001
0000
0000
1000
0000
0000
0000
0000
0000
0010
0000
0000
0000
0000
0000
0000
0000
0010
0000
0000
0000
1000
0000
0000
0000
0000
0000
0000
0000
0000
0000
0000
0000
0000
0000
0000
0000
0100
0000
0000
0000
0000
0000
0000
0000
0001
0000
0000
0000
0000
0000
0000
0000
0000
0000
0000
0000
0000
0000
0000
0000
0100
0000
0000
0000
0000
0000
0000
0000
,
1000
0000
0010
0001
0000
0010
1000
0000
0010
0100
0000
0010
,
0001
0000
0000
0010
0000
0100
0001
0010
0100
1000
0010
0100
,
0001
1000
0100
0010
0000
0100
0001
0100
1000
0001
0100
1000
,
0100
0000
0000
0000
0000
0000
0010
0000
0000
0100
0000
0000
0010
0000
0000
0100
0000
0000
0000
0000
0000
0000
0000
0000
1001
0000
0000
0000
0000
0000
0000
0000
0000
0000
0000
0000
1010
0000
0000
0000
0000
0000
0000
0000
1000
0000
0000
0000
,
0010
0000
0001
0010
0000
0100
0001
0000
0100
1000
0000
0100
,
0020
0000
1030
0001
0000
0010
0100
0000
0010
0001
0100
0001
,
1000
0000
0100
0000
1000
0000
0001
1000
0001
1000
0001
1000
0001
0000
0010
1000
0000
0001
0100
0000
1000
0002
0000
0000
,
1003
0000
0010
0000
0100
1000
0000
0100
0001
0000
0010
0000
0100
1000
0001
0000
,
1000
0100
0010
0001
0100
0001
0010
0000
0001
0010
0100
1000
0010
1000
0100
0000
,
1000
0010
1000
0010
0100
0001
0100
0001
0010
0001
1000
0001
0010
0000
0001
0100
,
0010
0000
0000
0000
0110
0000
0000
0000
1010
0000
0000
0000
1000
0000
0000
0001
0000
0000
0100
0000
0000
0100
0000
0000
,
1001
1000
1100
0100
0110
0010
0011
0001
,
1001
0000
0001
0000
0101
0000
0100
0000
0110
0000
0010
0000
1000
0001
1000
0100
,
1000
0010
0010
0010
1001
1001
1001
1001
,
1000
0000
0000
0100
0000
0000
0010
0000
0000
0001
0000
0000
0100
0000
0000
0010
0000
0000
1000
0000
0010
0000
1000
0000
0001
0000
0000
0100
0000
0000
0001
0000
0000
1000
0000
0000
0001
0000
0000
0010
0000
0000
0100
0000
0000
1000
0000
0000
,
0001
0000
0100
0000
0010
0001
0000
0010
0100
0000
0010
0000
1000
0000
0100
0000
,
1000
0010
0100
0001
0010
0100
1000
0010
0100
0001
1000
0001
0010
0000
0110
0000
,
0001
0000
0100
0000
1000
0000
0100
0000
0010
0100
0010
0001
0010
0000
1000
0000
,
0100
0010
0100
0001
0100
0010
0100
1000
0010
0100
0001
1000
0010
0000
0000
0000
,
1000
0000
1100
0000
0000
0000
0100
0000
1001
0000
0000
0000
0001
0000
0100
0000
0001
0010
0001
0010
0100
1000
0100
1000
0010
0100
0001
0100
0010
0000
0010
0000
,
1000
0100
0001
0100
1001
1001
1001
1001
,
1001
0000
0001
0000
0100
0000
0010
1000
0100
0010
0001
1000
0010
0100
0001
1000
,
0001
0010
0100
1000
0001
0100
0010
1000
0100
0010
0001
1000
0010
0100
0001
0010
,
0001
0010
0100
1000
0001
0010
0100
1000
0001
0100
0010
1000
0001
0100
0010
1000
,
0100
0010
0001
1000
0010
0100
0001
1000
0100
0010
0001
1000
0010
0100
0001
0010
,
0100
0000
0000
1000
0000
0000
0010
0000
0000
0100
0000
0000
0001
0000
0000
1000
0000
0000
0100
0000
0000
0010
0000
0000
0001
0000
0000
0000
0000
0000
0000
0000
1001
0000
0000
0000
0000
0000
0000
0000
0110
0000
0000
0000
0000
0000
0000
0000
,
1010
0010
1010
1000
1100
0100
0101
0100
,
0110
0000
0010
0000
0011
0000
0001
0000
1001
0000
1000
0000
0010
0100
0001
0100
,
1000
0100
0010
0100
0001
0000
1000
0100
0010
0100
0001
0000
1000
0010
0100
0010
,
0001
0000
1000
0010
0100
0010
0001
0010
0100
0001
0010
0100
1000
0010
0100
0001
,
1000
0100
0001
0100
0010
0001
0100
1000
0100
0010
0100
0001
0100
1000
0100
0010
,
0200
0301
0020
1030
0020
0130
2000
3001
0100
0100
0100
0010
1000
1000
0001
0001
;

//---------------dance-double - t7r----------------
#NOTES:
     dance-double:
     t7r:
     Easy:
     11:
     :
00000000
00000000
00000000
00000000
,
00000000
00000000
00000000
00000000
,
00000000
00000000
00000000
00000000
,
00000000
00000000
00000000
00000000
,
00000000
00000000
00000000
00000000
,
00000000
00000000
00000000
00000000
,
10000000
01000000
00100000
00100000
,
00001000
00010000
00000010
00000100
,
00000001
00000010
00000100
00000100
,
00010000
00001000
00100000
00010000
,
01000000
10000000
01000000
00010000
,
00200000
00301000
00010000
00001000
,
00000100
00000001
00000010
00000010
,
00000010
00000001
00001000
00001001
,
00000001
00000010
00001000
00001000
,
00010000
00100000
10000000
00100000
,
10000000
01000000
00010000
00010000
,
00001000
00000100
00000001
00000001
,
00000020
00000000
00000031
00000000
00000200
00000310
00001000
00001000
,
00000001
00000010
00001000
00001000
,
00001000
00010000
00100000
01000000
,
00020000
10030000
01000000
00010000
,
00001000
00000000
00000100
00000000
00000010
00000100
00000001
00001000
,
00000001
00000000
00000011
00000000
00000001
00000100
00000010
00000010
,
00001000
00000100
00010000
00010000
00001000
00010000
00100000
10000000
,
00010000
10000000
01000000
00100000
,
01000000
01000000
10000000
00010000
,
10000000
01000000
00020000
00031000
,
00000100
00000000
00000001
00000000
00000010
00000001
00000010
00000000
,
00000001
00000100
00000010
00000010
,
00001000
00000100
00020000
00031000
,
00010000
00000000
01000000
10000000
01000000
00000000
10000000
00000000
,
00020000
00000000
00031000
00000000
00000001
00000010
00000001
00000100
,
00000010
00000100
00000010
00001000
00000100
00001000
00000100
00010000
,
00001000
00010000
00001000
01000000
00010000
10000000
01000000
00100000
,
00010000
00000000
00002000
00003020
,
00000130
00000001
00000100
00001000
00000100
00000010
00001000
00000100
,
00001000
00010000
02000000
00000000
03010000
00000000
00110000
00000000
,
00010000
10000000
00100000
00010000
00001000
00000000
00000110
00000000
,
00000001
00000010
00000100
00001000
00000000
01000000
10000000
00100000
,
00000000
01000000
00001000
00100000
00000000
00001000
00000000
00011000
,
00000000
00010000
00000000
00011000
00001000
00000100
00000001
00001000
,
00000100
00010000
00001000
00010000
01000000
10000000
00100000
01000000
,
00001000
00010000
00011000
00000000
00001000
00000000
00000010
00000000
,
00000001
00000100
00000010
00001000
,
00000100
00010000
00001000
00100000
,
00010000
10000000
00100000
00010000
,
00001000
00010000
00001000
00000000
00000010
00000000
00000100
00000000
,
00001000
00000010
00000100
00001000
,
00020000
00031000
00100000
00010000
,
10000000
10010000
00200000
01300000
,
01100000
10000000
10000000
00010000
,
10000000
01000000
10000000
00000000
01000000
00100000
00010000
00000000
,
00100000
00001000
00011000
00000000
,
00010000
00001000
00000010
00000001
,
00000100
00000000
00000001
00000000
00000100
00000010
00000100
00000010
,
00000100
00000001
00000010
00000011
,
00000001
00000000
00000100
00000000
00001000
00010000
00001000
00010000
,
00001000
00010000
01000000
10000000
,
00100000
00000000
10000000
00000000
00000000
01000000
10000000
00000000
,
00010000
01000000
00001000
00001000
,
00100000
00000000
00001000
00000000
00000000
00010000
00001000
00000000
,
00000100
00000001
00000010
00000010
,
00000002
00000000
00000103
00000000
00000001
00000010
00000100
00001000
,
00010000
00000000
00000000
00000000
00100000
00010000
00100000
00010000
,
00100000
00010000
10000000
00010000
,
10000000
11000000
01000000
00010000
,
00001000
00011000
00010000
00001000
,
00000100
00000001
00000010
00000011
,
00000001
00000000
00000000
00001000
00000000
00000000
00000001
00000000
00000001
00000000
00000001
00000000
,
00000100
00001000
00010000
00001000
,
00010000
01000000
00100000
00100000
,
00010000
10000000
00010000
00001000
,
00000001
00000010
00000001
00000010
00000001
00000000
00000100
00000000
,
00000020
00000000
00001030
00000000
00000100
00001000
00020000
00000000
,
00130000
00000000
00010000
00000000
00001000
00000000
00000100
00000000
00001000
00000000
00000010
00000000
00000100
00000001
00001000
00000000
;

//---------------dance-double - t7r----------------
#NOTES:
     dance-double:
     t7r:
     Medium:
     14:
     :
00000000
00000000
00000000
00000000
,
00000000
00000000
00000000
00000000
,
00000000
00000000
00000000
00000000
,
00000000
00000000
00000000
00000000
,
00000000
00000000
00000000
00000000
,
00000000
00000000
00000000
00000000
,
00000001
00000000
00000101
00000000
00000001
00000010
00000100
00000010
,
00000001
00000000
00000100
00000000
00000010
00001000
00000001
00000000
,
00000010
00000100
00001000
00000100
00000010
00000100
00010000
00001000
,
00010000
01000000
00100000
01000000
00010000
01000000
10000000
00000000
,
00100000
01000000
00010000
01000000
00100000
01000000
00010000
00010000
,
00200000
00000000
10300000
00000000
00100000
01000000
10000000
00000000
,
00100000
01000000
00100000
01000000
00010000
00010000
00010000
00010000
,
00010000
00000000
00100000
00001000
00010000
00000000
00011000
00000000
,
00001000
00000000
00011000
00000000
00010000
00000100
00001000
00000010
,
00000100
00000110
00000001
00000011
,
00000001
00000100
00000010
00000100
00000001
00000010
00000100
00000000
,
00000010
00000001
00000100
00001000
00010000
00001000
00010000
00000000
,
02000000
00000000
00000000
03100000
00010000
00000000
01000000
00000000
00200000
00000000
10300000
00000000
00010000
00100000
00010000
00100000
,
00010000
01000000
00010000
01000000
00100000
00100000
00100000
00100000
,
00100000
00000000
10000000
00000000
01000000
00010000
00001000
00000000
,
00000200
00000000
00000000
00000000
00000000
00000000
00000310
00000000
00000010
00001000
00000000
00000000
00000001
00000000
00001001
00000000
00000000
00000000
00000001
00000000
00000001
00000010
00000000
00000000
,
00000001
00000000
00000000
00000100
00000000
00000100
00000010
00000000
00000000
00001000
00000000
00001000
00000100
00000000
00000100
00010000
00000000
00010000
00001000
00000000
00001000
00010000
00000000
00000000
,
01000000
10000000
01000000
00000000
00110000
00000000
00100000
00001000
00010000
00000000
00001000
00000000
00011000
00000000
00001000
00000100
,
00000001
00000000
00000000
00000000
00000000
00000000
00001000
00000000
00000000
00000100
00000000
00000000
00000010
00000000
00000000
00000000
00000000
00000000
00000001
00000000
00000000
00000000
00000000
00000000
00000100
00000000
00000000
00000000
00000100
00000000
00001000
00000000
00000000
00000000
00001000
00000000
00010000
00000000
00000000
00000000
00010000
00000000
00001000
00000000
00000000
00000000
00000000
00000000
,
00010000
00000000
01000000
10000000
01000000
00100000
01000000
00010000
,
01000000
10000000
00100000
01000000
00010000
00000000
00100000
00001000
,
00010000
00001000
00000010
00000100
00001000
00000000
00000010
00000100
,
00001000
00000100
00000001
00000010
00000001
00000001
00000100
00000000
,
00000001
00000000
00000011
00000000
00000010
00000001
00001000
00001000
,
00000001
00000100
00001000
00010000
02000000
00000000
13000000
00100000
,
01000000
00000000
00100000
00100000
10000000
10000000
00010000
00010000
,
02000000
00000000
03010000
00020000
10030000
10000000
10000000
01000000
,
01000000
01000000
01000000
00100000
00100000
00100000
00100000
00100000
,
00100000
00010000
00010000
00010000
00010000
00001000
00001000
00000001
,
00001000
00000000
00001001
00000002
,
00000103
00000001
00000100
00000000
00000010
00001000
00000001
00000000
00000010
00000001
00000100
00000000
00001000
00000000
00010000
00000000
,
01000000
10000000
00100000
00000000
02200000
00000000
03300000
00000000
10000000
01000000
00000000
01000000
00100000
00000000
01000000
10000000
,
00010000
00000000
01000000
00001000
00010000
00000000
00001000
00000000
00100000
00000000
00001000
00010000
00000010
00000000
00001000
00000000
,
00000001
00000010
00000100
00000100
00001000
00000000
00000001
00000000
00000000
00000100
00001000
00010000
00001000
00000000
00010000
00000000
,
00000000
01000000
00010000
00001000
00010000
00000000
00001000
00000000
00000000
00000100
00001000
00000000
00000000
00010000
01000000
00000000
,
00000000
00010000
00001000
00000000
00000000
00000100
00001000
00000000
00010000
01000000
00010000
00000000
00001000
00000100
00001000
00000000
,
00010000
00100000
00010000
00000000
00001000
00000010
00001000
00000000
00010000
01000000
10000000
00000000
00100000
01000000
00010000
00000000
,
00100000
00000000
00000000
00001000
00000000
00000000
00000000
00000000
00000000
00010000
00000000
00000000
00002000
00000000
00000000
00000000
00000000
00000000
00013000
00000000
00000000
00000000
00010000
00000000
00001000
00000000
00000000
00000000
00000000
00000000
00000000
00000000
00000000
00000000
00000000
00000000
00010000
00000000
00000000
00000000
00000000
00000000
00000000
00000000
00010000
00000000
00000000
00000000
,
01000000
00000000
01000000
00100000
00000000
00100000
00010000
00000000
00010000
10000000
00000000
10000000
,
00010000
00000000
00000000
10000000
00000000
10000000
01000000
00000000
01000000
00100000
00000000
00100000
,
00010000
00000000
00000000
00001000
00000000
00001000
00000100
00000000
00000100
00000010
00000000
00000010
,
00000001
00000000
00000000
00001000
00000000
00000000
00000001
00000000
00000000
00000000
00000000
00000000
00000100
00000000
00000000
00000000
00000000
00000000
00000010
00000000
00000000
00000000
00000010
00000000
,
00001000
00000000
00001000
00000000
00000000
00000001
00000000
00000000
00000001
00000010
00000000
00000001
,
00001000
00000000
00000000
00000001
00000000
00000001
00000100
00000000
00000000
00001000
00010000
00001000
,
00010000
00000000
00001000
00000000
00010000
00000000
00001000
00000000
00010000
00000000
00001000
00000000
00010000
00000000
01000000
00010000
00000000
00001000
00010000
00000000
00001000
00000100
00000000
00000000
,
00000010
00000100
00000010
00000100
00000001
00001000
00000100
00001000
,
00000001
00000100
00000010
00001000
00000100
00000010
00000001
00001000
,
00000001
00000100
00001000
00000000
00010000
00010000
00010000
00000000
,
00001000
00000000
00010000
00000000
00100000
00000000
10000000
00000000
00000000
00020000
00000000
00000000
,
10030000
00000000
11000000
00000000
10000000
01000000
00100000
01000000
,
10000000
00000000
00010000
00000000
01000000
01000000
00010000
00010000
,
00100000
00001000
00010000
00001000
00000100
00000100
00000100
00000100
,
00000100
00000000
00000000
00000000
00000001
00000000
00000010
00000000
00001000
00010000
00000000
00000000
00011000
00000000
00000000
00000000
,
00001000
00000000
00010000
00000000
01000000
10000000
00000000
00010000
00000000
00000000
10000000
00000000
00100000
00000000
01000000
00000000
,
00100000
00000000
10000000
00000000
00010000
00000000
00100000
00000000
00001000
00000000
00000000
00010000
00001000
00000000
00000000
00000000
,
00010000
00001000
00000010
00000001
00001000
00000010
00000100
00000001
,
00001000
00000100
00000010
00000001
00000100
00001000
00010000
00000000
,
00002000
00000000
00000000
00013000
00100000
00000000
10000000
00000000
01000000
00000000
00010000
00000000
00001000
00010000
00002000
00000000
,
00013000
01000000
10000000
00000000
00100000
00100000
00100000
00100000
,
00100000
00000000
00000000
00000000
10000000
00000000
00000000
00000000
00100000
01000000
00000000
00000000
01100000
00000000
00000000
00000000
,
10000000
01000000
10000000
01000000
00100000
00010000
00100000
00010000
,
00001000
00000000
00001000
00000000
00000010
00000100
00000001
00001000
,
00000001
00000010
00000001
00000010
00000100
00001000
00000100
00001000
,
00010000
00000000
00000000
01000000
00000000
00000000
00100000
00000000
00100000
00000000
00100000
00000000
,
10000000
01000000
10000000
01000000
00010000
00001000
00010000
00001000
,
00000010
00000000
00000001
00000000
00001000
00000001
00000100
00000000
,
00000001
00000010
00000001
00000010
00001000
00001000
00001000
00001000
,
00001000
00010000
01000000
00000000
10000000
00100000
01000000
00000000
,
00200000
00000000
10300000
10000000
01000000
00010000
00002000
00000000
,
00013000
00000000
00001000
00000000
00000100
00000000
00000001
00000000
00000010
00000100
00000010
00000001
00000100
00001000
00010000
00001000
;

//---------------dance-double - t7r----------------
#NOTES:
     dance-double:
     t7r:
     Hard:
     17:
     :
00000000
00000000
00000000
00000000
,
00000000
00000000
00000000
00000000
,
00000000
00000000
00000000
00000000
,
00000000
00000000
00000000
00000000
,
00000000
00000000
00000000
00000000
,
00000000
00000000
00000000
00000000
,
00110000
00000000
00000000
00000000
10000000
00000000
01000000
10000000
01000000
00000000
10000000
00000000
00010000
00000000
01000000
00000000
,
00010000
00000000
00100000
00000000
01000000
00000000
10000000
00000000
00010000
01000000
00010000
01000000
00010000
00000000
00000000
00000000
,
10000000
00000000
01000000
00000000
00010000
00000000
00001000
00000000
00010000
00001000
00010000
00001000
00010000
00000000
00001000
00000000
,
00000100
00000010
00000100
00000000
00000001
00000000
00001000
00000000
00000001
00000010
00000001
00000000
00001000
00000000
00000000
00000000
,
00000010
00000100
00001000
00010000
00000010
00000100
00001000
00010000
,
02000000
00000000
00000000
00000000
23000000
00000000
00000000
00000000
30010000
00000000
00010000
00000000
10000000
01000000
10000000
01000000
,
10000000
00100000
00010000
00100000
10000000
10000000
10000000
10000000
,
10000000
00000000
01000000
00000000
00010000
00000000
00001000
00010000
00001000
00010000
00001000
00000000
00011000
00000000
00000000
00000000
,
00010000
00000000
00001000
00000000
00000010
00000100
00000000
00000010
00000000
00000000
00000001
00000000
00000100
00000000
00000001
00000000
,
00001000
00000000
00000010
00000000
00000100
00000000
00000001
00000000
00001000
00000100
00001000
00000100
00001000
00000000
00000000
00000000
,
00000001
00000000
00000100
00000000
00000010
00000000
00001000
00000000
00000100
00001000
00000100
00001000
00000100
00000000
00001000
00000000
,
00000001
00000000
00000100
00000000
00001000
00000000
00010000
00000000
01000000
10000000
01000000
10000000
01000000
00000000
00000000
00000000
,
10000000
00000000
00100000
01000000
00010000
00000000
10000000
00000000
02000000
00000000
03010000
00000000
00001000
00001000
00000100
00000100
,
00000010
00001000
00000001
00000010
00000001
00000001
00000001
00000001
,
00000001
00000100
00001000
00010000
00100000
01000000
00010000
00000000
,
20100000
00000000
00000000
00000000
00000000
00000000
30010000
01000000
00010000
10000000
01000000
00000000
10000000
00000000
11000000
00000000
00000000
00000000
10000000
01000000
10000000
00010000
01000000
00010000
,
00100000
00000000
00000000
00001000
00010000
00001000
00010000
00000000
00000000
00000010
00001000
00000010
00001000
00000000
00000000
00000001
00000010
00000100
00000010
00000001
00001000
00000010
00001000
00000001
,
00000100
00000000
00001000
00000000
00010000
00000000
00001000
00000000
00000000
00010000
00000000
00000000
00011000
00000000
00000000
00000000
00000000
00000000
00010000
00000000
01000000
00000000
00010000
00000000
01000000
00000000
00000000
00000000
00000000
00000000
10000000
00000000
00100000
00000000
10000000
00000000
00100000
00000000
00000000
00000000
00000000
00000000
10000000
00000000
01000000
00000000
00100000
00000000
,
00010000
00000000
01000000
00000000
00100000
00000000
00000000
00000000
10010000
00000000
00000000
00000000
10000000
00000000
01000000
00000000
00010000
00000000
00001000
00010000
00001000
00000000
00010000
00001000
00010000
00000000
00001000
00010000
00001000
00000000
00010000
00000000
,
00001000
00000000
00000010
00000001
00000100
00001000
00000100
00000010
,
00001000
00000100
00000010
00000001
00000200
00000000
00000301
00000010
,
00000100
00010000
00001000
00010000
02000000
00000000
03100000
00010000
,
10000000
00000000
00100000
00000000
00010000
00000000
00001000
00000000
00010000
00000000
00001000
00000000
00010000
00001000
00010000
00000000
,
00001000
00000000
00000100
00000001
00000010
00001000
00000010
00000001
,
00000100
00001000
00010000
00100000
20000000
00000000
30010000
10000000
,
02000000
00000000
00000000
13000000
00010000
10000000
00010000
01000000
00010000
00100000
00001000
00100000
,
00001000
00000000
00000010
00000100
00001000
00000000
00000002
00000000
00001003
00000000
00001000
00000000
00001100
00000000
00000001
00000000
,
00000001
00000001
00000101
00000100
00000100
00001000
00001000
00010000
,
00011000
00010000
00010000
01000000
01010000
01000000
10000000
00100000
,
00010000
00000000
00000000
00000000
00011000
00001000
00000200
00000000
,
00000310
00001000
00000001
00001000
00000010
00001000
00000001
00001000
00000001
00000010
00000100
00001000
00010000
00000000
00100000
00000000
,
00010000
10000000
00100000
01000000
00020000
00000000
10030000
00000000
10010000
10000000
01000000
00100000
01000000
00000000
10000000
00100000
,
00010000
00001000
00010000
01000000
10000000
00100000
01000000
01000000
00010000
00001000
00000100
00000010
00000001
00000000
00000100
00001000
,
00010000
00000000
00000000
00000000
00001000
00000000
00010000
00000000
00001000
00000000
00010000
00000000
00001000
00000000
00000000
00000000
00000000
00000000
00010000
00000000
00000000
01000000
00000000
00000000
10000000
00000000
00000000
00100000
00000000
00000000
00010000
00000000
00000000
00001000
00000000
00000000
00200000
00000000
00000000
00000000
00000000
00000000
00310000
00000000
00000000
00000000
00000000
00000000
,
10000000
01000000
00010000
00001000
02000000
00000000
03010000
00000000
00100000
00001000
00020000
00000000
00030010
00010000
00002000
00000000
,
00013000
00001000
00000200
00000000
00000301
00001000
00000200
00000000
00010300
00001000
00010000
01000000
10000000
00010000
01000000
00100000
,
10000000
00000000
01000000
00000000
00010000
00000000
01000000
00000000
00010000
00000000
00001000
00000000
00000100
00000000
00000001
00000000
00001000
00000000
00000100
00010000
00000100
00000000
00010000
00001000
00010000
00000000
00001000
01000000
00001000
00000000
00010000
00000000
,
00001000
00000000
00000000
00000000
00000000
00000000
00020000
00000000
00000000
00000000
00000000
00000000
00000000
00000000
00000000
00000000
00000000
00000000
01030000
00000000
00000000
10000000
00000000
00000000
02000000
00000000
00000000
00000000
00000000
00000000
00000000
00000000
00000000
00000000
00000000
00000000
13000000
00000000
00000000
00000000
00000000
00000000
00000000
00000000
00010000
00000000
00000000
00000000
10000000
00000000
00000000
00000000
00000000
00000000
00000000
00000000
00000000
00000000
00000000
00000000
00000000
00000000
00000000
00000000
10000000
00000000
00000000
00000000
00000000
00000000
00000000
00000000
01000000
00000000
00000000
00000000
00000000
00000000
00000000
00000000
00000000
00000000
00000000
00000000
00000000
00000000
00000000
00000000
01000000
00000000
00000000
00000000
00000000
00000000
00000000
00000000
,
00100000
00000000
00100000
00010000
00000000
00010000
00001000
00000000
00001000
00000010
00000000
00000010
,
00000200
00000000
00000000
00000301
00000000
00000001
00000010
00000001
00000010
00000001
00001000
00000001
,
00001000
00000000
00000001
00000100
00000000
00000001
00000010
00000001
00001000
00000010
00001000
00000001
,
00000100
00000000
00000000
00000000
00000000
00000000
00001000
00000000
00000000
00000000
00000000
00000000
00010000
00000000
00000000
00001000
00000000
00000000
00010000
00000000
00000000
00000000
00000000
00000000
00011000
00000000
00000000
00000000
00000000
00000000
00000000
00000000
00000000
00000000
00000000
00000000
00001000
00000000
00000000
00000000
00000000
00000000
00000000
00000000
00010000
00000000
00000000
00000000
,
01000000
00000000
00100000
00010000
00000000
00001000
00000010
00000000
00000100
00001000
00000000
00010000
,
00001000
00000000
00010000
01000000
00000000
10000000
00100000
00000000
00000000
10000000
00010000
10000000
,
00010000
00000000
01000000
00000000
00010000
00000000
00100000
00000000
00001000
00000000
00100000
00000000
00001000
00000000
00010000
00001000
00000000
00000010
00000001
00000000
00000100
00000020
00000000
00000000
,
00001030
00000000
00000001
00000000
00000100
00000001
00000000
00001000
00000000
00000000
00000001
00000000
00000010
00000000
00000100
00000000
,
00000010
00000001
00000010
00000001
00000010
00000000
00000001
00000000
00000100
00000010
00000100
00000010
00000100
00000000
00000001
00000000
,
00000010
00000100
00010000
00001000
00000010
00000100
00010000
00001000
,
00010000
00000000
01000000
00000000
10000000
00000000
10100000
00000000
00000000
01100000
00000000
00000000
,
10010000
00000000
10010000
00000000
11000000
01000000
00100000
01000000
,
01100000
00000000
00000000
00000000
00110000
00000000
00000000
00000000
00011000
00000000
00001000
00000000
00010000
00001000
00010000
00000000
,
00001000
00000010
00000001
00000100
00001000
00001000
00001000
00001000
,
00001000
00000000
00010000
00000000
01000000
00100000
01000000
00000000
10000000
00100000
10000000
00100000
10000000
00000000
00010000
00000000
,
10000000
00000000
01000000
00000000
00100000
01000000
00000000
10000000
00000000
00000000
00100000
00000000
01000000
00000000
00010000
00000000
,
10000000
00000000
01000000
00000000
00010000
00000000
00001000
00000000
00010000
00001000
00010000
00001000
00010000
00000000
00000000
00000000
,
00001000
00000000
00000010
00000000
00000100
00000000
00000010
00000000
00000001
00001000
00000001
00001000
00000001
00000000
00000100
00000000
,
00000010
00000000
00001000
00000100
00001000
00000000
00000100
00000000
00010000
00001000
00010000
00001000
00010000
00000000
00000000
00000000
,
00000100
00000000
00000010
00000000
00001000
00000000
00010000
00000000
00000100
00000000
00000010
00000000
00001000
00000000
00010000
00000000
00001000
00010000
00001000
00010000
00001000
00000000
00010000
00000000
00100000
01000000
00100000
01000000
00200000
00000000
00000000
00000000
,
10300000
00100000
01000000
00010000
10000000
10000000
10000000
10000000
,
10000000
00000000
01000000
00000000
00010000
00000000
00001000
00010000
00001000
00000000
00010000
00001000
00010000
00000000
00001000
00000100
,
00000010
00000100
00000001
00000010
00001000
00000010
00000001
00000100
,
00001000
00000000
00010000
00001000
00010000
00000000
00001000
00100000
00001000
00000000
00010000
00001000
00010000
00000000
00000010
00000000
,
00001000
00000001
00000010
00001000
00010000
01000000
10000000
00100000
,
01000000
00000000
00000000
00010000
00000000
00000000
00100000
00000000
00000000
00001000
00000000
00000000
00010000
00000000
00000000
00000000
00010000
00000000
00000000
00000000
00010000
00000000
00000000
00000000
,
00001000
00000100
00001000
00000100
00001000
00010000
00001000
00010000
,
01000000
00000000
00010000
00000000
01000000
00000000
00010000
00000000
00001000
00010000
00001000
00010000
00001000
00000000
00001000
00000000
,
00000100
00000001
00001001
00000000
00000001
00000001
00000001
00000001
,
00000001
00000000
00000010
00000001
00001000
00000001
00000010
00000000
00000001
00000000
00000100
00001000
00010000
00000000
00001000
00000000
,
00021000
00000000
00031000
00010000
01000000
10000000
00200000
00000000
,
10300000
00000000
00100000
00000000
00010000
00000000
00001000
00000000
00000010
00000100
00010000
00001000
00000010
00000100
00010000
00010000
;

//---------------dance-double - t7r----------------
#NOTES:
     dance-double:
     t7r:
     Challenge:
     18:
     :
00000000
00000000
00000000
00000000
,
00000000
00000000
00000000
00000000
,
00000000
00000000
00000000
00000000
,
00000000
00000000
00000000
00000000
,
00000000
00000000
00000000
00000000
,
00000000
00000000
00000000
00000000
,
20000000
00000000
00000000
00000000
31000000
10000000
01000000
00100000
00010000
00000000
10000000
00100000
10000000
00000000
00010000
00000000
,
10000000
00100000
10000000
00100000
01000000
00010000
01000000
00010000
00100000
00001000
00100000
00001000
00010000
00000000
00010000
00000000
,
00001000
00000000
00000100
00000000
00000001
00000000
00000010
00000000
00000001
00000100
00000010
00001000
00000001
00000000
00000010
00000000
,
00000001
00000100
00000001
00000100
00000010
00001000
00000010
00001000
00000100
00010000
00000100
00010000
00001000
00000000
00000000
00000000
,
00010000
01000000
10000000
00010000
10000000
01000000
00010000
00001000
,
00000200
00000000
00000000
00000000
00000320
00000000
00000000
00000000
00001030
00000000
00001000
00000000
00000001
00000010
00000001
00000010
,
00000001
00000100
00000100
00000100
00001000
00011000
00011000
00011000
,
00011000
00000000
00010000
00000000
01000000
00000000
10000000
00100000
01000000
00010000
10000000
00000000
00020000
00000000
00000000
00000000
,
10030000
00000000
00100000
00000000
01000000
10000000
01000000
00100000
01000000
00000000
00010000
00000000
10000000
01000000
10000000
00000000
,
00010000
00100000
01000000
00100000
00010000
00100000
01000000
00100000
00010000
01000000
00100000
10000000
00010000
00000000
00010000
00000000
,
10000000
00000000
01000000
00000000
00010000
00000000
00001000
00000000
00010000
00001000
00010000
00001000
00010000
00000000
00001000
00000000
,
00000100
00000010
00000100
00000010
00000100
00000001
00000100
00000001
00000010
00000100
00001000
00000100
00000010
00000000
00000000
00000000
,
00000001
00000000
00000100
00000000
00000010
00000000
00001000
00000001
00001000
00000000
00000001
00000000
00000010
00000000
00000100
00000000
00002000
00000000
00000010
00000000
00003100
00000000
00010000
00000000
00001000
00000000
00010000
00000000
01000000
00000000
01000000
00000000
,
10000000
00100000
00100000
00100000
00010000
00011000
00011000
00011000
,
00011000
00000000
00001000
00000000
00000010
00000000
00000001
00000100
00000010
00000000
00001000
00000000
00000110
00000000
00000000
00000000
,
00000001
00000100
00000001
00001000
00000000
00000000
00000001
00000010
00001000
00000010
00000001
00000010
00000001
00000000
00001001
00000000
00000000
00000000
00000001
00000100
00000001
00001000
00000100
00001000
,
00000100
00000000
00010000
00001000
00100000
00001000
00010000
00000000
00001000
01000000
00010000
00100000
00020000
00000000
00000000
10030000
00000000
10000000
00010000
01000000
10000000
01000000
00100000
01000000
,
00010000
00000000
00100000
00000000
01000000
00000000
00100000
00000000
00000000
00010000
00000000
00000000
10010000
00000000
00000000
00000000
10000000
00000000
01000000
00000000
10000000
00000000
00100000
00000000
01000000
00000000
00000000
00000000
00100000
00000000
10000000
00000000
00010000
00000000
10000000
00000000
01000000
00000000
00100000
00000000
01000000
00000000
00100000
00000000
00010000
00000000
00100000
00000000
,
00001000
00000000
00000000
00000000
00010000
00000000
00000000
00000000
00001000
00000000
00000000
00000000
00010000
00000000
00000000
00000000
00000100
00000000
00000000
00000000
00010000
00000000
00000000
00000000
00000100
00000000
00000000
00000000
00001000
00000000
00000000
00000000
00000001
00000000
00000000
00000000
00000100
00000000
00000000
00000000
00000001
00000000
00000000
00000000
00001000
00000000
00000000
00000000
00000001
00000000
00000000
00000010
00000000
00000000
00000001
00000000
00000000
00000010
00000000
00000000
00000001
00000000
00000000
00000000
00000000
00000000
00001000
00000000
00000000
00000001
00000000
00000000
00001000
00000000
00000000
00000100
00000000
00000000
00010000
00000000
00000000
00000000
00000000
00000000
00000100
00000000
00000000
00010000
00000000
00000000
00001000
00000000
00000000
00000000
00000000
00000000
,
00011000
00000000
00010000
01000000
10000000
00010000
01000000
00100000
,
00010000
00001000
00010000
01000000
10000000
00000000
00100000
01000000
,
00100000
00000000
10000000
00000000
01000000
00100000
01000000
00100000
02000000
00000000
00000000
00000000
03100000
00000000
00010000
00000000
,
01000000
00000000
10000000
01000000
00100000
00000000
10000000
01000000
00100000
00000000
00001000
00000000
00010000
00001000
00010000
00000000
,
00011000
00000000
00001000
00000100
00000001
00001000
00000100
00000010
,
00001000
00010000
00001000
00000010
00000001
00000100
00000010
00001000
,
00000200
00000000
00000000
00000000
00000000
00000000
00010300
00000000
00001000
00000000
00010000
00000000
00001000
00000000
00010000
00000000
00001000
00000000
00010000
00001000
00010000
00001000
00010000
00001000
,
00010000
01000000
00100000
01000000
10000000
00100000
02000000
00000000
03100000
00000000
10000000
00000000
00010000
00000000
00000001
00000000
,
00000100
00001000
00010000
10000000
01000000
00010000
00001000
00000100
,
00000010
10000000
00100000
00010000
00001000
10000000
00010000
00001000
,
00000001
00000000
00000000
00000000
00000000
00000000
00000000
00000000
00001001
00000001
00000100
00000001
00000020
00000000
00000031
00000000
,
00001000
00000000
00000010
00000000
00000100
00000000
00000010
00000000
00000001
00000000
00000010
00000000
00000100
00000000
00000010
00000000
00001000
00000000
00001000
00000000
00000100
00010000
00001000
00010000
00000100
00000000
00010000
00001000
00010000
00000000
00001000
00000000
,
00010000
00000000
01000000
10000000
00010000
00000000
01000000
00010000
00200000
00000000
00000000
00000000
00320000
00000000
00000000
00000000
10030000
00000000
00100000
00000000
01000000
00000000
10000000
00000000
01000000
00000000
00100000
00000000
10000000
00000000
01000000
00000000
,
00010000
00000000
00000000
00001000
00000000
00000000
00000100
00000000
00000000
00000001
00000000
00000000
00001000
00000000
00000000
00000010
00000000
00000000
00000100
00000000
00000000
00000100
00000000
00000000
00000001
00000000
00000000
00000000
00000001
00000000
00001000
00000000
00000100
00000000
00000010
00000000
00000001
00000000
00000000
00000000
00000100
00000000
00000010
00000000
00001000
00000000
00000100
00000000
,
00010000
00000000
00000000
00000000
00000000
00000000
00000000
00000000
00001000
00000000
00000000
00000000
00010000
00000000
00000000
00000000
01000000
00000000
00000000
00000000
10000000
00000000
00000000
00000000
00100000
00000000
00000000
01000000
00000000
00000000
00010000
00000000
00000000
10000000
00000000
00000000
00010000
00000000
00000000
00000000
00000000
00000000
00100000
00000000
00000000
00001000
00000000
00000000
00010000
00000000
00000000
00000000
00000000
00000000
00001000
00000000
00000000
00000000
00000000
00000000
00000100
00000000
00000000
00000000
00000000
00000000
00000010
00000000
00000000
00000000
00000000
00000000
00010000
00000000
00000000
00000000
00000000
00000000
00000000
00000000
00000000
00000000
00000000
00000000
00021000
00000000
00000000
00000000
00000000
00000000
00000000
00000000
00000000
00000000
00000000
00000000
,
00031000
00000000
00010000
00000000
01000000
00000000
00100000
00000000
00001000
00000000
00000000
00000000
00012000
00000000
00000000
00000000
00013000
00000000
01000000
00100000
01000000
00000000
00010000
00000000
01000000
00000000
00100000
01000000
00100000
00000000
00010000
00000000
,
00001000
00000000
00000010
00000100
00000010
00000000
00001000
00000000
00000010
00000000
00000100
00000010
00000100
00000000
00000001
00000000
00000100
00000000
00000001
00000010
00000001
00000000
00001000
00000010
00001000
00000000
00000001
00001000
00000001
00000000
00000100
00000000
,
00001000
00000000
00010000
00001000
00010000
00000000
00001000
00010000
00001000
00000000
00010000
00001000
00010000
00000000
01000000
00000000
10000000
00000000
10000000
00000000
00100000
00000000
00100000
00000000
00010000
00001000
00010000
00001000
00010000
00001000
00010000
00001000
,
00010000
00000000
00000000
00000000
00000000
00000000
00001000
00000000
00000000
00000100
00000000
00000000
00000000
00000000
00000000
00000010
00000000
00000000
00000100
00000000
00000000
00000010
00000000
00000000
00001000
00000000
00000000
00000000
00000000
00000000
00000000
00000000
00000001
00000000
00000000
00000000
00001000
00000000
00000000
00000000
00000000
00000000
00000000
00000000
00001000
00000000
00000000
00000000
00000001
00000000
00000000
00000000
00000000
00000000
00000000
00000000
00000000
00000000
00000000
00000000
00000000
00000000
00000000
00000000
00000010
00000000
00000000
00000000
00000000
00000000
00000000
00000000
00000001
00000000
00000000
00000000
00000000
00000000
00000000
00000000
00000000
00000000
00000000
00000000
00000000
00000000
00000000
00000000
00000010
00000000
00000000
00000000
00000000
00000000
00000000
00000000
,
00000100
00000000
00000010
00001000
00000000
00000010
00000001
00000000
00000001
00000100
00000000
00000100
,
00001000
00000000
00000000
00011000
00000000
00010000
01000000
00100000
01000000
00010000
01000000
00100000
,
00010000
00001000
00010000
00001000
00000000
00001000
00010000
00001000
00000100
00000010
00000100
00000001
,
00001000
00000000
00000000
00000000
00000000
00000000
00000001
00000000
00000000
00001000
00000000
00000000
00000001
00000000
00000000
00001000
00000000
00000000
00000000
00000000
00000000
00000000
00000000
00000000
00001001
00000000
00000000
00000000
00000000
00000000
00000000
00000000
00000000
00000000
00000000
00000000
00000001
00000000
00000000
00000000
00000000
00000000
00000000
00000000
00000010
00000000
00000000
00000000
,
00000100
00000000
00000010
00000001
00000000
00000010
00001000
00000000
00001000
00010000
00000000
00010000
,
00200000
00000000
10300000
00010000
00000000
10000000
01000000
00000000
00000000
00010000
01000000
00010000
,
00001000
00000000
00000100
00000000
00001000
00000000
00010000
00001000
00010000
00001000
00010000
00001000
00010000
00000000
01000000
10000000
00000000
10000000
00010000
00000000
00001000
00000002
00000000
00000000
,
00000103
00000000
00000001
00000000
00000010
00000001
00000000
00001000
00000001
00000000
00000100
00000000
00000001
00000010
00000000
00000001
,
00001000
00000100
00001000
00000100
00000010
00000001
00001000
00000000
00000001
00000010
00000001
00000010
00000100
00001000
00000001
00000000
,
00000100
00000000
00001000
00010000
00001000
00000000
00010000
00000000
00011000
00000000
00010000
00000000
01000000
10000000
00100000
01000000
,
00010000
00000000
00000000
00000000
01010000
00000000
00000000
00000000
10010000
00000000
00000000
00000000
10000000
00000000
00000000
00010000
00000000
00000000
01000000
00000000
00000000
01000000
00000000
00000000
,
10010000
10000000
11000000
01000000
01100000
00100000
00110000
00010000
,
10000000
00100000
10000000
00000000
00010000
00000000
10000000
00000000
01000000
00010000
01000000
00000000
00010000
00001000
00010000
00001000
,
00010000
00001000
00000100
00000001
00001000
00001001
00001001
00001001
,
00000001
00000000
00000000
00000010
00000000
00000000
00000100
00000000
00000000
00001000
00000000
00000000
00000001
00000000
00000000
00000010
00000000
00000000
00000100
00000000
00001000
00000000
00000100
00000000
00001000
00000000
00000000
00000001
00000000
00000000
00000100
00000000
00000000
00000000
00000000
00000000
00000001
00000000
00000000
00001000
00000000
00000000
00000010
00000000
00000000
00000100
00000000
00000000
,
00000002
00000000
00000000
00000000
00000013
00000001
00000010
00000100
00001000
00000000
00000001
00000100
00000001
00000000
00001000
00000000
,
00000001
00000100
00000001
00000100
00000010
00001000
00000010
00001000
00000100
00010000
00000100
00010000
00001000
00010000
00001000
00000000
,
00010000
00000000
00100000
00000000
10000000
00000000
01000000
00000000
10000000
00100000
01000000
00010000
10000000
00000000
01000000
00000000
,
10000000
00100000
10000000
00100000
01000000
00010000
01000000
00010000
00100000
00001000
00100000
00001000
00010000
00000000
00000000
00000000
,
00001000
00000000
00000010
00000000
00000001
00000000
00001000
00000000
00000001
00000000
00000010
00000000
00001000
00000000
00010000
00000000
00100000
01000000
00100000
01000000
00010000
10000000
00010000
10000000
01000000
00000000
01000000
00000000
00010000
00000000
00011000
00000000
,
00001000
00000100
00000100
00000100
00000101
00000101
00000011
00000011
,
00001001
00000000
00000001
00000000
00000100
00000000
00000001
00000010
00000100
00000010
00000001
00001000
00000001
00001000
00000001
00001000
,
00000001
00000100
00000001
00000100
00000001
00000100
00000001
00000100
00000010
00001000
00000010
00001000
00000010
00001000
00000010
00001000
,
00000001
00000010
00000100
00001000
00000001
00000010
00000100
00001000
00000001
00000000
00000100
00000000
00001000
00010000
00001000
00010000
,
01000000
10000000
01000000
10000000
01000000
10000000
01000000
10000000
00010000
10000000
00010000
10000000
00010000
10000000
00010000
10000000
,
01000000
00000000
00000000
00010000
00000000
00000000
00011000
00000000
00000000
00001000
00000000
00000000
00001010
00000000
00000000
00000000
00000110
00000000
00000000
00000000
00001001
00000000
00000000
00000000
,
00000101
00000001
00000101
00000001
00000101
00000100
00001100
00001000
,
00011000
00000000
00010000
00000000
01010000
00000000
01000000
00000000
11000000
00000000
10000000
00000000
00100000
01000000
00100000
01000000
,
00010000
00100000
01000000
00100000
10000000
00000000
00010000
01000000
00100000
01000000
10000000
00000000
00100000
00000000
00010000
00000000
,
00011000
00000000
00001000
00000100
00000001
00000100
00000010
00000000
00001000
00000100
00000010
00000001
00001000
00000001
00000100
00001000
,
00010000
01000000
00100000
01000000
10000000
00100000
00010000
00100000
10000000
01000000
00020000
00000000
00032000
00000000
00013000
00000000
,
00001000
00000100
00000010
00000100
00000001
00000010
00000100
00000010
00001000
00001000
00010000
00010000
01000000
00100000
00001000
00010000
;
