#TITLE:Onyx;
#ARTIST:BEMANI Sound Team "HuΣeR";
#ARTISTTRANSLIT:HuΣeR;
#BANNER:Onyx.png;
#BACKGROUND:Onyx-bg.png;
#JACKET:Onyx-jacket.png;
#CDTITLE:./CDTITLES/BEATMANIA IIDX.PNG;
#MUSIC:Onyx.ogg;
#SAMPLESTART:84.137;
#SAMPLELENGTH:15;
#BPMS:0=174,50=43.5,50.5=174,240.5=43.5,241=174;
#BGCHANGES:0=../../../BGAs/28bk.mp4=1=0=0=1=====;

//---------------dance-single - t7r----------------
#NOTES:
     dance-single:
     t7r:
     Beginner:
     5:
     :
0000
0000
0000
0000
,
0000
0000
0000
0000
,
0000
0000
0000
0000
,
0000
0000
0000
0000
,
0000
0000
0000
0000
,
0000
0000
0000
0000
,
0000
0000
0000
0000
,
0001
0000
0000
0000
,
0000
1000
0000
0000
,
0000
0000
0010
0010
,
0010
0000
0000
0000
,
0000
0100
0000
0000
,
0000
0000
0000
0000
0001
0001
0000
0000
,
0000
0000
0000
0000
0000
0000
0000
1000
,
0000
0000
0000
0000
,
0000
0000
0000
0000
0000
0010
0000
0000
,
0000
0000
0000
0000
0000
0000
0000
0100
,
0000
0000
0000
0000
,
0000
0000
0000
0000
0000
0010
0000
0000
,
0000
0000
0000
0000
0000
0000
0000
1000
,
0000
0000
0000
0000
,
0000
0000
0000
0000
0000
0100
0000
0000
,
0000
0000
0000
0000
0000
0000
0000
0010
,
0000
0000
0000
0000
,
0000
0000
0000
0000
0000
0001
0000
0000
,
0000
0001
0000
0000
0000
0001
0000
0000
,
0000
0000
0000
0000
0000
1000
0000
0000
,
0000
1000
0000
0000
0000
1000
0000
0000
,
0000
0000
0000
0000
0000
0010
0000
0010
,
0000
0010
0000
0000
0000
0100
0000
0100
,
0000
0100
0000
0000
0000
0001
0000
0001
,
0000
0001
0000
0001
0000
0001
0000
0000
,
0000
0000
0000
0000
0000
1000
0000
0000
,
0000
0000
0000
0010
0000
0010
0000
0010
,
0000
0010
0000
0010
0000
0000
0000
1000
,
0000
1000
0000
1000
0000
1000
0000
0000
,
0000
0001
0000
0000
0000
0010
0000
0000
,
0000
0001
0000
0001
0000
0001
0000
0001
,
0000
0001
0000
0000
0000
1000
0000
0000
,
0000
1000
0000
0000
0000
0010
0000
0010
,
0000
0010
0000
0000
0000
0100
0000
0000
,
0000
0010
0000
0010
0000
0010
0000
0010
,
0000
0010
0000
0010
0000
0000
0000
1000
,
0000
1000
0000
1000
0000
1000
0000
0000
,
0000
0001
0000
0001
0000
0001
0000
0000
,
0000
0010
0000
0010
0000
0010
0000
0010
,
0000
0010
0000
0000
0000
0001
0000
0000
,
0000
0001
0000
0000
0000
1000
0000
1000
,
0000
1000
0000
0000
0000
0010
0000
0000
,
0000
0000
0000
0000
0000
0000
0000
0100
,
0000
0000
0000
0000
,
0000
0000
0000
0000
0000
0001
0000
0000
,
0000
0000
0000
0000
0000
0000
0000
0010
,
0000
0000
0000
0000
,
0000
0000
0000
0000
0000
0100
0000
0000
,
0000
0000
0000
0000
0000
0000
0000
1000
,
0000
0000
0000
0000
,
0000
0000
0000
0000
0000
0010
0000
0000
,
0000
0000
0000
0000
0000
0000
0000
0100
,
0000
0000
0000
0000
,
0000
0001
1000
0000
0000
0000
0000
0000
,
0000
0000
0010
0000
,
0000
0100
0000
0000
,
0000
0001
0000
0000
,
0000
0000
0010
0000
,
0000
0100
0000
0000
,
0000
0010
0000
0001
,
0001
0000
1000
0000
,
0010
0010
0000
0100
,
0100
0100
0000
0010
,
0010
0000
1000
0000
,
0000
0001
0000
0010
,
0000
0010
0000
0000
,
0001
0000
0000
1000
,
0000
0000
0000
0000
,
0000
0010
0000
0000
,
0100
0000
0000
0001
,
0000
0000
0000
1000
;

//---------------dance-single - t7r----------------
#NOTES:
     dance-single:
     t7r:
     Easy:
     8:
     :
0000
0000
0000
0000
,
0000
0000
0000
0000
,
0000
0000
0000
0000
,
0000
0000
0000
0000
,
0000
0000
0000
0000
,
0000
0000
0000
0000
,
0000
0000
0000
0000
,
2000
0000
3000
0000
0000
0002
0000
0003
,
0000
0000
0200
0000
0300
0000
0000
0020
,
0000
0030
0000
0000
1000
0000
1000
0000
,
0002
0000
0003
0000
0000
0020
0000
0030
,
0000
0200
0300
0000
,
1000
0000
0001
0000
2000
3010
0000
0010
,
0000
0100
0000
0001
0000
0010
0000
0100
,
0000
1000
0000
0001
0000
1000
0000
0100
,
0000
0010
0000
0001
0000
0100
0000
0100
,
0000
0010
0000
1000
0000
0100
0000
0010
,
0000
0001
0000
1000
0000
0001
0000
0010
,
0000
0100
0000
1000
0000
0010
0000
0010
,
0000
0001
0000
0010
0000
1000
0000
0001
,
0000
1000
0000
0100
0000
0010
0000
0001
,
0000
1000
0000
0100
0000
0001
0000
0001
,
0000
0100
0000
1000
0000
0010
0000
0100
,
0000
0001
0000
1000
0000
0001
0000
0010
,
0000
0100
0000
1000
0000
0002
0000
0103
,
0000
0002
0000
0013
0000
0002
0000
0103
,
0000
0001
0000
1001
0000
2000
0000
3100
,
0000
2000
0000
3010
0000
2000
0000
3100
,
0000
1000
0000
1001
0000
1000
0000
0020
,
0000
0130
0000
0001
0000
0010
0000
0200
,
0000
1300
0000
0001
0000
0100
0000
0100
,
0000
0010
0100
0010
0000
2002
0000
0000
,
0000
0000
0000
3003
0000
2010
0000
3001
,
0000
1000
0000
0001
0000
0001
0000
0001
,
0000
0101
0000
0001
0000
1000
0000
0100
,
0000
1100
0000
1000
0000
1000
0000
1000
,
0000
0100
0000
0010
0000
2002
0000
3003
,
0000
1010
0000
0010
0000
0010
0000
0010
,
0000
1010
0000
1000
0000
0001
0000
0010
,
0000
0100
0000
1000
0000
0001
0000
0100
,
0000
1000
0000
0100
0000
0120
0000
1030
,
0000
0001
0000
1001
0000
0001
0000
1001
,
0000
0001
0000
1000
0000
0100
0000
1000
,
0000
1100
0000
1000
0000
1100
0000
1000
,
0000
0010
0000
0100
0000
0210
0000
0000
,
0000
0301
0000
0010
0000
0011
0000
0001
,
0000
0011
0000
0010
0000
0001
0000
0100
,
0000
0010
0000
1000
0000
0100
0010
0100
,
0000
0220
0000
0330
0000
0001
0000
1000
,
0000
0010
0000
1000
0000
0100
0000
0010
,
0000
0001
0000
0001
0000
0100
0000
0010
,
0000
0010
0000
1000
0000
0001
0000
1000
,
0000
0100
0000
1000
0000
0010
0000
0100
,
0000
0001
0000
0001
0000
0010
0000
0100
,
0000
0100
0000
1000
0000
0001
0100
0001
,
0000
2000
0000
0010
0000
3001
0000
1000
,
0100
1000
0000
0002
0000
0010
0000
1003
,
0000
0001
0000
1000
0000
0001
1000
0200
,
0000
0010
0000
0301
0000
0100
0000
1000
,
0001
0020
0000
0001
0000
0130
0000
1000
,
0000
0020
0130
0000
0100
0000
0010
0000
,
0010
0000
1000
0001
1000
0000
0001
0000
,
0010
0100
1000
0010
,
0100
0010
0010
0100
,
0100
0000
0001
1000
0001
0000
1000
0000
,
0100
0010
0001
0100
,
0010
2000
0000
3001
,
0010
1000
0010
0001
,
0100
0020
1030
0010
,
0100
0002
0000
1003
,
0100
0001
1000
0010
,
0001
0000
0100
0000
0010
0000
1000
0100
,
0010
0001
1000
0000
0100
0000
0010
0000
,
1000
0010
0100
1000
,
0100
0010
1000
0010
,
0001
0000
1000
0000
0010
0100
0000
0001
,
0000
0010
0100
0000
1000
0000
0010
0100
,
0000
0001
0000
1000
0001
0000
0100
0010
,
0100
0010
0100
0000
0000
0000
0000
0000
;

//---------------dance-single - t7r----------------
#NOTES:
     dance-single:
     t7r:
     Medium:
     12:
     :
0000
0000
0000
0000
,
0000
0000
0000
0000
,
0000
0000
0000
0000
,
0000
0000
0000
0000
,
0000
0000
0000
0000
,
0000
0000
0000
0000
,
0000
0000
0000
0000
,
2000
0000
0010
0000
3001
2000
0100
0000
,
3001
0000
2000
0000
0100
0000
3010
0200
,
0000
0000
0000
0301
1000
0000
1001
0000
,
0002
0000
0010
0000
1003
0002
0100
0000
,
1003
0000
0002
0000
0100
0000
0013
0100
,
1000
0000
0000
0001
0000
0000
1000
0000
0020
0000
1030
0000
0000
0000
0100
0000
,
0000
0010
0000
0100
0000
1000
0010
1000
,
0000
0001
0000
0010
0000
0001
0000
0100
,
0010
0100
0000
0001
0010
0001
0000
0100
,
0000
0010
0000
0100
0000
0001
0010
0001
,
0000
1000
0000
0010
0000
1000
0000
0100
,
0010
0100
0000
1000
0010
1000
0000
0100
,
0000
0001
0000
0100
0000
1000
0001
1000
,
0000
0001
0000
0100
0000
1000
0000
0100
,
0001
0100
0000
0001
0010
0001
0000
0010
,
0000
1000
0000
0010
0000
0001
1000
0001
,
0000
1000
0000
0010
0000
0001
0000
0010
,
1000
0010
0000
1000
0100
0020
0000
0031
,
0000
0002
0000
0103
0000
0200
0000
1300
,
0000
2000
0000
3100
0000
0200
0000
0310
,
0000
0020
0000
1030
0000
2000
0000
3100
,
0000
0200
0000
0301
0000
0100
1000
0002
,
0000
0000
0103
0000
0000
0010
0000
0000
0100
0000
0001
0000
0000
0000
2000
0000
,
0000
0000
3010
0000
0000
1000
0000
0000
0010
0000
0100
0000
0010
0000
0100
0000
,
0000
0001
1000
0001
0000
1000
0000
0100
,
0000
0001
0000
0010
0000
2001
0000
3010
,
0000
0000
0000
1000
0000
1000
0100
0100
,
0000
1001
0000
1000
0000
0001
0000
1000
,
0000
1001
0000
0001
0000
0001
0100
0100
,
0000
0001
0010
0100
0000
2000
0000
3010
,
0000
1001
0000
1000
0000
1000
0010
0010
,
0000
1001
0000
0001
0000
1000
0100
0020
,
0000
0000
0031
0000
0000
0100
0000
0000
0001
0000
0010
0000
0100
0000
1000
0000
,
0000
0010
0100
0001
0000
0200
0000
0310
,
0000
1001
0000
1000
0000
0100
0001
0100
,
0000
1100
0000
1000
0000
0001
0000
1000
,
0000
1001
0000
0001
0000
0100
1000
0100
,
0000
0001
0010
0100
1000
0020
0000
0030
,
0000
1001
0000
1000
0000
0010
0001
0010
,
0000
1010
0000
1000
0000
0001
0010
0002
,
0000
0000
1003
0000
0000
0010
0000
0000
1000
0000
0100
0000
0010
0000
0001
0000
,
0000
0100
0010
1000
0000
0002
0000
0010
,
0000
1003
0002
0100
0000
1003
0000
0002
,
0000
0010
0000
0103
0020
1000
0000
0130
,
0001
0100
0000
0001
0000
2000
0000
0010
,
0000
3001
2000
0100
0000
3001
0000
2000
,
0000
0010
0000
3100
0020
0001
0000
0130
,
1000
0100
0000
1000
0000
0020
0000
1030
,
0000
0100
0000
0001
0000
0100
1000
0001
,
1000
0100
0000
1000
0000
0010
0000
0001
,
0010
0010
0000
0100
0001
1000
0010
0100
,
0000
0001
0000
0010
0000
1000
0010
0001
,
0100
0000
0010
0000
0000
0000
0100
0000
0000
0000
0001
0000
0000
1000
0000
0000
,
0001
0200
0310
0000
1010
0000
1100
0000
,
1001
0000
1000
0100
0010
0000
0011
0000
,
1001
0000
0002
0000
0103
1000
0100
0000
,
0001
1000
0001
0000
0011
0000
0101
0000
,
1001
0000
0001
0100
0010
0000
1010
0000
,
1001
0000
2000
0000
3100
0001
0100
0000
,
1000
0001
2000
0000
0000
3010
0100
0001
,
0100
0010
1000
0001
1000
0100
0010
0000
,
0001
0100
0020
0000
1030
0001
0010
0001
,
0100
0010
2000
0000
0000
3001
0010
0100
,
0010
0000
1000
0010
0001
0000
0010
0001
,
1000
0000
0001
0100
1000
0100
0001
0010
,
0100
1000
0010
0000
0100
0001
0100
0020
,
0000
1030
0100
1000
0002
0000
0013
0001
,
0010
0200
0000
0310
0001
1000
0000
0001
,
0100
0010
0000
1000
0010
0100
0020
0000
,
1030
0001
0100
0002
0000
1003
0100
0010
,
0002
0000
0103
0010
0100
0001
2000
3020
,
0230
0302
1003
0000
0000
0000
0000
0000
;

//---------------dance-single - t7r----------------
#NOTES:
     dance-single:
     t7r:
     Hard:
     15:
     :
0000
0000
0000
0000
,
0000
0000
0000
0000
,
0000
0000
0000
0000
,
0000
0000
0000
0000
,
0000
0000
0000
0000
,
0000
0000
0000
0000
,
0000
0000
0000
0000
,
1000
0001
0100
0010
1000
0200
0000
0310
,
0001
1000
0020
0000
0130
0001
1000
0200
,
0000
0310
0001
0100
0010
0000
0110
0000
,
0001
1000
0100
0010
0001
0200
0000
0310
,
1000
0001
0020
0000
0130
1000
0001
0100
,
0010
0000
1000
0100
0000
1000
0001
0000
0200
0010
0310
0000
0000
0000
1010
0000
,
0000
1100
0000
0011
0000
1000
0100
0100
,
0000
1100
0000
0011
0000
1010
0000
0001
,
0100
0010
0100
0001
1000
0001
0000
0011
,
0000
1001
0000
1010
0000
1000
0100
0100
,
0000
0110
0000
0011
0000
1001
0000
0001
,
0100
0010
1000
0001
1000
0001
0010
0100
,
0010
0001
1000
0001
0000
1000
0010
0010
,
1000
0100
0010
0100
1000
0010
0000
0100
,
0001
1000
0000
0001
1000
0100
0010
0100
,
1000
0010
0100
0010
0000
1000
0100
0100
,
0000
0010
0100
1000
0010
0100
0000
0001
,
0010
0100
1000
0010
0100
0101
0000
0011
,
0000
0000
1001
0000
0000
0001
1000
0000
0100
0000
1000
0010
0000
0000
1010
0000
,
0000
0000
0110
0000
0000
0010
1000
0000
0001
0000
1001
0000
0000
0000
1100
0000
,
0000
0000
0110
0000
0000
0010
0100
0000
1000
0000
0010
0100
0000
0000
0110
0000
,
0000
0000
0101
0000
0000
0001
1000
0000
0001
0010
0001
0000
0100
0000
0020
0000
,
0000
0000
0032
0000
0000
0023
0000
0000
1030
0001
1000
0000
0100
0000
0020
0000
,
0000
0000
2030
0000
0000
3020
0000
0000
0031
1000
0001
0000
0001
0000
0100
0000
,
0100
0000
0001
0010
0001
0010
0100
1000
0100
1000
0010
0000
0100
0001
2000
0000
,
0000
0000
3001
0010
0100
1000
0001
0010
0100
1000
0020
0000
0000
0000
0130
0000
,
0000
0000
1001
0000
0000
0000
2000
3000
0000
0000
2000
3000
0100
0000
0100
0000
,
0000
0000
2001
3000
0000
0000
2000
3000
0000
0000
0110
0000
0000
0000
0002
0003
,
0000
0000
1002
0003
0000
0000
0002
0003
0000
0000
0002
0003
0100
0000
0100
0000
,
0000
0000
0001
0010
0100
1000
0001
0010
0100
1000
0020
0000
0000
0000
0030
0000
,
0000
0000
2001
3000
0000
0000
2000
3000
0000
0000
2000
3000
0010
0000
0010
0000
,
0000
0000
2001
3000
0000
0000
2000
3000
0000
0000
0001
0000
0010
0000
0200
0000
,
0000
0000
0302
0000
0000
0203
0000
0000
1300
0010
0100
0000
0100
0000
0010
0000
,
0010
0000
1000
0100
0010
0001
1000
0100
0010
0001
0200
0000
0000
0000
0301
0000
,
0000
0000
1020
0030
0000
0000
0002
0003
0000
0000
0002
0003
0100
0000
0101
0000
,
0000
0000
2001
3000
0000
0000
2000
3000
0000
0000
0110
0000
0000
0000
1000
0000
,
0000
0000
0201
0300
0000
0000
2000
3000
0000
0000
2000
3000
0010
0000
1010
0000
,
0000
0000
0001
0100
0010
1000
0001
0100
0010
1000
0200
0000
0000
0000
0300
0000
,
0000
0000
0021
0030
0000
0000
2000
3000
0000
0000
2000
3000
0001
0000
0011
0000
,
0000
0000
1002
0003
0000
0000
0002
0003
0000
0000
1000
0000
0010
0000
0200
0000
,
0000
0000
2300
0000
0000
3200
0000
0000
0310
1000
0001
0010
0100
1000
0010
0000
,
0100
0001
1000
0000
0010
0000
1000
0000
0100
0000
0020
0000
0000
0000
0100
0000
,
0000
1030
0020
0001
0000
0130
1000
0020
,
0000
0100
0000
0031
0020
1000
0000
0130
,
0001
0020
0000
0031
1000
0200
0000
0010
,
0000
0301
0200
1000
0000
0310
0001
0200
,
0000
0010
0000
1300
0200
0001
0000
0310
,
1000
0100
1000
0001
1000
0002
0023
0230
,
0000
1300
0020
0230
0302
1003
0010
0020
,
2030
3200
0000
2300
3002
0023
0000
0031
,
0100
0200
0000
0320
2030
3002
0203
2300
,
0000
3100
0002
2003
3200
0302
0203
2300
,
3020
0000
0230
0000
0000
0000
1300
0000
0100
0010
1000
0000
0000
1010
0000
0000
,
0110
0000
0020
0100
1030
0000
0100
1000
0001
0000
0100
0001
1000
0000
0001
0000
,
0010
0000
0001
0000
0100
0000
0010
0000
0110
0000
0000
0000
0001
0000
0010
0100
,
1000
0000
0010
0100
0001
0000
0100
0000
0010
0000
1000
0000
0100
0000
0001
0000
,
1000
0000
0010
0000
0001
0000
0100
0001
1000
0000
0100
1000
0001
0000
1000
0000
,
0010
0000
1000
0000
0100
0000
0010
0000
0110
0000
0000
0000
1000
0000
0010
0100
,
0001
0000
0010
0100
1000
0000
0100
0000
0010
0000
0001
0100
0001
0000
1000
0010
,
1000
0100
0010
0001
0200
0000
0000
0000
0000
0000
1300
0000
0100
0000
0010
0000
,
1000
0001
0010
0100
0110
0100
1000
0010
,
0100
0000
0001
0000
0020
0000
0000
0000
0031
1000
0001
0010
0100
1000
0010
0100
,
0001
1000
0100
0010
0002
0000
0000
0000
0000
0000
0000
0000
0103
0000
0001
0000
,
0100
1000
0001
0010
1010
1000
0100
0010
,
0001
0000
1000
0000
0020
0000
0230
0000
0302
0000
2003
0000
3100
0010
0001
1000
,
0010
0100
0001
1000
0001
0000
0010
0000
0200
0000
2300
0000
3002
0000
0103
0000
,
0010
2000
3002
0203
0310
1000
0002
2003
,
3020
0130
0001
2000
3200
0320
0031
1000
,
0002
0203
0301
0010
0200
0302
2003
3010
,
0100
2000
3020
0230
1300
0001
0020
2030
,
3002
0000
0013
0000
0001
0000
2000
0000
3020
0000
0230
0000
0301
0010
0200
1300
,
0020
0130
0002
1003
0100
0000
0000
0000
0000
0000
0000
0000
0000
0000
0000
0000
;

//---------------dance-single - t7r----------------
#NOTES:
     dance-single:
     t7r:
     Challenge:
     16:
     :
0000
0000
0000
0000
,
0000
0000
0000
0000
,
0000
0000
0000
0000
,
0000
0000
0000
0000
,
0000
0000
0000
0000
,
0000
0000
0000
0000
,
0000
0000
0000
0000
,
0001
0000
0010
0000
0100
0000
0010
0001
1000
0000
0001
0000
1000
0000
0010
0000
,
0100
0010
1000
0000
0001
0000
1000
0100
0010
0000
0001
0000
0001
0000
0100
0000
,
0010
0000
0100
0000
0001
0000
1000
0010
0100
0000
0001
0000
0020
0000
0000
0000
,
0031
0000
0100
0000
0010
0000
0100
0001
1000
0000
0100
0000
0001
0000
0100
0000
,
1000
0000
0001
0010
0100
0000
1000
0010
0100
0000
0101
0000
0001
0000
1000
0000
,
0010
0000
0100
0001
0000
0100
1000
0000
0200
0310
1001
0000
0000
0000
1000
0000
,
0100
1000
0000
0001
1000
0000
0001
0000
0100
0000
0010
0000
0100
0000
0101
0000
,
0000
1001
1000
0100
0010
1000
0010
0100
,
1000
0001
0100
0000
0001
0000
1000
0000
0010
0000
0110
0000
0000
0000
1001
0000
,
0001
0100
0000
0001
1000
0000
0001
0000
0100
0000
0010
0000
0100
0001
1000
0000
,
0100
1000
0001
0000
1000
0000
0010
0000
0110
0000
0010
1000
0000
1000
0100
0010
,
0000
0010
0001
0000
0100
0000
0010
0000
1000
0000
1001
0000
0001
0000
0100
0000
,
0010
0100
0001
0000
0010
0100
1000
0000
0001
0000
0010
0000
0100
0000
0101
0000
,
0001
0100
0010
0000
0001
0000
0100
0000
1100
0000
1000
0000
0100
0010
1000
0000
,
0010
1000
0001
0000
1001
0000
1000
0000
0010
0000
0110
0000
0100
0010
1000
0000
,
0100
0010
0001
0000
0010
0000
0100
0000
0001
0000
0100
0000
1000
0000
1010
0000
,
1000
0000
0010
0000
0100
1000
0100
0000
0010
0000
1000
0000
0100
0000
0010
0000
,
0001
0000
0100
0000
0010
1000
0001
0000
0010
0000
0021
0000
0001
1000
0030
0000
,
1000
0000
1020
0000
1000
0001
0030
0000
0001
0000
0021
0000
0001
1000
0030
0000
,
1000
0000
1020
0000
1000
0001
0030
0000
0001
0000
0201
0000
0001
1000
0300
0000
,
1000
0000
1200
0000
1000
0001
0300
0000
0001
0000
0201
0000
0001
1000
0300
0000
,
1000
0000
1200
0000
1000
0001
0300
0000
0001
1000
0001
0000
0010
0100
2000
0000
,
0010
0000
3002
0000
0103
1000
0000
0100
0010
0100
0001
0000
0010
0100
2000
0000
,
0100
0000
3002
0000
0013
0100
0000
0010
0001
1000
0001
0000
0100
0000
0100
0000
,
0100
0000
0001
0010
0100
1000
0001
0100
0010
1000
0100
0000
0001
0100
2000
0000
,
0000
0000
3010
0100
0001
0100
0010
0100
1000
0100
0020
0000
0000
0000
0001
0000
,
0000
0000
1030
0000
0000
0000
2002
3003
0000
0000
2001
0000
3100
0000
1100
0000
,
0000
0000
2002
3003
0000
0000
2002
3003
0000
0000
1010
0000
0000
0000
0220
0330
,
0000
0000
2002
3003
0000
0000
2002
3003
0000
0000
1002
0000
0103
0000
0101
0000
,
0000
0000
0100
0010
0100
0001
0100
0010
0100
1000
0200
0000
0000
0000
1300
0000
,
0000
0000
0202
0303
0000
0000
2002
3003
0000
0000
2001
0000
3100
0000
1100
0000
,
0000
0000
2020
3030
0000
0000
2020
3030
0000
0000
0010
0000
0001
0010
0100
0000
,
0001
0010
0100
0000
0001
0100
0010
0000
0001
1000
0001
0000
0100
0000
0100
0000
,
1000
0000
0100
0010
0100
1000
0100
0010
0100
0001
0200
0000
0000
0000
0310
0000
,
0000
0000
2002
3003
0000
0000
0202
0303
0000
0000
1002
0000
0103
0000
0202
0303
,
0000
0000
2002
3003
0000
0000
2002
3003
0000
0000
1100
0000
0000
0000
2020
3030
,
0000
0000
2002
3003
0000
0000
2002
3003
0000
0000
2100
0000
3010
0000
1010
0000
,
0000
0000
1000
0100
0010
0100
0001
0100
0010
0100
2000
0000
0001
0000
3100
0000
,
0000
0000
1001
0000
0000
0000
0202
0303
0000
0000
1002
0000
0013
0000
0011
0000
,
0000
0000
2002
3003
0000
0000
2200
3300
0000
0000
0100
0000
0010
0100
1000
0000
,
0010
0100
1000
0000
0100
0001
1000
0000
0001
1000
0001
0000
0100
1000
0100
0000
,
0001
0020
0230
2300
3002
0023
0000
1000
,
0000
0130
1000
0000
0020
0000
0001
0000
0000
0000
0130
0000
0010
0000
1000
0000
,
0100
0010
0100
0000
0010
0000
0010
0000
1000
0000
0010
0000
0001
0000
0100
0000
,
0001
1000
0010
0000
1000
0000
0001
0000
0100
0000
0020
0000
1000
0000
0100
0000
,
0000
0031
0010
0000
0100
0000
0020
0000
0000
0000
1030
0000
0100
0010
0001
0000
,
0100
0010
1000
0000
0001
1000
0001
0010
0000
0010
0100
1000
0000
1000
0010
0100
,
0000
0100
0010
0000
1000
0000
0010
0000
0010
0000
0100
0000
0001
0000
0010
0000
,
0001
1000
0100
0000
1000
0001
0010
0000
0001
0000
0100
0000
0010
0000
0100
0000
,
1000
0100
1000
0000
0100
0000
0100
0000
0001
0000
0010
0000
0100
0000
1000
0000
,
0010
1000
0001
0000
0010
0000
0100
0000
1000
0000
0100
0000
0010
0000
0100
0000
,
0001
0100
0001
0000
0100
0000
1000
0000
0010
0000
0100
0000
1000
0100
0010
0000
,
0100
0000
0001
0010
0001
1000
0010
0000
0100
0000
0110
0000
0001
0100
0000
0100
,
1000
0000
0210
0310
1001
0000
1000
0100
0010
0000
0001
0100
0010
0000
1000
0000
,
0100
0000
0001
0000
0100
0000
1100
0000
1100
0000
1000
0010
0100
0000
0001
0010
,
0100
0000
0110
0000
0010
0000
0001
0000
0100
0000
0010
1000
0001
0000
0011
0000
,
0001
0000
1000
0000
1001
0000
0001
0010
0100
0000
1000
0010
0100
0000
0001
0000
,
0010
0000
1000
0000
0010
0000
0011
0000
0011
0000
0001
1000
0010
0100
0000
0001
,
1000
0000
1010
0000
0010
0100
0000
0100
1000
0100
0000
0100
0001
0100
0000
0100
,
0010
1000
0001
0100
0020
0000
0000
0000
0130
0000
1000
0100
0010
0000
0100
0000
,
0001
0000
0010
0000
1000
0000
1010
0000
0110
0000
0010
0001
1000
0000
0010
0000
,
0100
0000
0101
0000
0002
0000
0000
0000
1003
0000
0001
0010
0100
1000
0010
0100
,
0001
1000
0100
0010
0002
0000
0000
0000
0013
0000
1000
0010
0100
0000
1000
0000
,
0010
0000
0001
0000
0010
0000
0110
0000
1010
0000
1000
0000
0100
0000
0010
0001
,
1000
0000
1001
0000
0002
0000
2003
0000
3020
0000
0230
0000
0301
0010
0100
1000
,
0010
0100
0001
1000
0100
0000
1000
0000
0020
0000
0032
0000
2003
0000
3100
0000
,
0001
0020
2030
3002
0103
1000
0020
0230
,
2300
3100
0001
0020
0230
0302
0103
0020
,
0032
2003
3001
0100
0020
0032
2003
3100
,
0010
2000
3020
0230
0301
0010
0200
0302
,
2003
0000
0000
0000
3010
0000
0000
0000
0002
0000
0000
0000
0203
0000
0000
0000
0320
0000
0000
0000
2030
0000
0000
0000
3002
0003
0200
0300
2000
0000
3200
0300
,
0020
0000
2030
3000
0002
0000
0023
0030
0100
0000
0000
0000
0000
0000
0000
0000
0000
0000
0000
0000
0000
0000
0000
0000
0000
0000
0000
0000
0000
0000
0000
0000
;

//---------------dance-double - t7r----------------
#NOTES:
     dance-double:
     t7r:
     Easy:
     7:
     :
00000000
00000000
00000000
00000000
,
00000000
00000000
00000000
00000000
,
00000000
00000000
00000000
00000000
,
00000000
00000000
00000000
00000000
,
00000000
00000000
00000000
00000000
,
00000000
00000000
00000000
00000000
,
00000000
00000000
00000000
00000000
,
02000000
00000000
03000000
00000000
00000000
00020000
00000000
00030000
,
00000000
00000000
00200000
00000000
00300000
00000000
00000000
00002000
,
00000000
00003000
00000000
00000000
00010000
00000000
00001000
00000000
,
00000020
00000000
00000030
00000000
00000000
00000002
00000000
00000003
,
00000000
00000000
00000200
00000000
00000300
00000000
00000000
00000020
,
00000000
00000030
00000000
00000000
00020000
00031000
00000000
00001000
,
00000000
00010000
00000000
01000000
00000000
00000000
00000000
10000000
,
00000000
10000000
00000000
00100000
00000000
01000000
00000000
00010000
,
00000000
00100000
00000000
00000000
00000000
00001000
00000000
00001000
,
00000000
00010000
00000000
00000010
00000000
00000000
00000000
00000100
,
00000000
00000001
00000000
00000100
00000000
00000010
00000000
00001000
,
00000000
00000100
00000000
00000000
00000000
00010000
00000000
00010000
,
00000000
00100000
00000000
10000000
00000000
00000000
00000000
01000000
,
00000000
01000000
00000000
00100000
00000000
00001000
00000000
00000000
,
00000000
00010000
00000000
00001000
00000000
00010000
00000000
00010000
,
00000000
00001000
00000000
00000010
00000000
00000000
00000000
00000001
,
00000000
00000100
00000000
00000001
00000000
00000010
00000000
00000100
,
00000000
00010000
00000000
00001000
00000000
00020000
00000000
00030000
,
00000000
00100000
00000000
00000000
00000000
10000000
00000000
01000000
,
00000000
00100000
00000000
00000000
00000000
00020000
00000000
00030000
,
00000000
00100000
00000000
00000000
00000000
00001000
00000000
00010000
,
00000000
00000100
00000000
00001000
00000000
00000000
00000000
00000010
,
00000000
00000100
00000000
00000001
00000000
00000000
00000000
00000010
,
00000000
00000100
00000000
00010000
00000000
00001000
00000000
00001000
,
00000000
00010000
00000000
01000000
00000000
20000000
00000000
00000000
,
00000000
30100000
00000000
01000000
00000000
02100000
00000000
03010000
,
00000000
00000000
00000000
10000000
00000000
10000000
00000000
10000000
,
00000000
10000000
00000000
10000000
00000000
00000000
00000000
01000000
,
00000000
01000000
00000000
01000000
00000000
00010000
00000000
00010000
,
00000000
00001000
00000000
00001000
00000000
00000200
00000000
00000300
,
00000000
00000001
00000000
00000001
00000000
00000001
00000000
00000001
,
00000000
00000001
00000000
00000001
00000000
00000010
00000000
00000100
,
00000000
00001000
00000000
00000000
00000000
00000100
00000000
00010000
,
00000000
00001000
00000000
00010000
00000000
00200000
00000000
00300000
,
00000000
10010000
00000000
10000000
00000000
01000000
00000000
10000000
,
00000000
11000000
00000000
10000000
00000000
00000000
00000000
01000000
,
00000000
00010000
00000000
00010000
00000000
00011000
00000000
00001000
,
00000000
00000100
00000000
00000001
00000000
00000020
00000000
00000030
,
00000000
00000001
00000000
00000100
00000000
00000101
00000000
00000001
,
00000000
00001001
00000000
00001000
00000000
00000100
00000000
00001000
,
00000000
00010000
00000000
00100000
00000000
00010000
00000000
10000000
,
00000000
00200000
00000000
00300000
00000000
20000000
00000000
30000000
,
00000000
00000000
02000000
00000000
03000000
00000000
00000000
00200000
,
00000000
00300000
00000000
00000000
00002000
00000000
00003000
00000000
,
00000000
00010000
00000000
00001000
00000000
00000020
00000000
00000030
,
00000000
00000000
00000002
00000000
00000003
00000000
00000000
00000200
,
00000000
00000300
00000000
00000000
00000020
00000000
00000030
00000000
,
00000000
00001000
00000000
00000100
00000000
00010000
00000000
00001000
,
00000000
00010000
00000000
00100000
00000000
00000000
00000000
10000000
,
00000000
01000000
00000000
00100000
00000000
00010000
00000000
00000000
,
00000000
01000000
00000000
00010000
00000000
00100000
00000000
00001000
,
00000000
00010000
00000000
00001000
00000000
00000000
00000000
00000010
,
00000000
00000001
00000000
00000100
00000000
00000010
00000000
00001000
,
00000000
00000200
00010300
00000000
00001000
00000000
00010000
00000000
,
00010000
01000000
10000000
00010000
,
10000000
00100000
01000000
00010000
,
00200000
00301000
00010000
00001000
,
00001000
00000100
00000001
00001000
,
00000001
00000010
00000100
00001000
,
00000010
00000200
00000000
00000301
,
00000100
00001000
00010000
01000000
,
10000000
02000000
00000000
03100000
,
00001000
00020000
00000000
00031000
,
00000010
00000001
00000010
00001000
,
00010000
00100000
10000000
00100000
,
01000000
00010000
00100000
01000000
,
00010000
01000000
00100000
00001000
,
00010000
00001000
00000100
00000001
,
00001000
00000000
00000100
00000000
00010000
00001000
00000000
00010000
,
00000000
01000000
10000000
00000000
00100000
00000000
01000000
00010000
,
00000000
00100000
00000000
00001000
00010000
00000000
00001000
00000000
,
00000100
00000010
00001000
00000000
00000000
00000000
00000000
00000000
;

//---------------dance-double - t7r----------------
#NOTES:
     dance-double:
     t7r:
     Medium:
     12:
     :
00000000
00000000
00000000
00000000
,
00000000
00000000
00000000
00000000
,
00000000
00000000
00000000
00000000
,
00000000
00000000
00000000
00000000
,
00000000
00000000
00000000
00000000
,
00000000
00000000
00000000
00000000
,
00000000
00000000
00000000
00000000
,
20000000
00000000
01000000
00000000
30100000
20000000
00000000
00000000
,
31000000
00100000
00020000
00000000
00100000
00000000
01030000
00020000
,
00000000
00000000
00000000
00130000
00001000
00000000
00010000
00000000
,
00002000
00000000
00010000
00000000
00003100
00000020
00000000
00000000
,
00001030
00000100
00000020
00000000
00000001
00000000
00000130
00001000
,
00000001
00000000
00000000
00000100
00000000
00000000
00000010
00000000
00020000
00000000
00031000
00000000
00000000
00000000
00010000
00000000
,
00000000
01000000
00000000
10000000
00000000
00100000
01000000
00010000
,
00000000
00100000
00000000
00001000
00000000
00010000
00000000
00001000
,
00000100
00001000
00000000
00000100
00000001
00001000
00000000
00000100
,
00000000
00000010
00000000
00000100
00000000
00000010
00000001
00001000
,
00000000
00000001
00000000
00000100
00000000
00001000
00000000
00010000
,
01000000
00010000
00000000
01000000
10000000
00100000
00000000
01000000
,
00000000
00100000
00000000
10100000
00000000
10000000
01000000
10000000
,
00000000
00100000
00000000
00010000
00000000
00011000
00000000
00001000
,
00000010
00001000
00000000
00000010
00000001
00000100
00000000
00000001
,
00000000
00000010
00000000
00000011
00000000
00000010
00000001
00000100
,
00000000
00001000
00000000
00010000
00000000
00011000
00000000
00010000
,
00100000
00010000
00000000
00100000
10000000
02000000
00000000
13000000
,
00000000
20000000
00000000
30100000
00000000
00200000
00000000
01300000
,
00000000
02000000
00000000
03010000
00000000
00020000
00000000
00130000
,
00000000
00200000
00000000
00301000
00000000
00002000
00000000
00013000
,
00000000
00020000
00000000
00031000
00000000
00000010
00000001
00001000
,
00000000
00000000
00000001
00000000
00000000
00000100
00000000
00000000
00000001
00000000
00000010
00000000
00000100
00000000
00001000
00000000
,
00000000
00000000
00000100
00000000
00000000
00010000
00000000
00000000
00001000
00000000
00010000
00000000
00000000
00000000
00100000
00000000
,
00000000
10000000
01000000
10000000
00000000
01000000
00000000
00010000
,
00000000
00001000
00000000
00010000
00000000
00021000
00000000
00030100
,
00000000
00000000
00000000
00001000
00000000
00001000
00000010
00000010
,
00000000
00001000
00000000
00001000
00000000
00000001
00000000
00000100
,
00000000
00000100
00000000
00000100
00000000
00001000
00010000
00010000
,
00000000
01000000
00100000
00010000
00000000
20000000
00000000
30000000
,
00000000
10100000
00000000
10000000
00000000
10000000
01000000
01000000
,
00000000
10000000
00000000
00010000
00000000
01000000
00000000
00010000
,
00000000
00100000
00000000
00101000
00000000
00001000
00010000
00001000
,
00000000
00010000
00000000
00001000
00000000
00000020
00000000
00000031
,
00000000
00000101
00000000
00000001
00000000
00000010
00001000
00000010
,
00000000
00000100
00000000
00010000
00000000
00001000
00000000
00010000
,
00000000
00011000
00000000
00010000
00000000
01000000
10000000
00100000
,
00000000
01000000
00010000
00100000
01000000
20000000
00000000
30100000
,
00000000
10000000
00000000
10010000
00000000
10000000
00100000
10000000
,
00000000
00100000
00000000
00010000
00000000
00001000
00000000
00000100
,
00000000
00000001
00000000
00000011
00000000
00000010
00000100
00010000
,
00000000
00002000
00000000
00013000
00000000
02000000
00000000
13000000
,
00000000
00100000
02000000
00000000
00000000
00000000
03010000
00100000
,
00000000
00001000
00000000
00010000
00000000
00000010
00000000
00001000
,
00000010
00000100
00000000
00000001
00000000
00000020
00000000
00000031
,
00000000
00000100
00000020
00000000
00000000
00000000
00001030
00000100
,
00000000
00010000
00000000
00001000
00000000
01000000
00000000
00010000
,
00100000
01000000
00000000
10000000
00000000
00020000
00000000
00130000
,
00000000
10000000
00200000
00000000
00000000
00310000
10000000
00010000
,
00000000
01000000
00000000
00010000
00000000
00100000
00000000
00001000
,
00010000
00001000
00000000
00000100
00000010
00000200
00000000
00000301
,
00000000
00000010
00000200
00000000
00000000
00001300
00000100
00010000
,
00000000
00000000
00001000
00000000
00000000
00000000
00010000
00000000
00000000
00000000
01000000
00000000
00000000
10000000
00000000
00000000
,
00100000
02000000
03100000
00000000
10100000
00000000
11000000
00000000
,
11000000
00000000
10000000
01000000
00100000
00000000
00010000
00000000
,
00001000
00000010
00001000
00000000
00000010
00000100
00000001
00000000
,
00000010
00000100
00000010
00000000
00000011
00000000
00000101
00000000
,
00000101
00000000
00000001
00000100
00000010
00000000
00001000
00000000
,
00010000
00100000
00010000
00000000
00100000
01000000
10000000
00000000
,
00100000
01000000
00020000
00000000
00000000
10030000
00100000
00000000
,
01000000
00010000
01000000
00010000
00100000
00000000
00001000
00010000
,
00001000
00000010
00000200
00000000
00000000
00001300
00000001
00000000
,
00000100
00000000
00002000
00000000
00000000
00000000
00013000
01000000
,
00010000
01000000
10000000
00100000
01000000
00000000
00010000
00000000
,
00001000
00000100
00000001
00000000
00000100
00000000
00010000
00001000
,
01000000
00010000
00200000
00000000
01300000
10000000
01000000
00200000
,
00000000
00301000
00010000
00001000
00020000
00000000
00030010
00001000
,
00000010
00002000
00000000
00003010
00000100
00000001
00000000
00000010
,
00000100
00010000
00000000
00001000
00010000
01000000
00020000
00000000
,
00031000
00010000
00001000
00000200
00000000
00001300
00010000
00100000
,
00020000
00000000
00031000
00010000
00001000
00000010
00000002
00000203
,
00000320
00002030
00013000
00000000
00000000
00000000
00000000
00000000
;

//---------------dance-double - t7r----------------
#NOTES:
     dance-double:
     t7r:
     Hard:
     15:
     :
00000000
00000000
00000000
00000000
,
00000000
00000000
00000000
00000000
,
00000000
00000000
00000000
00000000
,
00000000
00000000
00000000
00000000
,
00000000
00000000
00000000
00000000
,
00000000
00000000
00000000
00000000
,
00000000
00000000
00000000
00000000
,
00000001
00000010
00000100
00000010
00000001
00000200
00000000
00000301
,
00000010
00000100
00002000
00000000
00003100
00010000
00001000
02000000
,
00000000
03010000
00100000
01000000
10000000
00000000
10100000
00000000
,
10000000
01000000
00100000
01000000
10000000
00200000
00000000
10300000
,
01000000
00100000
00020000
00000000
00130000
00001000
00010000
00001000
,
00000100
00000000
00000001
00000010
00000000
00000100
00001000
00000000
00000002
00000100
00000103
00000000
00000000
00000000
00000101
00000000
,
00000000
00001010
00000000
00000110
00000000
00000010
00001000
00000100
,
00000000
00010100
00000000
00011000
00000000
00101000
00000000
00001000
,
00010000
00100000
00000000
00010000
00100000
10000000
01000000
00100000
,
00000000
01100000
00000000
11000000
00000000
10000000
00100000
01000000
,
00000000
01100000
00000000
01000000
00010000
00100000
00000000
00010000
,
00001000
00000010
00000100
00000001
00001000
00000001
00000010
00000100
,
00000010
00000001
00001000
00000010
00000000
00000100
00000001
00000100
,
00001000
00010000
00100000
01000000
00010000
00100000
00000000
00010000
,
10000000
01000000
00000000
10000000
00010000
10000000
00100000
01000000
,
00100000
10000000
00010000
00100000
00000000
01000000
10000000
01000000
,
00010000
00001000
00000010
00000100
00001000
00000010
00000000
00001000
,
00000001
00000100
00000001
00000010
00000100
00000020
00000000
00000031
,
00000000
00000000
00000200
00000000
00000000
00000310
00001000
00000000
00000100
00000000
00010000
00001000
00000000
00000000
00011000
00000000
,
00000000
00000000
01001000
00000000
00000000
00001000
01000000
00000000
00010000
00000000
00200000
00000000
00000000
00000000
00310000
00000000
,
00000000
00000000
20000000
00000000
00000000
31000000
00100000
00000000
01000000
00000000
00100000
00010000
00000000
00000000
00110000
00000000
,
00000000
00000000
00010000
00000000
00000000
00001000
00000000
00000000
00000010
00000100
00000010
00000000
00001000
00000000
00000002
00000000
,
00000000
00000000
00000023
00000000
00000000
00000230
00000000
00000000
00001300
00000001
00001000
00000000
00000010
00000000
00000200
00000000
,
00000000
00000000
00002300
00000000
00000000
00023000
00000000
00000000
00130000
01000000
00100000
00000000
00100000
00000000
10000000
00000000
,
10000000
00000000
01000000
00100000
01000000
00100000
00001000
00010000
00001000
00010000
00001000
00000000
00000100
00000000
00000001
00000000
,
00000000
00000010
00000000
00000110
00000000
00020000
00000000
00031000
,
00000000
00011000
00000000
00010000
00000000
01000000
10000000
10000000
,
00000000
10010000
00000000
00100000
00000000
11000000
00000000
10000000
,
00000000
10000000
00000000
10000000
00000000
01000000
00010000
00010000
,
00000000
00000000
00001000
00000000
00010000
00001000
00010000
00000000
00000100
00001000
00000200
00000000
00000000
00000000
00000300
00000000
,
00000000
00001001
00000000
00000001
00000000
00000001
00000100
00000100
,
00000000
00000110
00000000
00000001
00000000
00000100
00000010
00002000
,
00000000
00000000
00003200
00000000
00000000
00020300
00000000
00000000
00031000
00010000
00001000
00000000
00001000
00000000
00010000
00000000
,
00010000
00000000
01000000
10000000
00010000
00000000
01000000
00010000
00100000
00000000
00020000
00000000
00000000
00000000
10030000
00000000
,
00000000
01100000
00000000
10000000
00000000
01000000
00100000
01100000
,
00000000
00110000
00000000
00100000
00000000
00001000
00000000
00010000
,
00000000
00011000
00000000
00001000
00000000
00000100
00000001
00000101
,
00000000
00000000
00000001
00000010
00000100
00000000
00001000
00000010
00000100
00000000
00000020
00000000
00000000
00000000
00001030
00000000
,
00000000
00000110
00000000
00000010
00000000
00000010
00001000
00001100
,
00000000
00001000
00000000
00001000
00000000
00000100
00001000
00020000
,
00000000
00000000
02030000
00000000
00000000
03020000
00000000
00000000
10030000
01000000
00100000
00000000
00010000
00100000
00010000
00000000
,
00100000
00001000
00010000
00000000
00001000
00000000
00000010
00000000
00000001
00000000
00000200
00000000
00000000
00000000
00000310
00000000
,
00000000
00001000
00000000
00000100
00000000
00000010
00000001
00000100
,
00000010
00001000
00000000
00000100
00000000
00010000
00000000
00001000
,
00010000
00010000
00000000
01000000
10000000
00010000
01000000
00100000
,
00000000
10000000
00000000
01000000
00000000
00010000
00001000
00000100
,
00000000
00000010
00000000
00001000
00000000
00000001
00000000
00000010
,
00000100
00000100
00010000
00001000
00010000
00200000
20300000
30020000
,
00000000
10030000
02000000
03200000
00302000
00013000
00001000
00000020
,
00000032
00000203
00000000
00000302
00002003
00003020
00000000
00001030
,
00010000
00200000
00000000
00310000
10000000
02000000
03200000
02300000
,
00000000
13000000
00020000
02030000
03002000
00023000
00032000
00003200
,
00000302
00000000
00002003
00000000
00000000
00000000
00003100
00000000
00010000
00001000
00010000
00000000
00000000
00011000
00000000
00000000
,
00010000
00000000
02000000
00100000
13000000
00000000
00000000
00100000
10000000
00000000
00000000
00010000
10000000
00000000
00000000
01000000
,
10000000
01000000
00100000
01000000
01100000
00000000
00100000
00001000
,
00010000
00001000
00000010
00000000
00000001
00000100
00000010
00000001
,
00000010
00000000
00001000
00000000
00000100
00000000
00000000
00001000
00000100
00000000
00000000
00000010
00000100
00000000
00000000
00001000
,
00000100
00000000
00000000
00010000
00001000
00000000
00010000
00000000
00011000
00000000
00000000
00000000
00001000
00000000
00010000
00000000
,
00100000
10000000
00010000
00000000
10000000
01000000
00100000
01000000
,
10000000
00100000
01000000
00010000
00200000
00000000
00000000
00000000
00000000
00000000
00301000
00000000
00010000
00000000
00001000
00000000
,
00000010
00000100
00001000
00000010
00000100
00001000
00010000
00100000
,
01000000
00000000
00010000
00000000
00200000
00000000
00000000
00000000
00310000
10000000
00010000
01000000
00010000
00000000
00100000
00001000
,
00100000
00000000
00001000
00010000
00002000
00000000
00000000
00000000
00000000
00000000
00000000
00000000
00003010
00000000
00000001
00000000
,
00000100
00001000
00010000
01000000
10000000
01000000
00010000
00001000
,
00000100
00000000
00000001
00000000
00001000
00000000
00000001
00000010
00000100
00000000
00001000
00000100
00010000
00000000
00001000
00010000
,
00001000
01000000
00010000
10000000
00010000
00000000
00100000
00000000
02000000
00000000
23000000
00000000
30020000
00000000
10030000
00000000
,
00100000
02000000
03020000
00230000
00301000
00010000
00002000
00003200
,
00000302
00001003
00000200
00020300
00032000
00023000
01030000
10000000
,
00020000
20030000
30100000
00010000
00002000
00003020
00000230
00001300
,
00000010
00000200
00000302
00002003
00003100
00000010
00000002
00000203
,
00002300
00000000
00013000
00000000
00001000
00000000
00020000
00000000
02030000
00000000
23000000
00000000
30100000
01000000
00010000
00100000
,
00001000
00010000
00001000
00010000
00000100
00000000
00000000
00000000
00000000
00000000
00000000
00000000
00000000
00000000
00000000
00000000
;

//---------------dance-double - t7r----------------
#NOTES:
     dance-double:
     t7r:
     Challenge:
     16:
     :
00000000
00000000
00000000
00000000
,
00000000
00000000
00000000
00000000
,
00000000
00000000
00000000
00000000
,
00000000
00000000
00000000
00000000
,
00000000
00000000
00000000
00000000
,
00000000
00000000
00000000
00000000
,
00000000
00000000
00000000
00000000
,
10000000
00000000
01000000
00000000
00100000
00000000
01000000
10000000
00010000
00000000
01000000
00000000
00010000
00000000
00100000
00000000
,
01000000
10000000
00010000
00000000
10000000
00000000
01000000
00100000
00010000
00000000
10000000
00000000
10000000
00000000
01000000
00000000
,
00010000
00000000
00001000
00000000
00000100
00000000
00000010
00001000
00000001
00000000
00000010
00000000
00000002
00000000
00000000
00000000
,
00001003
00000000
00000010
00000000
00000100
00000000
00000001
00000010
00000100
00000000
00000010
00000000
00000001
00000000
00000100
00000000
,
00000010
00000000
00001000
00000100
00000010
00000000
00000001
00000100
00000001
00000000
00000001
00000000
00000100
00000000
00001000
00000000
,
00010000
00000000
01000000
10000000
00000000
00100000
01000000
00000000
00200000
01300000
10010000
00000000
00000000
00000000
10000000
00000000
,
01000000
10000000
00000000
00010000
00100000
00000000
00010000
00000000
01000000
00000000
00100000
00000000
10000000
00000000
10100000
00000000
,
00000000
10000000
01000000
00100000
00110000
00010000
01000000
00001000
,
00010000
00001000
01000000
00000000
00001000
00000000
00010000
00000000
00000100
00000000
00001000
00000000
00000010
00000000
00000100
00000000
,
00000001
00000010
00000000
00000001
00001000
00000000
00000001
00000000
00000100
00000000
00000010
00000000
00001000
00000100
00010000
00000000
,
00001000
00010000
00000100
00000000
00010000
00000000
00001000
00000000
00011000
00000000
00010000
01000000
00000000
01000000
10000000
00010000
,
00000000
00010000
01000000
00000000
00100000
00000000
10000000
00000000
00010000
00000000
10010000
00000000
10000000
00000000
01000000
00000000
,
00100000
01000000
10000000
00000000
00100000
10000000
00010000
00000000
00100000
00000000
01000000
00000000
00100000
00000000
01100000
00000000
,
00100000
00010000
10000000
00000000
00100000
00000000
00010000
00000000
00001000
00000000
00011000
00000000
00010000
00000100
00001000
00000000
,
00000010
00000100
00000001
00000000
00001001
00000000
00000001
00000000
00000100
00000000
00000101
00000000
00000001
00000010
00000100
00000000
,
00000010
00000001
00001000
00000000
00000001
00000000
00000100
00000000
00000010
00000000
00001000
00000000
00000100
00000000
00001100
00000000
,
00000100
00000000
00010000
00000000
00001000
00010000
00001000
00000000
00010000
00000000
00100000
00000000
10000000
00000000
00100000
00000000
,
01000000
00000000
00010000
00000000
00100000
01000000
10000000
00000000
01000000
00000000
00020000
00000000
00000000
00031000
00010000
00000000
,
00001000
00000000
00000200
00000000
00000000
00001300
00010000
00000000
00001000
00000000
00020000
00000000
00000000
01030000
00010000
00000000
,
00001000
00000000
00000200
00000000
00000000
00001300
00010000
00000000
00001000
00010000
00002000
00000000
00000000
00013000
00001000
00000000
,
00010000
00000000
02000000
00000000
00000000
03010000
00001000
00000000
00010000
00000000
00002000
00000000
00000000
00013000
00001000
00000000
,
00010000
00000000
01000000
00000000
00010000
00001000
00000000
00000000
00000100
00000010
00000100
00000000
00000001
00000000
00000020
00000000
,
00000000
00000000
00000230
00000000
00000000
00000302
00000000
00000000
00000103
00001000
00000001
00000000
00000100
00000000
00002000
00000000
,
00000000
00000000
00023000
00000000
00000000
00230000
00000000
00000000
10300000
00010000
10000000
00000000
10000000
00000000
01000000
00000000
,
01000000
00000000
00010000
00001000
00010000
00001000
00010000
00001000
00010000
00001000
00010000
00000000
00001000
00000100
00000020
00000000
,
00000000
00000000
00000130
00000001
00000010
00000100
00001000
00000001
00000010
00000100
00002000
00000000
00000000
00000000
00000010
00000000
,
00000000
00000000
00003001
00000000
00000000
00000000
00002002
00003003
00000000
00000000
00002001
00000000
00003100
00000000
00001100
00000000
,
00000000
00000000
00002002
00003003
00000000
00000000
00002002
00003003
00000000
00000000
00000101
00000000
00000000
00000000
00002002
00003003
,
00000000
00000000
00002002
00003003
00000000
00000000
00002002
00003003
00000000
00000000
00001200
00000000
00010300
00000000
00011000
00000000
,
00000000
00000000
00001000
00010000
01000000
00000000
00010000
01000000
10000000
00010000
20000000
00000000
00000000
00000000
30000000
00000000
,
00000000
00000000
20200000
30300000
00000000
00000000
20020000
30030000
00000000
00000000
20010000
00000000
31000000
00000000
11000000
00000000
,
00000000
00000000
20200000
30300000
00000000
00000000
20200000
30300000
00000000
00000000
00100000
00000000
00010000
00100000
01000000
00000000
,
00010000
00100000
01000000
00000000
00010000
00000000
00001000
00000000
00000100
00000000
00000010
00000000
00001000
00000001
00001000
00000000
,
00000001
00000000
00000100
00001000
00010000
00000000
00001000
00010000
00100000
10000000
00020000
00000000
00000000
00000000
00130000
00000000
,
00000000
00000000
20020000
30030000
00000000
00000000
20020000
30030000
00000000
00000000
10020000
00000000
01030000
00000000
01010000
00000000
,
00000000
00000000
20020000
30030000
00000000
00000000
20020000
30030000
00000000
00000000
11000000
00000000
00000000
00000000
20020000
30030000
,
00000000
00000000
20020000
30030000
00000000
00000000
20020000
30030000
00000000
00000000
02010000
00000000
03001000
00000000
00011000
00000000
,
00000000
00000000
00010000
00001000
00000100
00000000
00001000
00000100
00000001
00000010
00000002
00000000
00000000
00000000
00001003
00000000
,
00000000
00000000
00002002
00003003
00000000
00000000
00002002
00003003
00000000
00000000
00021000
00000000
00031000
00000000
01001000
00000000
,
00000000
00000000
02020000
03030000
00000000
00000000
02020000
03030000
00000000
00000000
01000000
00000000
10000000
01000000
00100000
00000000
,
10000000
01000000
00100000
00000000
00010000
01000000
00100000
00000000
01000000
00000000
00010000
00000000
00100000
00010000
00100000
00000000
,
00001000
00020000
00032000
00003200
00000302
00000023
00000000
00000130
,
00000000
00000010
00000001
00000000
00000200
00000000
00000010
00000000
00000000
00000000
00000301
00000000
00000010
00000000
00000100
00000000
,
00000010
00000001
00000010
00000000
00000001
00000000
00000001
00000000
00000100
00000000
00001000
00000000
00010000
00000000
00001000
00000000
,
01000000
00010000
10000000
00000000
00010000
00000000
01000000
00000000
00100000
00000000
02000000
00000000
00000000
00000000
03100000
00000000
,
00000000
01000000
00010000
00000000
00200000
00000000
01000000
00000000
00000000
00000000
00310000
00000000
01000000
00000000
00100000
00000000
,
10000000
01000000
10000000
00000000
00100000
01000000
00010000
00100000
00010000
00000000
00100000
00001000
00100000
00000000
00001000
00010000
,
00001000
00010000
00001000
00000010
00000001
00000200
00000302
00000023
,
00000130
00000010
00000001
00000000
00000100
00000000
00000002
00000000
00002003
00000000
00003020
00000000
00001030
00000000
00010000
00000000
,
01000000
00010000
10000000
00000000
00100000
00000000
00100000
00000000
10000000
00000000
01000000
00000000
00200000
00000000
00302000
00000000
,
00013000
00000100
00001000
00000000
00000020
00000000
00000230
00000000
00000302
00000000
00000103
00000000
00000020
00000000
00002030
00000000
,
00003001
00000010
00000100
00000000
00000010
00000000
00000001
00000000
00000100
00000000
00000010
00000000
00001000
00000100
00010000
00000000
,
00001000
00000000
00010000
00000000
00100000
01000000
00100000
00000000
10000000
00000000
01000000
00000000
00100000
00001000
00000000
00010000
,
00001000
00000000
00000200
00000310
00001001
00000000
00000001
00000100
00000010
00000000
00001000
00000100
00000010
00000000
00000001
00000000
,
00000100
00000000
00001000
00000000
00010000
00000000
00011000
00000000
00011000
00000000
00001000
01000000
00010000
00000000
01000000
00010000
,
10000000
00000000
10010000
00000000
10000000
00000000
01000000
00000000
00100000
00000000
00010000
10000000
00100000
00000000
01100000
00000000
,
01000000
00000000
00010000
00000000
00110000
00000000
00100000
00001000
00010000
00000000
00001000
00010000
00001000
00000000
00010000
00000000
,
00001000
00000000
00000010
00000000
00000001
00000000
00000101
00000000
00000101
00000000
00000001
00000010
00000100
00001000
00000000
00000100
,
00010000
00000000
00011000
00000000
00001000
00010000
00000000
00010000
01000000
00100000
00000000
00100000
00010000
10000000
00000000
10000000
,
00100000
01000000
00001000
00010000
00002000
00000000
00000000
00000000
00003100
00000000
00000010
00001000
00000001
00000000
00000010
00000000
,
00001000
00000000
00000010
00000000
00000001
00000000
00000101
00000000
00001001
00000000
00000001
00000100
00000010
00000000
00001000
00000000
,
00000100
00000000
00010000
00000000
00012000
00000000
00000000
00000000
00013000
00000000
01000000
00000000
10000000
00100000
01000000
00010000
,
00100000
01000000
10000000
00100000
02000000
00000000
00000000
00000000
13000000
00000000
01000000
00010000
10000000
00000000
01000000
00000000
,
00010000
00000000
00001000
00000000
00000010
00000000
00000011
00000000
00001001
00000000
00000001
00000000
00000100
00000000
00000001
00001000
,
00000100
00000000
00001000
00000000
00010000
00000000
00100000
00000000
10000000
00000000
01000000
10000000
00010000
00100000
01000000
10000000
,
00100000
01000000
00010000
00100000
00001000
00000000
00010000
00000000
00002000
00000000
00003200
00000000
00000302
00000000
00001003
00000000
,
00000001
00000020
00000230
00000302
00000103
00010000
00002000
00023000
,
00230000
10300000
01000000
00200000
00320000
20030000
30100000
02000000
,
03020000
00230000
00301000
00010000
00002000
00003020
00000032
00000103
,
00000010
00000002
00000023
00002030
00003100
00010000
00002000
00023000
,
02030000
00000000
13000000
00000000
00100000
00000000
20000000
00000000
32000000
00000000
03020000
00000000
00031000
00010000
00000200
00010300
,
00002000
00003100
00000002
00001003
00000010
00000000
00000000
00000000
00000000
00000000
00000000
00000000
00000000
00000000
00000000
00000000
;
