#TITLE:踊;
#ARTIST:Ado;
#TITLETRANSLIT:Odo;
#BANNER:Odo.png;
#BACKGROUND:Odo-bg.png;
#JACKET:Odo-jacket.png;
#CDTITLE:./CDTITLES/NONE.PNG;
#MUSIC:Odo.ogg;
#SAMPLESTART:73.125;
#SAMPLELENGTH:15;
#BPMS:0=128;

//---------------dance-single - t7r----------------
#NOTES:
     dance-single:
     t7r:
     Beginner:
     2:
     :
0000
0000
0000
0000
,
0000
0000
0000
0000
,
0000
0000
0000
0000
,
0000
0000
0000
0000
,
0000
0000
0000
0000
,
0010
0000
0010
0000
,
0010
0000
0000
0000
,
1000
1000
0000
0000
,
0001
0000
0001
0000
,
0010
0000
0000
0000
,
0000
0000
0000
0000
,
0100
0000
0100
0000
,
1000
0000
1000
0000
,
0001
0001
0001
0000
,
1000
1000
1000
0000
,
0010
0000
0010
0000
,
0100
0000
0100
0000
,
0000
0001
0000
1000
,
0000
0010
0010
0000
,
0100
0000
0100
0000
,
0010
0000
0010
0000
,
1000
0000
1000
0000
,
0001
0000
0001
0000
,
0010
0000
0010
0000
,
0100
0000
0100
0000
,
1000
0000
0001
0000
,
1000
0000
1001
0000
,
0010
0000
0000
0000
,
0100
0100
0000
0000
,
0001
0000
0000
0000
,
1000
1000
0000
0000
,
0100
0000
0010
0000
,
0001
0000
1000
0000
,
0010
0010
0000
0000
,
0100
0100
0100
0000
,
0010
0000
0000
0000
,
1000
0000
0000
0000
,
0001
0000
0001
0000
,
0010
0000
0000
0000
,
0100
0000
0100
0000
,
0010
0000
0010
0000
,
0001
0000
1000
0000
,
0001
0001
0001
0000
,
0100
0000
0100
0000
,
0010
0000
0010
0000
,
1000
0000
1000
0000
,
0010
0010
0010
0000
,
0000
0100
0000
0100
,
0100
0000
0100
0000
,
0010
0000
0010
0000
,
1000
0000
1000
0000
,
0000
0001
0000
0001
,
0001
0000
0001
0000
,
0010
0000
0010
0000
,
0100
0000
1000
0000
;

//---------------dance-single - t7r----------------
#NOTES:
     dance-single:
     t7r:
     Easy:
     6:
     :
0000
0000
0000
0000
,
0000
0000
0000
0000
,
0000
0000
0000
0000
,
0000
0000
0000
0000
,
0000
0000
0000
0000
,
0010
0000
0010
0000
,
0010
0010
0010
0000
,
1000
2000
0000
0000
,
3001
0001
0100
0100
,
0010
0010
0010
0010
,
1000
0002
0000
0003
,
1000
0100
1000
0100
,
0010
0001
0010
0010
,
0001
0100
1000
0100
,
0001
0010
0200
0300
,
1000
0010
1000
0010
,
0100
0001
0100
0001
,
1000
0100
0001
0100
,
2000
0000
3010
0100
,
0001
0000
1001
0000
,
1000
0000
1100
0000
,
0001
0000
0011
0000
,
1000
0000
1010
0000
,
0010
0010
0100
0100
,
0001
0001
1000
1000
,
0100
0000
0010
0100
,
1000
0002
0103
0010
,
1000
0200
0000
0000
,
0010
0310
0001
1000
,
0010
0200
0000
0000
,
0310
0010
1000
0001
,
1001
0000
1100
0000
,
0011
0000
1001
0000
,
0010
0120
0000
0000
,
1030
1000
0001
0001
,
0010
0010
0010
0010
,
0100
0100
0100
0100
,
1000
1000
0001
0001
,
0100
1000
0100
0110
,
0000
1000
0200
0310
,
0000
0001
0200
0310
,
1000
0010
0001
0010
,
1000
1000
0100
0010
,
0000
0001
0200
0310
,
0000
1000
0200
0310
,
0001
0010
1000
0010
,
0001
0100
0100
0010
,
1000
0001
0000
0001
,
0001
0001
0000
0001
,
1000
0100
0001
0100
,
1000
0001
0100
1000
,
0100
0000
0010
0010
,
0010
0000
0010
0010
,
1000
0001
0010
1000
,
0010
0000
0001
0000
0100
0000
0010
0010
,
0010
0000
0000
0000
;

//---------------dance-single - t7r----------------
#NOTES:
     dance-single:
     t7r:
     Medium:
     8:
     :
0000
0000
0000
0000
,
0000
0000
0000
0000
,
0000
0000
0000
0000
,
0000
0000
0000
0000
,
0000
0000
0000
0000
,
1000
0100
1000
0000
0001
0100
0001
0000
,
1000
0000
0010
0100
0001
0000
0010
0100
,
2000
3002
0010
1003
,
0002
0000
0203
0000
0310
1000
0001
0001
,
2000
3000
2000
3000
2000
3000
2000
3000
,
0010
0100
0200
0000
0301
0000
1001
0000
,
1000
0000
0000
0000
0100
0000
0000
0000
0010
0000
0000
0100
0000
0000
1000
0000
,
0001
0000
0000
0000
0100
0000
0010
0000
0100
0000
0000
0001
0000
0000
1000
0000
,
0001
0000
0010
0000
0001
2000
0000
3001
,
1000
0000
0010
0000
1000
0002
0100
0000
,
1003
0000
0000
0000
1100
0000
0000
0000
0001
0000
0000
0010
0000
0000
0100
0000
,
1000
0000
0000
0000
0010
0000
0100
0000
0001
0000
0000
0010
0000
0000
0001
0000
,
0000
1000
0100
1000
0000
0001
0100
0001
,
0000
2000
0000
0000
3010
0000
1000
1000
,
0001
0000
0000
0020
0000
0000
0031
0000
1000
0000
0000
0000
0001
0000
0000
0000
,
1000
0000
0000
0020
0000
0000
1030
0000
0001
0000
0000
0000
1000
0000
0000
0000
,
0001
0000
0000
0200
0000
0000
1300
0000
0100
0000
0000
0002
0000
0000
1003
0000
,
0100
0000
0001
0000
0100
1000
0001
0000
,
1000
1000
0010
0000
0100
0100
0001
0000
,
0010
0010
0100
0000
1000
1000
0001
0000
,
0100
0000
0000
0000
0010
0000
0100
0000
0100
0000
0000
0100
0000
0000
0000
0000
,
0001
1000
2000
0000
3010
0100
0001
0000
,
2000
0000
3002
0000
0000
0000
0000
0100
,
1000
0000
1003
0000
0001
0010
0100
0000
,
2000
0000
3020
0000
0000
0100
0000
0000
,
1030
0001
0100
0000
0001
1000
0000
1000
,
0001
0010
0100
0000
1000
0010
0100
0000
,
0001
0100
0010
0000
1000
0000
0001
0010
,
1000
0000
0010
0001
0100
0000
1000
0000
,
0100
0100
0010
0010
1000
1000
0100
0000
,
0020
0030
0020
0030
0020
0030
0020
0030
,
0002
0003
0002
0003
0002
0003
0002
0003
,
1000
1000
0010
0010
0100
0100
0001
0002
,
0100
0000
1003
0100
0010
0001
1000
1000
,
0000
0001
0100
0000
0001
2000
0100
3000
,
0000
1000
0001
0000
2000
0000
3020
0000
,
0130
0000
0001
1000
0000
0000
0100
0000
1000
0001
0000
0000
,
0100
0001
0010
0010
0100
1000
0010
1000
,
0001
1000
0100
0000
1000
0002
0100
0003
,
0000
0001
1000
0000
0002
0000
0023
0000
,
0130
0000
0010
0001
0000
0000
0100
0000
0010
1000
0000
0000
,
0001
0100
0010
0010
1000
0100
0010
0000
,
0001
0000
1000
0010
0001
0010
0000
1000
,
0001
0010
1000
0000
0010
0001
1000
0000
,
0001
0000
0000
0100
0000
0000
0010
0000
0100
0000
0001
0000
1000
0000
0000
0000
,
0100
0000
0000
0010
0000
0000
0001
0000
1000
0000
0010
0000
0100
0000
0000
0000
,
0010
0000
0000
0000
1000
0000
0100
0000
0001
0000
0100
0000
0000
0100
0000
0000
,
1000
0000
0001
0000
0100
0000
1000
0000
0100
0000
0001
0000
0000
0001
0000
0000
,
1000
0000
0000
0010
0000
0000
1000
0000
0100
0000
0010
0000
0001
0000
0001
0000
,
0100
0010
0100
0001
1000
0001
0010
0010
,
0100
0000
0000
0000
;

//---------------dance-single - t7r----------------
#NOTES:
     dance-single:
     t7r:
     Hard:
     12:
     :
0000
0000
0000
0000
,
0000
0000
0000
0000
,
0000
0000
0000
0000
,
0000
0000
0000
0000
,
0000
0000
0000
0000
,
0001
0100
0010
1000
0001
0010
0100
1000
,
0001
1000
0100
0010
0001
0000
1000
0010
,
2000
3200
0001
0310
,
0001
0001
0100
0100
0010
0010
1000
0100
,
0020
0030
0020
0030
0020
0030
0020
0030
,
1001
0000
0000
0001
0000
0000
0002
0000
0000
0000
0000
0000
1003
0000
0000
0001
0000
0100
0001
0000
0000
1000
0000
0000
,
0001
0000
0000
0000
0101
0000
0000
0000
1100
0000
0000
0001
0100
0000
0001
0000
,
1000
0000
0000
0000
0001
0000
0100
0000
0010
0000
0000
1000
0100
0000
0010
0000
,
0001
0010
1000
0001
0100
2000
0000
3010
,
1000
0000
0010
0000
0001
0000
1000
0000
0100
0000
0001
1000
0000
0000
0001
0000
,
1000
0000
0100
0000
0110
0000
0000
0000
1100
0000
0000
0001
1000
0000
0001
0000
,
1000
0000
0010
0000
0110
0000
0100
0000
0001
0000
0000
1000
0001
0000
0010
0000
,
1000
0010
0100
1000
0001
0100
0010
0001
,
0020
0100
0000
0000
1030
0000
1000
0000
0001
0000
0001
0000
0010
0000
0100
0000
,
1000
0000
0001
0200
0000
0000
0301
0000
1000
0000
0100
0000
1000
0000
1000
0000
,
0001
0000
1000
0200
0000
0000
1300
0000
0001
0000
0100
0000
0001
0000
0001
0000
,
1000
0000
0001
0020
0000
0000
0031
0000
1000
0000
0001
0200
0000
0000
0301
0000
,
1000
0100
0001
0100
1000
0010
0110
0010
,
1000
0100
0001
0001
1000
0010
0001
0001
,
1000
0010
0001
0001
1000
0100
0002
0003
,
2001
0000
0000
0000
3100
0000
0010
0000
0010
0000
0000
0010
0000
0000
0000
0000
,
0001
0100
0010
0010
1000
0100
0010
0001
,
2001
0000
3200
0000
0000
0001
0000
0010
,
1000
0010
1300
0001
0100
0010
1000
0001
,
1002
0000
0203
0000
0000
1000
0000
0000
,
0010
0010
0301
0000
0100
0020
1000
0130
,
0001
0010
0100
1000
0001
0100
0010
1000
,
0001
0010
1000
0010
0002
0000
1003
0100
,
1100
0000
1001
0001
0100
0000
1001
1000
,
0010
0010
0100
0100
0001
0001
1000
1000
,
0200
0300
0200
0300
0200
0300
0200
0300
,
0020
0030
0020
0030
0020
0030
0020
0030
,
0001
0001
0100
0100
0010
0010
1000
1000
,
0100
0000
0010
0000
0100
0000
1000
0000
0000
0001
0000
1000
0001
0000
0000
0100
0000
0000
0010
0000
0000
0010
0000
0000
,
2000
0100
3002
0000
0103
0020
0001
0000
,
0130
0010
2000
0100
3002
0000
0023
0000
,
0031
0100
0001
1000
0000
0000
0001
0100
0001
1000
0000
0000
,
0001
0010
0001
0000
1000
0000
0001
0000
1000
0000
0010
0000
0100
0000
0001
0000
,
2000
0010
3002
0000
0013
0200
0001
0000
,
0310
0100
2000
0010
3002
0000
0203
0000
,
0301
0010
0100
1000
0000
0000
0001
0100
0010
1000
0000
0000
,
0100
0000
0000
0010
0000
0000
0100
0000
0000
0000
0000
0000
0001
0000
0000
0000
0000
0000
0001
0000
0000
0000
0000
0000
0100
0000
0000
0000
0000
0000
0010
0000
0000
0000
0100
0000
1000
0000
0000
0000
0000
0000
0001
0000
0000
0000
0000
0000
,
1000
0000
0000
0000
0000
0000
0000
0000
0000
0000
0000
0000
0001
0000
0000
0000
0100
0000
0000
0000
0000
0000
0000
0000
0001
0000
0000
0020
0000
0000
0000
0000
0000
0000
0000
0000
0031
0000
0000
1000
0000
0000
0000
0000
0000
0000
0000
0000
,
0001
0010
0000
0000
0100
0000
0001
0100
0000
1000
0000
0000
0001
0000
0000
0000
,
1000
0000
0010
0001
0000
0010
0000
0100
0001
0000
1000
0000
0100
0000
0100
0000
,
1000
0000
0100
0000
0001
0100
0000
1000
0010
0000
0010
0000
0100
0000
0001
1000
,
0001
0000
0000
0000
0000
0000
0000
0000
0000
0000
0000
0000
1000
0000
0000
0000
0010
0000
0000
0000
0000
0000
0000
0000
0100
0000
0000
1000
0000
0000
0000
0000
0000
0100
0000
0000
0001
0000
0000
1000
0000
0000
0000
0000
0000
0000
0000
0000
,
0100
0001
0000
0000
0100
0000
0010
0100
0000
1000
0010
0000
1000
0001
0000
0000
,
1000
0100
1000
0100
0000
0001
0000
0100
0010
0000
0010
0000
0001
0000
0001
0000
,
1000
0010
1000
0000
0010
0001
0000
0010
0100
0010
0100
0000
0001
0000
0001
0000
,
1000
0000
0000
0000
;

//---------------dance-single - t7r----------------
#NOTES:
     dance-single:
     t7r:
     Challenge:
     15:
     :
0000
0000
0000
0000
,
0000
0000
0000
0000
,
0000
0000
0000
0000
,
0000
0000
0000
0000
,
0000
0000
0000
0000
,
1100
0100
1000
0010
0110
0100
0001
0010
,
0011
0001
1000
0010
0110
0000
1000
0001
,
0101
1100
0101
1100
,
1001
0001
1001
1000
1010
0010
0110
0100
,
0002
0003
0002
0003
0002
0003
0002
0003
,
1000
0000
0000
0100
0000
0000
0200
0000
0000
0000
0000
0000
0310
0000
0000
0001
1000
0001
0100
0000
0000
0010
0000
0000
,
1000
0000
0100
1000
0100
0000
1000
0001
0100
0000
0002
0000
0010
0000
1003
0000
,
0001
0000
0100
0001
0100
0000
0001
0000
1000
0000
0200
0000
0001
0000
0310
0000
,
0100
2000
3100
0002
0103
0200
0000
0310
,
0001
0000
0200
0000
1300
0000
0100
0010
0100
0001
0100
0001
1000
0000
0001
1000
,
0001
0010
0110
0010
1000
0020
0001
0130
,
1000
0010
0110
0010
0001
0020
1000
0130
,
0001
1000
0200
0320
1030
0002
0203
0320
,
0031
0000
0000
0000
1000
0000
0001
0000
0000
0000
0000
0000
1000
0000
0000
0000
0000
0000
1000
0000
0000
0000
0000
0000
0001
0000
0000
0100
0000
0000
0001
0000
0000
0100
0000
0000
0010
0000
0000
0000
0000
0000
0010
0000
0000
0000
0000
0000
,
1000
0000
0100
0010
0000
1000
0010
0000
0100
0000
1000
0001
0100
0001
1000
0001
,
1000
0000
0010
0100
0000
1000
0100
0000
0010
0000
1000
0001
0010
0100
0010
0001
,
1000
0000
0100
0002
0000
0103
0010
0000
0001
0000
0100
2000
0000
3100
0010
0000
,
1000
0000
0010
1000
0001
0000
0010
0000
0001
0000
1000
0010
0100
0001
1000
0000
,
0100
0000
0100
0000
0001
0100
0010
0100
0001
0000
0001
0000
0100
1000
0010
1000
,
0001
0000
0001
0000
0100
1000
0100
0010
0100
0000
0100
0000
2001
0000
3010
0000
,
0110
0000
0000
0000
0001
0000
1000
0000
1000
0000
0000
0010
0100
0000
0001
0000
,
1000
0000
0000
0000
0100
0000
1000
0000
0000
0000
0000
0000
0002
0000
0000
0000
0000
0000
0010
0000
0000
0000
0000
0000
1003
0000
0000
0000
0000
0000
0001
0000
0000
0100
0000
0000
0010
0000
0000
0000
0000
0000
1000
0000
0000
0000
0000
0000
,
0002
0010
1000
0000
0103
0020
1000
0100
,
1000
0100
1030
0001
0010
0010
0100
0010
,
2001
0100
0001
0000
3010
0200
0000
0000
,
1000
0010
0010
0001
0001
0320
1000
0130
,
0110
0001
0010
0100
1001
0100
0010
1000
,
0110
1000
0100
0010
1001
0000
1100
0100
,
0110
0000
0011
0001
1001
0000
1100
0000
,
1010
0010
0011
0010
1010
0010
0110
0100
,
0002
0003
0020
0030
2000
3000
0200
0300
,
0002
0003
0200
0300
2000
3000
0002
0003
,
1010
0010
0100
0100
0001
0001
1000
1000
,
0100
0000
0000
0000
0010
0000
0000
0000
0100
0000
0000
0000
1000
0000
0000
0000
0000
0000
0001
0000
1000
0000
0001
0000
0010
0000
0000
0001
0000
0000
0010
0000
0000
0001
0000
0000
1000
0000
0000
0000
0000
0000
0001
0000
0000
0000
0000
0000
,
1000
0010
0110
0100
1000
0200
0001
0000
,
0310
0000
0000
0000
0000
0000
1000
0000
0000
0000
0000
0000
1001
0000
0000
0000
0000
0000
0001
0000
0000
0000
0000
0000
0020
0000
0000
0000
0000
0000
0000
0000
0000
1030
0000
0000
0020
0000
0000
0000
0000
0000
0000
0000
0130
0000
0000
0000
,
1000
0000
0001
0000
1000
0000
0010
0000
0000
0000
0100
0000
0001
0000
0010
0000
0100
0000
1000
0000
0000
0001
0000
0000
,
1000
0100
0010
0000
1000
0000
0010
0100
1000
0000
0010
0100
0001
0000
1000
0000
,
0001
0010
0110
0100
0001
0200
1000
0000
,
0310
0000
0000
0000
0000
0000
0001
0000
0000
0000
0000
0000
1001
0000
0000
0000
0000
0000
1000
0000
0000
0000
0000
0000
0020
0000
0000
0000
0000
0000
0000
0000
0000
0031
0000
0000
0020
0000
0000
0000
0000
0000
0000
0000
0130
0000
0000
0000
,
0001
0000
1000
0000
0001
0000
0010
0000
0000
0100
0000
0000
1000
0000
0010
0000
0100
0000
0001
0000
0000
1000
0000
0000
,
0100
0000
0000
0010
0000
0000
0100
0000
0000
1000
0000
0000
0010
0000
0000
0000
0000
0000
0010
0000
0000
0000
0000
0000
0001
0000
0000
0000
0000
0000
0010
0000
0100
0000
0001
0000
1000
0000
0000
0000
0000
0000
0100
0000
0000
0000
0000
0000
,
0020
0000
0000
0000
0000
0000
0000
0000
0000
0000
0000
0000
1030
0000
0000
0000
0010
0000
0000
0000
1000
0000
0000
0000
0010
0000
0000
0200
0000
0000
1000
0000
0000
0000
0000
0000
0310
0000
0000
0001
0000
0000
1000
0000
0000
0000
0000
0000
,
0001
0200
0000
0310
0100
0001
1000
0001
0000
0010
0100
0000
0002
0000
0103
0000
,
2000
0100
0000
3001
2000
0100
0000
3001
1000
0010
0100
0010
0001
0000
0010
1000
,
0002
0100
0000
1003
0002
0100
0000
1003
0001
0010
0100
0010
1000
0010
0100
0010
,
0001
0000
0000
0000
0000
0000
0100
0000
0000
0010
0000
0000
0001
0000
0000
0000
0010
0000
0000
0000
0001
0000
0000
0000
0010
0000
0000
0200
0000
0000
0001
0000
0000
0000
0000
0000
0310
0000
0000
1000
0000
0000
0001
0000
0000
0000
0000
0000
,
1000
0200
0000
0310
0100
1000
0001
1000
0000
0010
0100
0000
2000
0000
3100
0000
,
0002
0010
0000
1003
0001
0100
0010
1000
0100
0010
0100
0001
0100
0000
0100
0000
,
2000
0010
0000
3001
1000
0100
0010
0001
0100
0010
0100
1000
0100
0000
0110
0000
,
0010
0000
0000
0000
;

//---------------dance-double - t7r----------------
#NOTES:
     dance-double:
     t7r:
     Easy:
     5:
     :
00000000
00000000
00000000
00000000
,
00000000
00000000
00000000
00000000
,
00000000
00000000
00000000
00000000
,
00000000
00000000
00000000
00000000
,
00000000
00000000
00000000
00000000
,
10000000
00000000
01000000
00000000
,
00100000
00000000
00001000
00000000
,
00010000
00020000
00000000
00030000
,
00000100
00000100
00001000
00000001
,
00000100
00000100
00000100
00000100
,
00000000
00000000
00000000
00000000
,
00000001
00000000
00000010
00000000
,
00000100
00000000
00010000
00000000
,
00001000
00001000
00010000
00000000
,
01000000
01000000
10000000
00000000
,
00100000
00000000
01000000
00000000
,
00010000
00000000
10000000
00000000
,
01000000
00010000
00000000
00001000
,
00000200
00000000
00000310
00000010
,
00001000
00000001
00000010
00000000
,
00000001
00001000
00000010
00000000
,
00001000
00000000
00000001
00000000
,
00000100
00001000
00010000
00000000
,
00011000
00000000
00100000
00000000
,
00011000
00000000
00000010
00000000
,
00011000
00000000
00010000
00000000
,
01000000
20000000
30100000
01000000
,
00010000
00020000
00000000
00000000
,
10000000
10030000
01000000
00100000
,
00001000
00002000
00000000
00000000
,
00013000
00010000
00000010
00000000
,
00001000
00000000
00000100
00000000
,
00000010
00000000
00000001
00000000
,
00000100
00000200
00000000
00000000
,
00000310
00000010
00001000
00000001
,
00000010
00000000
00000010
00000000
,
00001000
00001000
00002000
00013000
,
00001000
00001000
00010000
00010000
,
00100000
00000000
01000000
00010000
,
00000000
10000000
02000000
03100000
,
00000000
00001000
00020000
00030010
,
00001000
00000000
00000001
00000000
,
00000100
00000100
00000001
00001000
,
00000000
00000001
00000020
00000130
,
00000000
00010000
00002000
00103000
,
00010000
00000000
10000000
00000000
,
00100000
00100000
01000000
00000000
,
00010000
10000000
10000000
01000000
,
00100000
00001000
00001000
00010000
,
00001000
00000100
00000001
00000001
,
00000100
00000010
00001000
00001000
,
00000000
00000001
00000010
00000010
,
00001000
00010000
00001000
00001000
,
00010000
00100000
00100000
01000000
,
00010000
10000000
01000000
00100000
,
00001000
00000000
00000000
00000000
;

//---------------dance-double - t7r----------------
#NOTES:
     dance-double:
     t7r:
     Medium:
     8:
     :
00000000
00000000
00000000
00000000
,
00000000
00000000
00000000
00000000
,
00000000
00000000
00000000
00000000
,
00000000
00000000
00000000
00000000
,
00000000
00000000
00000000
00000000
,
10000000
00100000
10000000
00000000
00010000
00100000
00010000
00000000
,
00100000
00000000
00001000
00010000
00001000
00000000
00010000
00000000
,
00000020
00002030
00000100
00003001
,
00000010
00000000
00000100
00000000
00001000
00001000
00000001
00000100
,
00000002
00000003
00000002
00000003
00000002
00000003
00000002
00000003
,
00001000
00000200
00010300
00011000
,
00010000
00000000
00000000
00000000
01000000
00000000
00000000
00000000
00100000
00000000
00000000
00010000
00000000
00000000
10000000
00000000
,
00100000
00000000
00000000
00000000
01000000
00000000
00010000
00000000
10000000
00000000
00000000
01000000
00000000
00000000
00100000
00000000
,
00010000
00100000
00001000
00000000
00010000
00002000
00000000
00013000
,
00000010
00001000
00000001
00000000
00000010
00000200
00000010
00000000
,
00001300
00000000
00000000
00000000
00001001
00000000
00000000
00000000
00000001
00000000
00000000
00000100
00000000
00000000
00000010
00000000
,
00001000
00000000
00000000
00000000
00010000
00000000
00100000
00000000
00010000
00000000
00000000
10000000
00000000
00000000
00010000
00000000
,
00000000
10000000
01000000
00010000
00000000
00001000
00000100
00000001
,
00000000
00000020
00000000
00000000
00000130
00000100
00001000
00000000
,
00000001
00000000
00000000
00000200
00000000
00000000
00000310
00000000
00001000
00000000
00000000
00000000
00010000
00000000
00000000
00000000
,
00100000
00000000
00000000
02000000
00000000
00000000
13000000
00000000
00100000
00000000
00000000
00000000
10000000
00000000
00010000
00000000
,
10000000
00000000
00000000
02000000
00000000
00000000
03100000
00000000
00010000
00000000
00000000
00002000
00000000
00000000
00000000
00000000
,
00003010
00000100
00000001
00000000
00000010
00000000
00000100
00000100
,
00010000
00000000
00001000
00010000
00000100
00000000
00010000
00001000
,
01000000
00000000
00001000
00010000
00000010
00000000
00010000
00000000
,
00011000
00000000
00001000
00010000
00010000
00000000
01000000
00000000
,
10000000
00100000
01000000
00000000
00010000
00000000
00100000
00000000
,
00002000
00000000
00023000
00000000
00000000
00000100
00000000
00000000
,
00001000
00000000
00031000
00000000
00010000
00000100
00001000
00000000
,
00000002
00000000
00000023
00000000
00000000
00001000
00000000
00000000
,
00000130
00000000
00001000
00000000
00000001
00000010
00000000
00000010
,
00000001
00000000
00000100
00001000
00010000
00000000
01000000
00010000
,
00001000
00000000
00010000
00001000
00010000
00000000
00001000
00000000
,
00021000
00000000
00130000
01000000
00010000
00000000
00010000
00000000
,
10000000
00000000
01000000
00000000
00010000
00010000
00001000
00000010
,
00000200
00000300
00000200
00000300
00000200
00000300
00000200
00000300
,
00020000
00030000
00020000
00030000
00020000
00030000
00020000
00030000
,
00001000
00001000
00010000
00010000
01000000
01000000
00100000
00020000
,
01000000
00000000
10030000
00000000
00100000
01000000
00010000
00000000
,
00000000
10000000
00100000
00000000
10000000
02000000
00100000
00000000
,
13000000
00010000
02000000
03020000
,
10030000
00000000
00100000
01000000
00000000
00000000
00010000
00000000
00000000
00100000
00000000
00000000
,
00001000
00001000
00010000
00000000
00000010
00001000
00000100
00001000
,
00000000
00000001
00000010
00000000
00000001
00000200
00000010
00000000
,
00000301
00001000
00000200
00002300
,
00003001
00000000
00000010
00000100
00000000
00000000
00001000
00000000
00000000
00000010
00000000
00000000
,
00010000
00010000
00001000
00000000
00100000
00010000
01000000
01000000
,
00100000
00000000
10000000
01000000
00010000
01000000
00000000
10000000
,
00010000
00000000
01000000
00000000
00001000
00010000
00001000
00000000
,
00010000
00000000
00000000
00001000
00000000
00000000
00000100
00000000
00000010
00000000
00000000
00000000
00001000
00000000
00000000
00000000
,
00000001
00000000
00000000
00000010
00000000
00000000
00000100
00000000
00010000
00000000
00010000
00000000
00001000
00000000
00000000
00000000
,
00000100
00000000
00000000
00000000
00000001
00000000
00000010
00000000
00001000
00000000
00000010
00000000
00000000
00000010
00000000
00000000
,
00000001
00000000
00000100
00000000
00001000
00010000
00001000
00000000
,
00010000
00000000
00000000
01000000
00000000
00000000
10000000
00000000
00100000
00000000
00000000
00000000
01000000
00000000
00000000
00000000
,
00010000
00100000
00001000
00000000
00010000
00000010
00001000
00001000
,
00000001
00000000
00000000
00000000
;

//---------------dance-double - t7r----------------
#NOTES:
     dance-double:
     t7r:
     Hard:
     12:
     :
00000000
00000000
00000000
00000000
,
00000000
00000000
00000000
00000000
,
00000000
00000000
00000000
00000000
,
00000000
00000000
00000000
00000000
,
00000000
00000000
00000000
00000000
,
00000001
00000100
00000010
00001000
00000001
00000010
00000100
00001000
,
00010000
00100000
00010000
10000000
00100000
00000000
10000000
01000000
,
00020000
00032000
00000100
00013000
,
00000010
00000010
00001000
00001000
00000001
00000001
00000010
00001000
,
00020000
00030000
00020000
00030000
00020000
00030000
00020000
00030000
,
00100000
00000000
00000000
01000000
00000000
00000000
02000000
00000000
00000000
00000000
00000000
00000000
03010000
00000000
00000000
10000000
00000000
01000000
10000000
00000000
00000000
00010000
00000000
00000000
,
10000000
00000000
00000000
00000000
11000000
00000000
00000000
00000000
01100000
00000000
00000000
00100000
00001000
00000000
00010000
00000000
,
00001000
00000000
00000000
00000000
00011000
00000000
00010000
00000000
00000010
00000000
00000000
00000100
00000001
00000000
00001000
00000000
,
00000001
00000010
00000100
00001000
00010000
02000000
00000000
03100000
,
10000000
01000000
00100000
00010000
00001000
00000020
00000000
00000130
,
00000001
00000000
00000010
00000000
00000011
00000000
00000000
00000000
00001001
00000000
00000000
00000001
00000100
00000000
00000001
00000000
,
00001000
00000000
00000000
00000000
00001100
00000000
00000100
00000000
00010000
00000000
00000000
00001000
01000000
00000000
00010000
00000000
,
10000000
00100000
00010000
00001000
00100000
01000000
00010000
00001000
,
00000100
00000020
00001000
00000000
00000130
00000100
00000001
00001000
,
00000001
00000000
00000010
00000200
00000000
00000000
00010300
00000000
00001000
00000000
00000000
00000000
00010000
00000000
00001000
00000000
,
01000000
00000000
00100000
20000000
00000000
00000000
30010000
00000000
00100000
00000000
00000000
00000000
00010000
00000000
10000000
00000000
,
00100000
00000000
00010000
00002000
00000000
00000000
00013000
00000000
00001000
00000000
00000010
00000200
00000000
00000000
00001300
00000000
,
00000001
00000100
00001000
00010000
00000100
00010000
00011000
00000000
,
00100000
00001000
00010000
00010000
00000010
00010000
00001000
00001000
,
01000000
00001000
00010000
00010000
00000100
00010000
00001000
00000000
,
00011000
00000000
00000000
00000000
00001000
00000000
00010000
00000000
01000000
00000000
00000000
01000000
00000000
00000000
00000000
00000000
,
10000000
00100000
01000000
01000000
00010000
00001000
00000100
00000010
,
00000002
00000000
00000203
00000000
00000000
00001000
00000000
00000010
,
00000001
00000010
00000301
00000010
00000100
00001000
00010000
00010000
,
20000000
00000000
30200000
00000000
00000000
00010000
01300000
00000000
,
00010000
00010000
00100000
01000000
10000000
00020000
01000000
00000000
,
10030000
00100000
00010000
00001000
00000010
00000001
00000100
00000010
,
00001000
00000001
00000010
00001000
00010000
00000000
00011000
00001000
,
00200000
00000000
00310000
00010000
10000000
00000000
00100000
00000000
,
10000000
10000000
01000000
01000000
00010000
00010000
00001000
00001000
,
00020000
00030000
00020000
00030000
00020000
00030000
00020000
00030000
,
00002000
00003000
00002000
00003000
00002000
00003000
00002000
00003000
,
00000100
00000100
00000001
00000001
00000010
00000010
00000100
00000100
,
00010000
00000000
00001000
00000000
00010000
00000000
00001000
00000000
00000000
01000000
00000000
00010000
10000000
00000000
00000000
00000000
00000000
00000000
10010000
00000000
00000000
00000000
00000000
00000000
,
20000000
01000000
30020000
00000000
01030000
00200000
00010000
00000000
,
10300000
01000000
00020000
00000000
00032000
00000000
00003200
00000000
,
00000301
00000010
00000001
00001000
00000000
00000000
00000001
00000010
00000001
00001000
00000000
00000000
,
00000001
00000100
00000001
00000000
00001000
00000000
00000100
00000000
00010000
00000000
00001000
00000000
00010000
00000000
01000000
00000000
,
20000000
00100000
30020000
00000000
00130000
02000000
00010000
00000000
,
13000000
00100000
00020000
00000000
00032000
00000000
00003020
00000000
,
00000031
00000010
00000100
00001000
00000000
00000000
00000001
00000100
00000010
00001000
00000000
00000000
,
00000100
00000000
00000000
00000010
00000000
00000000
00000100
00000000
00000000
00000000
00000000
00000000
00000001
00000000
00000000
00000000
00000000
00000000
00000001
00000000
00000000
00000000
00000000
00000000
00000100
00000000
00000000
00000000
00000000
00000000
00010000
00000000
00000000
00000000
00001000
00000000
00010000
00000000
00000000
00000000
00000000
00000000
00001000
00000000
00000000
00000000
00000000
00000000
,
01000000
00000000
00000000
00000000
00000000
00000000
00000000
00000000
00000000
00000000
00000000
00000000
00010000
00000000
00000000
00000000
00100000
00000000
00000000
00000000
00000000
00000000
00000000
00000000
00010000
00000000
00000000
01000000
00000000
00000000
00000000
00000000
00000000
00000000
00000000
00000000
00010000
00000000
00000000
10000000
00000000
00000000
00000000
00000000
00000000
00000000
00000000
00000000
,
00010000
00100000
00000000
00000000
00010000
00000000
10000000
00100000
00000000
00010000
00000000
00000000
00001000
00000000
00000000
00000000
,
00010000
00000000
00001000
00000010
00000000
00000100
00000000
00000000
00001000
00000000
00000001
00000000
00000100
00000000
00000100
00000000
,
00000001
00000000
00000100
00000000
00001000
00010000
00000000
00000000
00001000
00000000
00001000
00000000
00100000
00000000
00010000
10000000
,
00010000
00000000
00000000
00000000
00000000
00000000
00000000
00000000
00000000
00000000
00000000
00000000
10000000
00000000
00000000
00000000
01000000
00000000
00000000
00000000
00000000
00000000
00000000
00000000
00100000
00000000
00000000
10000000
00000000
00000000
00000000
00000000
00000000
00100000
00000000
00000000
01000000
00000000
00000000
10000000
00000000
00000000
00000000
00000000
00000000
00000000
00000000
00000000
,
00010000
00000000
00000000
00000000
10000000
00000000
00100000
00010000
00000000
00001000
00100000
00000000
00001000
00010000
00000000
00000000
,
00000100
00000000
00010000
00000100
00000000
00001000
00000000
00000010
00000100
00000000
00000100
00000000
00001000
00000000
00001000
00000000
,
00010000
00001000
00010000
00000000
00000000
01000000
00000000
00100000
00001000
00000000
00010000
00000000
00001000
00000000
00001000
00000000
,
00010000
00000000
00000000
00000000
;

//---------------dance-double - t7r----------------
#NOTES:
     dance-double:
     t7r:
     Challenge:
     14:
     :
00000000
00000000
00000000
00000000
,
00000000
00000000
00000000
00000000
,
00000000
00000000
00000000
00000000
,
00000000
00000000
00000000
00000000
,
00000000
00000000
00000000
00000000
,
11000000
01000000
10000000
00010000
01010000
01000000
00001000
00010000
,
00011000
00010000
00000100
00001000
00001001
00000000
00000001
00000010
,
00000011
00000000
00000110
00000100
00020000
00000000
00031000
01000000
,
00010000
10000000
01000000
00010000
00001000
00000100
00000001
00000010
,
00000200
00000300
00000200
00000300
00000200
00000300
00000200
00000300
,
00010000
00000000
00000000
00001000
00000000
00000000
00002000
00000000
00000000
00000000
00000000
00000000
01003000
00000000
00000000
00010000
10000000
00010000
00100000
00000000
00000000
00010000
00000000
00000000
,
10000000
00000000
01000000
10000000
01000000
00000000
10000000
00010000
01000000
00000000
00020000
00000000
00100000
00000000
10030000
00000000
,
00010000
00000000
01000000
00010000
10000000
00000000
01000000
00000000
00010000
00000000
00001000
00010000
00000100
00000000
00001000
00000000
,
00000001
00000020
00001030
00000020
00000130
00000200
00000000
00010300
,
00001000
00000000
00020000
00000000
00130000
00000000
10000000
00010000
10000000
00000000
01000000
00100000
00010000
00000000
10000000
00010000
,
10000000
00100000
01100000
00100000
00010000
00002000
00010000
01003000
,
00010000
10000000
11000000
01000000
00010000
00002000
00000100
00013000
,
00001000
00010000
00002000
00003020
00000031
00000100
00002000
00023000
,
01030000
00000000
00000000
00000000
00100000
00000000
01000000
00000000
00000000
00000000
00000000
00000000
10000000
00000000
00000000
00000000
00000000
00000000
10000000
00000000
00000000
00000000
00000000
00000000
00010000
00000000
00000000
00100000
00000000
00000000
01000000
00000000
00000000
10000000
00000000
00000000
00010000
00000000
00000000
00000000
00000000
00000000
00010000
00000000
00000000
00000000
00000000
00000000
,
10000000
00000000
00100000
00010000
00000000
00001000
01000000
00000000
00010000
00000000
00100000
00000000
01000000
00100000
00010000
00000000
,
00001000
00000000
00000010
00000001
00000000
00000010
00000100
00000000
00000010
00000000
00001000
00000000
00000100
00010000
00001000
00000000
,
00000100
00000000
00000001
00000020
00000000
00001030
00010000
00000000
00100000
00000000
10000000
00020000
00000000
00130000
00001000
00000000
,
00010000
00000000
00000100
00001000
00000001
00000000
00000100
00000000
00001000
00000000
00010000
00000100
00001000
00000001
00001000
00000000
,
00000001
00000000
00000001
00000000
00001000
00000100
00000010
00000001
00001000
00000000
00001000
00000000
00000100
00010000
00001000
00010000
,
00001000
00000000
00001000
00000000
02000000
00000000
03010000
00100000
01000000
00000000
10000000
00000000
00200000
00000000
00010000
00000000
,
01300000
00000000
00000000
00000000
00100000
00000000
10000000
00000000
10000000
00000000
00000000
01000000
00100000
00000000
00001000
00000000
,
00010000
00000000
00001000
00010000
00000000
00000000
00022000
00000000
00000000
00033000
00000000
00000000
00001000
00000000
00000000
00000010
00000000
00000000
00000001
00000000
00000000
00000100
00000000
00000000
,
00000102
00000010
00001000
00000000
00000103
00000020
00000000
00000001
,
00000100
00000001
00000130
00000001
00000010
00001000
00010000
00100000
,
20100000
01000000
00010000
00000000
30100000
02000000
00000000
00000000
,
10000000
00100000
00100000
00010000
03010000
10000000
01000000
00010000
,
00011000
00001000
00000100
00000010
00000110
00000010
00010000
00001000
,
00011000
00010000
01000000
00100000
00110000
00000000
10010000
10000000
,
11000000
00000000
01100000
00100000
00101000
00000000
00011000
00000000
,
00010010
00000010
00000110
00000100
00000001
00000001
00001000
00010000
,
20000000
30000000
20000000
30000000
00020000
00030000
00020000
00030000
,
00002000
00003000
00002000
00003000
00000002
00000003
00000002
00000003
,
00000010
00000010
00001000
00001000
00010000
00010000
00100000
00100000
,
10000000
00000000
00000000
00000000
01000000
00000000
00000000
00000000
00100000
00000000
00000000
00000000
00010000
00000000
00000000
00000000
00000000
00000000
00001000
00000000
00000010
00000000
00000100
00000000
00000010
00000000
00000000
00001000
00000000
00000000
00000001
00000000
00000000
00000010
00000000
00000000
00000100
00000000
00000000
00000000
00000000
00000000
00010000
00000000
00000000
00000000
00000000
00000000
,
00001000
00010000
01010000
01000000
10000000
00010000
02000000
00000000
,
13000000
00000000
00000000
00000000
00000000
00000000
01000000
00000000
00000000
00000000
00000000
00000000
01010000
00000000
00000000
00000000
00000000
00000000
00010000
00000000
00000000
00000000
00000000
00000000
20000000
00000000
00000000
00000000
00000000
00000000
00000000
00000000
00000000
31000000
00000000
00000000
00200000
00000000
00000000
00000000
00000000
00000000
00000000
00000000
00310000
00000000
00000000
00000000
,
01000000
00001000
00010000
00001000
00000000
00010000
00000100
00001000
00000001
00001000
00000000
00000000
,
00000001
00000100
00000010
00000000
00000100
00000000
00001000
00000000
00010000
00000000
01000000
00000000
00100000
00000000
00001000
00000000
,
00010000
00001000
00001010
00000010
00000001
00001000
00000020
00000000
,
00000031
00000000
00000000
00000000
00000000
00000000
00000010
00000000
00000000
00000000
00000000
00000000
00001010
00000000
00000000
00000000
00000000
00000000
00001000
00000000
00000000
00000000
00000000
00000000
00000002
00000000
00000000
00000000
00000000
00000000
00000000
00000000
00000000
00000013
00000000
00000000
00000200
00000000
00000000
00000000
00000000
00000000
00000000
00000000
00001300
00000000
00000000
00000000
,
00000010
00010000
00001000
00010000
00000000
00001000
00100000
00010000
10000000
00010000
00000000
00000000
,
10000000
00000000
00000000
00100000
00000000
00000000
01000000
00000000
00000000
00100000
00000000
00000000
10000000
00000000
00000000
00000000
00000000
00000000
10000000
00000000
00000000
00000000
00000000
00000000
01000000
00000000
00000000
00000000
00000000
00000000
00010000
00000000
00001000
00000000
00010000
00000000
00000100
00000000
00000000
00000000
00000000
00000000
00010000
00000000
00000000
00000000
00000000
00000000
,
00002000
00000000
00000000
00000000
00000000
00000000
00000000
00000000
00000000
00000000
00000000
00000000
00013000
00000000
00000000
00000000
01000000
00000000
00000000
00000000
00010000
00000000
00000000
00000000
01000000
00000000
00000000
00200000
00000000
00000000
00010000
00000000
00000000
00000000
00000000
00000000
01300000
00000000
00000000
10000000
00000000
00000000
00010000
00000000
00000000
00000000
00000000
00000000
,
10000000
00200000
00000000
01300000
00001000
00010000
00001000
00010000
00000000
00001000
00000100
00000000
00000002
00000000
00000013
00000000
,
00000100
00001000
00000000
00000001
00000000
00000100
00001000
00010000
00001000
01000000
00010000
00000000
10000000
00010000
10000000
00100000
,
01000000
00010000
00000000
10000000
00000000
01000000
00010000
00001000
00010000
00000100
00001000
00000000
00000001
00000000
00001000
00000010
,
00020000
00000000
00000000
00000000
00000000
00000000
00000000
00000000
00000000
00000000
00000000
00000000
00031000
00000000
00000000
00000000
00000010
00000000
00000000
00000000
00001000
00000000
00000000
00000000
00000010
00000000
00000000
00000200
00000000
00000000
00001000
00000000
00000000
00000000
00000000
00000000
00000310
00000000
00000000
00000001
00000000
00000000
00001000
00000000
00000000
00000000
00000000
00000000
,
00000001
00000200
00000000
00000310
00010000
00001000
00010000
00001000
00000000
00010000
00100000
00000000
20000000
00000000
31000000
00000000
,
00100000
00010000
00000000
10000000
00000000
00100000
00010000
00001000
00010000
00000010
00001000
00000000
00000001
00001000
00000001
00000100
,
00000010
00001000
00000000
00000001
00000000
00000010
00001000
00010000
00001000
00100000
00010000
00000000
10000000
00000000
00010000
00000000
,
00001000
00000000
00000000
00000000
;
