#TITLE:No Day But Today!;
#ARTIST:NU-KO & yunocy;
#BANNER:No Day But Today!.png;
#BACKGROUND:No Day But Today!-bg.png;
#JACKET:No Day But Today!-jacket.png;
#CDTITLE:./CDTITLES/BEATMANIA IIDX.PNG;
#MUSIC:No Day But Today!.ogg;
#SAMPLESTART:22.4;
#SAMPLELENGTH:15;
#BPMS:0=150;

//---------------dance-single - t7r----------------
#NOTES:
     dance-single:
     t7r:
     Beginner:
     2:
     :
0000
0000
0000
0000
,
0000
0000
0000
0000
,
0000
0000
0000
0000
,
0000
0000
0000
0000
,
0000
0000
0000
0000
,
0000
0000
0000
0000
,
1000
0000
0000
0000
,
0001
0000
0000
0000
,
0100
0000
0000
0000
,
0010
0000
0010
0000
,
1000
0000
0000
0000
,
0100
0000
0000
0000
,
0010
0000
0000
0000
,
0001
0000
0000
0000
,
0100
0000
0000
0000
,
0000
0010
0000
0000
,
0000
0000
0000
0000
,
1000
0000
0000
0000
,
0000
0001
0000
0001
,
0000
1000
0000
1000
,
0000
0010
0000
0010
,
0010
0000
0000
0000
,
0100
0000
0000
0000
,
0001
0000
0000
0000
,
1000
0000
0000
0000
,
0100
0000
0100
0000
,
0010
0000
0000
0000
,
0001
0000
0000
0000
,
0100
0000
0100
0000
,
0010
0000
0000
0000
,
1000
0000
1000
0000
,
0001
0000
0001
0000
,
0010
0000
0010
0000
,
0100
0000
0100
0000
,
1000
1000
1000
0000
,
0001
0000
0001
0000
,
0100
0000
0100
0000
,
0010
0000
0010
0000
,
1000
0000
0001
0000
,
0010
0000
0000
0000
,
0001
0000
1000
1000
,
1000
0000
0010
0010
,
0010
0000
0100
0100
,
0100
0000
0001
0001
,
0001
0000
0010
0000
,
0100
0000
1000
0000
,
0010
0000
0010
0000
,
1001
0000
0000
0000
,
1000
0000
0100
0000
,
0001
0000
0100
0000
,
1000
0000
0010
0000
,
0001
0000
0010
0000
,
0100
0000
0100
0000
,
0001
0000
0001
0000
,
0010
0000
0100
0000
,
1000
1000
1000
0000
,
1001
0000
0000
0000
,
0000
0100
0000
0000
,
0000
0010
0000
0000
,
0000
0000
0000
0000
,
0000
1001
0000
0000
;

//---------------dance-single - t7r----------------
#NOTES:
     dance-single:
     t7r:
     Easy:
     6:
     :
0000
0000
0000
0000
,
0000
0000
0000
0000
,
0000
0000
0000
0000
,
0000
0000
0000
0000
,
0000
0000
0000
0000
,
0000
0000
0000
0000
,
1000
1000
0001
0100
,
0001
0010
0200
0300
,
1000
1000
0001
0010
,
0000
0001
1000
1001
,
0001
0001
0100
0001
,
1000
0100
0020
0030
,
0100
1000
0010
0100
,
0002
0000
0020
0033
,
0001
0000
0000
0000
0000
0000
0000
0001
0000
0000
0001
0000
0000
0000
0000
0000
,
0000
0000
1000
0000
0000
0000
0000
1000
0000
0000
0000
0000
1000
0000
0000
1000
,
0000
0000
0000
0000
0000
0000
0000
0010
0000
0000
0010
0000
0000
0000
0000
0000
,
0000
0000
0100
0000
0000
0100
0000
0000
0000
0000
0000
0000
0010
0000
0000
0000
,
0100
0001
0100
0001
,
1000
0100
1000
0100
,
0010
0010
0001
1000
,
0020
0000
0000
0030
,
1000
0100
0001
0001
,
0100
1000
0020
0030
,
1000
0001
0100
0100
,
0001
0010
1001
1001
,
0001
0100
1000
1000
,
0100
0001
0020
0030
,
0001
1000
0100
0100
,
2000
0000
0010
3001
,
1000
0100
0020
0030
,
0001
0100
0020
0030
,
1000
0001
0200
0300
,
0001
0001
1000
2001
,
3001
0010
2000
3000
,
0001
0100
1000
1000
,
0020
0000
0001
0130
,
0020
2030
3200
0320
,
0032
0000
0000
0000
,
1003
0000
0000
0000
,
0210
0000
0001
0301
,
0120
0000
1000
1030
,
2100
0000
0001
3001
,
0201
0320
2030
3001
,
1000
0100
0020
0130
,
0001
0100
0020
0130
,
1000
0001
1000
0001
,
0100
0010
0220
0330
,
0002
0000
0010
1000
,
2003
0000
0010
0001
,
3001
0100
0010
1000
,
0100
0110
0001
1001
,
0001
0100
0100
0010
,
1000
0100
0100
0010
,
0002
0000
0000
0000
,
0103
0010
1000
0001
,
1000
0000
0000
0000
0000
0000
0000
1000
0000
0000
1000
0000
0000
0000
0000
0000
,
0000
0000
0001
0000
0000
0001
0000
0000
0000
0000
0000
0000
0100
0000
0000
0100
,
0000
0000
0000
0000
0000
0000
0000
0010
0000
0000
0010
0000
0000
0000
0000
0000
,
0000
0000
0000
0000
,
0000
2002
0000
0000
,
0000
0000
0000
0000
,
3003
0000
0000
0000
;

//---------------dance-single - t7r----------------
#NOTES:
     dance-single:
     t7r:
     Medium:
     11:
     :
0000
0000
0000
0000
,
0000
0000
0000
0000
,
0000
0000
0000
0000
,
0000
0000
0000
0000
,
0000
0000
0000
0000
,
0000
0000
0000
0000
,
1000
0000
0000
0000
0100
0000
0000
0010
0000
0000
0010
0000
0001
0000
0000
0000
,
1000
0000
0010
0000
0100
0000
0000
0002
0000
0000
0000
0000
1003
0000
0000
0000
,
0001
0101
1000
1100
,
0001
0010
0010
0010
0100
0000
0110
0000
,
0001
0000
0000
0000
0010
0000
0000
0100
0000
0000
0100
0000
1000
0000
0000
0000
,
0001
0000
0100
0000
0010
0000
0000
2000
0000
0000
0000
0000
3001
0000
0000
0000
,
1000
0000
1000
0100
0000
0100
0010
0000
0010
0001
0000
1000
,
0020
0000
0200
0330
,
0001
0000
0001
0000
1000
0000
0000
0001
0000
0000
0001
0000
0200
0000
0000
0000
,
0000
0000
0301
0000
0000
0001
0000
0010
0000
0000
0001
0000
1000
0000
0000
1000
,
0000
0000
0100
0000
0010
0000
0000
0100
0000
0000
0100
0000
1000
0000
1000
0000
,
0001
0000
0100
0000
0000
0100
0000
0010
0000
0000
0100
0000
0001
0000
0000
0000
,
1000
0000
1010
0000
1000
0000
0100
0010
,
0010
0000
0001
0000
0000
0100
0000
0001
0000
0000
1000
0000
0001
0000
0000
1000
,
0000
0010
0100
0100
0001
0001
0010
0100
,
2000
0000
0000
0000
0000
0000
3010
0000
0100
0001
0000
0001
,
1000
0000
0100
0000
0010
0000
0000
0100
0000
0000
0100
0000
0001
0000
0100
0000
,
1000
0000
0010
0000
0100
0000
0000
0020
0000
0000
0000
0000
1030
0000
0000
0000
,
0001
0011
1000
1010
,
0001
0001
0100
0100
0010
0000
0110
0000
,
0001
0000
0010
0000
0100
0000
0000
0010
0000
0000
0010
0000
1000
0000
0010
0000
,
0001
0000
0100
0000
0010
0000
0000
0200
0000
0000
0000
0000
0301
0000
0000
0000
,
1000
0000
0100
0010
0000
0001
0100
0000
0001
1000
0000
1000
,
0002
0000
0103
0120
,
1030
0000
0100
0010
0002
0000
0103
0010
,
2000
0000
0000
0000
3100
0000
0010
0000
0001
0000
0000
0001
0000
0000
1000
0000
,
0001
0000
0000
0101
0000
0000
0001
0000
1000
0000
0000
1100
0000
0000
1000
0000
,
0001
0000
0000
1000
0000
0000
0001
0000
0010
0000
0100
0000
0020
0000
0000
0000
,
0031
0000
0100
1000
0200
0000
0310
0100
,
0020
0000
0000
0000
1030
0000
0100
0000
0001
0000
0000
0100
0000
0000
1000
0000
,
0002
0000
0010
0000
1003
0100
0020
0000
,
0230
2300
3020
0230
,
0301
0001
1000
1000
0010
0010
0100
0100
,
0001
1000
0000
0001
1000
0000
0010
0100
0000
0010
0100
0000
0020
0000
0000
0000
,
2030
0000
0000
0000
0100
0000
0000
0000
3001
0000
0000
1001
0000
0000
1000
0000
,
0002
0000
0000
0000
0100
0000
0000
0000
1003
0000
0000
1001
0000
0000
0001
0000
,
2000
0000
0000
0000
0010
0000
0000
0000
3100
0000
0000
1100
0000
0000
1000
0000
,
0010
0000
0000
0000
0110
0000
0000
0110
0000
0000
0001
0000
2000
0000
0000
0000
,
3001
0000
0000
0010
0000
0000
0100
0000
0002
0000
0000
0000
0103
0000
0000
0000
,
1000
0000
0000
0010
0000
0000
0100
0000
2000
0000
0000
0000
3100
0000
0010
0000
,
1000
0000
0000
1010
0000
0000
1000
0000
0001
0000
0000
0011
0000
0000
0001
0000
,
1000
0110
2002
3003
,
1200
0000
0310
0100
2000
0000
0010
0000
,
3001
0000
0000
0100
0000
0000
0001
0000
0020
0000
0000
0000
0001
0000
0000
0000
,
0130
0000
0000
0001
0000
0000
0100
0000
2000
0000
0000
0000
3010
0000
0000
0000
,
0110
0101
1100
1001
,
1000
0000
1000
0000
0100
0000
1000
0001
0000
0000
0100
0000
0100
0000
0001
1000
,
0000
0000
0100
0000
0100
0000
1000
0001
0000
0000
0100
0000
0100
0000
0010
2000
,
0000
0100
0001
3010
,
0100
0110
0010
1001
,
1000
0000
0100
0000
0010
0000
0000
0001
0000
0000
0001
0000
0100
0000
0010
0000
,
1000
0000
0001
0000
0000
0001
0000
1000
0000
0000
0001
0000
0010
0000
0000
0010
,
0000
0000
0100
0000
1000
0000
0000
0010
0000
0000
0010
0000
0100
0000
0001
0000
,
1000
0000
0000
0000
,
0000
0220
0000
0000
,
0000
0000
0000
0000
,
0330
0000
0000
0000
;

//---------------dance-single - t7r----------------
#NOTES:
     dance-single:
     t7r:
     Hard:
     13:
     :
0000
0000
0000
0000
,
0000
0000
0000
0000
,
0000
0000
0000
0000
,
0000
0000
0000
0000
,
0000
0000
0000
0000
,
0000
0000
0000
0000
,
1000
0000
0100
0000
1000
0000
0001
0100
0000
0001
0000
1000
0001
0000
1000
0000
,
0001
0000
0010
0000
0001
0000
1000
0020
0000
0000
0130
0000
0001
0000
0000
1000
,
0001
0010
0110
0000
1000
0010
0110
0000
,
0001
0100
0100
0100
0002
0010
2003
0010
,
3001
0000
0100
0000
0010
0000
0100
0001
0000
1000
0000
0001
0010
0000
0001
0000
,
1000
0000
0100
0000
0010
0000
0100
2000
0000
0000
3001
0000
0100
0000
0100
0000
,
0010
0000
0010
1000
0000
1000
0001
0010
0001
1000
0010
1000
,
0200
1000
0020
0330
,
1001
0000
0001
0000
1000
0000
0000
0001
0000
0100
0001
0000
1000
0000
1000
0000
,
1000
0000
0001
0000
0000
0010
0000
0001
0000
0000
1000
0000
0010
0000
0000
1000
,
0000
0000
1000
0000
0001
0000
0000
0010
0000
0010
0001
0000
1000
0100
1000
0000
,
0100
0000
1000
0000
0000
1000
0000
0001
0000
0000
0001
0000
0100
0000
0001
1000
,
0000
0000
0100
0000
1000
0000
0100
0010
0000
0100
1000
0000
0001
0000
0010
0000
,
0011
0000
0001
0000
0000
0100
0000
0010
0000
0000
1000
0000
0100
0000
0000
0110
,
0000
0000
0001
0000
1000
0000
1000
0000
0010
0100
0010
0000
1000
0001
1000
0000
,
0002
0000
0000
0000
0000
0000
1003
0100
1000
0001
0100
0001
,
1000
0000
0100
0000
0010
0000
0100
0001
0000
0100
0000
0010
0100
0000
1000
0000
,
0001
0000
0100
0000
0010
0000
0100
2000
0000
0000
3100
0000
0010
0000
1000
0000
,
0100
0010
1001
0000
0010
0100
1001
0000
,
1000
0100
0100
0100
0110
0000
1001
0000
,
0001
0000
0010
0000
0100
0000
0010
1000
0000
0010
0000
0100
0010
0000
0001
0000
,
1000
0000
0010
0000
0100
0000
0010
0002
0000
0000
0013
0000
0100
0000
0001
0000
,
1000
0010
1000
0001
0010
0001
1000
0100
1000
0001
0100
0001
,
2000
0000
0000
0100
0000
0000
3001
0000
1000
0000
0000
0000
1001
0000
0000
0000
,
0001
0000
0100
0010
0000
0001
0010
0000
0100
0000
0002
0000
0000
0000
1003
0000
,
0100
0000
0002
0000
0000
0000
1003
0000
0010
0100
0000
0100
1000
0000
0001
0000
,
1000
0000
0100
0010
0000
1000
0010
0000
0100
0000
1000
0000
0002
0000
0000
0000
,
0103
0000
0000
0010
0100
0000
0010
0000
1000
0000
0001
0000
1001
0000
0000
0000
,
1000
0000
0010
0100
0000
1000
0100
0000
0010
0000
0200
0000
0000
0000
1300
0000
,
0100
0000
0002
0000
0000
0000
1003
0000
0100
0010
0100
0010
0000
0010
0001
0000
,
2000
0100
0001
0000
0100
0000
3002
0000
,
1003
0010
0100
0000
0001
0010
0100
0000
,
1000
1000
0010
0010
0100
0100
0001
0001
,
1000
0100
0000
0010
0001
0000
1000
0010
0000
0100
0001
0000
1001
0000
0000
0000
,
0002
0000
0000
0000
0103
0000
0001
1000
0001
0000
0000
1000
0000
0000
0100
0000
,
2000
0000
0000
0000
0010
3000
0001
1000
0001
0000
0000
0010
0000
0000
0001
0000
,
0200
0000
0000
0000
1000
0000
0310
0100
0010
0000
0000
0100
0000
0000
0001
0000
,
0020
0000
0000
0000
1000
0000
0000
0130
0010
0000
0001
0000
0101
0000
0000
0000
,
1001
0000
0000
1000
0100
0000
0010
0000
0100
0000
1000
0000
0001
0000
0000
0000
,
0101
0000
0000
0001
0100
0000
0010
0000
0100
0000
0001
0000
1000
0000
0010
0000
,
1010
0000
0000
1010
0000
0000
0001
0000
0101
0000
0000
0101
0000
0000
1000
0000
,
1100
0011
2001
3010
,
0200
0000
0000
0000
1300
0000
0100
0000
0002
0000
0000
0013
0100
0000
0010
0000
,
2000
0000
0000
3010
0100
0000
0010
0000
0001
0000
0100
0000
0210
0000
0000
0000
,
0302
0000
0000
0013
0001
0000
1000
0000
0020
0000
1000
0000
0230
0000
0000
0000
,
0302
0010
2003
0010
3002
0100
2003
0100
,
3001
0000
0001
0000
1000
0100
1000
0100
0000
0000
1000
0000
0001
0100
0001
0100
,
0000
0000
0001
0000
1000
0010
1000
0010
0000
0000
1000
0000
0001
0000
0010
0002
,
0000
0000
0000
0103
0010
0000
0000
0000
0100
0001
0000
0001
1000
0000
0001
0000
,
1000
0100
0010
0001
0100
0010
1000
0001
,
0100
0000
0100
0000
1020
0000
0000
0130
0000
0000
0100
0000
0010
0000
0100
0000
,
0001
0000
0010
0000
0000
0010
0000
0001
0000
0000
0001
0000
1000
0000
0000
1000
,
0000
0000
0001
0000
2001
0000
0000
3010
0000
0100
0010
0000
1000
0100
0010
0000
,
0001
0000
0000
0000
,
0000
0220
0000
0000
,
0000
0000
0000
0000
,
0330
0000
0000
0000
;

//---------------dance-single - t7r----------------
#NOTES:
     dance-single:
     t7r:
     Challenge:
     15:
     :
0000
0000
0000
0000
,
0000
0000
0000
0000
,
0000
0000
0000
0000
,
0000
0000
0000
0000
,
0000
0000
0000
0000
,
0000
0000
0000
0000
,
1000
0000
0001
0000
0100
0000
0010
0100
0000
0001
0000
0001
0100
0000
0010
0000
,
1000
0000
0100
0000
0010
0000
0100
0002
0000
0103
0000
1000
0100
0000
1000
0010
,
1000
0100
0000
1000
0001
0000
0100
0020
0000
0130
0000
0000
1000
0000
0100
0000
,
0001
0010
0011
0001
2002
3003
2100
0000
,
3001
0000
1000
0000
0010
0000
0100
0010
0000
1000
0000
1000
0010
0000
0100
0000
,
0001
0000
0010
0000
0100
0000
0010
2000
0000
3010
0000
0001
0010
0001
1000
0000
,
0010
1000
0100
0010
0001
0100
0010
1000
0001
0010
0100
1000
,
0020
0000
0000
0001
0000
0001
0000
0130
0010
0000
0000
0000
1001
0000
0000
0000
,
1100
0000
1100
0000
0001
0000
0000
1100
0000
0000
1100
0000
0002
0000
2003
0000
,
3010
0000
0101
0000
0000
0101
0000
1001
0000
0000
1100
0000
1001
0000
0000
0011
,
0000
0000
0011
0000
2000
0000
3000
0011
0000
0000
0011
0000
1000
0010
0100
0000
,
0100
0000
0110
0000
0000
0110
0000
0101
0000
0000
0110
0000
0010
1000
0001
1000
,
0000
0100
0010
0000
2100
0000
0000
3010
0100
0010
1000
0000
0101
0000
0010
0000
,
1001
0000
1100
0000
0000
1100
0000
1001
0000
0000
0101
0000
1001
0000
0000
0101
,
0000
0000
0110
0000
0010
0000
1010
0000
1000
0100
0010
0001
1000
0001
0100
0001
,
0020
0000
0000
1000
0000
0000
0130
0010
0001
1000
0010
0100
,
1000
0000
0100
0000
0010
0000
0100
0001
0000
0001
0000
0010
0100
0000
0010
0000
,
1000
0000
0010
0000
0100
0000
0010
0001
0000
0100
0000
0010
1000
0000
0100
0010
,
0001
0100
0000
1000
0100
0000
0010
0100
0001
0100
0000
0001
0010
0000
0100
0000
,
0110
0010
0011
0001
2002
3003
2200
3300
,
1001
0000
0001
0000
0010
0000
0100
0001
0000
0001
0000
0100
0010
0000
0100
0000
,
1000
0000
0010
0000
0010
0000
0100
1000
0000
0100
0000
0010
0100
0000
0001
0000
,
1000
0100
0010
1000
0001
0100
0010
0001
1000
0010
0001
1000
,
0100
0000
0001
1000
0000
1000
0000
0010
0100
0000
0010
0000
1020
0000
0000
0000
,
1030
0000
0100
0010
0000
0001
2000
0000
3100
0000
0020
0000
0031
0000
0100
0000
,
1000
0000
0200
0000
0310
0000
0100
0000
0001
1000
0000
0001
0100
0000
0001
1000
,
0001
0000
0000
0011
0000
0000
1001
0000
1010
0000
0010
0100
0002
0000
1003
0100
,
0010
0000
0001
0100
0000
0010
0100
1000
0100
0000
0110
0000
1000
0100
0010
0001
,
1000
0000
0100
0001
0000
0100
0010
0000
0100
0000
2000
0000
0010
0000
3001
0000
,
1000
0000
0002
0000
0100
0000
1003
0000
0001
0100
0001
1000
0000
0001
0010
0000
,
0001
0000
0100
0000
0001
0010
0100
1000
0001
0000
0100
0000
1020
0000
0000
0000
,
1030
0000
0100
0000
1000
0010
0100
0001
1000
0000
0100
0000
0012
0000
0000
0000
,
1003
0000
1000
0000
0010
0000
0010
0000
0100
0010
0100
0010
1000
0001
1000
0001
,
1000
0010
0000
0100
1000
0000
0001
0010
0000
0100
0001
0000
1000
0100
0010
0000
,
0002
0000
0100
0000
1003
0001
0100
0001
1000
0000
0000
1010
0000
0000
1010
0000
,
2000
0000
0100
0000
3001
1000
0100
1000
0001
0000
0000
0101
0000
0000
0101
0000
,
0002
0000
0010
0000
1003
0001
0100
0001
1000
0000
0000
1100
0000
0000
1100
0000
,
0022
0000
0033
0000
2002
0000
3003
0201
0000
0000
0301
0000
2000
0000
0000
0000
,
3010
0000
0100
1000
0000
0100
0010
0000
0200
0000
1000
0000
0310
0000
1000
0000
,
0100
0000
0001
0100
0000
0010
0100
0000
0020
0000
0001
0000
0130
0000
1000
0000
,
1001
0000
0000
0101
0000
0000
1001
0000
1001
0000
0000
1100
0000
0000
1010
0000
,
0110
0000
0000
0000
0101
0000
0000
0000
1001
0000
0001
0010
0200
0000
0000
0000
,
1300
0000
0001
0100
0020
0000
0001
0000
0130
0000
0000
0000
1010
0000
0000
0000
,
1001
0000
1000
0100
0020
0000
1000
0000
0130
0000
0010
0000
0012
0000
0000
0000
,
1003
0000
0000
0010
0100
0000
0010
1000
0001
0000
0000
0000
0120
0000
0000
0000
,
2030
0100
3002
0100
2003
0010
3002
0010
,
0103
0000
0101
0000
0001
1000
0001
0100
0000
0000
0101
0000
0001
1000
0001
0010
,
0000
0000
0011
0000
0010
0001
1000
0001
0000
0000
1001
0000
1000
0001
1000
0100
,
2000
0000
0000
3010
0100
0000
0010
0000
1000
0001
0000
1000
0001
0000
0100
0000
,
0110
0000
0001
0010
0100
0000
1000
0010
0100
0000
0010
0000
1001
0000
0000
0000
,
1100
0000
1100
0000
0002
0000
0003
1100
0000
0000
1100
0000
0002
0000
0203
0000
,
0310
0000
0101
0000
0000
0101
0000
0110
0000
0000
0101
0000
1001
0000
0000
1001
,
0000
0000
1010
0000
0002
0000
0003
1100
0000
0100
1000
0000
0001
1000
0010
0100
,
0001
0000
0000
0000
,
0000
0220
0000
0000
,
0000
0000
0000
0000
,
0330
0000
0000
0000
;

//---------------dance-double - t7r----------------
#NOTES:
     dance-double:
     t7r:
     Easy:
     6:
     :
00000000
00000000
00000000
00000000
,
00000000
00000000
00000000
00000000
,
00000000
00000000
00000000
00000000
,
00000000
00000000
00000000
00000000
,
00000000
00000000
00000000
00000000
,
00000000
00000000
00000000
00000000
,
01000000
00010000
10000000
10000000
,
01000000
00100000
00002000
00003000
,
00010000
00000100
00001000
00001000
,
00000010
00000100
00000010
00001001
,
00000001
00000010
00000100
00000100
,
00010000
00001000
02000000
03000000
,
00100000
10000000
01000000
00010000
,
00002000
00000000
00003020
00000000
,
00000031
00000000
00000000
00000000
00000000
00000000
00000000
00000100
00000000
00000000
00000100
00000000
00000000
00000000
00000000
00000000
,
00000000
00000000
00000010
00000000
00000000
00000000
00000000
00000010
00000000
00000000
00000000
00000000
00000010
00000000
00000000
00000000
,
00000000
00000000
00000000
00000000
00000000
00000000
00000000
00001000
00000000
00000000
00000000
00000000
00000000
00000000
00000000
00000000
,
00000000
00000000
00000100
00000000
00000000
00000000
00000000
00010000
00000000
00000000
00000000
00000000
00010000
00000000
00000000
00000000
,
00001000
00010000
01000000
10000000
,
00000000
00100000
01000000
00001000
,
00010000
00001000
00000100
00000001
,
00000020
00000000
00000000
00000030
,
00000100
00010000
00000100
00010000
,
00001000
00001000
00020000
00030000
,
00001000
01000000
00010000
10000000
,
01000000
00010000
00001000
00011000
,
00001000
00100000
00001000
00100000
,
00001000
00010000
00020000
00030000
,
00001000
00000010
00000001
00000100
,
00002000
00000000
00010000
02003000
,
03100000
00000000
20000000
30000000
,
01000000
00000000
00010000
00010000
,
00001000
00000000
00011000
00000000
,
00000100
00000010
00001001
00000000
,
00000001
00000000
00000200
00000300
,
00002000
00003000
00020000
00030000
,
02000000
00000000
10000000
03200000
,
00302000
00023000
00030020
00000230
,
00000302
00000000
00000000
00000000
,
00001003
00000000
00000000
00000000
,
00001200
00000000
00010000
00010300
,
00012000
00000000
01000000
01003000
,
01020000
00000000
10000000
10030000
,
00200000
20300000
30020000
00130000
,
00001000
00010000
00000020
00000130
,
00000001
00000010
00002000
00013000
,
00011000
00000000
00011000
00000000
,
01000000
00100000
20020000
30030000
,
20000000
00000000
30100000
00000000
,
00010000
00001000
00020000
00000000
,
00031000
00000010
00000100
00000010
,
00000002
00000203
00002300
00023000
,
00031000
00001000
00010000
00010000
,
01000000
01000000
00100000
00100000
,
00002000
00000000
00000000
00000000
,
00013000
00011000
00001000
00011000
,
00010000
00000000
00000000
00000000
00000000
00000000
00000000
00010000
00000000
00000000
00010000
00000000
00000000
00000000
00000000
00000000
,
00000000
00000000
00001000
00000000
00000000
00001000
00000000
00000000
00000000
00000000
00000000
00000000
00000100
00000000
00000000
00000100
,
00000000
00000000
00000000
00000000
00000000
00000000
00000000
00000010
00000000
00000000
00000010
00000000
00000000
00000000
00000000
00000000
,
00000000
00000000
00000000
00000000
,
00000000
00022000
00000000
00000000
,
00000000
00000000
00000000
00000000
,
00033000
00000000
00000000
00000000
;

//---------------dance-double - t7r----------------
#NOTES:
     dance-double:
     t7r:
     Medium:
     11:
     :
00000000
00000000
00000000
00000000
,
00000000
00000000
00000000
00000000
,
00000000
00000000
00000000
00000000
,
00000000
00000000
00000000
00000000
,
00000000
00000000
00000000
00000000
,
00000000
00000000
00000000
00000000
,
01000000
00000000
00000000
00000000
00010000
00000000
00000000
10000000
00000000
00000000
10000000
00000000
01000000
00000000
00000000
00000000
,
00100000
00000000
00000000
00000000
00001000
00000000
00000000
00020000
00000000
00000000
00000000
00000000
00031000
00000000
00000000
00000000
,
00010000
00001000
00000100
00000001
,
00000010
00000100
00000100
00000000
00010000
00000000
00011000
00000000
,
00001000
00000000
00000000
00000000
00000100
00000000
00000000
00000010
00000000
00000000
00000010
00000000
00001000
00000000
00000000
00000000
,
00000001
00000000
00000010
00000000
00000100
00000000
00000000
00020000
00000000
00000000
00000000
00000000
00031000
00000000
00000000
00000000
,
00010000
00000000
00010000
00001000
00000000
00001000
00010000
00000000
00000000
00011000
00000000
00000000
,
00200000
00000000
02000000
03300000
,
10000000
00000000
10000000
00000000
00100000
00000000
00000000
10000000
00000000
00000000
10000000
00000000
02000000
00000000
00000000
00000000
,
00000000
00000000
03010000
00000000
00000000
00010000
00000000
00001000
00000000
00000000
00010000
00000000
00001000
00000000
00000000
00010000
,
00000000
00000000
00010000
00000000
00001000
00000000
00000000
00000100
00000000
00000000
00000100
00000000
00000010
00000000
00000010
00000000
,
00000100
00000000
00000001
00000000
00000000
00000001
00000000
00000010
00000000
00000000
00000010
00000000
00000100
00000000
00000000
00000000
,
00010000
00011000
01000000
00011000
,
00001000
00000000
00010000
00000000
00000000
00100000
00000000
01000000
00000000
00000000
00100000
00000000
10000000
00000000
00000000
00010000
,
00000000
10000000
01000000
01000000
00010000
00001000
00010000
00010000
,
00000020
00000000
00000000
00000000
00000000
00000000
00001030
00000000
00000001
00001000
00000000
00001000
,
00000001
00000000
00000000
00000000
00000010
00000000
00000000
00000001
00000000
00000000
00000001
00000000
00001000
00000000
00000000
00000000
,
00000100
00010000
00001000
00000000
00020000
00000000
00031000
00000000
,
01000000
00010000
10000000
00000000
01000000
10000000
00010000
00000000
,
10000000
00000000
00100000
00010000
00001000
00000000
00000020
00000000
,
00000031
00000000
00000000
00000000
00000100
00000000
00000000
00000001
00000000
00000000
00000001
00000000
00001000
00000000
00000000
00000000
,
00000010
00010000
00001000
00000000
00020000
00000000
00031000
00000000
,
00100000
00000000
00000000
00010000
00000000
00000000
10000000
00010000
10000000
00010000
00000000
00000000
,
01200000
00000000
10300000
00020000
,
10030000
00000000
00000000
01000000
00100000
00000000
00000000
00100000
,
00001000
00000000
00000000
00000000
00000000
00000000
00001000
00000000
00010000
00000000
00000000
00011000
00000000
00000000
00010000
00000000
,
00001000
00000000
00000000
00000100
00000000
00000000
00001000
00000000
00010000
00000000
00000000
01000000
00000000
00000000
00010000
00000000
,
00001000
00000000
00000000
00001000
00000000
00000000
00010000
00000000
00001000
00000000
00000000
00000000
00012000
00000000
00000000
00000000
,
00003010
00000000
00000000
00000001
00000100
00000000
00000000
00001000
,
00010000
00000000
00000000
00000000
00000000
00000000
01000000
00000000
10000000
00000000
00000000
10000000
00000000
00000000
00100000
00000000
,
02000000
00000000
03010000
00000000
00100000
00001000
00010000
00000000
,
00002000
00000000
00013000
00000000
00000010
00001000
00000001
00000000
,
00000010
00000010
00001000
00000000
00010000
00010000
00001000
00000000
,
00010000
00000000
00000000
00100000
00000000
00000000
01000000
00000000
00000000
00010000
10000000
00000000
10020000
00000000
00000000
00000000
,
20030000
00000000
00000000
00000000
31000000
00000000
00000000
00000000
10000000
00000000
00000000
10010000
00000000
00000000
10000000
00000000
,
00200000
00000000
00000000
00000000
00310000
00000000
00000000
00000000
00001000
00000000
00000000
00011000
00000000
00000000
00010000
00000000
,
00002000
00000000
00000000
00000000
00003010
00000000
00000000
00000000
00000001
00000000
00000000
00001001
00000000
00000000
00000001
00000000
,
00000100
00000000
00000000
00000000
00001000
00000000
00000000
00010000
00000000
00000000
00001000
00000000
00200000
00000000
00000000
00000000
,
00310000
00000000
00000000
01000000
00000000
00000000
00100000
00000000
00020000
00000000
00000000
00000000
00031000
00000000
00000000
00000000
,
00000010
00000000
00000000
00000100
00000000
00000000
00010000
00000000
00002000
00000000
00000000
00000000
00013000
00000000
00001000
00000000
,
00001000
00000000
00000000
00011000
00000000
00000000
00010000
00000000
00010000
00000000
00000000
00011000
00000000
00000000
00001000
00000000
,
00010000
00100000
20200000
30300000
,
01200000
00000000
10300000
01000000
00200000
00000000
10300000
00000000
,
00100000
00000000
00000000
00001000
00000000
00000000
00010000
00000000
00002000
00000000
00000000
00000000
00003010
00000000
00000000
00000000
,
00000001
00000000
00000000
00000100
00000000
00000000
00001000
00000000
00020000
00000000
00000000
00000000
00031000
00000000
00000000
00000000
,
00011000
01001000
00011000
00010100
,
00010000
00000000
00010000
00000000
00001000
00000000
00000000
00010000
00000000
00000000
01000000
00000000
01000000
00000000
00000000
10000000
,
00000000
00000000
00100000
00000000
00100000
00000000
00000000
00010000
00000000
00000000
00001000
00000000
00001000
00000000
00000000
00000020
,
00000000
00001000
00000100
00000031
,
00000100
00011000
01000000
00011000
,
00001000
00000000
00010000
00000000
01000000
00000000
00000000
10000000
00000000
00000000
10000000
00000000
00200000
00000000
00000000
00000000
,
00000000
00000000
01300000
00000000
00000000
01000000
00000000
00010000
00000000
00000000
00100000
00000000
00001000
00000000
00000000
00001000
,
00000000
00000000
00010000
00000000
00001000
00000000
00000000
00010000
00000000
00000000
00001000
00000000
00000010
00000000
00000001
00000000
,
00000100
00000000
00000000
00000000
,
00000000
00022000
00000000
00000000
,
00000000
00000000
00000000
00000000
,
00033000
00000000
00000000
00000000
;

//---------------dance-double - t7r----------------
#NOTES:
     dance-double:
     t7r:
     Hard:
     13:
     :
00000000
00000000
00000000
00000000
,
00000000
00000000
00000000
00000000
,
00000000
00000000
00000000
00000000
,
00000000
00000000
00000000
00000000
,
00000000
00000000
00000000
00000000
,
00000000
00000000
00000000
00000000
,
00100000
00000000
10000000
00000000
00010000
00000000
10000000
01000000
00000000
00100000
00000000
01000000
10000000
00000000
00010000
00000000
,
10000000
00000000
01000000
00000000
00100000
00000000
00001000
00020000
00000000
00000000
00030100
00000000
00001000
00000000
00000001
00000000
,
00000100
00001000
00010000
00000000
01000000
00100000
00010000
00000000
,
10000000
00100000
00100000
00100000
00010000
00000000
00011000
00000000
,
00001000
00000000
00000010
00000000
00000100
00000000
00001000
00000001
00000000
00000100
00000000
00000001
00001000
00000000
00000001
00000000
,
00000010
00000000
00000100
00000000
00010000
00000000
00001000
00020000
00000000
00000000
00031000
00000000
01000000
00000000
00010000
00000000
,
10000000
00000000
10000000
00100000
00000000
00100000
00010000
00000000
00010000
00001000
00010000
00000010
,
00002000
00000100
00000002
00003003
,
00000001
00000000
00000001
00000000
00000100
00000000
00000000
00001000
00000000
00010000
00001000
00000000
00010000
00000000
00010000
00000000
,
00100000
00000000
01000000
00000000
00000000
00010000
00000000
10000000
00000000
00000000
01000000
00000000
00100000
00000000
00000000
00010000
,
00000000
00000000
00010000
00000000
10000000
00000000
00000000
00100000
00000000
00010000
00001000
00000000
00010000
00000000
01000000
00000000
,
10000000
00000000
00100000
00000000
00000000
00100000
00000000
01000000
00000000
00000000
01000000
00000000
00010000
00000000
00100000
00001000
,
00000000
00000000
00010000
00000000
00001000
00000000
00010000
00000100
00000000
00001000
00000001
00000000
00000100
00000000
00000010
00000000
,
00001000
00000000
00000001
00000000
00000000
00000100
00000000
00001000
00000000
00000000
00010000
00000000
00001000
00000000
00000000
00011000
,
00000000
00000000
00010000
00000000
01000000
00000000
01000000
00000000
00100000
00000000
00100000
00000000
00010000
10000000
00010000
00000000
,
20000000
00000000
00000000
00000000
00000000
00000000
30100000
00000000
00100000
01000000
00001000
00010000
,
00000100
00000000
00001000
00000000
00000001
00000000
00000100
00001000
00000000
00010000
00000000
00000100
00001000
00000000
00000001
00000000
,
00000010
00000000
00001000
00000000
00010000
00000000
00001000
00200000
00000000
00000000
00310000
00000000
01000000
00000000
00100000
00000000
,
10000000
01000000
11000000
00000000
00010000
00100000
00110000
00000000
,
00001000
00010000
00010000
00010000
00000100
00000000
00001001
00000000
,
00000001
00000000
00000010
00000000
00001000
00000000
00010000
00001000
00000000
00000010
00000000
00000100
00001000
00000000
00000001
00000000
,
00000100
00000000
00001000
00000000
00010000
00000000
01000000
00100000
00000000
00000000
00010000
00000000
10000000
00000000
00100000
00000000
,
10000000
00000000
10000000
01000000
00000000
01000000
00010000
00001000
00010000
00000100
00001000
00000001
,
00000200
00000000
00000000
00001000
00000000
00000000
00000310
00000000
00000100
00000000
00000000
00000000
00001001
00000000
00000000
00000000
,
00000001
00000000
00000010
00000100
00000000
00000001
00000100
00000000
00000010
00000000
00000002
00000000
00000000
00000000
00000103
00000000
,
00001000
00000000
00020000
00000000
00000000
00000000
00031000
00000000
01000000
00000000
00000000
00010000
10000000
00000000
00010000
00000000
,
10000000
00000000
01000000
00100000
00000000
10000000
00100000
00000000
01000000
00000000
20000000
00000000
00000000
00000000
30010000
00000000
,
01000000
00000000
00010000
00100000
00000000
00001000
00010000
00000000
00001000
00000000
00000100
00000000
00000002
00000000
00000000
00000000
,
00001003
00000000
00000100
00000010
00000000
00001000
00000010
00000000
00000100
00000000
00020000
00000000
00000000
00000000
00031000
00000000
,
01000000
00000000
00020000
00000000
00000000
00000000
10030000
00000000
00100000
01000000
00100000
01000000
00000000
01000000
00010000
00000000
,
10000000
01000000
00100000
00000000
00010000
00001000
00000020
00000000
,
00000130
00000001
00001000
00000000
00000001
00000010
00000200
00000000
,
00010300
00010000
00001000
00001000
01000000
01000000
00010000
00010000
,
10000000
01000000
00000000
10000000
01000000
00000000
00010000
00001000
00000000
00010000
00001000
00000000
00011000
00000000
00000000
00000000
,
00002000
00000000
00000000
00000000
00003100
00000000
00000010
00000100
00000010
00000000
00000000
00001000
00000000
00000000
00000001
00000000
,
00000020
00000000
00000000
00000000
00000130
00000000
00001000
00000100
00001000
00000000
00000000
00000100
00000000
00000000
00010000
00000000
,
00002000
00000000
00000000
00000000
00013000
00000000
01000000
00100000
01000000
00000000
00000000
00100000
00000000
00000000
00010000
00000000
,
20000000
00000000
00000000
00000000
30200000
00000000
00000000
00320000
00000000
00000000
00031000
00000000
00000020
00000000
00000000
00000000
,
00000130
00000000
00000000
00010000
00000100
00000000
00001000
00000000
00000001
00000000
00000100
00000000
00001000
00000000
00000000
00000000
,
01000000
00000000
00000000
00001000
01000000
00000000
00010000
00000000
10000000
00000000
01000000
00000000
00010000
00000000
00001000
00000000
,
00100000
00000000
00000000
00010000
00000000
00000000
10000000
00000000
00100000
00000000
00000000
00010000
00000000
00000000
00001000
00000000
,
00000010
00000110
00021000
00030100
,
00020000
00000000
00031000
00000100
00000001
00000010
00001000
00000000
,
00020000
00000000
00000000
00031000
00010000
00000000
01000000
00000000
10000000
00000000
00100000
00000000
00010000
00000000
00000000
00000000
,
00002000
00000000
00000000
00003010
00000100
00000000
00000010
00000000
00000002
00000000
00000000
00000000
00000203
00000000
00000000
00000000
,
00001300
00011000
01001000
00011000
,
00010100
00000000
00000100
00000000
00001000
00000001
00001000
00000001
00000000
00000000
00000100
00000000
00001000
00010000
00001000
00010000
,
00000000
00000000
01000000
00000000
10000000
00010000
10000000
00010000
00000000
00000000
01000000
00000000
00100000
00000000
10000000
00020000
,
00000000
00000000
00000000
01030000
00100000
00000000
10000000
00000000
00010000
00000000
10000000
00000000
01000000
00000000
00000000
00000000
,
00010000
00011000
00010010
00001001
,
00000001
00000000
00000001
00000000
00000020
00000000
00000000
00000130
00000000
00010000
00000100
00000000
00001000
00000000
00000001
00000000
,
00000100
00000000
00001000
00000000
00000000
00001000
00000000
00010000
00000000
00000000
00010000
00000000
01000000
00000000
00000000
01000000
,
00000000
00000000
00100000
00000000
00002000
00000000
00000000
00013000
00000000
00001000
00010000
00000000
01000000
00000000
10000000
00000000
,
00100000
00000000
00000000
00000000
,
00000000
00022000
00000000
00000000
,
00000000
00000000
00000000
00000000
,
00033000
00000000
00000000
00000000
;

//---------------dance-double - t7r----------------
#NOTES:
     dance-double:
     t7r:
     Challenge:
     15:
     :
00000000
00000000
00000000
00000000
,
00000000
00000000
00000000
00000000
,
00000000
00000000
00000000
00000000
,
00000000
00000000
00000000
00000000
,
00000000
00000000
00000000
00000000
,
00000000
00000000
00000000
00000000
,
00000001
00000000
00000100
00000000
00000010
00000000
00000100
00000001
00000000
00001000
00000000
00001000
00000100
00000000
00010000
00000000
,
00001000
00000000
01000000
00000000
00010000
00000000
00100000
00020000
00000000
00000000
10030000
00000000
00100000
00000000
01000000
00000000
,
00100000
10000000
00000000
00010000
10000000
00000000
01000000
00200000
00000000
00301000
00000000
00000000
00010000
00000000
00001000
00000000
,
00000100
00000010
00000110
00000010
00002020
00003030
00001002
00000000
,
00000013
00000000
00000100
00000000
00000010
00000000
00000001
00000100
00000000
00000100
00000000
00000001
00001000
00000000
00000100
00000000
,
00010000
00000000
00001000
00000000
01000000
00000000
00010000
00200000
00000000
00000000
01300000
00000000
00100000
00000000
00010000
00000000
,
10000000
00100000
10000000
00010000
00100000
00010000
00100000
00001000
00100000
00001000
00010000
00000010
,
00000100
00000000
00000001
00000010
00000000
00000010
00000000
00000100
00002000
00000000
00000000
00000000
00003001
00000000
00000000
00000000
,
00000101
00000000
00000101
00000000
00000100
00000000
00000000
00001001
00000000
00000000
00001001
00000000
00000001
00000000
00000020
00000000
,
00001030
00000000
00011000
00000000
00000000
00011000
00000000
01001000
00000000
00000000
00011000
00000000
00011000
00000000
00000000
00011000
,
00000000
00001000
00010000
00000000
02000000
00000000
03000000
01100000
00000000
00000000
01100000
00000000
01000000
10000000
00010000
00000000
,
10000000
00000000
10100000
00000000
00000000
10100000
00000000
10010000
00000000
00000000
10010000
00000000
10000000
01000000
00100000
00010000
,
00000000
00000000
10000000
00000000
00100000
00000000
01000000
00010000
10000000
00000000
01000000
00100000
01000000
00000000
10000000
00000000
,
00100000
00000000
00010000
00000000
00001000
00010000
00000000
00001000
00000010
00000000
00000100
00000000
00000110
00000000
00000000
00000110
,
00000000
00000000
00000011
00000000
00000001
00000000
00001000
00000000
00000001
00000100
00000001
00001000
00000100
00010000
00001000
00010000
,
00002000
00000000
00000000
00000000
00000000
00000000
01003000
00010000
00100000
01000000
10000000
00100000
,
01000000
00000000
10000000
00000000
01000000
00000000
00100000
01000000
00000000
00010000
00000000
00010000
00100000
00000000
00001000
00000000
,
00010000
00000000
00001000
00000000
00000010
00000000
00000100
00000010
00000000
00000001
00000000
00000100
00000001
00000000
00001000
00000001
,
00001000
00000100
00000000
00000010
00000001
00000000
00000100
00000010
00000000
00000001
00000000
00000010
00000100
00000000
00000010
00000000
,
00001000
00001100
00000100
00010100
00022000
00033000
02002000
03003000
,
01100000
00000000
00100000
00000000
10000000
00000000
00100000
00010000
00000000
00100000
00000000
01000000
00010000
00000000
10000000
00000000
,
01000000
00000000
00010000
00000000
00001000
00000000
00010000
00000100
00000000
00001000
00000000
00000010
00000100
00000000
00000010
00000000
,
00001000
00000100
00000010
00000001
00000100
00001000
00010000
00100000
10000000
01000000
00010000
00001000
,
00012000
00000000
00000000
00000100
00000000
00000100
00000000
01003000
00010000
00000000
10000000
00000000
10020000
00000000
00000000
00000000
,
10030000
00000000
01000000
00100000
00000000
00010000
20000000
00000000
31000000
00000000
00020000
00000000
00031000
00000000
00000100
00000000
,
00000010
00000000
00000200
00000000
00001300
00000000
00000100
00000000
00000010
00000100
00000000
00000001
00000100
00000000
00000001
00000010
,
00000001
00000000
00000100
00000010
00000000
00001000
00000001
00000000
00000010
00000000
00002000
00000000
00023000
00000000
01030000
00000000
,
00100000
00000000
01000000
00010000
00000000
01000000
10000000
00100000
01000000
00000000
00100000
00000000
10000000
01000000
00100000
00010000
,
10000000
00000000
00100000
00010000
00000000
00100000
01000000
00000000
00100000
00000000
20000000
00000000
01000000
00000000
30010000
00000000
,
00100000
00000000
00002000
00000000
00010000
00000000
01003000
00000000
00001000
00010000
00001000
00010000
00000000
00001000
00010000
00000000
,
00001000
00000000
00000100
00000000
00000010
00000100
00000001
00000100
00000010
00000000
00000100
00000000
00000002
00000000
00000000
00000000
,
00000013
00000000
00001000
00000000
00010000
00000000
00100000
10000000
00010000
10000000
01000000
00000000
00200000
00000000
00000000
00000000
,
01300000
01000000
10000000
10000000
00100000
00100000
00010000
00010000
,
00001000
00000100
00000000
00000001
00001000
00000000
00000100
00010000
00000000
00001000
00010000
00000000
00000100
00010000
00001000
00000000
,
00020000
00000000
01000000
00000000
00031000
00000000
00000000
00000000
00011000
00000000
00000000
00011000
00000000
00000000
00011000
00000000
,
00002000
00000000
00000100
00000000
00013000
00000000
00000000
00000000
00011000
00000000
00000000
00011000
00000000
00000000
00011000
00000000
,
00020000
00000000
00100000
00000000
00031000
00000000
00000000
00000000
00011000
00000000
00000000
00011000
00000000
00000000
00011000
00000000
,
00002000
00000000
00000010
00000000
00013000
00000000
00000000
00011000
00000000
00000000
00010000
00000000
00100000
00000000
01000000
00000000
,
00010000
00000000
00100000
01000000
00000000
01000000
10000000
00000000
00200000
00000000
00010000
00000000
01300000
00000000
00001000
00000000
,
00010000
00000000
00001000
00000100
00000000
00000100
00000001
00000000
00000020
00000000
00001000
00000000
00000130
00000000
00000010
00000000
,
00000011
00000000
00000000
00000110
00000000
00000000
00000011
00000000
00000011
00000000
00000000
00000101
00000000
00000000
00001001
00000000
,
00001100
00000000
00000000
00000000
00010100
00000000
00000000
00000000
00011000
00000000
00001000
01000000
00200000
00000000
00000000
00000000
,
10300000
00000000
01000000
10000000
00010000
00000000
01000000
00000000
00200000
00000000
00010000
00000000
01300000
00000000
00000000
00000000
,
00010000
00000000
00100000
01000000
10000000
00000000
01000000
00000000
00020000
00000000
00001000
00000000
00030100
00000000
00000000
00000000
,
00001000
00000000
00000000
00000010
00000100
00000000
00000010
00001000
00000001
00000000
00000000
00000000
00002001
00000000
00000000
00000000
,
00003200
00001000
02000300
00010000
03000200
00001000
02000300
00010000
,
03100000
00000000
01100000
00000000
00100000
10000000
00010000
01000000
00000000
00000000
01010000
00000000
00010000
10000000
01000000
00100000
,
00000000
00000000
00101000
00000000
00001000
00010000
00000010
00001000
00000000
00000000
00001010
00000000
00000010
00000000
00000100
00000001
,
00002000
00000100
01000000
00003100
,
00010100
00000000
00000100
00010000
00001000
00000000
01000000
00001000
00010000
00000000
00000000
00000000
00011000
00000000
00000000
00000000
,
01001000
00000000
01001000
00000000
00001000
00000000
00000000
00010100
00000000
00000000
00010100
00000000
00010000
00000000
00001000
00000000
,
00011000
00000000
00101000
00000000
00000000
00101000
00000000
00011000
00000000
00000000
00011000
00000000
00010010
00000000
00000000
00010010
,
00000000
00000000
00010010
00000000
00000010
00000000
00000000
00001010
00000000
00000000
00011000
00000000
00010000
01000000
10000000
00000000
,
00100000
00000000
01000000
00000000
00000000
00010000
00000000
00100000
00000000
00000000
00001000
00000000
00010000
00000000
00000000
00001000
,
00000000
00000010
00000002
00000000
00000000
00000000
00000000
00000000
,
00000000
00000000
00000000
00000000
,
00000003
00000000
00000000
00000000
;
