#TITLE:No Border;
#ARTIST:BEMANI Sound Team "dj TAKA" feat.Sana;
#ARTISTTRANSLIT:dj TAKA feat.Sana;
#BANNER:No Border.png;
#BACKGROUND:No Border-bg.png;
#JACKET:No Border-jacket.png;
#CDTITLE:./CDTITLES/BEATMANIA IIDX.PNG;
#MUSIC:No Border.ogg;
#SAMPLESTART:27.2;
#SAMPLELENGTH:15;
#BPMS:0=150;

//---------------dance-single - t7r----------------
#NOTES:
     dance-single:
     t7r:
     Beginner:
     3:
     :
0000
0000
0000
0000
,
0000
0000
0000
0000
,
0000
0000
0000
0000
,
0000
0000
0000
0000
,
0000
0000
0000
0000
,
0100
0000
0000
0000
,
0010
0000
0000
0000
,
1000
0000
0000
0000
,
0001
0000
0000
0000
,
0000
0010
0000
0010
,
0000
0100
0000
0100
,
0100
0000
0000
0000
,
1000
0000
0000
0000
,
0001
0000
1000
0000
,
0010
0000
0100
0000
,
0001
0000
0000
0000
,
1000
0000
0000
0000
,
0000
0000
0100
0000
,
0100
0000
0010
0000
,
0010
0000
0000
0001
,
0001
0000
0000
0000
,
1000
0000
0000
0000
,
0010
0000
0000
0000
,
0100
0000
0000
0000
,
0001
0000
0000
0000
,
1000
0000
1000
0000
,
1000
0000
1000
0000
,
1000
0000
0000
0000
,
0001
0000
0000
0000
,
0010
0000
0000
0000
,
0100
0000
0000
0000
,
1000
0000
0000
0010
,
0010
0000
0100
0000
,
1001
0000
0000
0000
,
0000
0000
0000
0000
,
1000
0000
0000
0000
,
0100
0000
0000
0000
,
0010
0000
0000
0000
,
0001
0000
0000
0000
,
0100
0000
0000
0000
,
0010
0000
0000
0000
,
1000
0000
0000
0000
,
0001
0000
0000
0000
,
1000
0000
0100
0000
,
0010
0000
0000
0000
,
0001
0000
0100
0000
,
0010
0000
0000
0000
,
1000
0000
0001
0000
,
0010
0000
0000
0000
,
0001
0000
1000
0000
,
0010
0000
0000
0000
,
0110
0000
0000
0000
,
1000
0000
0000
0000
,
0001
0000
0000
0000
,
0010
0000
0000
0000
,
0100
0000
0000
0000
,
1000
0000
0000
0000
,
0001
0000
0000
0000
,
1000
0000
0000
0000
,
0000
0000
0010
0000
,
0010
0000
0100
0000
,
0100
0000
0000
0001
,
0001
0000
1000
0000
,
0010
0000
0000
0000
,
1000
0000
0000
0000
,
0100
0000
0010
0000
,
0001
0000
1000
0000
,
0001
0000
0001
0000
,
0001
0000
0001
0000
,
0001
0000
0000
0000
,
1000
0000
0000
0000
,
0010
0000
0100
0000
,
0001
0000
0000
0000
,
0010
0000
0000
0100
,
0100
0000
0000
0000
,
1000
0000
0010
0000
,
1001
0000
0000
0000
;

//---------------dance-single - t7r----------------
#NOTES:
     dance-single:
     t7r:
     Easy:
     6:
     :
0000
0000
0000
0000
,
0000
0000
0000
0000
,
0000
0000
0000
0000
,
0000
0000
0000
0000
,
0000
0000
0000
0000
,
0100
1000
0002
0003
,
0200
0000
0310
1000
,
0001
0001
1000
1000
,
0010
0100
0002
0003
,
1000
0100
0000
1000
,
0001
0010
0000
0001
,
0100
0010
1000
0100
,
0020
0032
2003
3020
,
0130
0010
2000
3000
,
0100
0010
0002
0003
,
1000
1000
0001
0001
,
0100
0010
2000
3002
,
1003
0100
0000
1000
,
0001
0100
0000
0001
,
2000
0010
0000
3001
,
0020
0001
0000
0130
,
1000
0010
0100
0001
,
1000
0100
0020
0030
,
0001
0100
0010
1000
,
0002
0003
0020
0030
,
0001
0000
0100
0000
,
1000
0000
0100
0000
,
0020
0000
1030
0001
,
0020
0000
0130
1000
,
0001
0010
0002
0000
,
1003
0010
2000
0000
,
3001
0100
0010
1000
,
0200
0000
0020
0000
,
0330
0000
0000
0000
,
0000
0000
0000
0000
,
1000
0010
0010
0000
,
0100
0001
0001
0000
,
1000
0100
0100
0000
,
0010
0001
0001
0000
,
1001
0001
0010
0000
,
0100
0100
1000
0000
,
0010
0000
0110
0000
,
0100
0100
0002
0000
,
2003
3000
0200
0300
,
0002
0003
2000
3000
,
0020
0030
0001
0100
,
0010
1000
0001
1000
,
0002
0003
0200
0300
,
2000
3000
0002
0003
,
0010
1000
0100
0001
,
0100
1000
0010
0100
,
0002
0000
0013
0000
,
0100
0100
2000
3000
,
0010
0010
0100
0100
,
0001
1000
0002
0003
,
1001
1000
0200
0300
,
0010
0001
0002
0003
,
0100
0100
0010
0010
,
0100
1000
0100
0001
,
1000
1000
0001
0001
,
1000
0010
0001
0010
,
1000
0100
0001
0100
,
0010
0100
2000
3000
,
0001
0001
1000
1000
,
0001
0100
1000
0100
,
0020
0230
0302
2003
,
3100
0010
0220
0330
,
1001
1000
0100
0001
,
0100
1000
0010
0100
,
2000
0000
3100
0010
,
2000
0100
0001
3010
,
1001
0001
0020
0000
,
0031
0100
0020
0000
,
1030
0100
0010
0001
,
0100
0100
0010
0010
,
1000
0000
0100
0000
0001
0000
0010
0100
,
0220
0000
0000
0000
,
0000
0000
0000
0000
,
0330
0000
0000
0000
;

//---------------dance-single - t7r----------------
#NOTES:
     dance-single:
     t7r:
     Medium:
     10:
     :
0000
0000
0000
0000
,
0000
0000
0000
0000
,
0000
0000
0000
0000
,
0000
0000
0000
0000
,
0000
0000
0000
0000
,
0010
0001
2000
0000
,
3010
1000
0002
0000
,
1003
0000
0100
0100
0000
1000
1000
0000
,
0001
0000
0100
0010
2000
0000
3000
0000
,
0001
0000
0011
0000
0000
0001
1000
0000
,
0010
0000
1010
0000
0000
1000
0001
0000
,
1000
0100
0010
0100
,
2000
3020
0032
0023
,
0130
0000
0001
0000
0000
0100
0010
0000
,
1000
0000
0100
0000
0000
0010
0100
0000
,
1000
1000
1000
0000
0001
0001
0001
0000
,
0100
0000
0010
1000
0002
0000
2003
0000
,
3002
0000
0100
0000
0000
1003
0001
0000
,
2000
0000
0100
0000
0000
3001
1000
0000
,
0020
0000
0100
0000
0000
1030
0010
0000
,
0100
0001
1000
0100
,
0010
0000
0100
1000
0000
0001
1000
0000
,
0010
0000
0100
0001
0000
1000
0001
0000
,
1000
0100
0010
0100
,
2000
0000
3010
0100
0002
0000
0003
0000
,
1000
0000
0100
0000
0010
0000
0000
0001
0000
0000
1000
0000
0100
0000
0000
0010
,
0000
0000
0001
0000
1000
0000
0000
0010
0000
0000
0100
0000
0001
0000
0000
0020
,
0000
0000
0000
0031
0200
0000
0000
0310
,
2000
0100
0001
3010
,
1000
0000
0100
0000
1000
0001
0100
0000
,
0001
0000
0010
0000
0001
1000
0100
0020
,
1000
0100
0031
1000
,
0020
0000
0130
0000
0002
0000
1003
1000
,
0020
0000
0000
0000
,
0000
0000
0000
0030
,
0100
0000
0000
0100
0000
0000
0001
0000
1000
0000
0000
0000
0100
0000
0000
0000
,
1000
0000
0000
1000
0000
0000
0001
0000
0010
0000
0000
0000
0001
0000
0000
0000
,
0100
0000
0000
0100
0000
0000
0010
0000
1000
0000
0000
0000
0001
0000
0000
0000
,
0010
0000
0000
0010
0000
0000
0100
0000
0010
0000
0000
0000
0001
0000
0001
0000
,
1000
0000
0000
0100
0000
0000
0010
0000
0001
0000
0000
0000
0100
0000
0000
0000
,
0001
0000
0000
0010
0000
0000
0100
0000
1000
0000
0000
0000
0010
0000
0000
0000
,
1001
0000
0100
0000
1001
0000
1000
1000
,
0001
0000
0000
0100
0000
0000
0010
0000
0000
1000
0000
0000
0001
0000
0000
0000
,
1000
0200
0000
0310
0002
0000
1003
0020
,
0000
0130
0002
0000
1003
0001
0100
0000
,
0001
0000
0010
0000
0100
1000
0100
0000
,
1000
0000
0010
0000
0100
0001
1000
0000
,
0001
0020
0000
1030
0020
0000
0031
0200
,
0000
1300
0200
0000
0310
0200
0000
0301
,
1000
0000
0100
0010
0001
0000
1000
0000
,
0010
0000
0100
0000
0001
1000
0100
0000
,
2000
0000
3010
0000
,
0100
0001
1000
0100
,
0001
0100
1000
0100
,
0020
0032
2003
3020
,
0130
0000
0010
0000
0000
1000
0001
0000
,
0010
0000
0100
0000
0000
1000
0001
0000
,
0100
0000
0100
0000
0010
0010
0010
0000
,
1000
0001
1000
0001
2000
0000
3000
0000
,
0001
0000
0010
1000
0010
0000
0001
0000
,
1000
0000
0010
0001
0010
0000
1000
0000
,
0001
0010
0100
0000
1000
0010
0001
0000
,
0010
0100
0010
0000
0200
0000
0301
0000
,
1000
0000
1100
0000
1000
0001
0100
0000
,
0001
0000
0011
0000
0001
1000
0010
0000
,
0002
0023
2030
3200
,
0301
0000
0100
1000
0020
0000
1030
0000
,
0001
0000
0100
0000
1000
0000
0000
0100
0000
0000
0001
0000
1000
0000
0000
0100
,
0000
0000
0001
0000
0100
0000
0000
1000
0000
0000
0010
0000
0001
0000
0000
0020
,
0000
0000
0130
0000
0001
1000
0100
0000
,
2000
0000
0010
0000
3001
1000
0100
0000
,
1100
0000
0000
0100
0000
0010
0002
0000
0000
0003
0000
0000
,
0100
0000
0000
0010
0000
1000
0200
0000
0000
0300
0000
0000
,
0002
0203
2300
3020
,
0130
0000
0110
0000
0010
1000
0001
0000
,
1000
1000
0100
0000
0010
0010
0001
1000
,
2002
0000
0000
0000
,
0000
0000
0000
0000
,
3003
0000
0000
0000
;

//---------------dance-single - t7r----------------
#NOTES:
     dance-single:
     t7r:
     Hard:
     13:
     :
0000
0000
0000
0000
,
0000
0000
0000
0000
,
0000
0000
0000
0000
,
0000
0000
0000
0000
,
0000
0000
0000
0000
,
1000
0000
0000
0100
0000
0010
0002
0000
0000
0103
0000
0001
,
2000
0000
0000
3100
0000
0010
0002
0000
0000
1003
0000
0000
,
0010
0100
0010
0000
1000
0100
1000
0000
,
0002
0000
0013
0100
2000
0000
3010
0000
,
1001
0000
0000
0000
1000
0000
0000
0100
1000
0000
0001
0000
1000
0000
0000
0000
,
0001
0000
0001
0000
0100
0000
0000
0010
0100
0000
0001
0000
1000
0000
0000
0000
,
0001
0000
0010
0100
0000
0000
1000
0000
0010
0100
0000
0000
,
0002
0203
2300
3200
,
0310
0000
0000
0100
0000
0001
2000
0000
0000
3010
0000
0000
,
1000
0000
0000
0100
0000
0010
0002
0000
0000
1003
0000
0000
,
0010
0000
0010
0000
0100
0000
0000
0001
0000
1000
0001
0000
1000
0000
0000
0000
,
0001
0010
0010
0100
2000
0000
3002
0000
,
1003
0000
1100
0000
1000
0100
0010
0000
,
0001
0000
0101
0000
0001
0100
0010
0000
,
1000
0100
0010
0000
0001
0100
0010
0000
,
1000
0000
0010
0000
0100
0000
0000
0000
1000
0000
0000
0100
0000
0000
0001
0000
,
0010
0000
0000
0100
1000
0000
0000
0000
0010
0000
0100
0000
0001
0000
0000
0000
,
0010
0000
0000
0001
0100
0000
0000
0000
0010
0000
1000
0000
0001
0000
0000
0000
,
2000
0000
3100
0020
0000
0032
0000
0103
,
0020
0000
0001
0100
0230
0000
0010
0310
,
1000
0000
0100
0000
0010
0000
0001
1000
0000
0000
0100
0000
0010
0000
0001
1000
,
0000
0000
0010
0000
0100
0000
0001
1000
0000
0000
0100
0000
0010
0000
0001
0200
,
0000
0000
0310
1000
0002
0000
0013
0001
,
0200
1000
0010
0301
,
0010
0000
0000
0100
1000
0000
0000
0000
0010
0000
0100
0000
0001
0000
0000
0000
,
0010
0000
0000
0001
0100
0000
0000
0000
0010
0000
1000
0000
0001
0000
2000
0000
,
0100
0000
0001
0000
3010
0100
0002
0000
,
2003
0000
0000
0000
0010
0000
0000
0000
3001
0000
0100
0000
0001
1000
0001
0000
,
0020
0000
0000
0000
,
0000
0000
0000
0030
,
0100
0000
0000
1000
0000
0100
0010
0000
0001
0000
0000
0000
0100
0000
0010
0000
,
1000
0000
0000
0010
0000
0100
0001
0000
1000
0000
0000
0000
0001
0000
0010
0000
,
0001
0000
0000
0100
0000
0010
1000
0000
0001
0000
0000
0000
0010
0000
0100
0000
,
1000
0000
0000
0001
0000
0100
0010
0000
1000
0000
0000
0000
0100
0010
0100
0000
,
1000
0000
0000
0100
0000
0001
0100
0000
0010
0000
0000
0000
0001
0000
1000
0000
,
0001
0000
0000
0100
0000
1000
0100
0000
0010
0000
0000
0000
0100
0000
0001
0000
,
1001
0000
0100
0000
1001
1000
0001
0001
,
0010
0100
0000
1000
0100
0000
0010
0100
0000
1000
0100
0000
2000
0000
0000
0000
,
3001
0200
0000
0310
0002
0000
1003
0200
,
0000
0310
0200
0000
0301
0010
0100
1000
,
0100
0001
0100
0010
0100
1000
0002
0000
,
1003
0010
0100
0010
0001
0010
0100
0010
,
1000
0100
0001
1000
0010
0001
0100
1000
,
0001
0010
1000
0100
0001
1000
0010
0100
,
0010
0000
0001
0100
0010
1000
0200
0000
,
1300
0000
0010
0000
0100
0000
0001
0000
0010
0000
0001
0000
1000
0001
1000
0001
,
2000
0000
0100
0000
,
3002
0000
0010
0000
,
1003
0000
0010
0200
0000
0000
0301
0000
0010
0200
0000
0000
,
2300
3020
0230
0302
,
0023
0000
0000
0000
0000
0000
0031
0000
0000
0000
0100
0000
0010
0000
0000
1000
0000
0000
0001
0000
0000
0000
0000
0000
,
0020
0000
0000
0000
0000
0000
0130
0000
0000
0000
1000
0000
0010
0000
0000
0100
0000
0000
0001
0000
0000
0000
0000
0000
,
1000
0000
1000
0000
0001
0100
0000
0001
0000
1000
0100
0000
1000
0000
0000
0000
,
0001
0010
0001
1000
0010
1000
0002
0000
0000
2003
0000
0000
,
3001
0010
0100
1000
0010
0100
0001
0010
,
0001
1000
0010
0100
0001
0010
1000
0010
,
0001
0100
0010
1000
0100
0010
0001
0100
,
0010
0000
1000
0000
0010
0000
0001
0000
0010
0000
0000
0100
0000
0000
0001
0000
,
1000
0000
0000
0100
0010
0000
0100
0000
1000
0000
0010
0000
0100
0000
0000
0000
,
0001
0000
0000
0010
0100
0000
0010
0000
0001
0000
0100
0000
0010
0000
0000
0000
,
0002
0023
2030
3200
,
0310
0100
1000
0001
1000
0001
2000
0000
0000
3001
0000
0000
,
1000
0000
0100
0000
0010
0000
0100
0001
0000
0000
0100
0000
1000
0000
0001
0100
,
0000
0000
1000
0000
0100
0000
0010
0100
0000
0000
0001
0000
0010
0000
1000
0020
,
0000
0000
0130
1000
0002
0000
0103
1000
,
0200
0320
2030
3001
,
1001
0000
0000
1000
0100
1000
0002
0000
0000
0103
0000
0000
,
0001
0000
0000
0000
0000
0000
1000
0000
0010
0000
1000
0000
0001
0000
0000
0010
0000
0000
0100
0000
0000
0002
0000
0000
,
0000
0203
2300
3020
,
0130
0000
0001
1000
0001
1000
0001
0000
0000
0110
0000
0000
,
1000
0000
0000
0000
0100
0000
0000
0000
1000
0000
0000
0000
0001
0000
0000
0000
0100
0000
0000
0000
0001
0000
0000
0000
1000
0000
0000
0010
0000
0000
0000
0000
0000
0000
0000
0000
1000
0000
0000
0000
0000
0000
0001
0000
0000
0000
0000
0000
,
2002
0000
0000
0000
,
0000
0000
0000
0000
,
3003
0000
0000
0000
;

//---------------dance-single - t7r----------------
#NOTES:
     dance-single:
     t7r:
     Challenge:
     17:
     :
0000
0000
0000
0000
,
0000
0000
0000
0000
,
0000
0000
0000
0000
,
0000
0000
0000
0000
,
0000
0000
0000
0000
,
0001
0000
0010
0100
1000
0010
0200
0000
0310
1000
0001
0100
,
0020
0000
1030
0100
0010
0001
1000
0010
0100
0001
1000
0001
,
0010
0100
1000
0100
0010
0000
0010
0100
1000
0100
0010
0000
1000
0010
0000
0010
,
0001
0000
0000
0100
0000
0000
0000
0000
0000
0100
0000
0000
0010
0000
0000
0000
0000
0000
0100
0000
0000
0000
0000
0000
1000
0000
0000
0000
0100
0000
0000
0000
0010
0000
0000
0000
0100
0000
0000
0000
0001
0000
0000
0000
1000
0000
0000
0000
,
1001
0000
0000
0000
1100
0000
0000
0100
1000
0000
0001
0000
1000
0010
0000
0010
,
1000
0000
0000
0000
0000
0000
0001
0000
0000
0000
0000
0000
0010
0000
0000
0001
0000
0000
1000
0000
0000
0001
0000
0000
0010
0000
0000
0000
0001
0000
0000
0000
1000
0000
0000
0000
0010
0000
0000
0000
0100
0000
0000
0000
0001
0000
0000
0000
,
1000
0100
0010
0100
0001
0100
1000
0100
0010
0100
0001
0100
,
1000
0000
0010
0100
0001
0000
0010
0100
1000
0000
0010
0000
0100
0001
0000
1000
,
0001
0000
0000
0000
0000
0000
0000
0000
1000
0000
0000
0000
0010
0000
0000
0000
0100
0000
0000
0000
0001
0000
0000
0000
1000
0000
0000
0000
0000
0000
0100
0000
0000
0000
0000
0000
0010
0000
0000
0100
0000
0000
1000
0000
0000
0001
0000
0000
,
0010
0000
0000
0000
0000
0000
0000
0000
0001
0000
0000
0000
0100
0000
0000
0000
0010
0000
0000
0000
1000
0000
0000
0000
0001
0000
0000
0000
0000
0000
0100
0000
0000
0000
0000
0000
0010
0000
0000
0000
0000
0000
1000
0000
0000
0100
0000
0000
,
0010
0000
0010
0000
0100
1000
0000
0100
0000
0100
0010
0000
0100
0001
0000
0100
,
0000
1000
0010
0000
1000
0001
0000
0001
0200
0320
0230
0320
0230
0320
0230
0320
,
1030
0000
0100
0010
0001
0000
1000
0000
0100
0000
0010
0100
1000
0000
0001
0000
,
0100
0000
0010
0100
0001
0000
1000
0000
0010
0000
0100
0010
1000
0000
0001
0000
,
1000
0000
0100
1000
0001
0000
0100
0000
0001
0000
1000
0001
0010
0000
0001
0000
,
0100
0000
0010
0100
0001
0000
0010
0000
0100
0000
1000
0100
0000
0010
0100
0000
,
1000
0000
0010
0100
0001
0000
0010
0000
0001
0000
0100
0010
1000
0000
0001
0000
,
0010
0000
0100
1000
0001
0000
0200
0000
1000
0000
0310
0100
0001
0000
1000
0000
,
0100
0000
0010
0100
1000
0000
0001
0000
0100
0000
0001
1000
0010
0000
1000
0000
,
0020
0000
0000
0000
0001
0000
0130
0001
2000
0000
0000
0000
3100
0010
0100
0010
,
0001
0000
0100
0000
0100
0000
1000
0001
0100
0000
0100
0000
1000
0000
0001
0100
,
0100
0000
1000
0000
0001
0000
0100
0100
1000
0000
0001
0000
0100
0000
0100
1000
,
0020
0000
0000
0000
0130
0000
0001
0010
0002
0000
0000
0000
0100
0000
1003
0010
,
2000
0000
0000
0000
0100
0000
0000
0000
3001
0000
0100
0010
1000
0000
0020
0000
,
0031
0020
0130
0002
0010
0000
1003
0200
,
0301
0000
0100
0010
0100
0000
1000
0000
0010
0000
0100
0010
0100
0000
2000
0000
,
3100
0000
0001
1000
0100
0000
1000
0000
0001
0000
0010
0001
1000
0000
0100
0000
,
0020
0000
0001
0000
0130
0000
0000
0000
2000
0000
0010
0000
3001
1000
0001
1000
,
0020
0000
0000
0000
,
0000
0000
0000
0030
,
1000
0000
0100
0010
0000
0100
1000
0000
0001
0000
0100
0001
1000
0010
1000
0001
,
0010
0000
0001
0100
0000
0001
0010
0000
0002
0000
0000
0000
0100
0000
1003
0000
,
0001
0000
0010
0100
0000
0010
0001
0000
1000
0000
0010
1000
0001
0100
0001
1000
,
0100
0000
1000
0010
0000
1000
0100
0000
1000
0000
0001
0100
0010
0100
0010
0100
,
0001
0000
0010
0100
0000
0010
1000
0000
0010
0000
0001
0100
0000
0010
1000
0001
,
1000
0000
0100
0010
0000
0100
0001
0000
0100
0000
0010
0100
0000
1000
0001
0100
,
0010
0000
0100
0001
0000
0100
0000
0010
0100
0000
0100
0000
0010
0000
0110
0000
,
1000
0100
0000
0100
0010
0000
0010
0001
1000
0000
0001
0100
0010
0000
0100
0001
,
1000
0100
0020
0000
0001
0000
0130
1000
0002
0000
0100
0000
1003
0010
0200
0000
,
1000
0000
0310
0100
0002
0000
0010
0000
1003
0100
0010
0000
0001
0100
0010
0100
,
1000
0000
0100
0000
0010
0100
0001
1000
0100
0000
0010
0100
1000
0000
0100
0010
,
0100
0001
0100
0000
0010
0100
0010
1000
0010
0000
0001
0100
0010
0000
0100
0000
,
1000
0100
0010
0100
0002
0000
1003
0100
0010
0100
0002
0000
1003
0010
0100
0010
,
0002
0000
1003
0010
0100
0010
0002
0000
0013
1000
0001
0010
0100
1000
0001
0000
,
0100
0000
1000
0100
0001
0100
0010
0000
1000
0100
0001
0100
0010
0000
1000
0010
,
0001
0010
0100
0000
1000
0010
0001
0010
0100
0000
0001
0000
0010
0100
0010
0100
,
0020
0000
0001
0130
,
1000
0010
0100
0010
1000
0001
0010
0001
0100
0010
0001
0000
,
1000
0100
0010
0100
0001
1000
0001
0010
0100
0001
1000
0010
,
0100
2000
0000
0000
3010
0200
0000
0000
0301
0020
0000
0000
0031
0200
0000
0000
,
0310
0000
0000
0000
0000
0000
0000
0000
0001
0000
0000
0000
0010
0000
0000
0000
0100
0000
0000
0000
0010
0000
0000
0000
1000
0000
0000
0000
0000
0000
0100
0000
0000
0000
0000
0000
0010
0000
0000
0100
0000
0000
0000
0000
0000
1000
0000
0000
,
0010
0000
0000
0000
0000
0000
0000
0000
0001
0000
0000
0000
0010
0000
0000
0000
0100
0000
0000
0000
1000
0000
0000
0000
0100
0000
0000
0000
0000
0000
0001
0000
0000
0000
0000
0000
1000
0000
0000
0100
0000
0000
0000
0000
0000
0010
0000
0000
,
0100
0000
0100
0000
1000
0010
0000
0001
0000
0001
0010
0000
0100
0010
0000
1000
,
0000
0001
1000
0000
0001
0010
0000
0010
0200
0320
0230
0320
0230
0320
0230
0320
,
0031
0010
0100
0010
0001
0000
0001
0010
0100
0010
0001
0000
1000
0010
0000
0010
,
1000
0000
0100
0010
0000
0100
0001
0000
0100
1000
0010
0100
0001
0010
0100
1000
,
0001
0100
0010
0100
0001
0010
0100
1000
0010
0100
0010
1000
0001
0010
0001
1000
,
0010
0100
0010
0001
0010
0100
0010
1000
0100
0000
0010
0100
0000
0001
0100
0000
,
1000
0010
0100
0001
1000
0010
0100
0001
1000
0100
0010
0100
1000
0100
0010
0100
,
1000
0010
1000
0010
0001
0010
0001
0010
0100
0010
0100
0010
0001
0010
0100
0010
,
1000
0100
0010
0001
0100
0010
1000
0001
0100
0010
1000
0001
0010
0100
1000
0001
,
1000
0000
0000
0000
0010
0000
0000
0000
0010
0000
0000
0000
0001
0000
0000
0000
0010
0000
0000
0000
0010
0000
0000
0000
0100
0000
0000
0000
0001
0000
0000
0000
0010
0000
0000
0000
0100
0000
0000
0010
0000
0000
0100
0000
0000
0010
0000
0000
,
0001
0000
0100
0000
0100
0000
1000
0001
0100
0000
0100
0000
1000
0000
0001
0100
,
0100
0000
1000
0000
0001
0000
0100
0100
1000
0000
0001
0000
0100
0000
0100
1000
,
0010
0100
0010
1000
0100
0010
1000
0001
0100
0010
0001
1000
,
0010
0000
0100
1000
0100
0010
0100
0001
0010
0100
0000
0100
0010
0000
0001
0000
,
1001
0000
0000
0000
0000
0000
0001
0000
0000
0100
0000
0000
0001
0000
0000
0000
0010
0000
0000
0000
0100
0000
0000
0000
0001
0000
0000
0000
0100
0000
0000
0000
1000
0000
0000
0000
0010
0000
0000
0000
0100
0000
0000
0000
0001
0000
0000
0000
,
1001
0000
0000
0000
0000
0000
1000
0000
0000
0100
0000
0000
1000
0000
0000
0000
0010
0000
0000
0000
0100
0000
0000
0000
1000
0000
0000
0000
0100
0000
0000
0000
0010
0000
0000
0000
0100
0000
0000
0000
0000
0000
0001
0000
0000
1000
0000
0000
,
0100
0000
0010
0100
1000
0010
0100
0001
0010
0001
1000
0010
0100
0001
1000
0100
,
0010
0001
0001
0100
0010
0010
0100
1000
1000
0100
0010
0010
,
1000
0000
0000
0000
0100
0000
0000
0000
0001
0000
0000
0000
1000
0000
0000
0000
0010
0000
0000
0000
0001
0000
0000
0000
0100
0000
0000
0010
0000
0000
0000
0000
0000
0100
0000
0000
0001
0000
0000
0000
0000
0000
0110
0000
0000
0000
0000
0000
,
2002
0000
0000
0000
,
0000
0000
0000
0000
,
3003
0000
0000
0000
;

//---------------dance-double - t7r----------------
#NOTES:
     dance-double:
     t7r:
     Easy:
     7:
     :
00000000
00000000
00000000
00000000
,
00000000
00000000
00000000
00000000
,
00000000
00000000
00000000
00000000
,
00000000
00000000
00000000
00000000
,
00000000
00000000
00000000
00000000
,
00100000
00010000
20000000
30000000
,
00100000
01000000
00002000
00003000
,
00010000
00010000
00001000
00001000
,
00000100
00000001
00001000
00000001
,
00001001
00000001
00000000
00000010
,
00000100
00001000
00000000
00010000
,
00100000
00010000
10000000
00100000
,
00010000
00002000
00013000
00000200
,
00001300
00000001
00000200
00000300
,
00001000
00010000
02000000
03000000
,
10000000
10000000
01000000
01000000
,
00100000
00100000
00001000
00010000
,
00011000
00000000
00001000
00000000
,
00000100
00000000
00000001
00000000
,
00000020
00000001
00000130
00000000
,
00020000
00000100
00031000
00000000
,
00001000
00000000
00010000
00100000
,
01000000
00000000
00010000
00000000
,
10000000
00000000
01000000
00000000
,
00010000
00001000
00010000
00000000
,
00011000
00000000
00001000
00000000
,
00000010
00000000
00001000
00000000
,
00020000
00030000
00100000
01000000
,
00020000
00000000
10030000
00000000
,
01000000
00100000
01000000
00000000
,
10000000
00100000
01000000
00000000
,
00020000
00000000
00130000
00001000
,
00020000
00000000
00002000
00000000
,
00033000
00000000
00000000
00000000
,
00000000
00000000
00000000
00000000
,
00100000
00000000
10010000
00000000
,
10000000
00100000
01000000
00000000
,
00010000
00100000
00001000
00000000
,
00010000
00000010
00001000
00000000
,
00001001
00000000
00000001
00000000
,
00000100
00000010
00001000
00000000
,
00000100
00000100
00010000
00001000
,
00022000
00000000
00000000
00033000
,
00020000
00030000
02000000
03000000
,
20000000
30000000
00020000
00030000
,
02000000
03000000
00001000
00010000
,
00001000
00000000
00011000
00000000
,
00002000
00003000
00000200
00000300
,
00000002
00000003
00002000
00003000
,
00000200
00000300
00010000
00001000
,
00010000
00000000
00011000
00000000
,
00200000
00000000
00310000
00000000
,
01000000
01000000
00200000
00300000
,
10000000
10000000
01000000
01000000
,
00010000
00001000
00020000
00030000
,
00011000
00001000
00000200
00000300
,
00000001
00001000
00000200
00000300
,
00010000
00010000
00001000
00001000
,
00010000
00100000
10000000
00000000
,
10010000
10000000
01000000
00000000
,
00100000
00010000
10000000
00100000
,
10000000
01000000
00100000
00010000
,
00001000
00000010
00000200
00000300
,
00000001
00000010
00000100
00000000
,
00001000
00000001
00000100
00000000
,
00001000
00010000
01000000
00100000
,
02000000
00000000
23000000
30000000
,
10010000
10000000
00100000
01000000
,
00010000
00100000
00001000
00010000
,
00000020
00000000
00000130
00000001
,
00002000
00000000
00003100
00010000
,
00011000
00010000
02000000
00000000
,
03010000
00001000
00000200
00000000
,
00000320
00000001
00000100
00001030
,
00000001
00000001
00000010
00000010
,
00001000
00000000
00010000
00000000
00100000
00000000
10000000
00010000
,
20020000
00000000
00000000
00000000
,
00000000
00000000
00000000
00000000
,
30030000
00000000
00000000
00000000
;

//---------------dance-double - t7r----------------
#NOTES:
     dance-double:
     t7r:
     Medium:
     10:
     :
00000000
00000000
00000000
00000000
,
00000000
00000000
00000000
00000000
,
00000000
00000000
00000000
00000000
,
00000000
00000000
00000000
00000000
,
00000000
00000000
00000000
00000000
,
00100000
00010000
20000000
30000000
,
00100000
01000000
00020000
00030000
,
10000000
00000000
01000000
01000000
00000000
00100000
00100000
00000000
,
00010000
00000000
00001000
00000010
00000200
00000000
00000301
00000000
,
00001001
00000000
00000001
00000000
00000000
00000100
00000010
00000000
,
00001000
00000000
00000100
00000000
00000000
00010000
00001000
00000000
,
00010000
01000000
10000000
00010000
,
02000000
03200000
20300000
30020000
,
10030000
00000000
01000000
00000000
00000000
00100000
00010000
00000000
,
00001000
00000000
00000100
00000000
00000000
00001000
00000001
00000000
,
00000100
00000100
00000100
00000000
00001000
00001000
00001000
00000000
,
00010000
00000000
00001000
00010000
00002000
00000000
00023000
00000000
,
00031000
00000000
00010000
00000000
00000000
00100000
01000000
00000000
,
00010000
00000000
10000000
00000000
00000000
01000000
00100000
00000000
,
00010000
10000000
00100000
00010000
,
00001000
00000000
00000010
00000000
00000000
00000100
00001000
00000000
,
00000001
00000000
00000100
00000001
00000000
00001000
00000001
00000000
,
00001000
00000000
00000100
00010000
00000000
00001000
00010000
00000000
,
01000000
00000000
00100000
01000000
00000000
00100000
00010000
00000000
,
20000000
00000000
00000000
30100000
00020000
00000000
00031000
00000000
,
00010000
00000000
00000000
00000000
00001000
00000000
00000000
00000100
00000000
00000000
00000001
00000000
00001000
00000000
00000000
00000100
,
00000000
00000000
00010000
00000000
00001000
00000000
00000000
00010000
00000000
00000000
01000000
00000000
10000000
00000000
00000000
00000000
,
00200000
00000000
01300000
00000000
00020000
00000000
10030000
00100000
,
20000000
31000000
00010000
00001000
,
00010000
00000000
00100000
00000000
01000000
00000000
00100000
10000000
,
00010000
00000000
10000000
00000000
01000000
00100000
00001000
00020000
,
00000100
00031000
00010000
00001000
,
00000020
00000000
00000130
00000000
00002000
00000000
00003001
00000001
,
00000200
00000000
00000000
00000000
,
00000000
00000000
00000000
00000300
,
00001000
00000000
00000000
00001000
00000000
00000000
00010000
00000000
00001000
00000000
00000000
00000000
01000000
00000000
00000000
00000000
,
00010000
00000000
00000000
00010000
00000000
00000000
00100000
00000000
00010000
00000000
00000000
00000000
10000000
00000000
00000000
00000000
,
00100000
00000000
00000000
00100000
00000000
00000000
01000000
00000000
00010000
00000000
00000000
00000000
10000000
00000000
00000000
00000000
,
01000000
00000000
00000000
01000000
00000000
00000000
00010000
00000000
00001000
00000000
00000000
00000000
00010000
00000000
00000000
00000000
,
00011000
00000000
00000000
00001000
00000000
00000000
00000010
00000000
00000100
00000000
00000000
00000000
00000010
00000000
00000000
00000000
,
00000001
00000000
00000000
00000100
00000000
00000000
00000010
00000000
00001000
00000000
00000000
00000000
00010000
00000000
00000000
00000000
,
00100000
00000000
00000000
01000000
00000000
00000000
10000000
00000000
00010000
00000000
00000000
00000000
10000000
00000000
10000000
00000000
,
00100000
00000000
00000000
00010000
00000000
00000000
00001000
00000000
00000000
00000010
00000000
00000000
00000100
00000000
00000000
00000000
,
00010000
00002000
00000000
00003100
00002000
00000000
00013000
00002000
,
00000000
00013000
02000000
00000000
03100000
00020000
00000000
10030000
,
00100000
00000000
00010000
00001000
00010000
00000000
00001000
00000000
,
00000010
00000000
00000001
00000100
00000010
00000000
00001000
00000000
,
00000100
00020000
00000000
00031000
00020000
00000000
00031000
02000000
,
00000000
03001000
00020000
00000000
01030000
20000000
00000000
30100000
,
01000000
00000000
00010000
10000000
01000000
00000000
00100000
00000000
,
00001000
00010000
00001000
00000000
00000010
00000000
00000100
00001000
,
00000002
00000000
00000103
00000000
,
00000001
00000010
00001000
00000010
,
00000001
00000100
00000010
00001000
,
00020000
00230000
02300000
23000000
,
30010000
00000000
10000000
00000000
00000000
01000000
00100000
00000000
,
00010000
00000000
00001000
00000000
00000000
00000010
00000100
00000000
,
00000010
00000000
00001000
00000000
00000001
00000001
00000001
00000000
,
00000010
00000000
00001000
00010000
00002000
00000000
00003000
00000000
,
00010000
00000000
00100000
01000000
00010000
00000000
10000000
00000000
,
01000000
00000000
00100000
00010000
10000000
00000000
00100000
00000000
,
00010000
00001000
00010000
00000000
00001000
00000000
00000010
00000000
,
00000100
00001000
00000010
00000000
00000200
00000000
00000301
00000000
,
00000010
00000000
00000011
00000000
00000001
00001000
00000100
00000000
,
00010000
00000100
00010000
00002000
01000000
00000000
00013000
00000000
,
00002000
00023000
02030000
23000000
,
30100000
00000000
01000000
00010000
20000000
00000000
31000000
00000000
,
00010000
00000000
00000000
00000000
00001000
00000000
00000000
00000010
00000000
00000000
00000001
00000000
00001000
00000000
00000000
00000010
,
00000000
00000000
00010000
00000000
00001000
00000000
00000000
00010000
00000000
00000000
00100000
00000000
10000000
00000000
00000000
00000000
,
02000000
00000000
00010000
00000000
03200000
00000000
00310000
01000000
,
00200000
00010000
01000000
10300000
,
10010000
00000000
00000000
10000000
00000000
01000000
00200000
00000000
00000000
00300000
00000000
00000000
,
00010000
00000000
00000000
00001000
00000000
00000010
00000200
00000000
00000000
00000300
00000000
00000000
,
00000002
00000023
00002030
00023000
,
00130000
00000000
01100000
00000000
00010000
10000000
01000000
00000000
,
10000000
10000000
01000000
00000000
00010000
00000000
00001000
00000100
,
00000220
00000000
00000000
00000000
,
00000000
00000000
00000000
00000000
,
00000330
00000000
00000000
00000000
;

//---------------dance-double - t7r----------------
#NOTES:
     dance-double:
     t7r:
     Hard:
     13:
     :
00000000
00000000
00000000
00000000
,
00000000
00000000
00000000
00000000
,
00000000
00000000
00000000
00000000
,
00000000
00000000
00000000
00000000
,
00000000
00000000
00000000
00000000
,
00000010
00000000
00000000
00001000
00000000
00000001
00000100
00000000
00000000
00000010
00000000
00001000
,
00000100
00000000
00000000
00020000
00000000
00000000
00031000
00000000
00000000
00010000
00000000
01000000
,
10000000
00100000
00100000
01000000
00010000
10000000
00100000
00000000
,
10000000
00000000
01000000
00010000
00001000
00000000
00010000
00000000
,
00011000
00000000
00000000
00000000
00001000
00000000
00000000
00000100
00000010
00000000
00000100
00000000
00000001
00000000
00000000
00000000
,
00000010
00000000
00000000
00000000
00000100
00000000
00000000
00010000
00000100
00000000
00010000
00000000
00001000
00000000
00000000
00000000
,
00010000
00000000
01000000
10000000
00000000
00010000
00100000
00000000
00001000
00010000
00000000
00001000
,
00000200
00000302
00000023
00000130
,
00011000
00000000
00000000
00000000
00000000
00000000
00010000
00000000
00000000
00000000
00100000
00000000
02000000
00000000
00000000
00000000
00000000
00000000
03010000
00000000
00000000
00100000
00000000
00000000
,
00002000
00000000
00000000
00000000
00000000
00000000
00013000
00000000
00000000
00000000
00001000
00000000
00000020
00000000
00000000
00000000
00000000
00000000
00000130
00000000
00000000
00001000
00000000
00000000
,
00000001
00000000
00000001
00000000
00000100
00000000
00000000
00001000
00000000
00010000
00001000
00000000
00010000
00000000
00000000
00000000
,
01000000
01000000
10000000
00100000
02000000
00000000
03020000
00000000
,
10030000
00000000
11000000
00000000
10000000
00010000
01000000
00000000
,
00010000
00000000
10010000
00000000
10000000
00100000
00010000
00000000
,
00001000
00010000
00000100
00000000
00010000
00001000
01000000
00000000
,
00001000
00000000
00010000
00000000
00001000
00000000
00000010
00000000
00000100
00000000
00000000
00000010
00000000
00000000
00000001
00000000
,
00000100
00000000
00000000
00000001
00001000
00000000
00000000
00000000
00000100
00000000
00000010
00000000
00000001
00000000
00000000
00000000
,
00000100
00000000
00000000
00000010
00001000
00000000
00000000
00000000
00000100
00000000
00010000
00000000
00001000
00000000
00000000
00000000
,
00020000
00000000
00130000
01000000
00000000
00020000
00000000
10030000
,
02000000
00000000
00010000
00000000
03100000
00001000
00010000
00010000
,
00001000
00000000
00000100
00000000
00000001
00000000
00001000
00000100
00000000
00000000
00010000
00000000
00001000
00000000
00010000
01000000
,
00000000
00000000
10000000
00000000
00010000
00000000
01000000
10000000
00000000
00000000
01000000
00000000
00010000
00000000
00100000
00002000
,
00000000
00000000
00013000
00000100
00002000
00000000
00003010
00000100
,
00000002
00000000
00000010
00000000
00001003
00000001
00000100
00000000
,
00000010
00000000
00000000
00001000
00000100
00000000
00000000
00000000
00010000
00000000
00001000
00000000
00010000
00000000
00000000
00000000
,
00001000
00000000
00000000
00010000
00001000
00000000
00000000
00000000
00010000
00000000
01000000
00000000
00100000
00000000
00002000
00000000
,
00010000
00000000
01000000
00000000
00013000
00001000
00000200
00000000
,
00000302
00000000
00000000
00000000
00000010
00000000
00000000
00000000
00001003
00000000
00000100
00000000
00010000
00000000
00001000
00010000
,
00002000
00000000
00000000
00000000
,
00000000
00000000
00000000
00003000
,
00010000
00000000
00000000
01000000
00000000
00000000
10000000
00000000
00100000
00000000
00000000
00000000
01000000
00000000
00010000
00000000
,
10000000
00000000
00000000
01000000
00000000
00000000
00100000
00000000
00010000
00000000
00000000
00000000
10000000
00000000
00100000
00000000
,
00010000
00000000
00000000
00001000
00000000
00000000
00000100
00000000
00000010
00000000
00000000
00000000
00001000
00000000
00000100
00000000
,
00000010
00000000
00000000
00000001
00000000
00000000
00000100
00000000
00000010
00000000
00001000
00000000
00000100
00000010
00000100
00000000
,
00001000
00000000
00000000
00000001
00000000
00000100
00001000
00000000
00010000
00000000
00000000
00001000
00000000
00010000
00001000
00000000
,
00010000
00000000
00000000
00100000
00000000
01000000
00100000
00000000
10000000
00000000
00000000
01000000
00000000
00100000
00010000
00000000
,
10000000
00000000
00000000
00100000
00000000
00010000
00001000
00000000
00010000
00000000
00010000
00000000
00001000
00000000
00000010
00000000
,
00000001
00000100
00000000
00000010
00001000
00000000
00000100
00001000
00000000
00000100
00010000
00000000
00002000
00000000
00000000
00000000
,
00013000
01000000
10000000
00010000
01000000
10000000
00010000
00100000
,
10000000
01000000
00010000
00000000
00001000
00000010
00000001
00000100
,
00000001
00000000
00000010
00001000
00010000
00001000
00000010
00000001
,
00000100
00000010
00001000
00000100
00010000
00001000
01000000
00010000
,
01000000
10000000
00010000
00100000
10000000
01000000
00010000
00001000
,
00000100
00000010
00000100
00000001
00000010
00001000
00010000
01000000
,
00200000
00000000
00310000
00100000
00001000
00010000
00000010
00001000
,
00000001
00000000
00000000
00000000
00000100
00000000
00000000
00000000
00000010
00000000
00000000
00000000
00010000
00001000
00010000
00001000
,
00020000
00000000
00000100
00000000
,
00032000
00000000
01000000
00000000
,
00013000
00000000
01000000
10000000
00000000
00000000
00100000
00000000
01000000
00010000
00000000
00000000
,
20000000
30200000
00320000
00032000
,
00003010
00000000
00000000
00000100
00000000
00001000
00000002
00000000
00000000
00000103
00000000
00000000
,
00000010
00000000
00000000
00001000
00000000
00000100
00020000
00000000
00000000
00031000
00000000
00000000
,
00010000
00010000
00010000
00000000
00001000
00001000
00001000
00000000
,
00010000
00000000
00000100
00010000
00000000
00001000
02000000
00000000
00000000
03200000
00000000
00000000
,
10300000
01000000
00100000
00000000
01000000
10000000
00010000
00000000
,
10000000
00100000
01000000
00000000
00100000
00010000
00001000
00000000
,
00000010
00000001
00000100
00000000
00000010
00001000
00000001
00000000
,
00000010
00000000
00001000
00000000
00010000
00000000
00000000
00000000
00100000
00000000
00000000
01000000
00000000
00000000
00010000
00000000
,
10000000
00000000
00000000
01000000
00100000
00000000
00000000
00000000
01000000
00000000
10000000
00000000
00010000
00000000
00000000
00000000
,
01000000
00000000
00000000
00100000
10000000
00000000
02000000
00000000
00010000
00000000
00000000
00000000
03100000
00000000
00001000
00000000
,
00020000
00032000
00003020
00000032
,
00000103
00000010
00001000
00000100
00010000
00001000
00010000
00000000
00000000
00011000
00000000
00000000
,
00010000
00000000
00100000
00000000
10000000
00000000
00010000
00100000
00000000
00000000
00001000
00000000
00010000
00000000
00001000
00000010
,
00000000
00000000
00000001
00000000
00001000
00000000
00000010
00000001
00000000
00000000
00000010
00000000
00001000
00000000
00000100
00020000
,
00000000
00000000
00031000
00100000
00020000
00000000
01030000
00100000
,
20000000
00000000
01000000
00000000
30010000
10000000
00100000
00000000
,
01000000
00000000
00000000
00010000
00100000
00001000
00020000
00000000
00000000
00031000
00000000
00000000
,
00010000
00000000
00000000
00000000
00000000
00000000
00000010
00000000
00001000
00000000
00000001
00000000
00000100
00000000
00000000
00000001
00000000
00000000
00000010
00000000
00000000
00000200
00000000
00000000
,
00000001
00000010
00001300
00000001
,
00000100
00000000
00000000
00000000
00001000
00000000
00010000
00000000
00001000
00000000
00010000
00000000
00001000
00000000
00000000
00000000
00000000
00000000
00010000
00000000
00000000
00010000
00000000
00000000
,
01000000
00000000
00000000
00000000
10000000
00000000
00100000
00000000
01000000
00000000
00010000
00000000
00100000
00000000
00000000
00000000
00000000
00000000
00001000
00000000
00000000
00010000
00000000
00000000
,
00022000
00000000
00000000
00000000
,
00000000
00000000
00000000
00000000
,
00033000
00000000
00000000
00000000
;

//---------------dance-double - t7r----------------
#NOTES:
     dance-double:
     t7r:
     Challenge:
     17:
     :
00000000
00000000
00000000
00000000
,
00000000
00000000
00000000
00000000
,
00000000
00000000
00000000
00000000
,
00000000
00000000
00000000
00000000
,
00000000
00000000
00000000
00000000
,
00001000
00000000
00010000
00000010
00001000
00000001
00000200
00000000
00000301
00000010
00000100
00001000
,
00000002
00000000
00000103
00001000
00010000
00000100
00001000
00000001
00000010
00000100
00001000
00010000
,
00100000
00010000
00100000
00010000
10000000
00000000
00100000
10000000
00100000
10000000
00010000
00000000
10000000
00100000
00000000
10000000
,
00010000
00000000
00000000
00100000
00000000
00000000
00000000
00000000
00000000
00001000
00000000
00000000
00010000
00000000
00000000
00000000
00000000
00000000
00001000
00000000
00000000
00000000
00000000
00000000
00000100
00000000
00000000
00000000
00000001
00000000
00000000
00000000
00001000
00000000
00000000
00000000
00000100
00000000
00000000
00000000
00010000
00000000
00000000
00000000
00001000
00000000
00000000
00000000
,
00011000
00000000
00000000
00000000
00001000
00000000
00000000
01000000
00010000
00000000
10000000
00000000
00010000
00100000
00000000
00010000
,
10000000
00100000
01000000
00010000
10000000
01000000
00010000
00001000
01000000
00100000
00010000
00001000
,
00000010
00000100
00001000
00000010
00000100
00000001
00000010
00001000
00010000
00000010
00000100
00001000
,
00020000
00000000
00000000
00031000
01000000
00020000
00000000
00000000
10030000
00000000
00100000
00000000
01000000
00010000
00000000
10000000
,
00020000
00000000
00000000
01030000
00100000
10000000
01000000
00100000
00010000
00001000
00000010
00000100
,
00000001
00000000
00000010
00000100
00001000
00000001
00000100
00000010
00001000
00010000
01000000
00100000
,
10000000
00000000
01000000
00000000
10000000
00100000
00000000
01000000
00000000
00010000
10000000
00000000
01000000
00010000
00000000
00001000
,
00000000
00010000
00001000
00000000
00000100
00000010
00000000
00001000
00000200
00020300
00030200
00020300
00032000
00023000
00032000
00023000
,
00031000
00000000
00010000
00001000
01000000
00000000
00100000
00000000
10000000
00000000
01000000
00100000
00010000
00000000
10000000
00000000
,
00100000
00000000
01000000
00010000
10000000
00000000
01000000
00000000
00010000
00000000
00001000
00010000
00000100
00000000
00001000
00000000
,
00000001
00000000
00000100
00000010
00001000
00000000
00000001
00000000
00000010
00000000
00000100
00010000
00001000
00000000
00010000
00000000
,
01000000
00000000
10000000
00100000
01000000
00000000
00100000
00000000
10000000
00000000
00010000
00100000
00000000
00001000
00010000
00000000
,
00001000
00000000
00000010
00000100
00001000
00000000
00000001
00000000
00000100
00000000
00000010
00001000
00000001
00000000
00000100
00000000
,
00001000
00000000
00010000
00001000
01000000
00000000
00010000
00000000
10000000
00000000
00100000
10000000
00010000
00000000
10000000
00000000
,
00100000
00000000
01000000
00010000
10000000
00000000
01000000
00000000
00010000
00000000
00001000
00010000
00000100
00000000
00001000
00000000
,
00000020
00000000
00000000
00000000
00000001
00000000
00000130
00000001
00002000
00000000
00000000
00000000
00003100
00001000
00000100
00010000
,
00001000
00000000
00010000
00000000
00010000
00000000
01000000
00010000
10000000
00000000
01000000
00000000
01000000
00000000
00010000
10000000
,
00100000
00000000
00010000
00000000
00010000
00000000
00001000
00000100
00001000
00000000
00000010
00000000
00000010
00000000
00000001
00001000
,
00000020
00000000
00000000
00000000
00000130
00000000
00000001
00001000
00000020
00000000
00000000
00000000
00001030
00000000
00000100
00010000
,
00002000
00000000
00000000
00000000
00010000
00000000
00000000
00000000
01003000
00000000
00000000
00000000
00010000
00000000
10000000
01000000
,
00100000
00020000
00031000
00000020
00000100
00000000
00001030
00000002
,
00000013
00000000
00000100
00001000
00000100
00000000
00001000
00000000
00000001
00000000
00000100
00000000
00001000
00000000
00020000
00000000
,
01000000
00000000
00000000
00000000
00030100
00000000
00001000
00000001
00001000
00000000
00000010
00000000
00000100
00000000
00001000
00000000
,
00020000
00000000
00001000
00000000
01030000
00000000
00000000
00000000
20000000
00000000
00100000
00000000
30010000
10000000
00010000
10000000
,
00200000
00000000
00000000
00000000
,
00000000
00000000
00000000
00300000
,
10000000
00000000
01000000
00100000
00000000
00010000
10000000
00000000
00100000
00000000
00000000
00000000
00010000
00001000
00010000
00000010
,
00001000
00000000
00000100
00000010
00000000
00000001
00001000
00000000
00000001
00000000
00000000
00000000
00000100
00000000
00001000
00000000
,
00010000
00000000
00000100
00001000
00000000
00000001
00000010
00000000
00000100
00000000
00000000
00000000
00010000
00000000
00001000
00010000
,
00001000
00000000
01000000
00010000
00000000
10000000
00100000
00000000
10000000
00000000
01000000
00000000
00010000
00001000
00010000
00001000
,
00010000
00000000
00001000
00000010
00000000
00000001
00001000
00000000
00000001
00000000
00000100
00001000
00000000
00010000
00001000
00010000
,
00001000
00000000
00010000
01000000
00000000
10000000
00010000
00000000
10000000
00000000
00100000
00010000
00000000
00001000
00010000
00001000
,
00010000
00000000
00001000
00000010
00000000
00000100
00000010
00000000
00000001
00000000
00000001
00000000
00001000
00000000
00001000
00000000
,
00010000
00100000
00000000
00100000
01000000
00000000
01000000
00100000
00010000
00000000
01000000
00100000
10000000
00000000
01000000
00000000
,
00010000
00001000
00020000
00000000
00000100
00000000
00031000
00010000
00002000
00000000
01000000
00000000
00013000
00001000
00020000
00000000
,
00000010
00000000
00031000
00010000
00002000
00000000
00100000
00000000
00013000
00000010
00020000
00000000
00000100
00000000
00031000
00100000
,
00002000
00000000
01000000
00000000
00013000
00001000
00010000
00000000
00001000
00000000
00000010
00000001
00001000
00000000
00000001
00000000
,
00000100
00000010
00001000
00000000
00010000
00100000
01000000
10000000
00010000
00000000
10000000
00100000
01000000
00001000
00010000
00000000
,
00001000
00100000
00002000
00000000
01000000
00000000
00013000
00000010
00020000
00000000
00000100
00000000
00031000
01000000
00002000
00000000
,
00100000
00000000
00013000
00000100
00020000
00000000
00000100
00000000
00031000
00100000
00002000
00000000
01000000
00000000
00013000
00001000
,
00010000
00000000
00100000
10000000
00010000
10000000
00100000
00000000
10000000
00000000
01000000
00100000
00010000
00000000
00001000
00000010
,
00000100
00000001
00001000
00000000
00000001
00000010
00000100
00001000
00000001
00000100
00000010
00000000
00010000
00001000
00010000
00001000
,
00020000
00000000
01000000
00031000
,
01000000
00010000
10000000
00100000
10000000
00010000
00100000
01000000
10000000
00100000
00010000
00000000
,
00001000
00000100
00000010
00001000
00000100
00000010
00000001
00000010
00000100
00000001
00000100
00001000
,
00000001
00000200
00000000
00000000
00001300
00020000
00000000
00000000
01030000
20000000
00000000
00000000
30100000
02000000
00000000
00000000
,
03100000
00000000
00010000
00100000
01000000
00100000
10000000
01000000
00100000
00010000
00001000
00000010
,
00000100
00000000
00001000
00000100
00000001
00000010
00000100
00001000
00010000
00100000
01000000
10000000
,
00010000
00000000
00010000
00000000
00100000
00001000
00000000
00010000
00000000
00010000
00000010
00000000
00001000
00000001
00000000
00001000
,
00000000
00000001
00000010
00000000
00000100
00010000
00000000
00010000
00002000
00023000
00032000
00023000
00032000
00023000
00032000
00023000
,
00031000
00000000
00010000
00100000
10000000
00000000
00010000
00000000
00100000
01000000
10000000
00000000
00010000
00100000
00000000
00100000
,
00001000
00000000
00010000
00001000
00000010
00000000
00000001
00000000
00001000
00000010
00001000
00000001
00000010
00000001
00001000
00000000
,
00000001
00000010
00000001
00000000
00001000
00000010
00010000
00000000
00001000
00100000
00001000
00000000
00100000
00010000
10000000
00000000
,
00100000
10000000
00100000
10000000
00010000
00100000
00010000
00100000
00001000
00000000
00010000
00001000
00000000
00001000
00000010
00000000
,
00000001
00000100
00000000
00000010
00001000
00000000
00000001
00000010
00000000
00000100
00001000
00000000
00000100
00000000
00010000
00001000
,
00010000
00100000
10000000
00010000
10000000
00000000
00100000
00010000
00001000
00010000
00001000
00000010
00000001
00000000
00000100
00000010
,
00001000
00000100
00000000
00000100
00010000
00001000
00000000
00001000
01000000
00010000
00000000
00010000
10000000
00100000
00000000
00100000
,
10000000
00000000
00000000
00000000
01000000
00000000
00000000
00000000
00010000
00000000
00000000
00000000
00001000
00000000
00000000
00000000
00000100
00000000
00000000
00000000
00000001
00000000
00000000
00000000
00000010
00000000
00000000
00000000
00000100
00000000
00000000
00000000
00010000
00000000
00000000
00000000
00001000
00000000
00000000
00010000
00000000
00000000
00001000
00000000
00000000
00010000
00000000
00000000
,
00001000
00000000
00010000
00000000
00010000
00000000
00100000
00010000
10000000
00000000
00100000
00000000
00100000
00000000
00010000
10000000
,
01000000
00000000
00010000
00000000
00010000
00000000
00001000
00000010
00001000
00000000
00000100
00000000
00000100
00000000
00000001
00001000
,
00000100
00000010
00000001
00000100
00000010
00001000
00000100
00010000
00001000
01000000
00010000
10000000
,
00010000
02000000
00000000
03100000
10000000
00020000
00000000
00000000
00130000
00002000
00000000
00013000
00000010
00000000
00000100
00000000
,
00000110
00000000
00000000
00000000
00000000
00000000
00000000
00000000
00000000
00000100
00000000
00000000
00000001
00000000
00000000
00000000
00000010
00000000
00000000
00000000
00000100
00000000
00000000
00000000
00001000
00000000
00000000
00000000
00010000
00000000
00000000
00000000
00100000
00000000
00000000
00000000
00010000
00000000
00000000
00000000
10000000
00000000
00000000
00000000
00100000
00000000
00000000
00000000
,
01000000
00000000
00000000
00000000
00000000
00000000
00000000
00000000
00000000
00010000
00000000
00000000
10000000
00000000
00000000
00000000
00100000
00000000
00000000
00000000
01000000
00000000
00000000
00000000
00010000
00000000
00000000
00000000
00001000
00000000
00000000
00000000
00000010
00000000
00000000
00000000
00001000
00000000
00000000
00000000
00000001
00000000
00000000
00000000
00000010
00000000
00000000
00000000
,
00000100
00000000
00001000
00000001
00000100
00000000
00000010
00000000
00001000
00000000
00010000
00100000
01000000
00000000
00100000
00000000
,
00010000
10000000
00100000
00010000
00001000
00000010
00000001
00000100
00000010
00001000
00000001
00000010
,
00001000
00000000
00000000
00000000
00010000
00000000
00000000
00000000
01000000
00000000
00000000
00000000
10000000
00000000
00000000
00000000
00010000
00000000
00000000
00000000
01000000
00000000
00000000
00000000
00100000
00000000
00000000
00010000
00000000
00000000
00000000
00000000
00000000
00001000
00000000
00000000
00010000
00000000
00000000
00000000
00000000
00000000
00011000
00000000
00000000
00000000
00000000
00000000
,
00000020
00000000
00000000
00000000
,
00000000
00000000
00000000
00000000
,
00000030
00000000
00000000
00000000
;
