#TITLE:New Era;
#ARTIST:Yuta Imai;
#BANNER:New Era.png;
#BACKGROUND:New Era-bg.png;
#JACKET:New Era-jacket.png;
#MUSIC:New Era.ogg;
#CDTITLE:./CDTITLES/NONE.PNG;
#SAMPLESTART:94.451;
#SAMPLELENGTH:15;
#BPMS:0=155;

//---------------dance-single - Air----------------
#NOTES:
     dance-single:
     Air:
     Beginner:
     4:
     :
0000
0000
0000
0000
,
0000
0000
0000
0000
,
0000
0000
0000
0000
,
0000
0000
0000
0000
,
0000
0000
0000
0000
,
1001
0000
0000
0000
,
0200
0000
0300
0000
,
1001
0000
0010
0000
,
1001
0000
0100
0000
,
0110
0000
0000
0000
,
0000
0000
0000
0000
,
1001
0000
0000
0000
,
0000
0000
0000
0000
,
0110
0000
0010
0000
,
0100
0000
1000
0000
,
0010
0000
0001
0000
,
0100
0000
0000
0000
,
0101
0000
0000
0000
,
0000
0000
0000
0000
,
1010
0000
0000
0000
,
0000
0000
0000
0000
,
1100
0000
0000
0000
,
0000
0000
0000
0000
,
0011
0000
0000
0000
,
0110
0000
0000
0000
,
1001
0000
1000
0000
,
1000
0000
0010
0000
,
0001
0000
0001
0000
,
0001
0000
0010
0000
,
0110
0000
0100
0000
,
0100
0000
0010
0000
,
1000
0000
0100
0000
,
0001
0000
0000
0000
,
1100
0000
0000
0000
,
1100
0000
0000
0000
,
0101
0000
0000
0000
,
0101
0000
0000
0000
,
0011
0000
0000
0000
,
0011
0000
0000
0000
,
1010
0000
0110
0000
,
0110
0000
0000
0000
,
0200
0000
0000
0000
,
0000
0000
0000
0000
,
0000
0000
0000
0000
,
0300
0000
0000
0000
,
0020
0000
0000
0000
,
0000
0000
0000
0000
,
0000
0000
0000
0000
,
0030
0000
0000
0000
,
1001
0000
1001
0000
,
0100
0000
0000
0000
,
1001
0000
1001
0000
,
0010
0000
1001
0000
,
0100
0000
0000
0000
,
0100
0000
0000
0000
,
0100
0000
0000
0000
,
0100
0000
0010
0000
,
0110
0000
0001
0000
,
1000
0000
0010
0000
,
0100
0000
0001
0000
,
1000
0000
0000
0000
,
0020
0000
0030
0000
,
1001
0000
0000
0000
,
1001
0000
0000
0000
,
0100
0100
0100
0000
,
1001
0000
0000
0000
,
1001
0000
0000
0000
,
0110
0000
0000
0000
,
0010
0010
0010
0000
,
0001
0000
0001
0000
,
0010
0000
0010
0000
,
1000
0000
1000
0000
,
0100
0100
0100
0000
,
0110
0000
0000
0000
,
0110
0000
0000
0000
,
1001
0000
0000
0000
,
0010
0010
0010
0010
,
0020
0000
0000
0000
,
0030
0000
0000
0000
;

//---------------dance-single - t7r----------------
#NOTES:
     dance-single:
     t7r:
     Easy:
     7:
     :
0000
0000
0000
0000
,
0000
0000
0000
0000
,
0000
0000
0000
0000
,
0000
0000
0000
0000
,
0000
0000
0000
0000
,
2000
0000
3010
0000
,
0001
0001
1000
1000
,
0002
0000
0013
0000
,
2000
0000
3010
0000
,
1001
1000
1000
0000
,
0100
0100
0100
0000
,
1001
0001
0001
0000
,
0100
0100
0100
0000
,
0001
0001
0010
0010
,
0100
0100
1000
1000
,
0001
1000
0001
1000
,
0000
0000
0000
0000
,
0010
0010
0010
0000
,
0010
0010
0010
1001
,
0100
0100
0100
0000
,
0100
0100
0100
1001
,
1000
1000
1000
0000
,
1000
1000
1000
0000
,
0001
0001
0001
0001
,
0000
0000
0000
0000
,
0001
0010
0100
0100
,
0001
0010
0100
0000
,
1000
0010
0100
0100
,
1000
0010
0100
0000
,
0001
1000
0110
0000
,
0001
1000
1000
0000
,
1000
0001
0110
0000
,
1000
1000
0001
0000
,
0110
0010
2000
0010
,
0001
0001
3001
0000
,
0001
0010
0200
1000
,
0010
0010
0310
0000
,
0001
0001
1000
1000
,
0010
0010
0100
0100
,
0001
0010
0100
0001
,
2000
0000
3010
0100
,
2002
0000
0000
0000
,
0000
0000
0000
0000
,
3003
0000
0000
0000
,
0000
0000
0000
0000
,
2000
0000
0000
0000
,
0000
0000
0000
0000
,
3020
0000
0000
0000
,
0230
0000
0000
0301
,
1002
0000
0013
0000
,
1000
1000
1000
0000
,
2001
0000
3010
0000
,
0002
0000
0013
0000
,
1001
1000
1000
0100
,
0100
0100
0100
0010
,
0010
0010
0010
0001
,
0001
1000
1001
0000
,
1001
0001
0001
0100
,
0100
0100
0100
0010
,
0010
0010
0010
1000
,
2000
0000
3001
0000
,
1000
0100
0001
0000
,
1100
1100
1100
0000
,
1001
1001
1001
0000
,
1010
1010
1010
0000
,
0101
0101
0101
0000
,
1001
1001
1001
0000
,
0011
0011
0011
0000
,
0001
0100
0010
1000
,
0110
0110
0110
0110
,
0101
0101
0101
0101
,
1001
1001
1001
1001
,
1100
1100
1100
1100
,
1000
1000
1001
0000
,
0001
0001
0110
0000
,
0010
0010
1001
0000
,
0100
0010
0100
0000
0010
0000
0000
0000
,
2002
0000
0000
0000
,
0000
0000
0000
0000
,
3003
0000
0000
0000
;

//---------------dance-single - Air----------------
#NOTES:
     dance-single:
     Air:
     Medium:
     10:
     :
0000
0000
0000
0000
,
0000
0000
0000
0000
,
0000
0000
0000
0000
,
0000
0000
0000
0000
,
0000
0000
0000
0000
,
0020
0000
0030
1000
0100
0000
0000
0000
,
0020
0000
0000
0030
,
0020
0000
0030
0001
0200
0000
0300
0000
,
0020
0030
0110
0000
,
1000
0100
0001
0000
,
0001
0100
1000
0000
,
0001
0010
1000
0000
,
1000
0010
0001
0000
,
1000
0010
0100
0001
,
1000
0100
0010
0001
,
0200
0300
0020
0030
,
2002
0000
0000
3003
,
0010
0100
0010
0100
,
0010
0100
0010
0110
,
1000
0001
0010
0100
,
1000
0010
0100
0101
,
1000
0010
1000
0010
,
0001
0100
0001
0100
,
1000
0100
0010
0001
,
1000
1000
0001
0001
,
0100
0000
0100
0010
1000
0000
0000
0000
,
1100
1100
1100
0000
,
0010
0000
0010
0001
0100
0000
0000
0000
,
0101
0101
0101
0000
,
1010
0000
0001
0100
0010
0000
0000
0000
,
0100
0100
0100
0000
,
0001
0010
0100
1000
,
0002
0000
0000
0003
,
1000
1000
1000
1000
,
1000
0001
1000
0001
1000
0001
1000
0000
,
0010
0010
0010
0010
,
0010
0100
0010
0100
0010
0100
0010
0000
,
0001
0010
1000
0100
,
0001
0010
1000
0100
,
1001
0000
0000
1000
0100
0000
0000
0001
,
0200
0000
0300
0000
,
0110
0000
0000
0000
,
0000
0000
0000
0000
,
0000
0000
0000
0000
,
0000
0000
0000
0000
,
2000
0000
0000
0000
,
0000
0000
0000
0000
,
0002
0000
0000
0000
,
3003
0000
0000
0000
0000
0000
0000
0010
,
0100
0000
0000
0100
0010
0000
0000
0000
,
0001
0000
0000
0000
0100
0000
0000
0100
,
0010
0000
0000
0010
0100
0000
0000
0100
,
0010
0000
0000
0010
1000
0000
0000
1000
,
0100
0010
0001
0100
,
0010
0000
1000
0000
0100
0000
0010
0100
,
1000
0010
0100
0001
,
0010
1000
0100
0001
,
1001
1000
0010
0100
,
1001
0001
0010
0100
,
0011
0000
1000
0000
0010
0000
0100
0001
,
2000
0000
0000
0000
,
0100
0000
0100
0000
0100
0000
3001
1000
,
0100
0000
1100
0000
1100
0000
1000
0001
,
0100
0000
0101
0000
0101
0000
0001
1000
,
0100
0010
0001
0100
,
0001
0000
1010
0000
1010
0000
1000
0001
,
0010
0000
0011
0000
0011
0000
0001
1000
,
0010
0000
1010
0000
1010
0000
1000
0001
,
0100
0010
0100
0001
,
0010
0000
0110
0000
0110
0000
0010
0001
,
1000
0000
1001
0000
1001
0000
0001
1000
,
0010
0000
1010
0000
1010
0000
1000
0001
,
0100
0000
0010
0100
0001
0000
0010
0000
,
0100
0010
0100
0000
0010
0000
0010
0000
,
1000
0001
1000
0000
1000
0000
1000
0000
,
0010
0100
0010
0000
0001
1000
0001
0000
,
0010
0100
1000
0010
0100
0000
0001
0000
,
2002
0000
0000
0000
,
3003
0000
0000
0000
;

//---------------dance-single - (◡ ω ◡)----------------
#NOTES:
     dance-single:
     (◡ ω ◡):
     Hard:
     13:
     :
0000
0000
0000
0000
,
0000
0000
0000
0000
,
0000
0000
0000
0000
,
0000
0000
0000
0000
,
0000
0000
0000
0000
,
2001
0000
0000
3100
0010
0000
0000
0000
,
0001
0000
0000
0001
0000
0000
0001
0000
0000
0001
0100
0000
0001
0000
1000
0000
,
0010
0000
0000
0100
0010
0000
0000
1000
,
0100
0000
0000
0010
0001
0000
0000
1000
,
0001
0001
0001
0001
,
1000
0000
0000
0000
1000
0000
0000
0000
1000
0000
0000
0000
1000
0000
0010
0100
,
0010
0010
0010
0010
,
0100
0000
0000
0000
0100
0000
0000
0000
0100
0000
0000
0000
0100
0000
0100
0010
,
0100
1000
0100
0001
0100
0010
1000
0100
,
0001
0100
0010
0001
0010
0100
1000
0001
,
1000
0001
1000
0001
1000
0001
1000
0001
1000
0001
1000
0001
1000
0001
1000
0001
,
0000
0000
0000
0011
,
1000
0100
0010
1000
,
0001
0100
0010
1010
,
0001
0100
0010
0001
,
1000
0100
0010
1001
,
1000
0100
0000
0010
1000
0100
0000
0010
,
1000
0100
0000
0010
1000
0001
0000
0010
,
0100
0100
0100
0000
0110
0001
1000
0010
,
0200
0000
0301
0001
0001
1000
0002
0000
,
1003
0000
0000
0000
0100
0000
0010
0000
0001
0000
0000
0001
0000
0000
0000
0000
,
0100
0001
0100
0001
1000
0001
1000
1000
,
1010
0000
0000
0000
0100
0000
1000
0000
0010
0000
0000
0100
0000
0000
0000
0000
,
0010
1000
0010
1000
0100
1000
0001
0000
,
0110
0000
0000
0000
0101
0000
1100
0000
1001
0000
0000
0000
0110
0000
0000
0001
,
0100
0001
1000
0001
0010
0000
0110
0000
,
1001
0000
0000
0000
1000
0000
0100
0000
0001
0000
0000
0001
0100
0000
0000
0000
,
0220
0000
0000
0330
,
0010
0010
0010
0010
,
0010
0010
0010
0010
,
0001
0100
1000
0010
,
0100
0000
0000
0000
0001
0000
0010
0000
1000
0000
0001
1000
0001
0000
0100
0000
,
1000
0001
1000
0001
,
0100
0010
0100
0010
,
0102
0000
0100
0000
0103
0000
0000
0000
1000
0000
0000
0010
0000
0000
0001
0000
,
1001
0000
0000
0000
0000
0000
0000
0000
0000
0000
1001
0000
0001
0000
1000
0001
,
2000
0000
0000
0000
,
0000
0000
0000
0000
,
0200
0000
0000
0000
,
0000
0000
0000
0300
,
3002
0000
0000
0000
,
0000
0000
0000
0000
,
0020
0000
0000
0030
,
2000
0000
0000
0000
3003
0010
0100
0010
,
2001
0000
0000
0000
0000
0000
3100
0010
0200
0000
0000
0000
0000
0000
0000
0000
,
1300
0000
0000
1000
0000
0000
1000
0000
0000
1000
0100
0000
1000
0000
0010
0000
,
0200
0000
0000
0000
0000
0000
0301
0010
0002
0000
0000
0000
0000
0000
1003
0010
,
2000
0000
0000
0000
0000
0000
3001
1000
0002
0000
0000
0000
0000
0000
1003
0001
,
1000
1000
0010
0010
,
0100
0000
0000
0000
0100
0000
0000
0000
0001
0000
0000
0000
0001
0000
1000
0100
,
1000
1000
0001
0001
,
0010
0010
0100
0100
,
0001
0100
0001
0100
1000
0100
1000
0100
,
0001
1000
0001
0010
0001
1000
0100
1000
,
0001
1000
0001
1000
0001
1000
0001
1000
0001
1000
0001
1000
0001
1000
0001
1000
,
0000
0000
0000
0000
0000
0010
1001
0001
,
0100
0000
0100
0000
0100
0000
0110
1001
,
0101
0101
0101
0101
,
1001
1001
1001
1001
,
0011
0000
0011
0000
0011
0000
0011
1001
,
1100
1010
1100
1010
,
1100
1010
1100
1010
,
0101
1010
1100
1010
,
0101
0000
1010
0011
1001
0000
0100
0010
,
0001
0000
0101
0000
1100
0000
1000
0001
,
0100
0000
1100
0000
0101
0000
0001
1000
,
0100
0000
0011
0000
1010
0000
0001
1000
,
0100
0001
0100
1000
1000
0000
0210
0000
,
0301
0000
0101
0000
1010
0000
1100
0100
,
0010
0000
1100
0000
0101
0000
0011
0010
,
0100
0000
0011
0000
1001
0000
0110
0010
,
0100
0001
0010
0100
1000
0000
0001
0010
,
0202
0000
0000
0000
,
0000
0000
0000
0000
,
0303
0000
0000
0000
;

//---------------dance-single - (◡ ω ◡)----------------
#NOTES:
     dance-single:
     (◡ ω ◡):
     Challenge:
     14:
     :
0000
0000
0000
0000
,
0000
0000
0000
0000
,
0000
0000
0000
0000
,
0000
0000
0000
0000
,
0000
0000
0000
0000
,
1001
0000
0000
0000
0000
0000
0001
0010
0001
0000
0000
0000
0000
0000
0000
0000
,
1000
0000
0000
1000
0000
0000
1000
0000
0000
0100
0010
0000
1002
0000
0000
0000
,
0103
0000
0000
0000
0000
0000
1000
0010
1000
0000
0000
0000
0000
0000
0001
0100
,
0001
0000
0000
0000
0000
0000
1000
0010
0200
0000
0300
0000
0000
0000
0001
0010
,
0001
0100
0010
0100
1000
0100
0010
0100
,
0001
0000
0010
0000
0100
0000
1000
0000
0001
0000
0010
0000
0100
0000
1000
0001
,
1000
0010
0100
0010
0001
0010
0100
0010
,
1000
0000
0100
0000
0010
0000
0100
0000
0001
0000
0100
0000
1000
0000
0001
1000
,
0001
0001
0100
0100
0010
0010
1000
1000
,
0001
0001
0010
0010
0100
0100
1000
1000
,
0001
1000
0001
1000
0001
1000
0001
1000
0001
1000
0001
1000
0001
1000
0001
1000
,
0000
0000
0000
0010
,
1100
1100
1100
1100
,
1100
0000
1100
0000
1100
0000
1001
0001
,
0010
0100
0000
0010
0100
0000
1000
0000
0100
0010
0000
0100
0010
0000
0001
0000
,
0010
0100
0000
0010
0100
0000
1000
0000
0100
0010
0000
0000
1001
0000
0000
0000
,
1000
0010
0000
1000
0010
0000
0100
0000
0001
0010
0000
0001
0010
0000
0100
0000
,
1000
0001
0000
1000
0001
0000
0100
0000
0010
0100
0000
0010
0100
0000
0001
0000
,
0110
0110
0110
0000
1100
0000
0101
0000
,
2002
3003
0101
1100
,
0021
0000
0000
0000
0031
0000
0100
0000
0010
0000
0000
0010
1000
0000
0000
0001
,
0100
1000
0100
0010
0200
0000
0310
1000
,
1020
0000
0000
0000
1030
0000
0100
0000
0010
0000
0000
0010
0001
0000
0000
1000
,
0100
0001
0100
0010
0200
0000
0310
0000
,
1001
0000
0000
0000
0001
0000
0100
0000
0201
0000
0000
0301
1000
0000
0100
0010
,
0100
1000
0010
0100
0002
0000
0013
0001
,
1000
0001
0101
0000
0001
1000
1100
0000
,
0001
0000
0010
0000
1000
0000
0010
0000
0002
0000
0000
0000
1003
0000
0010
0100
,
0010
1000
0100
0010
0002
0000
0100
0000
,
1003
0000
0010
0000
0100
0000
0010
0000
0001
0000
0010
0100
0020
0000
0000
0000
,
1030
0000
0100
0001
2000
0000
3001
0100
,
0000
0000
0100
0000
0010
0000
0001
0000
0100
0000
0010
0100
0010
0000
1000
0000
,
0001
0001
0010
0010
0100
0100
1000
1000
,
0010
0010
0100
0100
0001
0001
1000
1000
,
0100
0000
0010
0000
0010
0000
0001
0100
0001
0000
0000
1001
0000
0000
1000
0010
,
2000
0000
0000
0000
0100
0000
0000
0000
3001
0000
0010
0000
0100
0000
1000
0001
,
2000
0000
0000
0000
,
0000
0000
0000
0000
,
0020
0000
0000
0000
,
0000
0000
0000
0030
,
3002
0000
0000
0000
,
0000
0000
0000
0000
,
0200
0000
0000
0300
,
2000
0000
0000
0000
0000
0000
0000
0000
0000
0000
0000
0000
3003
0000
0001
0100
,
0001
0000
0000
0000
0000
0000
0001
0010
0001
0000
0000
0000
0000
0000
0000
0000
,
0101
0000
0000
1100
0000
0000
0101
0000
0000
0001
1000
0000
0100
0000
0010
0000
,
0100
0000
0000
0000
0000
0000
1000
0001
0100
0000
0000
0000
0000
0000
0100
0010
,
1000
0000
0000
0000
0000
0000
1000
0100
0010
0000
0000
0000
0000
0000
1000
0100
,
1000
0000
0010
0000
1010
0000
0010
0100
,
0001
0000
0010
0000
0011
0000
0001
1000
,
0100
0000
1000
0000
1001
0000
0001
0100
,
0010
0100
1000
0100
0010
0000
1010
0000
,
0001
0001
0010
0010
0100
0001
0100
1000
,
0010
0010
0100
0100
1000
0100
0001
0100
,
0001
0010
0001
0010
0001
0010
0001
0010
0100
1000
0100
1000
0100
1000
0100
1000
,
0000
0010
0010
0000
0100
0010
1001
0001
,
0010
0000
0010
0000
0010
0000
1000
0100
,
1100
0000
0110
0000
1100
0000
0001
0100
,
0110
0000
0101
0000
0110
0000
0001
0010
,
0100
1000
0010
0100
0110
0000
1001
1000
,
1100
0000
0101
0000
1100
0000
1001
0001
,
0011
0000
1001
0000
0011
0000
0101
0100
,
0110
0000
1010
0000
0110
0000
0101
0001
,
1000
0100
0001
1001
1000
0010
0110
0010
,
0001
0000
1100
0000
0110
0000
0101
0100
,
0101
0000
0011
0000
0110
0000
1010
0010
,
0110
0000
0011
0000
1001
0000
1010
0010
,
0001
0010
0100
0001
1001
0000
0200
0000
,
0310
0000
0010
0000
0001
0000
0001
0000
0100
0000
0100
0000
1000
0000
0100
0010
,
0100
0000
0100
0000
0001
0000
0001
0000
0010
0000
0010
0000
1000
0000
0010
0001
,
1000
0001
1000
0001
1000
0001
1000
0001
0100
0010
0100
0010
0100
0010
0100
0010
,
1000
0100
0001
0010
1000
0100
0110
0010
,
2002
0000
0000
0000
,
0000
0000
0000
0000
,
3003
0000
0000
0000
;

//---------------dance-double - t7r----------------
#NOTES:
     dance-double:
     t7r:
     Easy:
     6:
     :
00000000
00000000
00000000
00000000
,
00000000
00000000
00000000
00000000
,
00000000
00000000
00000000
00000000
,
00000000
00000000
00000000
00000000
,
00000000
00000000
00000000
00000000
,
00020000
00000000
00030100
00000000
,
00001000
00000001
00000100
00000000
,
00002000
00000000
00013000
00000000
,
00200000
00000000
10300000
00000000
,
01000000
01000000
01000000
00000000
,
00100000
00100000
00100000
00000000
,
00001000
00001000
00001000
00000000
,
00010000
00010000
00010000
00000000
,
00000010
00000010
00000100
00000100
,
00000001
00000001
00001000
00001000
,
00000100
00010000
00001000
00000000
,
02000000
00000000
00000000
03000000
,
00100000
00100000
00100000
00000000
,
00100000
00100000
00100000
00011000
,
00000100
00000100
00000100
00000000
,
00000100
00000100
00000100
00001001
,
00000001
00000001
00000001
00000000
,
00000100
00001000
00010000
00000000
,
01000000
01000000
01000000
00000000
,
10000000
00010000
00020000
00030000
,
10000000
00100000
10000000
10000000
,
01000000
00100000
00010000
00000000
,
00001000
00000010
00000100
00000100
,
00000001
00000010
00000001
00000000
,
00000100
00000010
00001000
00001000
,
00000100
00010000
00001000
00000000
,
01000000
00010000
00100000
00100000
,
00001000
00010000
01000000
00000000
,
10010000
10000000
00200000
00300000
,
01000000
00010000
10000000
00000000
,
01000000
00100000
00010000
00000000
,
00001000
00000010
00000100
00000000
,
00001001
00000001
00000010
00000010
,
00000001
00000100
00001000
00010000
,
00001000
00001000
01000000
00010000
,
00100000
00000000
00010000
10000000
,
20020000
00000000
00000000
00000000
,
00000000
00000000
00000000
00000000
,
30030000
00000000
00000000
00000000
,
00000000
00000000
00000000
00000000
,
20000000
00000000
00000000
00000000
,
00000000
00000000
00000000
30000000
,
02000000
00000000
00000000
03000000
,
00020000
00000000
00002000
00033000
,
00011000
00000000
00000020
00000030
,
00000100
00000100
00000001
00001000
,
00000002
00000003
00000020
00000030
,
00002000
00003000
00020000
00030000
,
00001000
00001000
00010000
00000000
,
00001000
01000000
00010000
00000000
,
10000000
10000000
00100000
00000000
,
00010000
00001000
00010000
00000000
,
00000100
00000100
00001000
00000001
,
00000100
00000100
00000010
00001000
,
00010000
00010000
00100000
01000000
,
10000000
00000000
00000000
10010000
,
00000000
00000000
00000000
00000000
,
00001000
00010000
00011000
00000000
,
00000100
00001000
00001100
00000000
,
00001000
00000100
00000010
00000001
,
00000100
00001000
00011000
00000000
,
00010000
01000000
01100000
00000000
,
10000000
00010000
00110000
00000000
,
00001000
00010000
00001000
00000010
,
00000001
00000001
00000100
00000010
,
00001000
00001000
00010000
00100000
,
00010000
00010000
01000000
00100000
,
10000000
01000000
00010000
00002000
,
00013000
00000010
00001000
00000001
,
00000010
00000100
00010000
00001000
,
00100000
00010000
10000000
00100000
,
00010000
00001000
00000100
00000001
,
00002002
00000000
00000000
00000000
,
00000000
00000000
00000000
00000000
,
00003003
00000000
00000000
00000000
;

//---------------dance-double - t7r----------------
#NOTES:
     dance-double:
     t7r:
     Medium:
     10:
     :
00000000
00000000
00000000
00000000
,
00000000
00000000
00000000
00000000
,
00000000
00000000
00000000
00000000
,
00000000
00000000
00000000
00000000
,
00000000
00000000
00000000
00000000
,
00002000
00000000
00000000
00013000
00000100
00000000
00000000
00000000
,
00020000
00000000
00000000
00030000
,
00000020
00000000
00000030
00001000
00000002
00000000
00000003
00000000
,
00000200
00000300
00011000
00000000
,
00001000
01000000
00010000
00000000
,
10000000
00100000
01000000
00000000
,
00010000
00100000
00001000
00000000
,
00010000
00000010
00001000
00000000
,
00000001
00000010
00000100
00001000
,
00010000
00100000
01000000
10000000
,
00200000
00300000
00020000
00030000
,
00022000
00000000
00000000
00033000
,
00001000
00010000
00001000
00010000
,
00001000
00010000
00001000
00011000
,
00010000
00000100
00001000
00000001
,
00000010
00000100
00010000
00011000
,
00001000
01000000
00010000
10000000
,
00100000
00010000
00001000
00100000
,
00001000
00010000
00001000
00000010
,
00000001
00000001
00000100
00000100
,
00001000
00000000
00001000
01000000
00010000
00000000
00000000
00000000
,
01010000
01010000
01010000
00000000
,
00001000
00000000
00001000
00010000
00000100
00000000
00000000
00000000
,
00001100
00001100
00001100
00000000
,
00011000
00000000
00001000
00010000
00000010
00000000
00000000
00000000
,
00001000
00001000
00001000
00000000
,
00000001
00000100
00001000
00010000
,
00200000
00000000
00000000
00300000
,
10000000
10000000
10000000
10000000
,
10000000
00010000
10000000
00010000
10000000
00010000
10000000
00000000
,
00100000
00100000
00010000
00010000
,
00010000
00001000
00010000
00001000
00010000
00001000
00010000
00000000
,
00001000
00000010
00000001
00000100
,
00001000
00010000
00100000
01000000
,
10010000
00000000
00000000
10000000
01000000
00000000
00000000
00010000
,
00002000
00000000
00003000
00000000
,
00011000
00000000
00000000
00000000
,
00000000
00000000
00000000
00000000
,
00000000
00000000
00000000
00000000
,
00000000
00000000
00000000
00000000
,
00000020
00000000
00000000
00000000
,
00000000
00000000
00000000
00000000
,
00000200
00000000
00000000
00000000
,
00000330
00000000
00000000
00000000
00000000
00000000
00000000
00000001
,
00001000
00000000
00000000
00001000
00000001
00000000
00000000
00000000
,
00000100
00000000
00000000
00000000
00001000
00000000
00000000
00001000
,
00010000
00000000
00000000
00001000
00100000
00000000
00000000
00100000
,
00010000
00000000
00000000
00010000
10000000
00000000
00000000
10000000
,
01000000
00100000
00010000
00001000
,
00000010
00000000
00000100
00000000
00000001
00000000
00000010
00000100
,
00001000
00010000
00100000
00010000
,
10000000
00100000
00010000
00001000
,
00011000
00010000
00000010
00000100
,
00001001
00000001
00000010
00000100
,
00011000
00000000
00001000
00000000
01000000
00000000
00010000
10000000
,
00200000
00000000
00000000
00000000
,
01000000
00000000
01000000
00000000
01300000
00000000
00010000
10000000
,
01000000
00000000
11000000
00000000
11000000
00000000
10000000
00010000
,
01000000
00000000
01010000
00000000
01010000
00000000
00010000
10000000
,
01000000
00100000
00001000
00010000
,
00001000
00000000
00011000
00000000
00011000
00000000
00010000
00000010
,
00001000
00000000
00001010
00000000
00001010
00000000
00001000
00000100
,
00000010
00000000
00000011
00000000
00000011
00000000
00000001
00000100
,
00001000
00010000
00001000
00100000
,
00010000
00000000
10010000
00000000
10010000
00000000
10000000
01000000
,
00010000
00000000
00011000
00000000
00011000
00000000
00001000
00000100
,
00000010
00000000
00001010
00000000
00001010
00000000
00001000
00000001
,
00000100
00000000
00001000
00010000
00001000
00000000
00100000
00000000
,
00010000
10000000
00010000
00000000
01000000
00000000
01000000
00000000
,
00010000
00100000
00001000
00000000
00010000
00000000
00010000
00000000
,
00000100
00000010
00000100
00000000
00001000
00000001
00001000
00000000
,
00000001
00000100
00001000
00010000
00100000
00000000
10000000
00000000
,
20020000
00000000
00000000
00000000
,
30030000
00000000
00000000
00000000
;

//---------------dance-double - t7r----------------
#NOTES:
     dance-double:
     t7r:
     Hard:
     14:
     :
00000000
00000000
00000000
00000000
,
00000000
00000000
00000000
00000000
,
00000000
00000000
00000000
00000000
,
00000000
00000000
00000000
00000000
,
00000000
00000000
00000000
00000000
,
00012000
00000000
00000000
01003000
00010000
00000000
00000000
00000000
,
10000000
00000000
00000000
10000000
00000000
00000000
10000000
00000000
00000000
10000000
01000000
00000000
10000000
00000000
00010000
00000000
,
00100000
00000000
00000000
00010000
00001000
00000000
00000000
00000100
,
00000001
00000000
00000000
00000010
00000100
00000000
00000000
00010000
,
00001000
00001000
00001000
00001000
,
01000000
00000000
00000000
00000000
01000000
00000000
00000000
00000000
01000000
00000000
00000000
00000000
01000000
00000000
00100000
01000000
,
00100000
10000000
10000000
10000000
,
01000000
00000000
00000000
00000000
01000000
00000000
00000000
00000000
01000000
00000000
00000000
00000000
00010000
00000000
00010000
00001000
,
00010000
00000100
00001000
00000001
00000100
00000010
00001000
00000001
,
00000100
00001000
00010000
00100000
01000000
00010000
00100000
00001000
,
00010000
00001000
00010000
00001000
00010000
00001000
00010000
00001000
00010000
00001000
00010000
00001000
00010000
00001000
00010000
00001000
,
00000000
00000000
00000000
00011000
,
00000001
00000100
00000010
00001000
,
00000100
00010000
00001000
00011000
,
00010000
00100000
01000000
00010000
,
10000000
01000000
00010000
00011000
,
00001000
00000100
00000000
00000010
00001000
00000001
00000000
00000010
,
00001000
00010000
00000000
00100000
01000000
00010000
00000000
00100000
,
01000000
01000000
01000000
00000000
01100000
10000000
00100000
00010000
,
00002000
00000000
00013000
00010000
00010000
00001000
00020000
00000000
,
00030100
00000000
00000000
00000000
00001000
00000000
00000010
00000000
00000100
00000000
00000000
00000100
00000000
00000000
00000000
00000000
,
00000001
00000010
00000001
00000010
00000001
00000100
00001000
00001000
,
00011000
00000000
00000000
00000000
00001000
00000000
01000000
00000000
00010000
00000000
00000000
00100000
00000000
00000000
00000000
00000000
,
00010000
10000000
00010000
10000000
01000000
00100000
00001000
00000000
,
00011000
00000000
00000000
00000000
00010100
00000000
00011000
00000000
00010100
00000000
00000000
00000000
00001100
00000000
00000000
00000100
,
00001000
00000001
00000100
00001000
00010000
00000000
00011000
00000000
,
01001000
00000000
00000000
00000000
01000000
00000000
00010000
00000000
10000000
00000000
00000000
10000000
00100000
00000000
00000000
00000000
,
02200000
00000000
00000000
03300000
,
00001000
00001000
00001000
00001000
,
00001000
00001000
00001000
00001000
,
00010000
00001000
00000100
00000001
,
00000010
00000000
00000000
00000000
00000100
00000000
00010000
00000000
00001000
00000000
00010000
00001000
00010000
00000000
01000000
00000000
,
10000000
00010000
10000000
00010000
,
00100000
00001000
00010000
00001000
,
00021000
00000000
00001000
00000000
00031000
00000000
00000000
00000000
00010000
00000000
00000000
00000010
00000000
00000000
00001000
00000000
,
00001001
00000000
00000000
00000000
00000000
00000000
00000000
00000000
00000000
00000000
00011000
00000000
00001000
00000000
00010000
00001000
,
00020000
00000000
00000000
00000000
,
00000000
00000000
00000000
00000000
,
02000000
00000000
00000000
00000000
,
00000000
00000000
00000000
00030000
,
23000000
00000000
00000000
00000000
,
00000000
00000000
00000000
00000000
,
00200000
00000000
00000000
30000000
,
00320000
00000000
00000000
00000000
00030000
00001000
00010000
00001000
,
00021000
00000000
00000000
00000000
00000000
00000000
00030100
00001000
00000200
00000000
00000000
00000000
00000000
00000000
00000000
00000000
,
00001300
00000000
00000000
00001000
00000000
00000000
00001000
00000000
00000000
00001000
00000100
00000000
00001000
00000000
00000001
00000000
,
00000200
00000000
00000000
00000000
00000000
00000000
00001300
00010000
00002000
00000000
00000000
00000000
00000000
00000000
01003000
00010000
,
02000000
00000000
00000000
00000000
00000000
00000000
03010000
10000000
00020000
00000000
00000000
00000000
00000000
00000000
10030000
00100000
,
10000000
10000000
00100000
00100000
,
00010000
00000000
00000000
00000000
00010000
00000000
00000000
00000000
00001000
00000000
00000000
00000000
00001000
00000000
00010000
00001000
,
00010000
00010000
00001000
00001000
,
00000010
00000010
00000001
00000001
,
00000100
00000010
00000100
00000010
00010000
00001000
00010000
00001000
,
00010000
00100000
01000000
00010000
00100000
00001000
00010000
00000100
,
00010000
00001000
00010000
00001000
00010000
00001000
00010000
00001000
00010000
00001000
00010000
00001000
00010000
00001000
00010000
00001000
,
00000000
00000000
00000000
00000000
00000000
00010000
00011000
00010000
,
00000100
00000000
00000100
00000000
00000100
00000000
00000110
00001001
,
00000101
00000101
00000101
00000101
,
00001001
00001001
00001100
00001100
,
00011000
00000000
00011000
00000000
00011000
00000000
00011000
00101000
,
00110000
10100000
11000000
00110000
,
00101000
00011000
00010010
00001010
,
00001100
00000011
00000101
00001010
,
00010010
00000000
00011000
01001000
01100000
00000000
01000000
00100000
,
10000000
00000000
10010000
00000000
11000000
00000000
10000000
01000000
,
00010000
00000000
00011000
00000000
00010100
00000000
00010000
00001000
,
00000100
00000000
00000110
00000000
00001010
00000000
00000001
00000010
,
00001000
00010000
00001000
01000000
01000000
00000000
02100000
00000000
,
03010000
00000000
01010000
00000000
10100000
00000000
11000000
01000000
,
00010000
00000000
00011000
00000000
00001001
00000000
00000101
00000100
,
00001000
00000000
00011000
00000000
10010000
00000000
01100000
00100000
,
01000000
00010000
00100000
00001000
00010000
00000000
00000100
00000010
,
00002002
00000000
00000000
00000000
,
00000000
00000000
00000000
00000000
,
00003003
00000000
00000000
00000000
;

//---------------dance-double - t7r----------------
#NOTES:
     dance-double:
     t7r:
     Challenge:
     15:
     :
00000000
00000000
00000000
00000000
,
00000000
00000000
00000000
00000000
,
00000000
00000000
00000000
00000000
,
00000000
00000000
00000000
00000000
,
00000000
00000000
00000000
00000000
,
00011000
00000000
00000000
00000000
00000000
00000000
00001000
00100000
00001000
00000000
00000000
00000000
00000000
00000000
00000000
00000000
,
00010000
00000000
00000000
00010000
00000000
00000000
00010000
00000000
00000000
00001000
00000100
00000000
00000120
00000000
00000000
00000000
,
00001030
00000000
00000000
00000000
00000000
00000000
00000001
00000010
00000001
00000000
00000000
00000000
00000000
00000000
00001000
00000100
,
00001000
00000000
00000000
00000000
00000000
00000000
00010000
00001000
02000000
00000000
03000000
00000000
00000000
00000000
00010000
00100000
,
00010000
01000000
00100000
01000000
10000000
01000000
00100000
01000000
,
00010000
00000000
00100000
00000000
00001000
00000000
00010000
00000000
00000010
00000000
00001000
00000000
00000001
00000000
00001000
00000001
,
00001000
00000001
00000010
00000100
00000010
00001000
00010000
00100000
,
10000000
00000000
01000000
00000000
00100000
00000000
01000000
00000000
00010000
00000000
00001000
00000000
00010000
00000000
00001000
00010000
,
00001000
00001000
00010000
00010000
00000100
00000100
00001000
00001000
,
00000001
00000001
00000010
00000010
00001000
00001000
00010000
00010000
,
00001000
00010000
00001000
00010000
00001000
00010000
00001000
00010000
00001000
00010000
00001000
00010000
00001000
00010000
00001000
00010000
,
00000000
00000000
00000000
00001000
,
01010000
01010000
01010000
01010000
,
01010000
00000000
01010000
00000000
01010000
00000000
10010000
00010000
,
00100000
00001000
00000000
00010000
00001000
00000000
00010000
00000000
00000100
00001000
00000000
00000100
00001000
00000000
00000001
00000000
,
00000100
00000010
00000000
00000100
00000010
00000000
00001000
00000000
00000100
00010000
00000000
00000000
00011000
00000000
00000000
00000000
,
00010000
00100000
00000000
00010000
00100000
00000000
10000000
00000000
01000000
00010000
00000000
01000000
00010000
00000000
00001000
00000000
,
00010000
00001000
00000000
00010000
00001000
00000000
00000100
00000000
00000001
00000010
00000000
00000001
00000010
00000000
00000001
00000000
,
00000110
00000110
00000110
00000000
00001100
00000000
00010100
00000000
,
00022000
00033000
01001000
01100000
,
20100000
00000000
00000000
00000000
30010000
00000000
00100000
00000000
01000000
00000000
00000000
01000000
10000000
00000000
00000000
01000000
,
00010000
00001000
00000100
00000010
00000200
00000000
00000301
00001000
,
00002100
00000000
00000000
00000000
00003001
00000000
00000010
00000000
00000100
00000000
00000000
00000100
00010000
00000000
00000000
00001000
,
00100000
00010000
00100000
01000000
00200000
00000000
00310000
00000000
,
10010000
00000000
00000000
00000000
10000000
00000000
00100000
00000000
10200000
00000000
00000000
10300000
00010000
00000000
00100000
01000000
,
00100000
00001000
00010000
00000010
00002000
00000000
00003100
00010000
,
00001000
00010000
00011000
00000000
01000000
00010000
01010000
00000000
,
10000000
00000000
00100000
00000000
00010000
00000000
00001000
00000000
00020000
00000000
00000000
00000000
00031000
00000000
00010000
00000100
,
00010000
00001000
00000010
00000001
00000200
00000000
00001000
00000000
,
00000310
00000000
00001000
00000000
00000001
00000000
00000010
00000000
00001000
00000000
00010000
00001000
00020000
00000000
00000000
00000000
,
00130000
00000000
10000000
01000000
00020000
00000000
00031000
00010000
,
00000000
00000000
00010000
00000000
00001000
00000000
00000100
00000000
00000001
00000000
00001000
00000100
00001000
00000000
00000001
00000000
,
00000010
00000010
00001000
00001000
00010000
00010000
00100000
00100000
,
10000000
10000000
01000000
01000000
00010000
00010000
00001000
00001000
,
00010000
00000000
00001000
00000000
00001000
00000000
00000010
00000100
00000010
00000000
00000000
00000110
00000000
00000000
00000100
00010000
,
00002000
00000000
00000000
00000000
00010000
00000000
00000000
00000000
01003000
00000000
00010000
00000000
00100000
00000000
00001000
00010000
,
00002000
00000000
00000000
00000000
,
00000000
00000000
00000000
00000000
,
00000020
00000000
00000000
00000000
,
00000000
00000000
00000000
00000030
,
00023000
00000000
00000000
00000000
,
00000000
00000000
00000000
00000000
,
02000000
00000000
00000000
03000000
,
00002000
00000000
00000000
00000000
00000000
00000000
00000000
00000000
00000000
00000000
00000000
00000000
00033000
00000000
00010000
00001000
,
00010000
00000000
00000000
00000000
00000000
00000000
00000100
00001000
00000100
00000000
00000000
00000000
00000000
00000000
00000000
00000000
,
00000110
00000000
00000000
00000011
00000000
00000000
00001001
00000000
00000000
00000001
00000100
00000000
00001000
00000000
00010000
00000000
,
00100000
00000000
00000000
00000000
00000000
00000000
10000000
01000000
00100000
00000000
00000000
00000000
00000000
00000000
00001000
00010000
,
00000010
00000000
00000000
00000000
00000000
00000000
00001000
00000001
00000100
00000000
00000000
00000000
00000000
00000000
00001000
00010000
,
00001000
00000000
00100000
00000000
00110000
00000000
00100000
00001000
,
00010000
00000000
00001000
00000000
00011000
00000000
00001000
00010000
,
00000100
00000000
00001000
00000000
00001001
00000000
00000001
00000100
,
00001000
00010000
01000000
10000000
00100000
00000000
10100000
00000000
,
00010000
00010000
00100000
00100000
00001000
00010000
00000010
00001000
,
00000001
00000001
00000010
00000010
00000100
00010000
00001000
01000000
,
00010000
00100000
00010000
00100000
00010000
00100000
00010000
00100000
00001000
00010000
00001000
00010000
00001000
00010000
00001000
00010000
,
00000000
00000010
00000010
00000000
00000100
00000010
00001001
00000001
,
00000010
00000000
00000010
00000000
00000010
00000000
00001000
00010000
,
00011000
00000000
01001000
00000000
01100000
00000000
10000000
01000000
,
01100000
00000000
00110000
00000000
00101000
00000000
00001000
00010000
,
00001000
00000010
00000001
00000100
00000110
00000000
00001001
00000001
,
00000101
00000000
00000110
00000000
00001010
00000000
00011000
00001000
,
00101000
00000000
00110000
00000000
10010000
00000000
01010000
01000000
,
01100000
00000000
10100000
00000000
01100000
00000000
01010000
00010000
,
10000000
01000000
00010000
00011000
00001000
00000010
00000110
00000100
,
00001000
00000000
00000101
00000000
00001001
00000000
00010100
00000100
,
00010100
00000000
00011000
00000000
00101000
00000000
00110000
00010000
,
10010000
00000000
10100000
00000000
10010000
00000000
00110000
00010000
,
00100000
00001000
00010000
00001000
00001010
00000000
00000002
00000000
,
00000103
00000000
00000100
00000000
00001000
00000000
00001000
00000000
01000000
00000000
01000000
00000000
00010000
00000000
10000000
00010000
,
10000000
00000000
10000000
00000000
01000000
00000000
01000000
00000000
00010000
00000000
00010000
00000000
00000100
00000000
00001000
00000001
,
00001000
00000100
00001000
00000100
00001000
00000100
00001000
00000100
00010000
00001000
00010000
00001000
00010000
00001000
00010000
00001000
,
00010000
01000000
10000000
00100000
00010000
00001000
00011000
00000100
,
00002002
00000000
00000000
00000000
,
00000000
00000000
00000000
00000000
,
00003003
00000000
00000000
00000000
;
