#TITLE:Nerdy;
#ARTIST:PURPLE KISS;
#BANNER:Nerdy.png;
#BACKGROUND:Nerdy-bg.png;
#JACKET:Nerdy-jacket.png;
#CDTITLE:./CDTITLES/NONE.PNG;
#MUSIC:Nerdy.ogg;
#SAMPLESTART:45.22;
#SAMPLELENGTH:15;
#BPMS:0=136;

//---------------dance-single - t7r----------------
#NOTES:
     dance-single:
     t7r:
     Beginner:
     3:
     :
0000
0000
0000
0000
,
0000
0000
0000
0000
,
0000
0000
0000
0000
,
0000
0000
0000
0000
,
0000
0000
0000
0000
,
0001
0000
0000
0000
,
0100
0000
0000
0000
,
0010
0000
0000
0000
,
1000
0000
0000
0000
,
0100
0000
0000
0000
,
0100
0000
0000
0000
,
0010
0000
0000
0000
,
0010
0000
0000
0000
,
0001
0000
0001
0000
,
0001
0000
0000
0000
,
1000
0000
1000
0000
,
1000
0000
0000
0000
,
0010
0000
0010
0000
,
0010
0000
0000
0000
,
0100
0000
0100
0000
,
0100
0000
0000
0000
,
0001
0000
0000
0000
,
1000
0000
0000
0000
,
0100
0000
0000
0000
,
0010
0000
0000
0000
,
0000
0000
0000
0000
,
0001
0000
0001
0000
,
1000
0000
0000
0000
,
1000
0000
1000
0000
,
1000
0000
0000
0000
,
0010
0000
0010
0000
,
0100
0000
0000
0000
,
0100
0000
0100
0000
,
0100
0000
0000
0000
,
0001
0000
0000
0000
,
0010
0000
0000
0000
,
0100
0000
0100
0000
,
0100
0000
0000
0000
,
1000
0000
0000
0000
,
0010
0000
0000
0000
,
0100
0000
0100
0000
,
0001
0000
0000
0000
,
1000
0000
0000
0000
,
0001
0000
0000
0000
,
0001
0001
0001
0000
,
1000
0000
0000
0000
,
1000
1000
1000
0000
,
0010
0000
0000
0000
,
0000
0000
0000
0000
,
0100
0000
0000
0000
,
0000
0000
0000
0000
,
0001
0000
0001
0000
,
1000
0000
0000
0000
,
1000
0000
1000
0000
,
0001
0000
0000
0000
,
0100
0000
0000
0000
,
0010
0000
0000
0000
,
1000
0000
0000
0000
,
0001
0000
0000
0000
,
0010
0000
0000
0000
,
0100
0000
0100
0000
,
0010
0000
0000
0000
,
0001
0000
0001
0000
,
0001
0000
0000
0000
,
1000
0000
1000
0000
,
0010
0000
0000
0000
,
0100
0000
0100
0000
,
0010
0000
0000
0000
,
1000
0000
1000
0000
,
0001
0000
0001
0000
,
0010
0000
0010
0000
,
0100
0100
0100
0000
,
0100
0000
0000
0000
;

//---------------dance-single - t7r----------------
#NOTES:
     dance-single:
     t7r:
     Easy:
     7:
     :
0000
0000
0000
0000
,
0000
0000
0000
0000
,
0000
0000
0000
0000
,
0000
0000
0000
0000
,
0000
0000
0000
0000
,
2000
0100
3002
0003
,
1000
0100
0010
0010
,
0002
0100
2003
3000
,
0001
0100
0010
0010
,
2000
0010
3002
0003
,
1000
0100
0010
0010
,
0001
0100
1000
0100
,
0001
0001
0001
0000
0001
0000
0000
0000
,
1000
1100
1000
1100
,
0001
0010
0002
2003
,
3001
0101
0002
1003
,
0001
0101
2000
3020
,
1030
0100
0020
0000
,
0031
0100
0010
1010
,
1000
0100
0001
0100
,
1000
1000
1000
0000
1000
0000
0000
0000
,
0002
0000
0003
0000
,
1000
1000
0010
0000
,
2000
0000
3000
0000
,
0001
0010
0100
1000
,
0020
0000
0000
1030
,
0001
0000
0000
1000
0000
0000
0100
0000
,
1000
0000
0000
0001
0000
0000
0200
0000
,
0310
0001
0010
1000
,
0100
0010
0110
0000
,
1000
0000
0000
0001
0000
0000
0010
0000
,
0001
0000
0000
1000
0000
0000
0020
0000
,
0130
1000
0100
0001
,
0010
0000
0010
0010
0010
0000
0001
0000
,
1000
1100
1000
1010
,
1000
1000
0001
0100
,
0001
0000
0010
0010
0010
0000
0001
0000
,
0011
0011
1001
1001
,
0001
0101
0001
0011
,
0001
1001
0001
0001
,
1000
0000
0010
0010
0010
0000
1000
0000
,
1010
1010
1001
1001
,
1000
0000
0002
0003
,
1000
0020
0031
0020
,
1030
0100
0010
0010
,
0002
0100
1003
0000
,
2000
0100
3001
0000
,
1100
1000
0001
0000
,
0100
0000
0110
0000
,
1001
0001
1000
0000
,
0100
0100
0010
0002
,
1003
0100
1000
0100
,
0010
0001
0010
0001
,
1000
0010
0001
0010
,
1000
1000
1000
0000
1000
0000
0000
0000
,
0002
0000
0013
0000
,
0100
1000
0001
0000
,
2000
0000
3010
0000
,
1000
0100
0010
0001
,
0200
0000
0000
0310
,
1000
0000
0000
0001
0000
1000
0000
0000
,
0010
0000
0000
0100
0000
0010
0020
0000
,
0031
0010
1000
0100
,
0010
0001
1001
0000
,
0001
0000
0000
1000
0000
0001
0000
0000
,
0100
0000
0000
0010
0000
0100
0200
0000
,
1300
0100
0001
0010
,
0100
0000
0100
0100
0100
0000
1000
0000
,
0002
0000
0000
1003
,
0001
0101
0001
0011
,
1000
0000
0010
0010
0010
0000
1000
0000
,
0100
0001
0010
1000
,
1001
0000
0000
0000
;

//---------------dance-single - t7r----------------
#NOTES:
     dance-single:
     t7r:
     Medium:
     9:
     :
0000
0000
0000
0000
,
0000
0000
0000
0000
,
0000
0000
0000
0000
,
0000
0000
0000
0000
,
0000
0000
0000
0000
0000
0000
0000
1000
,
0100
0000
0000
0010
0001
0000
0000
1000
,
0010
1000
0010
0000
1000
0000
1000
0001
,
0100
0000
0000
0010
1000
0000
0000
0001
,
0010
0001
0010
0000
0001
0000
0001
0000
,
1000
0000
0000
0100
0010
0000
0000
0001
,
1000
0010
0100
0000
0001
0000
0001
0000
,
0200
1300
0100
0002
,
1003
1000
0001
0000
1001
0000
0000
0000
,
0001
0100
0010
0000
0101
0000
0101
0000
,
1000
0100
1000
0001
1000
0000
1001
0000
,
1000
0010
0100
0000
1010
0000
1000
0002
,
0000
0013
0100
0010
0002
0000
1003
0000
,
0001
1100
0010
1001
,
1000
0100
0010
0001
1000
0000
1010
0000
,
0020
0031
0010
2000
,
3001
0001
1000
0000
1001
0000
0000
0000
,
2000
0000
3100
0000
,
0010
0001
2000
3000
,
0002
0000
0103
0000
,
0010
0010
1000
0001
,
2000
0000
0000
0000
0000
3001
1000
0000
,
0001
0100
0000
0020
0000
1030
0000
0100
,
1000
0010
0000
0200
0000
0301
2000
0000
,
3001
0000
0001
0010
0100
0010
0001
1000
,
0010
0000
0100
0000
0010
1000
0001
0000
,
1000
0100
0000
0020
0000
0031
0000
0100
,
0001
0010
0000
0200
0000
1300
0002
0000
,
1003
0000
1000
0010
0200
0000
0310
0000
,
1000
1000
0001
0000
1001
0000
0000
0000
,
1000
0101
1000
0011
,
1000
0000
1001
0000
0001
0100
0010
0100
,
0001
0000
0010
0010
0010
0000
1000
0000
,
0110
0000
0110
0000
0001
0001
1000
0000
,
0001
1010
0001
1100
,
0001
0000
1001
0000
1000
0010
0100
0010
,
1000
0000
0100
0100
0100
0000
0001
0000
,
0110
0000
0110
0000
1000
1000
0001
0000
,
0100
0000
0000
0000
0020
0000
0000
1030
,
0001
0100
0020
0000
1030
0100
0020
0000
,
0031
0100
0010
0100
0002
0000
1003
0001
,
0020
0000
0130
1000
0002
0000
0103
0000
,
0010
0010
1000
0000
1001
0000
0010
0000
,
1100
0000
0010
0000
1001
0000
1000
0100
,
0010
0000
0001
1000
0010
0000
0001
0010
,
0100
0000
0001
0010
0100
0000
1000
0010
,
0100
0000
0001
1000
0010
0000
2000
0000
,
3001
0000
0010
0100
0001
0000
0100
0000
,
1000
0000
0010
0100
1000
0000
0100
0000
,
0001
0010
1000
0010
,
0001
0001
1000
0000
1001
0000
0000
0000
,
2000
0000
0000
0000
3100
0010
0100
0000
,
1000
0010
0200
0300
,
0002
0000
0000
0000
0013
0100
0010
0000
,
0001
0100
1000
0010
,
0200
0000
0000
0000
0000
1300
0001
0001
,
1000
0100
0000
0002
0000
0203
0000
1300
,
0001
0100
0000
2000
0000
3100
0002
0000
,
2003
0000
3010
0100
0001
0100
0010
0100
,
0002
0000
0010
0000
1003
1000
0001
0001
,
1000
0010
0000
0002
0000
0023
0000
1030
,
0001
0010
0000
2000
0000
3010
0002
0000
,
2003
0000
3100
0010
0002
0000
0203
0000
,
1300
1000
0100
0100
0010
0000
1001
0000
,
1000
0011
1000
0101
,
1001
0000
1001
0000
0001
0010
0100
1000
,
0001
0000
0100
0100
0100
0000
1010
0000
,
1000
0100
0001
0010
,
1000
0000
0000
0000
;

//---------------dance-single - t7r----------------
#NOTES:
     dance-single:
     t7r:
     Hard:
     11:
     :
0000
0000
0000
0000
,
0000
0000
0000
0000
,
0000
0000
0000
0000
,
0000
0000
0000
0000
,
0000
0000
0000
0000
0000
0000
0000
1000
,
0100
0000
1000
0010
0100
0000
0001
0010
,
0100
0001
0100
0010
0002
0000
1003
0001
,
0100
0000
0001
0010
0100
0000
1000
0010
,
0100
1000
0100
0010
2000
0000
3001
1000
,
0100
0000
0010
0100
1000
0000
0010
0100
,
1000
0100
0010
0100
0002
0000
1003
0000
,
0020
0000
0000
0000
0130
0001
0000
0000
0010
0000
0000
0000
0200
0000
0000
0000
,
1300
1000
0001
0001
1000
0000
0200
0000
,
2300
3010
0002
0013
2000
3010
0002
0013
,
1000
0100
0010
0100
0001
0000
1100
0000
,
0002
0013
2000
3010
0002
0100
1003
0020
,
0000
0130
1000
0100
0002
0000
1003
0000
,
0100
0010
1001
0000
0010
0100
1001
0000
,
0001
0100
0010
0100
1000
0000
0101
0000
,
2000
0100
0000
0000
3002
0000
0000
0000
0010
0000
0000
0000
2003
0000
0000
0000
,
3010
0010
0100
0100
0010
0000
0110
0000
,
0002
0000
0000
0000
0013
0001
1000
0000
,
0001
0000
0100
0000
0010
0010
1000
0001
,
2000
0000
0001
0000
3100
0010
0001
1000
,
0100
0001
0010
1000
,
0001
0000
1000
0001
1000
0000
1000
0000
0001
0000
0100
0000
0100
0000
0010
0000
,
0100
1000
0000
0102
0000
1003
0100
0010
,
0100
0001
0000
2100
0000
3020
0001
0000
,
0230
0000
1300
0100
0001
0010
1000
0010
,
0100
0000
1100
1000
0001
0010
0010
0100
,
0010
1000
0000
0012
0000
1003
0010
0100
,
0010
0001
0000
2010
0000
3200
0001
0000
,
0320
0000
1030
0010
0001
0000
0200
0000
,
0301
0001
1000
1000
0001
1000
0100
0010
,
0002
0103
0020
0130
2000
3100
0020
0130
,
0002
0103
0002
0103
0020
0130
2000
3100
,
0002
0000
0013
0010
2000
3010
0200
0310
,
0011
0000
0011
0000
1100
0100
1000
1000
,
1020
0000
2030
3010
0200
0310
0002
0013
,
2000
3010
2000
3010
0200
0310
0002
0013
,
2000
0000
3100
0100
0002
0103
0010
0100
,
1100
0000
0011
0000
1001
0001
0100
0100
,
0020
0000
0000
0000
0000
0000
1030
0001
2000
0000
0100
0000
3002
0000
0000
0000
,
1003
0100
2000
0010
3001
0010
0002
0100
,
1003
0010
1000
0001
2000
0100
3010
0100
,
0200
1000
0310
1000
0200
0001
0310
0001
,
0100
0000
0100
0000
0010
0000
0010
0000
1000
0001
1000
0000
0100
0000
0100
0000
,
1100
0000
0000
0000
1000
0000
0001
0000
0010
0000
0000
0000
0001
0000
0100
0010
,
0100
0000
0001
0000
0001
0000
0010
0000
0010
0000
0100
1000
0100
0000
1000
0000
,
0020
0000
0000
0000
0000
0000
0000
0000
0000
0000
0000
0000
0130
0000
0000
0000
0001
0000
0000
0000
1000
0000
0000
0000
0001
0000
0000
0000
0000
0000
0000
0000
0000
0000
0000
0000
0010
0000
0000
0000
0000
0000
0100
0000
0000
0010
0000
0000
,
0100
0000
0000
0100
0000
0000
1000
0000
0001
0000
1000
0000
0010
0000
0000
0000
0000
0000
0200
0000
0000
0000
0000
0000
,
0301
0010
0100
0001
0100
0010
0011
0000
,
1000
0010
0100
1000
0100
0010
1010
0000
,
1000
0110
0001
0110
,
1000
0000
1000
0000
0001
0000
0001
0000
0100
0000
0000
0000
0020
0000
1030
0001
,
0020
0000
0100
0000
0031
0100
0010
0100
,
1000
0000
0100
0000
0001
0001
0010
0100
,
0020
0000
1000
0000
0130
0010
1000
0010
,
0001
0100
1000
0010
,
0001
0001
1000
1000
0001
0100
0100
0010
,
0100
1000
0100
0102
0000
1003
0100
0010
,
0100
0001
0100
2100
0000
3020
0001
0000
,
0230
0000
1300
0100
0001
0010
1000
0010
,
0110
0100
1000
0000
0010
0100
0100
0010
,
0010
0001
0010
2010
0000
3001
0010
1000
,
0010
0010
0001
0012
0000
0023
1000
0000
,
0230
0000
0301
0100
1000
0000
0020
0000
,
0130
0100
1000
1000
0100
0001
1000
0100
,
0020
0000
0000
0000
0000
0000
0130
0000
1000
0000
0000
0000
0001
0100
0001
0100
,
0002
0013
0200
0310
2000
3010
0200
0310
,
0002
0103
1000
1000
0200
0310
2000
3001
,
0200
1000
0320
0001
0130
0100
0001
0001
,
1000
0000
0000
0000
;

//---------------dance-single - t7r----------------
#NOTES:
     dance-single:
     t7r:
     Challenge:
     15:
     :
0000
0000
0000
0000
,
0000
0000
0000
0000
,
0000
0000
0000
0000
,
0000
0000
0000
0000
,
0000
0000
0000
0000
0000
0000
0000
0001
,
0001
0100
0010
0100
0100
1000
0100
0010
,
1000
0100
0001
0100
0020
1000
0230
0001
,
0301
0100
0010
0001
0001
0100
0010
0100
,
1000
0100
0010
1000
0020
0001
0230
1000
,
0310
1000
0001
0010
0010
1000
0010
0100
,
0010
1000
0010
0100
2000
0010
3002
0010
,
2003
0000
0000
0000
3001
0100
0000
0000
0010
0000
0000
0000
1001
0000
0000
0000
,
1000
0000
1000
0000
0100
0000
0100
0000
0010
0000
0000
0000
0001
1000
0100
1000
,
0001
0010
0001
0000
1000
0010
1000
0000
0001
0010
0001
0000
1000
0010
1000
0000
,
0001
0100
0010
0100
2000
0100
3002
0010
,
1003
0100
0002
0010
2003
0100
3001
0020
,
1000
0130
0010
0100
0002
0100
2003
0010
,
3001
0100
1100
1000
0001
0100
1100
0100
,
0010
0100
1100
0100
0001
1000
1100
0000
,
2000
0010
0000
0000
3002
0000
0000
0000
0100
0000
0000
0000
2003
0000
0000
0000
,
3100
0000
0100
0000
0100
0000
0100
0000
0110
0000
0000
0000
2000
0000
3001
1000
,
0020
0000
0001
0000
0100
0100
1030
0100
,
0020
0000
1000
0000
0100
0100
0031
0100
,
0020
0000
0001
0000
0100
0100
1030
0100
,
0002
0100
2003
0010
,
3001
0000
0100
1000
0001
0000
0001
0000
0100
0000
0010
0000
0110
0000
0010
0000
,
1001
0001
0100
0020
0001
0230
0010
0301
,
1001
1000
0100
0020
1000
0130
0220
0330
,
0021
0000
1030
0010
0001
0100
1000
0100
,
0110
0010
1010
1000
0100
0010
0110
0010
,
1001
1000
0010
0200
1000
0320
0100
1030
,
1001
0001
0010
0200
0001
0310
0220
0330
,
1200
0000
0302
0100
2003
0010
3002
0000
,
0103
0000
0100
0000
1000
0000
1000
0000
0010
0000
0100
0000
0010
1000
0001
1000
,
0001
0100
1100
0100
0110
0100
0101
0100
,
0110
0000
0010
0000
0110
0000
0010
0000
1000
0010
0100
0000
0001
0010
0100
0000
,
2000
0100
3001
1000
1001
0001
0101
0100
,
0001
0010
0000
0000
0001
0000
0000
0000
1000
0100
0000
0000
1000
0000
0000
0000
0010
0000
0000
0000
0110
0000
0000
0000
0100
0000
0000
0000
0110
0000
0000
0000
,
1000
0100
0101
0100
0110
0100
1100
0100
,
0110
0000
0010
0000
0110
0000
0010
0000
0001
0010
0100
0000
1000
0010
0100
0000
,
0002
0100
1003
0001
1001
1000
1100
0100
,
0002
0100
2003
0010
3001
0001
0100
0100
,
1000
0000
0000
0000
0000
0000
0010
0100
0020
0000
0001
0000
0130
0000
0010
0000
,
1000
0010
1000
0000
0001
0010
0001
0000
1001
0000
1000
0100
1000
0000
0001
0000
,
0101
0100
0010
0001
0020
0100
2030
0100
,
3100
0001
1000
0010
0010
0001
1000
0001
,
0100
0000
0100
0000
0010
0000
0110
0000
1000
0001
0200
0000
1000
0000
0010
0000
,
0302
0000
0000
0000
0010
0000
1003
0000
1001
0000
0000
0000
1000
0000
0010
1000
,
0001
1000
0001
1000
0100
0010
0100
0010
0100
0000
1000
0001
1000
0010
0100
0001
,
2000
0000
0000
0000
0000
0000
0000
0000
0000
0000
0000
0000
0010
0000
0000
0000
0001
0000
3000
0000
0001
0000
0000
0000
1001
0000
0000
0000
0000
0000
0000
0000
0000
0000
0000
0000
0001
0000
0000
0000
0000
0000
0010
0000
0000
0001
0000
0000
,
1000
0000
0000
0000
0000
0000
0000
0000
0001
0000
0000
0000
0000
0000
0000
0000
0100
0000
0000
0000
0000
0000
0000
0000
0010
0000
0000
0000
0000
0000
0000
0000
1000
0000
0000
0000
0000
0000
0000
0000
0001
0000
0000
0000
0000
0000
0000
0000
1000
0000
0000
0100
0000
0000
0000
0000
0000
0000
0000
0000
0000
0000
0000
0000
0000
0000
0000
0000
0000
0000
0000
0000
0012
0000
0000
0000
0000
0000
0000
0000
0000
0000
0000
0000
0010
0000
0000
0000
0000
0000
0000
0000
0000
0000
0000
0000
,
1003
0010
0110
0010
0001
0010
0110
0010
,
1000
0010
0110
0010
1000
0100
0110
0000
,
0200
0001
0320
1000
,
0130
0000
0100
0000
0100
0000
0100
0000
0110
0000
0000
0000
0002
0000
1003
0001
,
0200
0000
1000
0000
0010
0010
0301
1000
,
0200
0000
0001
0000
0010
0010
1300
0001
,
0200
0000
1000
0000
0010
0010
0301
0010
,
2000
0010
3002
0100
,
1003
0010
0001
0100
1000
0100
0110
0010
,
1001
0001
0100
2000
0001
3200
1000
0310
,
1001
1000
0100
0002
1000
0103
0220
0330
,
0021
0000
1030
0010
0001
1000
0010
0001
,
0011
0010
1010
1000
0100
0010
0110
0010
,
1001
1000
0010
0002
1000
0023
0001
0130
,
1001
0001
0010
2000
0001
3010
0220
0330
,
1200
0000
0302
0100
2003
0010
3002
0000
,
0103
0000
0100
0000
1000
0000
1000
0000
0010
0000
0001
0000
0010
0100
0001
1000
,
0200
0000
0000
0000
0001
0000
0010
0000
0010
0000
0000
0000
1300
0001
1000
0001
,
1000
0000
0010
0000
0011
0000
0010
0000
0100
0001
1000
0000
0100
1000
0001
0000
,
1000
0010
0100
0000
0110
0000
0010
0000
1010
0000
1000
0000
1100
0000
0100
0000
,
0002
0100
2003
0010
3002
0010
2003
0100
,
3001
0000
0000
0000
;

//---------------dance-double - t7r----------------
#NOTES:
     dance-double:
     t7r:
     Easy:
     6:
     :
00000000
00000000
00000000
00000000
,
00000000
00000000
00000000
00000000
,
00000000
00000000
00000000
00000000
,
00000000
00000000
00000000
00000000
,
00000000
00000000
00000000
00000000
,
01000000
00010000
10000000
00000000
,
01000000
00100000
00010000
00010000
,
00001000
00000010
00000100
00000000
,
00000001
00000010
00000100
00000100
,
00001000
00000100
00010000
00000000
,
00001000
01000000
00010000
00010000
,
10000000
01000000
00010000
00001000
,
00000100
00000100
00000100
00000000
00000100
00000000
00000000
00000000
,
00000001
00000010
00001000
00000010
,
00000001
00000100
00002000
00023000
,
00031000
00100000
00020000
01000000
,
10030000
00100000
00010000
00001000
,
01000000
00010000
00200000
00000000
,
00301000
00010000
00000010
00001000
,
00000001
00000100
00001000
00010000
,
01000000
01000000
01000000
00000000
01000000
00000000
00000000
00000000
,
20000000
00000000
30100000
01000000
,
00010000
10000000
01000000
00000000
,
00020000
00000000
00031000
00010000
,
00001000
00000100
00000001
00000010
,
00000200
00000000
00000000
00010300
,
00001000
00000000
00000000
00010000
00000000
00000000
00001000
00000000
,
01000000
00000000
00000000
00010000
00000000
00000000
00200000
00000000
,
10300000
00100000
00010000
10000000
,
00100000
00010000
00001000
00001000
,
00010000
00000000
00000000
00001000
00000000
00000000
00010000
00000000
,
00000010
00000000
00000000
00001000
00000000
00000000
00000200
00000000
,
00000301
00000100
00001000
00000001
,
00000100
00000100
00000100
00000000
00000100
00000000
00001000
00000000
,
00010000
00100000
01000000
01010000
,
00010000
10000000
01000000
00010000
,
00001000
00000010
00000100
00001100
,
00000001
00000100
00000010
00001000
,
00010000
00100000
01000000
11000000
,
10000000
00100000
00010000
00001000
,
00010000
00000100
00000010
00000011
,
00000001
00000100
00001000
00010000
,
00001000
00000000
00020000
00030000
,
00001000
02000000
03010000
00200000
,
00301000
00001000
00010000
00000100
,
00010000
00000100
00001000
00000010
,
00002000
00000100
00003001
00000000
,
00000100
00001000
00010000
00000000
,
01000000
00010000
00001000
00000000
,
00000010
00001000
00010000
00000000
,
00100000
00010000
00001000
00000000
,
00010000
01000000
00100000
00110000
,
10000000
00100000
01000000
01010000
,
10000000
01000000
00010000
00001000
,
00000100
00000100
00000100
00000000
00000100
00000000
00000000
00000000
,
00000002
00000000
00001003
00000000
,
00000001
00000100
00001000
00000000
,
00020000
00000000
00031000
00000000
,
00010000
01000000
10000000
00100000
,
02000000
00000000
00000000
03100000
,
10000000
00000000
00000000
00010000
00000000
10000000
00000000
00000000
,
01000000
00000000
00000000
00010000
00000000
00001000
00002000
00000000
,
00003100
00000001
00001000
00000100
,
00000010
00001000
00000010
00000000
,
00000001
00000000
00000000
00001000
00000000
00000001
00000000
00000000
,
00000010
00000000
00000000
00001000
00000000
00010000
00020000
00000000
,
00130000
10000000
00010000
00100000
,
01000000
00000000
01000000
01000000
01000000
00000000
00010000
00000000
,
02000000
00000000
00000000
13000000
,
00010000
00010000
10000000
01000000
,
00100000
00000000
00001000
00001000
00001000
00000000
00000000
00000000
,
00010000
00001000
00000100
00000001
,
00000010
00000000
00000000
00000000
;

//---------------dance-double - t7r----------------
#NOTES:
     dance-double:
     t7r:
     Medium:
     8:
     :
00000000
00000000
00000000
00000000
,
00000000
00000000
00000000
00000000
,
00000000
00000000
00000000
00000000
,
00000000
00000000
00000000
00000000
,
00000000
00000000
00000000
00000000
00000000
00000000
00000000
10000000
,
01000000
00000000
00000000
00100000
00010000
00000000
00000000
10000000
,
00100000
00000000
01000000
00000000
00001000
00000000
00001000
00010000
,
00000100
00000000
00000000
00000010
00000001
00000000
00000000
00000100
,
00000010
00000000
00001000
00000001
00001000
00000000
00001000
00000000
,
00000001
00000000
00000000
00000010
00000100
00000000
00000000
00010000
,
00001000
00010000
00001000
01000000
,
00020000
00130000
01000000
20000000
,
30100000
00100000
01000000
00000000
01100000
00000000
00000000
00000000
,
20000000
31000000
00020000
00031000
,
00000100
00000010
00000100
00000010
00001000
00000000
00001001
00000000
,
00000002
00000000
00000013
00000000
00002000
00000000
00013000
00002000
,
00000000
00103000
00010000
10000000
00010000
00000000
10010000
00000000
,
10000000
01100000
00010000
10010000
,
10000000
01000000
00100000
00000000
00010000
00000000
00001000
00000000
,
00000002
00000103
00001000
00020000
,
00031000
00001000
00010000
00000000
00011000
00000000
00000000
00000000
,
00200000
00000000
00310000
00000000
,
01000000
00100000
01000000
00000000
,
00020000
00000000
10030000
00000000
,
01000000
00010000
00001000
00000010
,
00000200
00000000
00000000
00000000
00000000
00000310
00000001
00000000
,
00001000
00000100
00000000
00000020
00000000
00000031
00000000
00001000
,
00000001
00000100
00000000
00000020
00000000
00001030
00000001
00000000
,
00000001
00000000
00000010
00000100
00001000
00000000
00010000
00000000
,
01000000
00000000
00100000
00000000
10000000
00010000
01000000
00000000
,
00010000
00100000
00000000
02000000
00000000
13000000
00000000
00010000
,
10000000
00100000
00000000
02000000
00000000
03010000
10000000
00000000
,
10000000
00000000
01000000
00100000
00010000
00000000
00001000
00000000
,
00000010
00000010
00000100
00000000
00000001
00001000
00000010
00000000
,
00001000
00001100
00000100
00010100
,
00010000
00000000
00011000
00000000
00001000
01000000
00010000
00000000
,
00100000
00000000
00100000
00100000
00100000
00000000
00010000
00000000
,
10000000
00000000
00100000
00000000
00010000
00001000
00010000
00000000
,
00001000
01010000
00100000
10010000
,
01000000
00000000
00110000
00000000
10000000
00100000
10000000
00100000
,
01000000
00000000
00001000
00001000
00001000
00000000
00010000
00000000
,
00001000
00000000
00000100
00000000
00000001
00000001
00000010
00000000
,
00000100
00000000
00000000
00000000
00020000
00000000
00000000
00031000
,
01000000
00010000
20000000
00000000
31000000
00100000
00020000
00000000
,
10030000
00000000
00100000
01000000
00010000
00000000
00001000
00000010
,
00000200
00000000
00000301
00001000
00000200
00000000
00001300
00000000
,
00000001
00000001
00000010
00000000
00000100
00000000
00010000
00000000
,
00001000
00110000
00001000
00010000
,
00001000
00000000
00000100
00000001
00001000
00000000
00000001
00000010
,
00000100
00000000
00001000
00000100
00010000
00000000
00001000
01000000
,
00010000
00000000
00100000
01000000
10000000
00000000
00020000
00000000
,
10030000
00000000
00100000
10000000
01000000
00000000
10000000
00000000
,
01000000
00000000
00010000
00000000
00001000
00000100
00000001
00000000
,
00000010
00001000
00010000
01000000
,
10000000
10000000
00010000
00000000
10010000
00000000
00000000
00000000
,
20000000
00000000
00000000
00000000
31000000
00100000
01000000
00000000
,
00100000
00001000
00010000
00000000
,
00000020
00000000
00000000
00000000
00000130
00000001
00000100
00000000
,
00000001
00001000
00010000
10000000
,
00200000
00000000
00000000
00000000
00000000
10300000
00010000
00010000
,
10000000
01000000
00000000
00020000
00000000
01030000
10000000
00010000
,
01000000
00001000
00000000
00020000
00000000
00031000
00000200
00000000
,
00000302
00000000
00000013
00000100
00001000
00000100
00000010
00000001
,
00002000
00000000
00000100
00000000
00003001
00000001
00001000
00001000
,
00000001
00000100
00000000
00002000
00000000
00003100
00000001
00001000
,
00000100
00010000
00000000
00002000
00000000
00013000
02000000
00000000
,
03200000
00000000
00310000
01000000
00200000
00000000
20300000
00000000
,
30010000
00010000
10000000
10000000
00010000
00000000
01100000
00000000
,
10000000
01010000
00010000
00100000
,
00001000
00011000
00000100
00001001
,
00000001
00000000
00000100
00000100
00000100
00000000
00001010
00000000
,
00001000
00000100
00010000
01000000
,
10000000
00000000
00000000
00000000
;

//---------------dance-double - t7r----------------
#NOTES:
     dance-double:
     t7r:
     Hard:
     11:
     :
00000000
00000000
00000000
00000000
,
00000000
00000000
00000000
00000000
,
00000000
00000000
00000000
00000000
,
00000000
00000000
00000000
00000000
,
00000000
00000000
00000000
00000000
00000000
00000000
00000000
10000000
,
01000000
00000000
10000000
00100000
01000000
00000000
00010000
00100000
,
01000000
10000000
00100000
00010000
00002000
00000000
00003100
00000001
,
00000010
00000000
00000100
00001000
00000001
00000000
00000010
00000100
,
00001000
00000001
00000100
00001000
00020000
00000000
00130000
00000000
,
10000000
00000000
01000000
00100000
00010000
00000000
10000000
00100000
,
01000000
00100000
00010000
00001000
00020000
00000000
00031000
00000000
,
00000020
00000000
00000000
00000000
00000130
00001000
00000000
00000000
00000001
00000000
00000000
00000000
00000200
00000000
00000000
00000000
,
00001300
00001000
00010000
00010000
00001000
00000000
00020000
00000000
,
02030000
03010000
00002000
00000000
00003200
00000301
00002000
00000000
,
00003001
00000010
00000100
00001000
00010000
00000000
10000000
00000000
,
00200000
00310000
00002000
00000000
00003020
00000000
00000031
00001000
,
00000001
00000100
00000010
00001000
00010000
00000000
10000000
00000000
,
01000000
00011000
00000100
00011000
,
00001000
00000100
00000010
00000100
00000001
00000000
00001100
00000000
,
00000002
00000010
00000000
00000000
00002003
00000000
00000000
00000000
00003200
00000000
00000000
00000000
00020300
00000000
00000000
00000000
,
00031000
00001000
00010000
00010000
00001000
00000000
00011000
00000000
,
00020000
00000000
01030000
00000000
,
10000000
00000000
00100000
00000000
00010000
00010000
00001000
00010000
,
00000020
00000000
00000130
00000000
,
00000001
00000010
00001000
00010000
,
01000000
00000000
10000000
00010000
10000000
00000000
10000000
00000000
00010000
00000000
01000000
00000000
01000000
00000000
00100000
00000000
,
01000000
10000000
00000000
01020000
00000000
10030000
01000000
00010000
,
00001000
00000100
00000000
00000102
00000000
00000023
00001000
00000000
,
00000230
00000000
00000310
00000001
00001000
00000010
00000100
00000001
,
00000010
00000000
00001000
00000000
00010000
00001000
00001000
00010000
,
00001000
01000000
00000000
10200000
00000000
10300000
01000000
00100000
,
00010000
00001000
00000000
00001020
00000000
00000230
00001000
00000000
,
00000320
00000000
00001030
00000001
00000010
00000000
00001000
00000000
,
00010000
00010000
00100000
00100000
01000000
00010000
00100000
01000000
,
20000000
31000000
00200000
01300000
00020000
01030000
00200000
01300000
,
00020000
00031000
00020000
00031000
00000200
00000310
00000200
00000301
,
00002000
00003100
00000010
00000010
00000002
00000103
00000020
00000130
,
00001000
00000000
00010000
00000000
00100000
00100000
10000000
10000000
,
00020000
00000000
20030000
30100000
02000000
03100000
00020000
00130000
,
02000000
03100000
02000000
03100000
00020000
00031000
02000000
03010000
,
00200000
00000000
00301000
00001000
00020000
00030100
00002000
00003001
,
00000100
00000000
00011000
00000000
01000000
01000000
00100000
00100000
,
20000000
00000000
00000000
00000000
00000000
00000000
30010000
10000000
00020000
00000000
01000000
00000000
20030000
00000000
00000000
00000000
,
30010000
01000000
00020000
00100000
20030000
00000000
30020000
00000000
,
10030000
01000000
00100000
00010000
00002000
00000000
00003010
00001000
,
00000002
00000100
00001003
00000001
00002000
00000100
00003001
00001000
,
00000001
00000000
00000001
00000000
00000100
00000000
00000100
00000000
00001000
00010000
00001000
00000000
00010000
00000000
00010000
00000000
,
01010000
00000000
00000000
00000000
00100000
00000000
00000000
00000000
10010000
00000000
00000000
00000000
00010000
00000000
10000000
00100000
,
10000000
00100000
01000000
00010000
00001000
00000100
00000010
00000001
,
00001000
00000000
00000000
00000000
00000000
00000000
00000000
00000000
00000000
00000000
00000000
00000000
00000001
00000000
00000000
00000000
00000100
00000000
00000000
00000000
00000001
00000000
00000000
00000000
00001000
00000000
00000000
00000000
00000000
00000000
00000000
00000000
00000000
00000000
00000000
00000000
00000100
00000000
00000000
00000000
00000000
00000000
00010000
00000000
00000000
00001000
00000000
00000000
,
00010000
00000000
00000000
00010000
00000000
00000000
00001000
00000000
01000000
00000000
00010000
00000000
10000000
00000000
00000000
00000000
00000000
00000000
00200000
00000000
00000000
00000000
00000000
00000000
,
10300000
00100000
01000000
00010000
10000000
01000000
00010000
00000000
,
00011000
00000000
00001000
00000010
00000100
00000010
00000001
00000100
,
00001000
01100000
00010000
00000110
,
00001000
00000000
00001000
00000000
00000001
00000000
00000001
00000000
00000100
00000000
00000000
00000000
00000002
00000000
00000013
00000100
,
00002000
00000000
00000100
00000000
00003001
00000100
00000001
00000000
,
00000010
00000000
00001000
00000000
00010000
00010000
00001000
00100000
,
00020000
00000000
01000000
00000000
10030000
00100000
01000000
00100000
,
10000000
00010000
00001000
00000001
,
00000010
00000010
00000100
00000100
00010000
00001000
00001000
00010000
,
00001000
00010000
01000000
21000000
00000000
30100000
00010000
00001000
,
00010000
00000100
00001000
00002100
00000000
00003020
00000001
00000000
,
00000230
00000000
00000301
00000010
00000100
00001000
00010000
10000000
,
00100000
00010000
00001000
00000100
00000001
00000001
00000010
00001000
,
00010000
00000100
00000010
00000012
00000000
00000103
00001000
00010000
,
00001000
00100000
00010000
00120000
00000000
00230000
10000000
00000000
,
02300000
00000000
13000000
00100000
01000000
00000000
00020000
00000000
,
00031000
00001000
00000100
00000100
00000010
00000001
00000100
00001000
,
00020000
00000000
00000000
00000000
01000000
00000000
00000000
00000000
00030100
00000000
00000000
00000000
00010000
00001000
00010000
00001000
,
00020000
00030100
00002000
00003100
00000020
00000130
00000002
00000103
,
00002000
00003001
00000100
00000100
00002000
00013000
00200000
01300000
,
00020000
00100000
20030000
00100000
30010000
00010000
01000000
01000000
,
00001000
00000000
00000000
00000000
;

//---------------dance-double - t7r----------------
#NOTES:
     dance-double:
     t7r:
     Challenge:
     15:
     :
00000000
00000000
00000000
00000000
,
00000000
00000000
00000000
00000000
,
00000000
00000000
00000000
00000000
,
00000000
00000000
00000000
00000000
,
00000000
00000000
00000000
00000000
00000000
00000000
00000000
00001000
,
00001000
01000000
00010000
10000000
10000000
01000000
00010000
00001000
,
00000100
00000010
00000100
00000001
00000020
00001000
00000230
00000001
,
00000301
00000010
00000001
00000100
00000100
00001000
00010000
00100000
,
01000000
00100000
10000000
01000000
00200000
10000000
02300000
00010000
,
03100000
00010000
10000000
00100000
00100000
00010000
00001000
00000010
,
00000100
00001000
00000010
00000100
00002000
00000100
00023000
00001000
,
00030200
00000000
00000000
00000000
00010300
00001000
00000000
00000000
01000000
00000000
00000000
00000000
10010000
00000000
00000000
00000000
,
10000000
00000000
10000000
00000000
01000000
00000000
01000000
00000000
00100000
00000000
00000000
00000000
00001000
00010000
00000100
00000000
,
00001000
00000010
00001000
00000000
00000001
00000000
00000100
00000000
00001000
00010000
00001000
00000000
00010000
00000000
00100000
00000000
,
10000000
01000000
00100000
01000000
00020000
01000000
20030000
00100000
,
30010000
00001000
00000200
00001000
00000320
00000001
00000130
00000002
,
00000010
00001003
00000001
00000010
00002000
00000010
00023000
00001000
,
00030100
00010000
00011000
00010000
01000000
10000000
11000000
10000000
,
00100000
00010000
00011000
00001000
00000010
00000100
00001100
00001000
,
00000001
00000100
00000000
00000000
00001000
00000000
00000000
00000000
00010000
00000000
00000000
00000000
00100000
00000000
00000000
00000000
,
01000000
00000000
01000000
00000000
01000000
00000000
01000000
00000000
01100000
00000000
00000000
00000000
20000000
00000000
31000000
00100000
,
00002000
00000000
00000100
00000000
00010000
00010000
01003000
00010000
,
20000000
00000000
32000000
00000000
00010000
00010000
03100000
00001000
,
00020000
00000000
01000000
00000000
00001000
00001000
00030100
00001000
,
00000001
00001000
00010000
10000000
,
01000000
00000000
00010000
00001000
00010000
00000000
00010000
00000000
00001000
00000000
00010000
00000000
00011000
00000000
00010000
00000000
,
00010100
00000100
00001000
00000200
00000010
00002300
00000010
00003001
,
00000101
00000001
00000100
00002000
01000000
00013000
00020200
00030300
,
00021000
00000000
00130000
10000000
01000000
00010000
00001000
00000010
,
00000110
00000100
00001100
00001000
00000001
00000100
00001000
00010000
,
00011000
00001000
01000000
00200000
00010000
02300000
10000000
03100000
,
10100000
10000000
01000000
00020000
00001000
00030100
00020200
00030300
,
00012000
00000000
00003010
00000001
00000200
00001000
00020300
01000000
,
10030000
00000000
10000000
00000000
01000000
00000000
00010000
00000000
00001000
00000000
00000100
00000000
00000001
00001000
00000010
00001000
,
00000001
00000010
00000110
00000100
00000110
00000100
00010100
00010000
,
00011000
00000000
00001000
00000000
00011000
00000000
00001000
00000000
00010000
00100000
01000000
00000000
00010000
00100000
01000000
00000000
,
20000000
00100000
30010000
00100000
00110000
00100000
00101000
00001000
,
00010000
00000010
00000000
00000000
00010000
00000000
00000000
00000000
00001000
00100000
00000000
00000000
00001000
00000000
00000000
00000000
00010000
00000000
00000000
00000000
00011000
00000000
00000000
00000000
00001000
00000000
00000000
00000000
00011000
00000000
00000000
00000000
,
00001000
00000100
00000101
00000001
00001001
00001000
00001010
00000010
,
00010010
00000000
00010000
00000000
00011000
00000000
00001000
00000000
00010000
01000000
10000000
00000000
00010000
01000000
10000000
00000000
,
02000000
00100000
03010000
10000000
10010000
10000000
11000000
01000000
,
00020000
01000000
00032000
00000100
00023000
00100000
00032000
00000010
,
00013000
00000000
00000000
00000000
00000000
00000000
00001000
00010000
00002000
00000000
00000100
00000000
00013000
00000000
00001000
00000000
,
00000010
00000000
00000001
00000100
00000001
00000000
00000100
00000000
00001000
00000000
00010000
00001000
00010000
00000000
00100000
00000000
,
10000000
00000000
01000000
00100000
00010000
00000000
10000000
00000000
00200000
00000000
00010000
00000000
02300000
00000000
00010000
00000000
,
03001000
00010000
00001000
00000010
00000010
00000100
00001000
00000001
,
00000100
00000000
00000100
00000000
00001000
00000000
00011000
00000000
00010000
00000100
00002000
00000000
00000010
00000000
00003001
00000000
,
00001002
00000000
00000000
00000000
00000010
00000000
00001003
00000000
00001001
00000000
00000000
00000000
00000001
00000000
00000100
00001000
,
00010000
00000000
00001000
01000000
00010000
00000000
00100000
00010000
10000000
00000000
00010000
00000000
10000000
00100000
01000000
00010000
,
20000000
00000000
00000000
00000000
00000000
00000000
00000000
00000000
00000000
00000000
00000000
00000000
00100000
00000000
00000000
00000000
00010000
00000000
00000000
00000000
30010000
00000000
00000000
00000000
10010000
00000000
00000000
00000000
00000000
00000000
00000000
00000000
00000000
00000000
00000000
00000000
10000000
00000000
00000000
00000000
00000000
00000000
01000000
00000000
00000000
00010000
00000000
00000000
,
00001000
00000000
00000000
00000000
00000000
00000000
00000000
00000000
00010000
00000000
00000000
00000000
00000000
00000000
00000000
00000000
00000010
00000000
00000000
00000000
00000000
00000000
00000000
00000000
00001000
00000000
00000000
00000000
00000000
00000000
00000000
00000000
00000001
00000000
00000000
00000000
00000000
00000000
00000000
00000000
00000100
00000000
00000000
00000000
00000000
00000000
00000000
00000000
00001000
00000000
00000000
00010000
00000000
00000000
00000000
00000000
00000000
00000000
00000000
00000000
00000000
00000000
00000000
00000000
00000000
00000000
00000000
00000000
00000000
00000000
00000000
00000000
00021000
00000000
00000000
00000000
00000000
00000000
00000000
00000000
00000000
00000000
00000000
00000000
00001000
00000000
00000000
00000000
00000000
00000000
00000000
00000000
00000000
00000000
00000000
00000000
,
00030100
00001000
00001001
00000001
00000010
00001000
00011000
00010000
,
00100000
10000000
10010000
10000000
00100000
00010000
00011000
00000000
,
00002000
00000100
00023000
00100000
,
00031000
00000000
00001000
00000000
00001000
00000000
00001000
00000000
00011000
00000000
00000000
00000000
00020000
00000000
00031000
01000000
,
00020000
00000000
00100000
00000000
10000000
10000000
01000000
01000000
,
00032000
00000000
00000010
00000000
00000001
00000001
00000100
00000100
,
00023000
00000000
00100000
00000000
10000000
10000000
01000000
01000000
,
00032000
00000010
00023000
00100000
,
00031000
00000010
00000001
00000100
00001000
00010000
00011000
00001000
,
01001000
01000000
00010000
02000000
10000000
03200000
01000000
10300000
,
11000000
10000000
00100000
00020000
00000100
00031000
02002000
03003000
,
00012000
00000000
00003010
00000001
00000100
00001000
00010000
00100000
,
01100000
01000000
01010000
00010000
10000000
01000000
00010000
00001000
,
00011000
00010000
00000100
00000002
00001000
00000203
00000001
00000310
,
00000011
00000001
00000100
00002000
00000100
00013000
02002000
03003000
,
00021000
00000000
00130000
10000000
02000000
00010000
03002000
00000010
,
00003001
00000000
00000001
00000000
00000100
00000000
00001000
00000000
00010000
00000000
01000000
00000000
10000000
00010000
00100000
00010000
,
10000000
00000000
00000000
00000000
00010000
00000000
00000000
00000000
00001000
00000000
00000000
00000000
00000001
00001000
00000001
00001000
,
00000001
00000000
00000100
00000000
00000110
00000000
00000100
00000000
00001000
00010000
01000000
00000000
00010000
00001000
00000100
00000000
,
00001000
00010000
00100000
00000000
10100000
00000000
00100000
00000000
01100000
00000000
00100000
00000000
00110000
00000000
00010000
00000000
,
00002000
00000100
00000001
00000100
00023000
01000000
10000000
00100000
,
00031000
00000000
00000000
00000000
;
