#TITLE:NO DOUBT GET LOUD;
#ARTIST:ASLETICS;
#BANNER:NO DOUBT GET LOUD.png;
#BACKGROUND:NO DOUBT GET LOUD-bg.png;
#JACKET:NO DOUBT GET LOUD-jacket.png;
#LYRICSPATH:NO DOUBT GET LOUD.lrc;
#CDTITLE:./CDTITLES/BEATMANIA IIDX.PNG;
#MUSIC:NO DOUBT GET LOUD.ogg;
#SAMPLESTART:40.8;
#SAMPLELENGTH:15;
#BPMS:0=100;

//---------------dance-single - 47R----------------
#NOTES:
     dance-single:
     47R:
     Beginner:
     3:
     :
0000
0000
0000
0000
,
0000
0000
0000
0000
,
0000
0000
0000
0000
,
0000
0000
0000
0000
,
0001
0000
0000
0000
,
1000
0000
0000
0000
,
1000
0000
0000
0000
,
0001
0000
0000
0000
,
0001
0000
0000
0000
,
1000
0000
0000
0000
,
0100
0000
0000
0000
,
0010
0000
0000
0000
,
0001
0000
0001
0000
,
1000
0000
0000
0000
,
0010
0000
0000
0000
,
0010
0000
0000
0000
,
0100
0000
0100
0000
,
0010
0000
0010
0000
,
1000
1000
0000
0000
,
0001
0000
0001
0000
,
0010
0010
0000
0000
,
0001
0000
0000
0000
,
0100
0100
0001
0000
,
1000
0000
0000
0000
,
0100
0100
1000
0000
,
0010
0000
0000
0000
,
0100
0000
0000
0000
,
0010
0000
0000
0000
,
1000
0000
0001
0001
,
1000
0000
0100
0000
,
1000
0000
0001
0000
,
1000
0000
0010
0000
,
0100
0000
0000
0000
,
0010
0000
0010
0000
,
1000
1000
1000
0000
,
0001
0000
0001
0000
,
1000
1000
1000
0000
,
0001
0000
0010
0000
,
0001
0001
0100
0000
,
0010
0000
1000
0000
,
0100
0100
1000
0001
;

//---------------dance-single - 47R----------------
#NOTES:
     dance-single:
     47R:
     Easy:
     5:
     :
0000
0000
0000
0000
,
0000
0000
0000
0000
,
0000
0000
0000
0000
,
0000
0000
0000
0000
,
1000
0000
1000
1000
,
0001
0000
0000
0001
0000
0000
0000
0000
0000
0000
0000
0000
0000
0000
0000
0000
,
0010
0000
0000
0010
0000
0000
0000
0000
0000
0000
0000
0000
0000
0000
0000
0000
,
0100
0000
0000
0100
0000
0000
0000
0000
0000
0000
0000
0000
0000
0000
0000
0000
,
1000
0000
0000
1000
0000
0000
0000
0000
0001
0000
0000
0000
0001
0000
0000
0000
,
0100
0000
0010
0000
0000
1000
1000
0000
,
0001
0000
0001
0000
0000
1000
1000
0000
,
0010
0000
0000
0010
0000
0000
0000
0000
1000
0000
0000
0000
1000
0000
0000
0000
,
0001
0000
0000
0001
0000
0000
0000
0000
0010
0000
0000
0000
0100
0000
0000
0000
,
2000
3000
0001
0100
,
0001
0000
0010
0000
0100
0100
0100
0000
,
1000
0000
0010
0000
0100
0100
0100
0000
,
0001
0000
1000
0000
0010
0000
1000
1000
,
0000
0010
2002
3003
,
0001
0001
0100
0010
,
0000
0100
2002
3003
,
1000
1000
0100
0010
,
0001
0100
2002
3003
,
1000
0100
0001
0100
,
0000
0010
2002
3003
,
0001
0000
1000
0000
0010
0010
0100
0000
,
0000
0001
0002
0103
,
0000
0001
0002
0013
,
0000
0001
0002
1003
,
0000
0010
0010
0110
,
1000
0000
0100
0000
0000
1000
1000
0000
,
0001
0000
0100
0000
0000
0000
0001
0001
,
1000
0000
0010
0000
0000
1000
1000
0000
,
0001
0000
1000
0000
0100
0100
0100
0000
,
0000
1000
0220
0330
,
1000
1000
0010
0100
,
0000
0001
0220
0330
,
0001
0001
0010
0100
,
1000
0000
0001
0001
0200
0000
0300
0010
,
0010
0010
0010
0000
1000
0000
0001
1000
,
0001
0000
1000
1000
0200
0000
0300
0010
,
0010
0010
0010
0000
0001
0000
1000
1001
;

//---------------dance-single - 47R----------------
#NOTES:
     dance-single:
     47R:
     Medium:
     8:
     :
0000
0000
0000
0000
,
0000
0000
0000
0000
,
0000
0000
0000
0000
,
0000
0000
0000
0000
,
0001
0000
0000
0001
0000
0000
1000
0000
0010
0000
0000
0010
0000
0000
0000
0000
,
1000
0000
0000
1001
0000
0000
0000
0000
1000
0000
0100
0000
1000
0000
0000
0000
,
0001
0000
0000
1001
0000
0000
0000
0000
0001
0000
0100
0000
0001
0000
0000
0000
,
1000
0000
0000
1001
0000
0000
0000
0000
1000
0000
0010
0000
1000
0000
0000
0000
,
0001
0000
0000
1001
0000
0000
0001
0000
0000
0100
0000
0000
0001
0000
0001
0000
,
1000
0000
0000
1000
0000
0000
0000
0000
0001
0000
0001
0000
0010
0000
0000
0000
,
0001
0000
0000
0001
0000
0000
0000
0000
1000
0000
1000
0000
0010
0000
0000
0000
,
0000
1000
0100
0001
0100
1000
1001
0000
,
0000
0001
0100
1000
0100
0001
1000
0000
,
0002
0000
0000
1003
0000
1000
0100
0000
,
1000
0000
0010
0000
0100
0100
0100
0000
,
0001
0000
0010
0000
0001
1000
0001
0000
,
0100
0000
0010
0000
1000
1000
0002
0000
,
1003
0000
0100
1000
0020
0000
0030
0100
,
0100
0010
0010
0000
1000
0001
1001
0000
,
0001
0000
0010
0001
0200
0000
0300
0010
,
0010
0100
0100
0000
0001
1000
0001
1001
,
0000
0001
1000
0000
2002
0000
3003
1000
,
0100
1000
0100
0000
0010
0001
0011
0000
,
0000
1000
0010
0000
2002
0000
3003
0001
,
0100
0001
0100
0000
0010
0100
0010
0110
,
0000
1000
0100
1000
0002
0000
0103
0100
,
0000
0001
1000
0100
0020
0000
0130
0100
,
0000
1000
0010
0001
0010
0010
1000
0000
,
0000
0000
0001
0000
0010
0000
1000
0000
0000
0010
0000
0000
0001
0000
0001
0000
,
0000
0000
1000
1000
0100
0000
1000
0001
,
1000
0000
1000
1000
0010
0000
0110
0000
,
0000
0000
0001
0001
0100
0000
0001
1000
,
0000
0001
0000
0001
0001
0010
0200
0000
,
1300
0000
0000
0001
0000
0000
0010
0000
0220
0000
0000
0000
0330
0000
0001
0000
,
0001
1000
1001
0001
0100
0010
1010
0000
,
0001
0000
0000
1000
0000
0000
0010
0000
0220
0000
0000
0000
0330
0000
1000
0000
,
1000
0001
1001
1000
0010
0100
0110
0000
,
0000
1000
0100
0000
0220
0000
0330
0001
,
0001
1000
1001
0001
0010
0100
0010
0110
,
0000
0001
0100
0000
0220
0000
0330
1000
,
1000
0001
1001
1000
0010
0010
0100
1001
;

//---------------dance-single - 47R----------------
#NOTES:
     dance-single:
     47R:
     Hard:
     12:
     :
0000
0000
0000
0000
,
0000
0000
0000
0000
,
0000
0000
0000
0000
,
0000
0000
0000
0000
,
0100
0000
0000
0100
0000
0000
1100
0000
0001
0000
0000
0001
1000
0000
1000
0000
,
0101
0000
0000
0101
0000
0000
1000
0000
0010
0100
0000
0100
0000
0000
0001
0000
,
1100
0000
0000
1100
0000
0000
0001
0000
0010
0100
0000
0100
0000
0000
1000
0000
,
0011
0000
0000
0011
0000
0000
1000
0000
0100
0010
0000
0010
0000
0000
0001
0000
,
0100
0010
1000
0010
0000
0100
0001
0000
0010
0100
0000
0100
1000
0001
1000
0001
,
1000
0000
0100
0000
1000
0100
1000
0000
0100
0001
0000
0100
0001
0000
1100
0000
,
0001
0000
0100
1000
0100
0000
0001
0000
0010
1000
0000
0010
1000
0000
0011
0000
,
0000
0000
1000
0010
1000
0000
0001
0000
0001
0000
1000
0100
1000
0000
0110
0000
,
0000
0000
0001
0100
0001
0000
1000
0000
1000
0000
0001
0010
0001
0000
0110
0000
,
1000
0000
0001
1000
0100
0000
1000
0001
0100
0000
0010
0100
0010
0000
0000
0000
,
1001
0000
0100
0000
1001
0000
0100
0000
1001
0000
1000
0100
0010
0000
0001
0000
,
1001
0000
0001
0100
0010
0000
1000
0000
0001
0000
0010
0100
1000
0000
0010
0000
,
0001
0000
0010
1000
0000
0100
0010
0000
1000
0010
0000
0001
1000
0000
1001
0000
,
0000
0000
1000
0100
0010
0000
0100
0000
0220
0000
0000
0000
0330
0000
0001
0000
,
0011
0000
1000
0000
1010
0000
0001
0000
0100
0010
0000
1000
0000
1001
0000
0000
,
0000
0000
0001
0100
0001
0000
1000
0000
0220
0000
0000
0000
0330
0000
1000
0000
,
1010
0000
0001
0000
0011
0000
1000
0100
0000
0100
0000
0010
0001
1000
0001
0100
,
0001
0000
1000
0100
1000
0000
0001
0000
0200
1000
0000
0310
0000
0000
1000
0000
,
0110
0000
1000
0000
0110
0000
1000
0000
0010
0100
0010
1000
0000
1000
0000
0000
,
1001
0000
0001
0100
0001
0000
1000
0000
0200
0001
0000
0310
0000
0000
0001
0000
,
0110
0000
0001
0000
0110
0000
0001
0100
0010
1000
0000
0001
1000
0000
1001
0000
,
0000
1000
1000
0010
0210
0000
0301
1001
,
0000
0000
0001
0000
0001
0000
0010
0000
0210
0000
0000
0000
1300
0001
1000
0000
,
0000
0000
0010
0100
0010
0000
0100
0000
1001
0000
0000
0001
0000
0001
0100
0000
,
1000
0000
1000
0100
0000
0000
1001
0000
0000
0001
0000
0001
0010
0000
0001
0100
,
0010
1000
0010
1000
0010
1000
0010
1000
0010
0100
0010
0000
0100
0100
0000
0100
,
0001
0010
0001
0010
0001
0010
0001
0010
0001
0001
0000
0001
2000
0100
3002
0100
,
1003
0010
1000
0010
1000
0010
1000
0010
0100
0100
0000
0100
0000
0010
1000
0001
,
0100
0000
0000
0100
0000
0000
0000
0000
0000
0001
0000
0000
0001
0000
0001
0000
,
0000
0000
1000
0001
0010
0000
0100
0000
2002
0000
0000
0000
3003
0000
0101
0000
,
0101
0000
1000
0000
1010
0000
0001
0000
0010
0100
0010
0100
0000
0110
0000
0000
,
0000
0000
0001
1000
0010
0100
0010
0000
2002
0000
0000
0000
3003
0000
1100
0000
,
1100
0000
0001
0000
0011
0000
1000
0000
0010
0100
0000
0100
0001
1000
0010
1000
,
0001
0000
1000
0100
0010
0000
0001
0000
0200
1000
0000
0310
0000
1000
0001
0000
,
0110
0000
1001
0000
0110
0000
0001
0010
0001
1000
0010
0100
0000
0110
0000
0000
,
1000
0000
0001
0100
0010
0000
1000
0000
0200
0001
0000
0310
0000
0001
1000
0000
,
0110
0000
1000
0010
0110
0000
1000
0010
0110
0000
1001
0000
0011
0000
1001
0000
;

//---------------dance-single - 47R----------------
#NOTES:
     dance-single:
     47R:
     Challenge:
     16:
     :
0000
0000
0000
0000
,
0000
0000
0000
0000
,
0000
0000
0000
0000
,
0000
0000
0000
0000
,
0001
0000
0001
0001
1000
0000
1000
1000
0001
0000
0001
0001
0010
0100
0010
0001
,
1000
0000
0001
0100
0000
1000
0100
0000
0010
0010
0100
0001
1000
0100
0010
0010
,
0001
0000
1000
0100
0001
0100
1000
0000
0001
0100
1000
0100
0010
1000
0001
0001
,
1000
0000
0010
0001
0010
0100
0001
0000
0010
0010
1000
0010
0100
1000
0010
0010
,
0100
0000
0000
1000
0000
0000
0100
0000
0000
0001
0000
0000
1000
0001
0010
0002
0000
0000
0100
0000
0000
0000
0000
0000
1003
0000
0000
0100
0000
0000
0001
0000
0000
0100
0000
0000
0010
0000
0000
0010
0000
0000
0100
0000
0000
0100
0000
0000
,
1000
0010
0100
1000
0100
0010
1000
0100
0010
1000
0010
0100
1000
0010
0110
0000
,
0001
0100
0010
0001
0010
0100
0001
0010
0100
0001
0100
0010
0001
0100
0110
0000
,
0001
0010
0100
0001
1000
0010
0100
1000
0001
0100
0010
0001
1000
0100
0010
1000
,
0001
0000
0000
1000
0000
0000
0100
0000
0000
1000
0000
0000
0001
0010
0001
2000
0000
0000
0100
0000
0000
0000
0000
0000
3001
0000
0000
0100
0000
0000
1000
0000
0000
0100
0000
0000
0010
0000
0000
1000
0000
0000
0100
0000
0000
0100
0000
0000
,
0010
0010
0001
0001
0100
0100
0010
0010
1000
0001
0100
0010
1000
0000
1001
0000
,
0001
0000
0001
0000
0010
0000
0010
0000
0100
0000
0100
0000
0001
0000
1000
0000
0010
0000
0010
0000
0001
0000
1000
0000
0010
0100
0010
0100
0001
0000
0000
0000
,
1000
1000
0100
0100
0001
0001
1000
1000
0010
0001
1000
0001
0010
0000
1001
0000
,
0101
0000
1100
0000
0001
0010
0000
0110
0000
0100
1100
1010
0000
0110
0101
0000
,
1001
0000
1000
0200
0310
2000
3010
0002
0103
0020
0031
2000
3100
0020
0130
0000
,
0101
0000
1010
0010
0110
0000
1001
1000
0100
0001
0100
1000
0001
0100
0010
1000
,
1001
0000
0001
0200
0310
0002
0013
2000
3100
0020
1030
0002
0103
0020
0130
0000
,
1100
0000
0000
0000
0000
0000
0011
0000
0000
0010
0000
0000
0001
1000
0010
2000
0000
0000
0100
0000
0000
0000
0000
0000
3001
0000
0000
0010
0000
0000
0100
0000
0000
1000
0000
0000
0001
0000
0000
0001
0000
0000
1000
0000
0000
1000
0000
0000
,
1001
0000
0001
0020
1030
0002
0103
2000
3001
0200
1300
0200
0301
2000
3010
0000
,
0110
0000
1001
0100
0110
0000
1001
0001
0010
0100
0001
0100
0010
0001
0100
0010
,
1001
0000
1000
0020
0031
2000
3100
0002
1003
0200
0301
0200
1300
0002
0013
0000
,
0110
0000
0000
0000
0000
0000
0000
0000
0000
0000
0000
0000
1100
0000
0000
0000
0000
0000
1000
0000
0000
0000
0000
0000
0010
0000
0100
0000
0001
0000
0200
0000
0000
0000
0000
0000
0010
0000
0000
0000
0000
0000
0000
0000
0000
0000
0000
0000
1300
0000
0000
0000
0000
0000
0100
0000
0000
0000
0000
0000
0001
0000
0000
0000
0000
0000
1000
0000
0000
0000
0000
0000
0010
0000
0000
0100
0000
0000
0010
0000
0000
0000
0000
0000
0100
0000
0000
0000
0000
0000
0001
0000
0000
0000
0000
0000
,
1000
0010
0001
1000
0100
0001
1000
0100
0010
0010
0100
0000
1100
0000
1001
0000
,
0001
0010
0100
0001
0100
1000
0001
0100
0010
0010
0100
0000
0101
0001
1001
0000
,
1000
0010
0100
1000
0001
0010
0100
0001
0010
0010
1000
0010
0001
0000
1000
0010
,
0100
0000
1000
0100
0010
1000
0100
0010
1000
0001
0100
0010
0001
0001
1000
0001
,
0200
0310
0100
0020
0130
1000
0100
0001
0100
0100
1000
0100
0100
0010
1000
1000
,
0200
0000
0310
0000
0100
0000
0020
0000
0130
0000
0001
0000
0100
0000
1000
0000
0001
0000
0001
0000
0010
0000
1000
0000
0010
0001
0010
0000
0001
0000
0100
0001
,
0200
0310
0010
2000
3100
0100
1000
0001
0010
0010
1000
0010
0010
0001
0100
0010
,
0000
0000
1000
0100
1001
0000
1000
0010
1001
0000
0100
0100
0000
0022
0000
0033
,
1100
0100
0010
2000
3010
0002
0103
0020
0130
2000
3100
0020
0130
0002
1003
0000
,
1001
0001
0101
0000
1001
1000
1100
0100
0010
0001
1000
0010
0200
1300
0200
0301
,
0101
0100
0010
0002
0013
2000
3100
0020
0130
0002
0103
0020
0130
2000
3001
0000
,
1001
0000
0000
1000
0000
0000
1100
0000
0000
1000
0000
0000
0001
0100
0010
0200
0000
0000
1000
0000
0000
0000
0000
0000
0310
0000
0000
1000
0000
0000
0100
0000
0000
0001
0000
0000
0100
0000
0000
0100
0000
0000
0010
0000
0000
0010
0000
0000
,
1001
1000
0100
0002
1003
0020
0031
0200
1300
0002
0013
2000
3100
0002
0103
0000
,
1100
1000
1010
0000
0101
0001
0011
0010
0100
1000
0001
0100
2000
3100
0002
0013
,
0110
1000
0010
0200
1300
0200
0301
0020
1030
0020
0031
0200
0310
2000
3100
0000
,
1100
1000
0001
0010
0101
0001
1000
0010
0110
1000
1100
0001
0011
0100
1010
0000
;

//---------------dance-double - 47R----------------
#NOTES:
     dance-double:
     47R:
     Easy:
     5:
     :
00000000
00000000
00000000
00000000
,
00000000
00000000
00000000
00000000
,
00000000
00000000
00000000
00000000
,
00000000
00000000
00000000
00000000
,
00001000
00000000
00001000
00000000
,
00010000
00000000
00000000
00010000
00000000
00000000
00000000
00000000
00000000
00000000
00000000
00000000
00000000
00000000
00000000
00000000
,
00001000
00000000
00000000
00001000
00000000
00000000
00000000
00000000
00000000
00000000
00000000
00000000
00000000
00000000
00000000
00000000
,
00100000
00000000
00000000
00100000
00000000
00000000
00000000
00000000
00000000
00000000
00000000
00000000
00000000
00000000
00000000
00000000
,
00010000
00000000
00000000
00010000
00000000
00000000
00000000
00000000
01000000
00000000
00000000
00000000
01000000
00000000
00000000
00000000
,
00010000
00000000
00000000
00010000
00000000
00000000
00000000
00000000
10000000
00000000
00000000
00000000
00100000
00000000
00000000
00000000
,
01000000
00000000
00000000
01000000
00000000
00000000
00000000
00000000
00010000
00000000
00000000
00000000
10000000
00000000
00000000
00000000
,
00010000
00000000
00000000
00010000
00000000
00000000
00000000
00000000
00100000
00000000
00000000
00000000
00001000
00000000
00000000
00000000
,
00010000
00000000
00000000
00010000
00000000
00000000
00000000
00000000
00000100
00000000
00000000
00000000
00001000
00000000
00000000
00000000
,
00000001
00000100
00001000
00020000
,
00031000
01000000
00010000
10000000
,
01000000
00010000
00001000
00000010
,
00000001
00001000
00000100
00010000
,
00000000
00001000
00022000
00033000
,
00100000
00100000
00010000
01000000
,
00000000
00100000
20020000
30030000
,
10000000
10000000
01000000
00100000
,
00000000
00010000
22000000
33000000
,
10000000
00100000
00010000
00001000
,
00000000
00010000
00022000
00033000
,
00001000
00000000
00000100
00000000
00000001
00000000
00001000
00000100
,
00000000
00010000
00020000
00031000
,
00000000
00001000
00002000
00103000
,
00000000
00100000
00200000
00301000
,
00000000
00010000
00000000
00011000
,
00001000
00010000
01000000
01000000
,
10000000
00010000
00100000
00100000
,
00001000
00010000
00001000
00001000
,
00000010
00000000
00000000
00000000
00000001
00000001
00000002
00000000
,
00000003
00000100
00002002
00003003
,
00000001
00000001
00000100
00001000
,
00000000
00010000
00022000
00033000
,
00001000
00001000
00010000
00100000
,
00000000
10000000
01000000
00000000
20020000
00000000
30030000
10000000
,
10000000
10000000
10000000
00000000
01000000
00000000
00010000
00000000
,
00000000
00001000
00010000
00000000
00022000
00000000
00033000
00001000
,
00001000
00001000
00001000
00000000
00000100
00000000
00000001
00001001
;

//---------------dance-double - 47R----------------
#NOTES:
     dance-double:
     47R:
     Medium:
     8:
     :
00000000
00000000
00000000
00000000
,
00000000
00000000
00000000
00000000
,
00000000
00000000
00000000
00000000
,
00000000
00000000
00000000
00000000
,
00001000
00000000
00000000
00001000
00000000
00000000
00010000
00000000
00100000
00000000
00000000
00100000
00000000
00000000
00000000
00000000
,
10000000
00000000
00000000
10010000
00000000
00000000
00000000
00000000
00010000
00000000
01000000
00000000
00001000
00000000
00000000
00000000
,
00010000
00000000
00000000
00011000
00000000
00000000
00000000
00000000
00001000
00000000
00010000
00000000
00000100
00000000
00000000
00000000
,
00001000
00000000
00000000
00001001
00000000
00000000
00000000
00000000
00000001
00000000
00000100
00000000
00001000
00000000
00000000
00000000
,
00010000
00000000
00000000
00100000
00000000
00000000
00000000
00000000
00000000
10000000
00000000
00000000
01000000
00000000
00010000
00000000
,
00000100
00000000
00000000
00000100
00000000
00000000
00000000
00000000
00010000
00000000
00010000
00000000
00001000
00000000
00000000
00000000
,
00000010
00000000
00000000
00000010
00000000
00000000
00000000
00000000
00000001
00000000
00000001
00000000
00001000
00000000
00000000
00000000
,
00000000
00000001
00000100
00000010
00001000
00010000
10000000
00000000
,
00000000
01000000
01000000
00100000
00010000
00000000
10000000
00000000
,
00200000
00000000
00000000
10300000
00000000
10010000
00000000
00000000
,
00010000
00000000
00100000
00000000
00001000
00010000
00001000
00000000
,
00010000
00000000
00000010
00000000
00001000
00000001
00001000
00000000
,
00000100
00000000
00000010
00000000
00000001
00000001
00002000
00000000
,
00003001
00000000
00000100
00000010
00002000
00000000
00003000
00000100
,
00000100
00010000
00010000
00001000
00010000
01000000
10000000
00000000
,
10000000
00000000
00100000
01000000
00020000
00000000
00030000
00100000
,
00100000
00001000
00001000
00000000
00000010
00000001
00000100
00001000
,
00000000
00100000
00001000
00000000
00022000
00000000
00033000
00001000
,
00010000
00000100
00010000
00001000
00000010
00000001
00000010
00000000
,
00000000
00000100
00010000
00000000
00022000
00000000
00033000
00010000
,
00001000
01000000
00001000
00010000
00100000
10000000
00100000
00100000
,
00000000
10000000
01000000
00000000
00020000
00000000
00030100
00000100
,
00000000
00001000
00000001
00000100
00002000
00000000
00013000
00010000
,
00000000
00100000
10000000
00000000
00010000
00100000
00001000
00000000
,
00010000
00000000
00000010
00001000
00000001
00000000
00000010
00000001
,
00000100
00000000
00001000
00001000
00010000
00000000
00010000
00010000
,
00100000
00000000
00100000
00100000
10000000
00000000
10000000
01000000
,
00010000
00000000
00010000
00010000
00001000
00000000
00001000
00000010
,
00000000
00000001
00000000
00000001
00000001
00000000
00000200
00000000
,
00000300
00000001
00000010
00000100
00002000
00000000
00003000
00000001
,
00000001
00001000
00001000
00000000
00010000
00100000
01100000
00010000
,
00000000
10000000
00100000
01000000
00020000
00000000
00030000
10000000
,
10000000
00010000
00010000
00100000
00001000
00010000
00000100
00001100
,
00000000
00010000
00001000
00000000
02200000
00000000
03300000
00010000
,
10000000
00010000
10000000
01000000
00010000
00001000
00011000
00010000
,
00000000
00001000
00000010
00000000
00000220
00000000
00000330
00000001
,
00001000
00000001
00001000
00000010
00000110
00000010
00000100
00001001
;

//---------------dance-double - 47R----------------
#NOTES:
     dance-double:
     47R:
     Hard:
     12:
     :
00000000
00000000
00000000
00000000
,
00000000
00000000
00000000
00000000
,
00000000
00000000
00000000
00000000
,
00000000
00000000
00000000
00000000
,
00001000
00000000
00000000
00001000
00000000
00000000
01000000
00000000
00010000
00000000
10000000
00000000
01000000
00000000
00000000
00000000
,
00110000
00000000
00000000
00110000
00000000
00000000
10000000
00000000
01000000
00000000
00010000
00000000
00001000
00000000
00000000
00000000
,
00011000
00000000
00000000
00011000
00000000
00000000
00000010
00000000
00001000
00000000
00000001
00000000
00000100
00000000
00000000
00000000
,
00001010
00000000
00000000
00001010
00000000
00000000
00001000
00000000
00000001
00000000
00000100
00000000
00001000
00000000
00000000
00000000
,
00010000
00001000
00000000
00001000
00000000
00100000
00010000
00000000
00100000
01000000
00000000
01000000
00000000
10000000
00010000
10000000
,
00100000
00010000
00001000
00000100
00000001
00001000
00000100
00010000
,
00001000
00000000
00010000
00000000
01000000
00000000
10000000
00000000
00100000
00000000
01000000
00000000
00001000
00010000
00001000
00000000
,
00000000
00000000
00001000
00000000
00000010
00000000
00001000
00000000
00001000
00000000
00010000
00001000
00010000
00000000
00011000
00000000
,
00000000
00000000
00000010
00001000
00000010
00000000
00000100
00000000
00000100
00000000
00001000
00000000
00010000
00000000
00100000
00000000
,
01100000
00000000
00000000
00100000
10000000
00000000
01000000
00000000
00100000
00000000
00001000
00000000
00010000
00000000
00000000
00000000
,
00011000
00000100
00011000
01000000
00011000
00001000
00011000
00000000
,
00011000
00000010
00011000
00100000
00011000
00010000
00011000
00001000
,
00000010
00000000
00000001
00000100
00000000
00001000
00000000
00010000
00000000
00000010
00000000
00001000
00000000
00000001
00000010
00000000
,
00000000
00000000
00001000
00010000
00100000
00000000
01000000
00000000
02200000
00000000
00000000
00000000
03300000
00000000
01000000
00000000
,
00001000
00000000
00000100
00000000
00010000
00000000
01000000
00000000
00010000
00100000
00000000
01000000
00000000
01100000
00000000
00000000
,
00000000
00000000
00010000
00001000
00000010
00000000
00000100
00000000
00000220
00000000
00000000
00000000
00000330
00000000
00000100
00000000
,
00010000
00000000
01000000
00000000
00001000
00000000
00000100
00000000
00000010
00001000
00000000
00001000
00000001
00000100
00000001
00000000
,
00000010
00000000
00001000
00010000
00001000
00000000
00010000
00000000
00000200
00000000
00000000
00000000
00000300
00000000
00001000
00000000
,
00000001
00000000
00001000
00000000
00010000
00000000
10000000
00000000
01000000
00000000
00100000
00010000
00000000
10000000
00000000
00000000
,
00100000
00000000
00010000
00001000
00010000
00000000
00001000
00000000
02000000
00000000
00000000
00000000
03000000
00000000
00010000
00000000
,
00001000
00000000
00000001
00000000
00001000
00000000
00010000
00100000
00001000
00000000
00010000
00000000
00000100
00000000
00000110
00000000
,
00000000
00000001
00000010
00001000
00020000
00000000
01030000
01100000
,
00000000
10000000
00100000
00010000
00002000
00000000
00003100
00000110
,
00000000
00000000
00000001
00001000
00000001
00000000
00000010
00000000
00001000
00000000
00000000
00001000
00000000
00010000
00001000
00000000
,
01000000
00000000
01000000
00010000
00000000
00000000
10010000
00000000
00000000
10000000
00000000
10000000
00100000
01000000
00100000
01000000
,
00010000
00000000
10000000
00000000
00010000
00000000
00001000
00000000
00000001
00000000
00001000
00000000
00000100
00010000
00000000
00010000
,
00001000
00010000
01000000
10000000
00100000
00010000
00001000
00000110
,
00000001
00000000
00001000
00000000
00010000
00000000
10000000
00000000
00010000
00100000
00000000
00101000
00000000
00000000
00011000
00000000
,
00001000
00000000
00000000
00000100
00000010
00000000
00001000
00000100
00010000
00000000
00010000
00010000
00002000
00000000
00000000
00000000
,
00003000
00000000
00010000
00001000
00000100
00000000
00000010
00000000
00000220
00000000
00000000
00000000
00000330
00000000
00000100
00000000
,
00001000
00000000
00100000
00000000
00010000
00000000
00000010
00000000
00000100
00001000
00000100
00000010
00000000
00000110
00000000
00000000
,
00000000
00000000
00001000
00010000
01000000
00000000
00100000
00000000
02200000
00000000
00000000
00000000
03300000
00000000
01000000
00000000
,
00010000
00000000
00000010
00000000
00001000
00000000
00100000
00000000
01000000
00010000
00000000
00010000
00100000
01000000
10000000
01000000
,
10000000
00000000
00100000
01000000
00100000
00000000
10000000
00000000
02000000
00010000
00000000
03100000
00001000
00000000
00010000
00000000
,
00001000
00000000
00000001
00000000
00001000
00000000
00010000
00001000
01000000
00000000
00100000
10000000
00000000
00010000
00100000
00000000
,
00001000
00000000
00010000
00000010
00001000
00000000
00000001
00000000
00000200
00001000
00000000
00000310
00000000
00010000
00001000
00000000
,
00010000
00000000
10000000
00000000
00010000
00000000
00001000
00000100
00000001
00000000
00000010
00000000
00001000
00000000
00011000
00000000
;

//---------------dance-double - 47R----------------
#NOTES:
     dance-double:
     47R:
     Challenge:
     17:
     :
00000000
00000000
00000000
00000000
,
00000000
00000000
00000000
00000000
,
00000000
00000000
00000000
00000000
,
00000000
00000000
00000000
00000000
,
00000000
00000000
00010000
00001000
00000010
00000000
00001000
00010000
00100000
00000000
00010000
00010000
00010000
00001000
00000020
00000000
,
00000031
00000000
00001000
00000100
00000000
00000010
00000100
00000000
00010000
00010000
00001000
01000000
00000000
00010000
10000000
00000000
,
00010000
00000000
10000000
01000000
00000000
00100000
01000000
10000000
00000000
00100000
00000000
00010000
00000000
00001000
01000000
00010000
,
10000000
00000000
01000000
00000000
00010000
00001000
00010000
00000000
00001000
00001000
00000100
00000001
00001000
00000000
00000100
00010000
,
00001000
00000000
00000000
00000000
00000000
00000000
01000000
00000000
00000000
00001000
00000000
00000000
00010000
00001000
00010000
00002000
00000000
00000000
00000100
00000000
00000000
00000000
00000000
00000000
01003000
00000000
00000000
00010000
00000000
00000000
10000000
00000000
00000000
01000000
00000000
00000000
00010000
00000000
00000000
00010000
00000000
00000000
00001000
00000000
00000000
00001000
00000000
00000000
,
00000000
00000010
00000100
00000010
00000100
00001000
00000010
00000000
00000100
00001000
00000100
00001000
00010000
00100000
00010000
00100000
,
00000000
10000000
00010000
10000000
00010000
00100000
00000000
01000000
00000000
00010000
00000000
00001000
00100000
00010000
00100000
00000000
,
00001000
00000000
00000010
00000001
00000100
00000000
00001000
00010000
00100000
00000000
10000000
01000000
00100000
00010000
10000000
00100000
,
00010000
00000000
00000000
00000000
00000000
00000000
00001000
00000000
00000000
00010000
00000000
00000000
00001000
00010000
00001000
00020000
00000000
00000000
01000000
00000000
00000000
00000000
00000000
00000000
00030100
00000000
00000000
00001000
00000000
00000000
00000001
00000000
00000000
00000100
00000000
00000000
00001000
00000000
00000000
00010000
00000000
00000000
00000010
00000000
00000000
00000010
00000000
00000000
,
00000100
00000000
00001001
00000000
00000001
00000010
00000100
00001000
00010000
00100000
01000000
10000000
00010000
00000000
00000000
00000000
,
10000000
00100000
01000000
00010000
10000000
01000000
00100000
00010000
00001000
00000100
00000010
00000001
00000100
00000000
00001001
00000000
,
00000001
00000010
00000100
00001000
00000010
00000100
00001000
00010000
00000100
00001000
00010000
00100000
01000000
00000000
10010000
00000000
,
10100000
00000000
00100000
00010000
00000000
00001000
00010000
00000000
00011000
00200000
00300000
00120000
00030000
02000000
03200000
00000000
,
00310000
00000000
00001000
01000000
00010000
10000000
00000000
00200000
00310000
00001000
00000000
00000020
00001030
00010000
00011000
00000000
,
01001000
00000000
00011000
00000000
00010100
00000000
00010000
00001000
00000100
00000010
00000100
00000001
00001000
00000100
00010000
00001000
,
00011000
00000000
00010000
00000100
00001000
00000001
00000000
00000020
00001030
00010000
00000000
00200000
00310000
00001000
00011000
00000000
,
00010100
00000000
00000000
00000000
00000000
00000000
00011000
00000000
00000000
00001000
00000000
00000000
00010000
00001000
00010000
00002000
00000000
00000000
00000010
00000000
00000000
00000000
00000000
00000000
00103000
00000000
00000000
00010000
00000000
00000000
10000000
00000000
00000000
01000000
00000000
00000000
00100000
00000000
00000000
00100000
00000000
00000000
00001000
00000000
00000000
00001000
00000000
00000000
,
00010000
00000000
01000000
10000000
00100000
00020000
00030000
00000020
00000030
00002000
00003000
00200000
01300000
00010000
00110000
00000000
,
01001000
00000000
00010100
00000000
00001010
00000000
00010000
00001000
00000010
00000100
00000010
00000001
00000100
00000010
00000100
00001000
,
00010000
00001000
00000100
00000001
00000010
00002000
00003000
00200000
00300000
00020000
00030000
00000020
00000130
00001000
00001010
00000000
,
00010100
00000000
01001000
00000000
00110000
00000000
00001000
00010000
00100000
01000000
00100000
10000000
01000000
00100000
00001000
00000000
,
00010000
00100000
10000000
00010000
10000000
01000000
00100000
00001000
00010000
00010000
00001000
00000000
00000110
00000000
00001001
00000000
,
00000001
00000010
00001000
00010000
00000010
00001000
00010000
01000000
00010000
00010000
10000000
00000000
11000000
10000000
10010000
00000000
,
10000000
00100000
01000000
00010000
10000000
00100000
00010000
00001000
00100000
00100000
00001000
00010000
00001000
00000000
00010000
00001000
,
00000100
00000000
00001000
00000100
00000010
00001000
00000100
00000010
00000001
00000100
00001000
00010000
00001000
00001000
00010000
00010000
,
00000000
00100000
01000000
00100000
10000000
01000000
10000000
01000000
00100000
00010000
01000000
00100000
00010000
00001000
00100000
00010000
,
00001000
00000000
00000100
00000000
00010000
00000000
00000010
00000000
00001000
00000000
00010000
00000000
00001000
00000000
00000010
00000000
00010000
00000000
00001000
00000000
00000100
00000000
00000001
00000000
00000010
00000100
00000010
00000100
00000010
00000000
00000000
00000000
,
00000001
00000100
00001000
00010000
00000010
00001000
00010000
00001000
00000010
00010000
00001000
00100000
00001000
00010000
01000000
00000000
,
00100000
00000000
00001000
00010000
00200000
00300000
00010000
00001000
00000020
00000030
00000100
00000100
00001000
00002020
00000000
00003030
,
00000001
00000010
00000100
00001000
00000001
00000200
00001300
00020000
01030000
20000000
30010000
02000000
03100000
20000000
30010000
00000000
,
10010000
00000000
00011000
00000000
00001001
00000000
00001000
00010000
01000000
00001000
00010000
00000100
00010000
00010000
00001000
01000000
,
00010000
10000000
00100000
01000000
00010000
20000000
31000000
00200000
00301000
00020000
00031000
00000200
00000301
00002000
00003001
00000000
,
00001001
00000000
00000000
00000000
00000000
00000000
00001000
00000000
00000000
00000100
00000000
00000000
00010000
00001000
00010000
00002000
00000000
00000000
00000100
00000000
00000000
00000000
00000000
00000000
01003000
00000000
00000000
00010000
00000000
00000000
10000000
00000000
00000000
01000000
00000000
00000000
00010000
00000000
00000000
00010000
00000000
00000000
00001000
00000000
00000000
00001000
00000000
00000000
,
00100000
01000000
00010000
00001000
00100000
00020000
00130000
00002000
00003010
00000200
00001300
00000002
00000103
00002000
00013000
00000000
,
01000100
00000000
00011000
00000000
00100010
00000000
00100000
00010000
01000000
00100000
00010000
00001000
00000010
00000010
00001000
00010000
,
00000010
00000100
00001000
00010000
00000010
00002000
00003010
00020000
00130000
02000000
03010000
20000000
31000000
00020000
00031000
00000000
,
00102000
01003000
00020010
00030100
00010001
01000100
10001000
00100010
;
