#TITLE:NIRVANA;
#ARTIST:Asaki;
#BANNER:NIRVANA.png;
#BACKGROUND:NIRVANA-bg.png;
#JACKET:NIRVANA-jacket.png;
#CDTITLE:./CDTITLES/REFLEC BEAT.PNG;
#MUSIC:NIRVANA.ogg;
#SAMPLESTART:63.567;
#SAMPLELENGTH:15;
#BPMS:0=185;

//---------------dance-single - t7r----------------
#NOTES:
     dance-single:
     t7r:
     Beginner:
     4:
     :
0000
0000
0000
0000
,
0000
0000
0000
0000
,
0000
0000
0000
0000
,
0000
0000
0000
0000
,
0000
0000
0000
0000
,
0000
0100
0000
0100
,
0000
0010
0000
0010
,
0010
0000
0000
0000
,
0000
0000
0000
0000
,
1000
0000
1000
0000
,
0001
0000
0001
0000
,
0100
0000
0100
0000
,
0010
0000
0010
0000
,
1000
0000
1000
0000
,
0100
0000
0100
0000
,
0010
0000
0010
0000
,
0001
0000
1000
0000
,
0001
0000
0000
0000
,
0000
0000
0100
0100
,
0000
0010
0010
0000
,
0000
0000
0000
0000
,
1000
1000
0000
0000
,
0000
0000
0000
0000
,
0001
0001
0000
0000
,
0000
0000
0000
0000
,
0010
0010
0000
0000
,
0000
0000
0000
0000
,
1000
0000
0001
0000
,
0100
0000
0010
0000
,
1000
0000
0100
0000
,
0010
0000
0010
0000
,
1000
0000
0100
0000
,
0010
0000
0000
0000
,
0001
0000
0100
0000
,
0010
0000
0000
0000
,
0000
1000
1000
0000
,
1000
1000
0000
0000
,
0000
0001
0001
0000
,
0001
0001
0000
0000
,
0100
0000
0100
0000
,
0100
0000
0000
0000
,
0000
0010
0010
0000
,
0010
0010
0000
0000
,
0000
1000
1000
0000
,
1000
0000
1000
0000
,
0001
0000
0000
0000
,
0001
0000
0000
0000
,
0010
0000
0000
0000
,
0010
0000
0000
0000
,
0100
0000
0100
0000
,
0100
0100
0100
0000
,
0010
0000
0010
0000
,
0010
0010
0010
0000
,
0001
0000
0001
0000
,
0001
0001
0001
0000
,
1000
0000
1000
0000
,
1000
0000
1000
0000
,
0010
0000
0100
0000
,
0010
0010
0010
0000
,
1000
0000
0001
0000
,
1000
1000
1000
0000
,
0001
0000
0010
0000
,
0100
0100
0100
0000
,
1000
0000
0010
0000
,
0100
0100
0100
0000
,
0010
0000
0000
0000
,
0000
0000
0000
0000
,
1000
0000
0000
0000
,
0000
0000
0000
0000
,
0001
0000
0000
0000
,
0000
0000
0000
0000
,
0010
0000
0000
0000
;

//---------------dance-single - t7r----------------
#NOTES:
     dance-single:
     t7r:
     Easy:
     6:
     :
0000
0000
0000
0000
,
0000
0000
0000
0000
,
0000
0000
0000
0000
,
0000
0000
0000
0000
,
0000
0000
0000
0000
,
0000
0100
0000
0100
,
0000
0010
0000
0010
,
1001
0000
0000
0000
,
0100
0000
0000
0000
,
1000
0001
0000
0001
,
0000
0001
0100
0001
,
1000
0010
0000
0010
,
0000
0010
1000
0100
,
0010
0001
0000
0001
,
0000
0001
0100
0010
,
1000
0100
0000
0100
,
0000
0100
1000
0010
,
0200
0000
0000
0000
,
0000
0310
1000
0001
,
0000
1000
0100
0000
,
2000
0000
3010
0000
,
0000
0001
0100
0000
,
0002
0000
0013
0000
,
0000
1000
0010
0000
,
2000
0000
3100
0000
,
0000
0001
0010
0000
,
0001
1000
0010
0100
,
0002
0000
1003
0000
,
0010
0100
0001
0000
,
2000
0000
3001
0000
,
0200
0000
0320
0000
,
1030
0100
0010
0001
,
0100
0000
0000
0001
,
0010
0001
1000
0000
,
0010
0010
0100
0001
,
1000
0100
0001
0000
,
0100
2000
0010
0000
,
3001
0010
1000
0000
,
0010
0000
0010
0000
,
0002
0000
0000
0203
0000
0000
0320
0000
,
2030
0000
0000
3000
,
0001
0100
1000
0000
,
0100
0002
0010
0000
,
1003
0010
0001
0000
,
0010
0000
0110
0000
,
0001
0001
1000
0100
,
1000
0000
0001
1000
,
0010
0000
1000
0000
,
2002
0000
0000
3003
,
1000
0100
0100
0100
,
0010
0001
0100
0010
,
1000
0010
0001
0010
,
1000
0001
0000
1000
,
0001
0100
0100
0100
,
0001
1000
0010
0100
,
0001
0010
1000
0010
,
0002
0000
2003
0000
,
3001
0100
0100
0100
,
0110
0000
1000
0000
,
0001
0010
0100
1000
,
0020
0230
0300
0010
,
1000
0100
0100
0100
,
0110
0001
1000
0000
,
0010
1000
0100
0000
,
0020
0000
0032
0000
,
1003
0100
0001
0000
,
0100
1000
0001
1000
,
0001
0100
1000
0000
,
0100
0001
1000
0001
,
1000
0010
0100
0000
,
1000
0100
0010
1000
,
0002
0000
0000
0000
,
0023
0000
0000
0000
,
0000
0000
0000
0000
,
0000
0000
0000
0000
,
0030
0000
0000
0000
;

//---------------dance-single - t7r----------------
#NOTES:
     dance-single:
     t7r:
     Medium:
     9:
     :
0000
0000
0000
0000
,
0000
0000
0000
0000
,
0000
0000
0000
0000
,
0000
0000
0000
0000
,
0000
0000
0000
0000
,
0000
0100
0000
0100
,
0000
0100
0000
0100
,
1001
0000
0000
1000
0000
0000
0001
0000
,
0000
0100
0000
0000
0010
0100
0000
0000
,
0002
0000
0013
0100
0000
0000
0010
0000
,
0001
0000
1000
0000
0001
0100
0001
0000
,
2000
0000
3010
0100
0000
0000
0010
0000
,
1000
0000
0001
0000
1000
0100
1000
0000
,
0020
0000
0130
0001
0000
0000
0100
0000
,
0010
0000
1000
0000
0001
0010
0001
0000
,
0200
0000
0310
1000
0000
0000
0001
0000
,
0010
0000
0100
0000
0010
0001
0010
0000
,
0002
0100
0000
0103
,
0000
0000
0010
0000
1000
0001
2000
0000
,
3001
0010
0001
0000
,
1000
0000
0100
0000
1000
0010
0100
0000
,
0010
1000
0001
0000
,
0010
0000
0001
0000
0100
0010
1000
0000
,
0001
0100
0010
0000
,
1000
0000
0100
0000
0010
0100
1000
0000
,
0010
1000
0001
0000
,
0010
0001
1000
0000
2002
0000
3003
0000
,
0002
0000
0000
0103
0000
0010
0000
1000
,
0000
0100
0000
0001
0200
0000
0000
1300
,
0001
0000
1000
0010
0000
0010
0000
1000
,
0100
0000
1000
0001
0200
0000
0000
0000
,
0310
0000
1000
0000
0001
0010
0001
0000
,
2000
0100
3001
0000
,
1000
0000
0010
1000
0000
0001
0100
0000
,
0001
0010
0001
0000
1000
0000
0100
0000
,
1000
0001
0101
0000
,
0001
1000
1001
0000
,
0001
0010
0000
0011
0000
0000
1000
0000
,
0100
0010
0000
0000
1001
0000
0000
0000
,
2000
0000
0000
3020
0000
0000
0032
0000
,
0023
0000
0230
0000
,
0301
1000
1100
0000
,
1000
0001
0011
0000
,
0001
0100
0000
0110
0000
0000
1000
0000
,
0001
0000
1000
0100
0010
0000
0011
0000
,
2000
0100
0001
3010
,
1000
0000
0100
0000
0010
0001
1000
0000
,
0001
0000
0100
1000
0000
0100
0000
0001
,
1000
0200
0000
0000
0310
0000
0010
0000
,
0011
0010
0010
0010
,
0011
0000
0001
0000
0100
0001
1000
0000
,
0100
0000
1000
0001
0000
0100
0000
0010
,
0000
1000
0001
0000
0100
0000
0010
0000
,
1010
0010
0010
0010
,
1010
1000
0100
0001
,
0100
0000
1000
0010
0000
0100
0000
0002
,
0010
0000
1003
0000
0010
0100
0010
0000
,
0101
0001
0001
0001
,
1001
0000
1000
0000
0100
1000
0100
0000
,
1000
0000
0001
0010
0000
0001
0000
2000
,
0000
3010
0100
0000
0010
0000
1000
0000
,
1100
0100
0100
0100
,
0110
0100
1000
0001
,
1001
0110
1001
0110
,
2001
0000
3020
0000
,
0130
0000
0001
0100
0000
0001
1000
0001
,
0000
0100
0001
0000
1000
0100
1000
0000
,
0001
0000
1000
0100
0000
1000
0001
1000
,
0000
0100
1000
0000
0001
1000
0001
0000
,
0010
0000
0001
0100
0000
0010
0100
0001
,
0000
0010
0100
1000
0010
0000
0100
0000
,
0001
0000
1000
0100
0000
0010
0100
2000
,
0000
0000
0000
0000
,
0000
0000
0000
0000
,
0000
0000
0000
0000
,
3000
0000
0000
0000
;

//---------------dance-single - t7r----------------
#NOTES:
     dance-single:
     t7r:
     Hard:
     12:
     :
0000
0000
0000
0000
,
0000
0000
0000
0000
,
0000
0000
0000
0000
,
0000
0000
0000
0000
,
0000
0000
0000
0000
,
0000
0100
0000
0100
,
0000
0010
0000
0010
,
1001
0000
0000
1000
0000
0100
1000
0001
,
0000
0100
0001
0000
1000
1000
0000
0000
,
1002
0000
0013
0000
0001
0100
0010
0000
,
0100
0000
0001
0000
0010
0100
1000
0000
,
0020
0000
0130
0000
0010
1000
0100
0000
,
0010
0000
0001
0000
0100
0001
0010
0000
,
2001
0000
3100
0000
0010
0100
1000
0000
,
0001
0000
0100
0000
0010
0100
0001
0000
,
0020
0000
0031
0000
1000
0001
0010
0000
,
0001
0000
0110
0000
1000
0100
0010
0001
,
2000
0010
0000
3010
,
0000
0100
0010
1000
0001
0010
0002
0000
,
1003
0000
0100
0000
0010
0100
1000
0000
,
0001
0000
0100
0000
0010
1000
0001
0000
,
0010
0000
0001
0000
0100
0001
1000
0000
,
0100
0000
0010
0000
0100
1000
0010
0000
,
0100
0000
0001
0000
1000
0010
0100
0000
,
0001
0000
0010
0000
0100
0010
0001
0000
,
1000
0000
0100
0000
1000
0010
0100
0000
,
0001
0010
0100
1000
0002
0000
0000
0000
,
2003
0000
3100
0002
0000
0203
0000
0320
,
0000
0032
0000
1003
0020
0000
0130
0000
,
0002
0000
0013
2000
0000
3020
0000
0130
,
2000
3010
0002
0013
,
0100
0000
0110
0000
0001
1000
0010
0100
,
0001
0000
0010
0000
0001
1000
0010
0000
,
1000
0000
0100
0002
0000
0103
1000
0000
,
0001
0100
0000
1000
0100
0001
1000
0000
,
0001
0010
0011
0001
,
1000
0000
0100
0000
0001
0100
0000
1000
,
0000
0001
1000
0010
0000
0010
0100
0000
,
0010
2000
0000
3001
0010
0001
1000
0000
,
0001
0000
0101
0000
0001
0100
0010
0000
,
1000
0000
1100
0000
1000
0100
0010
0000
,
0001
0010
0001
0000
1000
0000
0001
0100
,
0001
0000
1000
0000
0100
0010
0000
0010
,
0100
1000
0000
1010
0000
0010
0100
0001
,
1000
0100
0010
0001
1000
0000
1001
0000
,
0001
0000
0101
0000
0001
0010
0001
0000
,
1000
1100
1000
1010
,
0110
0000
0100
0001
0000
0100
1000
0100
,
0001
2000
0000
0000
3001
0000
1001
0000
,
1100
0110
0110
0110
,
0011
0000
0001
0100
0010
0100
0001
0000
,
0010
0000
1000
0010
0000
0001
0010
0000
,
0100
0000
1000
0001
0100
0000
0010
0000
,
0101
0110
0110
0110
,
1010
0000
1000
0100
0010
0100
1000
0000
,
0001
0000
1000
0010
0000
0001
0010
0000
,
0100
0000
0110
0000
1000
0001
1000
0000
,
0001
0000
0010
0001
0100
0001
0010
0000
,
0001
1001
1001
0110
,
1000
0000
0100
1000
0010
1000
0100
0020
,
0000
0031
1000
0000
0010
0100
0001
0000
,
1000
0000
0010
1000
0001
1000
0010
0000
,
0100
0000
0001
0010
0100
0000
0010
0000
,
0011
0110
1100
1100
,
1000
0010
0100
0001
1000
0000
0100
0000
,
1000
0010
0001
0010
0000
0001
0010
1000
,
0000
0001
0010
1000
0010
0000
0001
0000
,
1000
0100
0001
0100
0000
0001
0100
1000
,
0000
0001
0100
1000
0100
0000
0010
0000
,
1000
0100
0010
1000
0000
0001
0100
0010
,
0000
0001
0100
0010
1000
0000
0001
0000
,
2000
0000
0000
3010
0000
0001
0010
0200
,
0000
0000
0000
0000
,
0000
0000
0000
0000
,
0000
0000
0000
0000
,
0300
0000
0000
0000
;

//---------------dance-single - t7r----------------
#NOTES:
     dance-single:
     t7r:
     Challenge:
     15:
     :
0000
0000
0000
0000
,
0000
0000
0000
0000
,
0000
0000
0000
0000
,
0000
0000
0000
0000
,
0000
0000
0000
0000
,
0010
1000
0100
0000
0010
0001
0100
0000
,
0010
0000
1000
0000
0001
0000
0000
0000
0010
0000
0001
0000
1000
0001
1000
0001
,
1000
0100
0010
0001
0000
0100
0010
1000
,
0001
0010
0001
0010
0100
1000
0010
0100
0001
0000
1001
0000
0000
0000
0000
0000
,
1100
0100
1000
0010
0100
0100
0001
0010
,
0100
0100
1000
0010
0100
1000
0100
0001
,
0010
0001
0100
0010
1000
1000
0100
0010
,
0001
0001
0100
0010
1000
0010
0100
0001
,
0101
0100
0001
0010
0100
0100
1000
0010
,
0100
0100
0001
0010
0100
0001
0100
1000
,
0010
1000
0100
0010
0001
0001
0100
0010
,
1000
0000
1000
0000
0110
0000
0000
0000
0001
0010
0001
0010
0100
1000
0010
0100
,
0010
1000
0100
0010
0000
0001
0100
0010
,
1000
0000
0010
0100
0001
0010
0100
1000
0010
0100
0001
1000
0020
0000
0000
0000
,
1030
0010
0100
0001
0010
0010
0001
1000
,
0001
0010
0100
1000
0010
0010
0100
0001
,
1000
0100
0010
0001
0100
0100
0010
0100
,
0001
0010
0100
1000
0100
0100
0010
0100
,
1000
0010
0001
0010
0100
0100
0001
1000
,
0001
0010
1000
0020
0100
0100
0031
1000
,
0010
0100
0001
1000
0010
0010
0100
0001
,
1000
0000
0200
0000
0320
0000
0032
0000
1003
0000
0001
1000
0100
0000
1000
0000
,
0001
0100
0010
1000
0001
0010
0100
1000
,
0001
0100
1000
0100
0001
0010
1000
0010
,
0002
0000
0100
0000
1000
1000
0010
0000
,
2003
0000
0100
0000
3002
0010
1003
0000
,
0010
0100
0001
0100
1000
0100
0010
1000
,
0100
0010
0001
0100
0010
1000
0001
0010
,
0100
0001
0100
1000
0001
0100
0010
1000
,
0001
0100
0010
0000
0000
0000
1000
0010
1000
0000
0001
0010
0001
1000
0010
0100
,
0001
0000
0100
0000
1000
0100
0001
0000
,
1000
0000
0200
0000
0001
0000
0000
0000
0310
0000
0100
0000
1000
0000
1000
0001
,
0100
0101
0000
0110
0000
0010
1001
0100
,
1001
0000
1020
0000
0000
0000
0130
0000
0001
0010
0100
1000
0010
0100
0001
1000
,
0100
0001
0100
0010
0100
1000
0100
0010
,
0001
0000
0100
0000
1000
0000
0100
0010
1000
0100
0010
0001
0100
0010
1000
0001
,
1000
0000
0010
0000
0001
0010
1000
0000
,
0001
0000
0010
0000
1000
0000
0010
0000
0100
0000
0010
0000
0001
0000
0001
1000
,
0010
0000
1010
0000
0000
0000
0110
0000
0100
0001
1000
0001
1000
0010
0100
0001
,
0010
0001
0010
0001
1000
0100
1000
0100
0010
0000
0000
0000
1001
0000
0000
0000
,
0101
0000
1010
0010
0100
0001
0100
0010
,
1010
0000
1000
0000
0100
0000
0010
0000
0011
0000
0001
1000
0001
0010
0100
1000
,
0010
0000
0100
0001
0100
0000
1000
0000
0100
0010
0100
0010
1000
0000
0100
0010
,
0100
0000
1001
0000
0000
0000
0001
0000
0011
0000
0010
0001
1000
0010
0100
0001
,
0100
0010
1000
0100
0001
0100
1000
0010
,
0100
0001
0100
0010
1000
0100
1100
0000
,
0001
1000
0010
0010
0100
0001
1000
1000
,
0001
0000
0100
0000
1000
0000
0100
0000
0101
0000
0000
0001
1000
0000
0010
0000
,
1010
1000
0100
0010
0100
0001
0100
0010
,
0100
1000
0010
0001
0010
0100
0001
1000
,
0001
0010
0011
0001
1000
0010
1010
1000
,
1001
0000
0001
0010
0100
1000
0001
0010
0200
0000
1300
0010
0100
0001
1000
0010
,
0100
0001
0101
0001
0011
0001
1001
0001
,
0011
0001
0100
0010
2000
3200
0320
0032
,
1003
0100
1100
1000
1010
1000
1001
1000
,
1010
0000
0010
0100
0001
0000
0100
0000
0001
0000
0010
0000
0100
0000
1000
0000
,
0001
0100
0101
0100
1100
0100
0101
0001
,
0011
0001
1000
0010
0100
0001
1000
0100
,
1100
0100
0101
0100
0110
0100
1001
0001
,
1000
0100
0010
0001
0100
0010
1000
0001
0010
0100
1000
0001
0100
0010
1000
0001
,
0010
0001
0100
1000
0100
0100
0010
1000
,
0100
0001
0100
0010
0100
0100
1000
0001
,
1000
0010
0100
0001
0010
0010
0100
1000
,
0001
0010
0100
0001
1000
0010
0100
1000
,
0002
0000
0010
1000
0000
0100
0100
0100
,
1003
0010
0100
1000
0001
0010
0100
0001
,
1000
0010
1000
0001
0000
0010
0001
0200
,
0000
0000
0000
0000
,
0000
0000
0000
0000
,
0000
0000
0000
0000
,
0300
0000
0000
0000
;

//---------------dance-double - t7r----------------
#NOTES:
     dance-double:
     t7r:
     Easy:
     6:
     :
00000000
00000000
00000000
00000000
,
00000000
00000000
00000000
00000000
,
00000000
00000000
00000000
00000000
,
00000000
00000000
00000000
00000000
,
00000000
00000000
00000000
00000000
,
00000000
01000000
00000000
01000000
,
00000000
01000000
00000000
01000000
,
10010000
00000000
00000000
00000000
,
00000000
10000000
01000000
00000000
,
00010000
00000000
00001000
00000000
,
00010000
00000010
00000100
00000000
,
00000010
00000000
00001000
00000000
,
00000001
00000010
00000100
00000000
,
00001000
00000000
00000100
00000000
,
00010000
00001000
00100000
00000000
,
00010000
00000000
01000000
00000000
,
00100000
10000000
00010000
00000000
,
20000000
00000000
00000000
30000000
,
00000000
01000000
00010000
00001000
,
00000000
00000100
00000100
00000000
,
00000001
00000010
00000100
00000000
,
00010000
00010000
00000000
00000000
,
00001000
01000000
00100000
00000000
,
10000000
10000000
00000000
00000000
,
01000000
00010000
00001000
00000000
,
00000100
00000100
00000000
00000000
,
00000010
00010000
00002000
00000000
,
00013000
00000000
00001000
00000000
,
01000000
00000000
10000000
00000000
,
01000000
00001000
00010000
00000000
,
00000100
00010000
00001000
00000000
,
00010000
00000010
00000100
00000001
,
00001000
00000000
00000000
00000001
,
00000010
00000100
00001000
00000000
,
00010000
01000000
00100000
10000000
,
01000000
00100000
01000000
00000000
,
00010000
00001000
00000000
00000000
,
00000100
00000010
00000100
00000000
,
00000010
00000000
00010000
00000000
,
00002000
00000000
00000000
02003000
00000000
00000000
03020000
00000000
,
20030000
00000000
32000000
00000000
,
13000000
00100000
00010000
00000000
,
00001000
00010000
00000000
00000000
,
00001000
00000100
00000001
00000000
,
00000100
00000000
00000010
00010000
,
00011000
00001000
00001000
00001000
,
02000000
00000000
03200000
00000000
,
10300000
01000000
00010000
00001000
,
00020000
00000000
00031000
00001000
,
01000000
01000000
00100000
10000000
,
01000000
00100000
00010000
00000000
,
00001000
00000010
00001000
00000001
,
00000100
00000001
00000000
00001000
,
00000001
00000010
00000100
00001000
,
00000100
00000000
00010000
00001000
,
01000000
00100000
10000000
01000000
,
00020000
00000000
00031000
00010000
,
00001000
00000100
00001000
00000100
,
00000001
00000000
00000010
00001000
,
00010000
01000000
00010000
01000000
,
00100000
00000000
00010000
10000000
,
00100000
01000000
01000000
00000000
,
01001000
00000000
00001000
00000000
,
00010000
00000100
00000100
00000000
,
00010100
00000000
00001000
00000000
,
02000000
00100000
00000000
03010000
,
10000000
01000000
00010000
00000000
,
00002000
00010000
00000000
00003100
,
00000010
00001000
00000001
00000000
,
00000020
00000100
00000000
00001030
,
00010000
00001000
01000000
01000000
,
00200000
00000000
00000000
00000000
,
20300000
00000000
00000000
00000000
,
00000000
00000000
00000000
00000000
,
00000000
00000000
00000000
00000000
,
30000000
00000000
00000000
00000000
;

//---------------dance-double - t7r----------------
#NOTES:
     dance-double:
     t7r:
     Medium:
     9:
     :
00000000
00000000
00000000
00000000
,
00000000
00000000
00000000
00000000
,
00000000
00000000
00000000
00000000
,
00000000
00000000
00000000
00000000
,
00000000
00000000
00000000
00000000
,
00000000
01000000
00000000
01000000
,
00000000
01000000
00000000
01000000
,
10010000
00000000
00000000
10000000
00000000
00000000
01000000
00000000
,
00000000
00100000
00001000
00000000
00010000
00001000
00000000
00000000
,
00020000
00000000
00031000
01000000
00000000
00000000
00100000
00000000
,
10000000
01000000
00010000
00001000
,
00000200
00000000
00000310
00001000
00000000
00000000
00000001
00000000
,
00000010
00001000
00010000
01000000
,
00200000
00000000
00310000
10000000
00000000
00000000
00100000
00000000
,
00010000
00001000
00000100
00000010
,
00002000
00000000
00003100
00010000
00000000
00000000
00001000
00000000
,
00010000
01000000
10000000
00100000
,
20000000
01000000
00000000
31000000
,
00000000
00000000
10000000
00000000
00010000
01000000
00002000
00000000
,
00103000
00001000
00100000
00000000
,
01000000
00000000
10000000
00000000
00100000
01000000
00010000
00000000
,
00100000
00001000
00010000
00000000
,
00000100
00000000
00001000
00000000
00000010
00000100
00000001
00000000
,
00000010
00001000
00010000
00000000
,
01000000
00000000
10000000
00200000
00000000
00000000
01300000
00000000
,
00100000
10000000
00010000
00000000
,
10000000
01000000
10000000
00000000
00020000
00000000
00030000
00000000
,
10010000
00000000
00000000
10000000
00000000
01000000
00000000
00100000
,
00000000
00001000
00000000
00010000
00000020
00000000
00000130
00000000
,
00000010
00000000
00001000
00000020
00000000
00000000
00000031
00000000
,
00000020
00000000
00002030
00000000
,
00013000
00000000
00100000
00000000
01000000
10000000
00000000
00010000
,
20000000
01000000
30010000
00000000
,
10000000
00000000
01000000
00100000
00000000
01000000
00010000
00000000
,
00001000
00010000
00000100
00001000
,
00000010
00000100
00000101
00000000
,
00000001
00000000
00000010
00000000
00000100
00010000
00000000
00001000
,
01000000
00010000
00000000
01000000
00000000
00000000
10000000
00000000
,
01000000
00200000
00000000
00000000
10300000
00000000
00010000
00000000
,
20000000
00000000
00000000
32000000
00000000
00000000
03020000
00000000
,
00032000
00000000
00023000
00000000
,
00031000
00000100
00000010
00000000
,
00001000
00000000
00010000
00000000
01000000
00100000
00000000
10000000
,
01000000
00100000
00000000
01000000
00000000
00000000
00010000
00000000
,
00001000
00010000
00011000
00011000
,
00002000
00000100
00013000
00001000
,
00010000
01000000
10000000
00100000
,
10000000
00000000
01000000
00010000
00000000
00001000
00010000
00000000
,
00000100
00002000
00000000
00000000
00003010
00000000
00000010
00000000
,
00000001
00000010
00001000
00000100
,
00010000
00000000
00011000
00000000
00001000
01000000
00001000
00000000
,
00100000
00010000
01000000
10000000
,
01000000
01100000
00000000
10000000
,
01000000
00010000
00001000
00000100
,
00000110
00000010
00001000
00000100
,
00010000
00000000
00001000
00010000
00000000
00000000
00001000
00000000
,
01001000
01001000
00200000
00300000
,
10000000
00000000
01000000
10000000
00000000
00100000
00000000
00010000
,
00000000
00000000
00001000
00000000
00010000
00000100
00010000
00000000
,
00000100
00000000
00000010
00000100
00000000
00001000
00000000
00000002
,
00000000
00000103
00001000
00000000
00100000
00000000
00010000
00000000
,
01000000
00100000
10000000
00010000
,
10010000
10000000
01000000
00010000
,
00001000
00000000
00000100
00000010
00000000
00001000
00000000
00000100
,
00020000
00031000
00002000
01003000
,
00100000
00000000
10000000
01000000
00000000
10000000
00010000
10000000
,
00000000
01000000
00010000
00000000
00001000
00000000
00000100
00000000
,
00000010
00000000
00001000
00000100
00000000
00001000
00000001
00001000
,
00000000
00000001
00000100
00000000
00001000
00000000
00010000
00000000
,
01000000
00000000
00100000
00010000
00000000
10000000
00100000
01000000
,
00000000
00010000
01000000
00000000
00001000
00000000
00010000
00000000
,
00000100
00000000
00010000
00001000
00000000
01000000
00010000
02000000
,
00000000
00000000
00000000
00000000
,
00000000
00000000
00000000
00000000
,
00000000
00000000
00000000
00000000
,
03000000
00000000
00000000
00000000
;

//---------------dance-double - t7r----------------
#NOTES:
     dance-double:
     t7r:
     Hard:
     12:
     :
00000000
00000000
00000000
00000000
,
00000000
00000000
00000000
00000000
,
00000000
00000000
00000000
00000000
,
00000000
00000000
00000000
00000000
,
00000000
00000000
00000000
00000000
,
00000000
10000000
00000000
10000000
,
00000000
01000000
00000000
01000000
,
10010000
00000000
10000000
01000000
00000000
01000000
00100000
00001000
,
00000000
00001000
00010000
00000000
00001000
00001000
00000000
00000000
,
00011000
00000000
00010000
00000000
00000000
00001000
00010000
00000000
,
00000000
01000000
10000000
00000000
00100000
01000000
00010000
00000000
,
00100000
00000000
00001000
00000000
00000000
00010000
00001000
00000000
,
00000000
00000100
00000001
00000000
00000010
00000100
00010000
00000000
,
00011000
00000000
00001000
00000000
00000000
00010000
00001000
00000000
,
00000000
00000010
00000001
00000000
00000100
00000010
00001000
00000000
,
00000100
00000000
00010000
00000000
00000000
00001000
00010000
00000000
,
00000000
00100000
10000000
00000000
01000000
00100000
00001000
00000000
,
00020000
00000100
00000000
00030100
,
00000000
00000000
00000100
00000000
00010000
00010000
00002000
00000000
,
00013000
01000000
11000000
00000000
,
10000000
00000000
00100000
00000000
01000000
00010000
00100000
00000000
,
00001000
00010000
00011000
00000000
,
00010000
00000000
00000100
00000000
00001000
00000010
00000100
00000000
,
00000001
00000010
00001010
00000000
,
00000001
00000000
00000100
00002000
00000000
00013000
01000000
00000000
,
00100000
00010000
10010000
00000000
,
10000000
01000000
00100000
00001000
00020000
00000000
00000000
00000000
,
00031000
00000000
00000100
00000001
00000000
00000010
00000000
00001000
,
00000000
00010000
00000000
01000000
00100000
00000000
00010000
10000000
,
00100000
00000000
00010000
00001000
00000000
00000100
00000000
00000001
,
00000020
00001030
00020000
00031000
,
01000000
00000000
00010000
00000000
01000000
10000000
01000000
00010000
,
00100000
00000000
00001000
00000000
00010000
00000100
00001000
00000000
,
00000010
00000000
00000100
00000001
00000000
00000100
00001000
00000000
,
01000000
00010000
10000000
00000000
00100000
00000000
10100000
00000000
,
10000000
01000000
00010000
00001000
,
01000000
00000000
00010000
00000000
00001000
00000100
00000000
00000100
,
00000000
00001000
00000010
00000100
00000000
00000001
00000010
00000000
,
00001000
00010000
00000000
00001000
01000000
00000000
00100000
00000000
,
10000000
00000000
00100000
02000000
00000000
03010000
00200000
00000000
,
00301000
00000000
00010000
00000000
00001000
00000100
00000002
00000000
,
00001003
00000100
00000010
00001000
,
00010000
00000000
00000010
00000000
00001000
00010000
00000000
00010000
,
00000000
00100000
00010000
01000000
00000000
01000000
00100000
00000000
,
10000000
01000000
10000000
00000000
00010000
00000000
10010000
00000000
,
10000000
00000000
00100000
00000000
01000000
00010000
00001000
00000000
,
00000100
00000000
00001000
00000000
00000010
00001000
00010000
00100000
,
00010000
00000000
01000000
10000000
00000000
01000000
00010000
00000000
,
10000000
02000000
00000000
00000000
03100000
00000000
00101000
00000000
,
00011000
00010100
00010100
00010100
,
00011000
00000000
00001000
01000000
00100000
10000000
00010000
00000000
,
10000000
00000000
01000000
00010000
00000000
00001000
00010000
00000000
,
00000100
00000000
00001000
00000010
00000100
00000000
00000001
00000000
,
00000011
00000101
00000101
00000101
,
00001001
00000000
00000001
00000100
00000010
00000000
00010000
00000000
,
00000100
00000000
00010000
00001000
00000000
01000000
00010000
00000000
,
10100000
00000000
10100000
00000000
10010000
00000000
10000000
01000000
,
00010000
00011000
00011000
00011000
,
00010100
00000000
00010000
00001000
00000100
00000001
00000010
00000000
,
00000001
00000000
00000010
00001000
00000000
00010000
00001000
02000000
,
00000000
03100000
10000000
00000000
00010000
00000000
10000000
00000000
,
10100000
01100000
01100000
01100000
,
01001000
00000000
00001000
00100000
00010000
00001000
00000100
00000000
,
00001100
00000000
00001000
00000010
00000000
00000001
00000010
00001000
,
00000100
00010000
00000100
00010000
00001000
00010000
00001000
00010000
,
00001000
00010000
00100000
01000000
00000000
00010000
00100000
01000000
,
00000000
00100000
00010000
00001000
00000100
00001000
00000001
00000000
,
00001000
00000100
00000001
00000100
00000000
00000001
00000100
00001000
,
00000000
00000001
00000100
00001000
00010000
00000000
00011000
00000000
,
00010000
00001000
00000100
00000010
00000000
00001000
00000100
00000010
,
00000000
00000100
00001000
00010000
00100000
01000000
00100000
00000000
,
00020000
00000000
00000000
10030000
00000000
00100000
01000000
00002000
,
00000000
00000000
00000000
00000000
,
00000000
00000000
00000000
00000000
,
00000000
00000000
00000000
00000000
,
00003000
00000000
00000000
00000000
;

//---------------dance-double - t7r----------------
#NOTES:
     dance-double:
     t7r:
     Challenge:
     16:
     :
00000000
00000000
00000000
00000000
,
00000000
00000000
00000000
00000000
,
00000000
00000000
00000000
00000000
,
00000000
00000000
00000000
00000000
,
00000000
00000000
00000000
00000000
,
10000000
00010000
00100000
00000000
00010000
01000000
00001000
00000000
,
00100000
00000000
00001000
00000000
00010000
00000000
00000000
00000000
00002000
00000000
00000000
00000000
00013000
00001000
00010000
00001000
,
01000000
00010000
00100000
01000000
10000000
00100000
00010000
00001000
,
00000010
00000001
00000010
00000000
00000001
00000100
00000001
00000000
00001000
00000000
00001001
00000000
00000000
00000000
00000000
00000000
,
00000001
00000100
00000010
00000100
00000001
00000001
00000010
00000100
,
00001000
00010000
01000000
10000000
01000000
01000000
00100000
10000000
,
00010000
00100000
01000000
10000000
00100000
00100000
01000000
00010000
,
10000000
01000000
00100000
01000000
00010000
00010000
00001000
00000100
,
00000001
00000010
00000100
00000010
00000001
00000001
00000100
00000010
,
00001000
00010000
00100000
10000000
00100000
00100000
01000000
10000000
,
00010000
01000000
00100000
10000000
01000000
01000000
00100000
00010000
,
10000000
00000000
00100000
00000000
01000000
00000000
00100000
00000000
00010000
00001000
00010000
00001000
00010000
00000000
00001000
00000000
,
00000010
00000000
00000001
00000100
00000000
00001000
00010000
00001000
,
00000000
00000000
00010000
00001000
00010000
00000000
00001000
00000000
00000100
00000000
00000001
00000000
00000020
00000000
00000000
00000000
,
00000031
00000100
00000010
00000100
00000001
00000001
00000010
00000001
,
00001000
00000100
00000010
00000001
00000100
00000100
00001000
00010000
,
00100000
10000000
00010000
00100000
00010000
00010000
10000000
00010000
,
10000000
01000000
00100000
01000000
00010000
00010000
00001000
00000100
,
00000010
00000100
00000001
00001000
00000001
00000001
00000010
00000001
,
00000020
00002030
00023000
00230000
01000000
01000000
10300000
00000000
,
00010000
00100000
01000000
00100000
00010000
00010000
10000000
00010000
,
10000000
00000000
02000000
00000000
03020000
00000000
00032000
00000000
00003100
00000000
00000001
00001000
00000001
00001000
00000001
00001000
,
00000001
00000010
00000001
00000100
00000001
00000010
00000001
00000100
,
00000001
00000010
00000100
00001000
00020000
00000000
00130000
00010000
,
10000000
00100000
10000000
01000000
10000000
00100000
10000000
01000000
,
10000000
00100000
01000000
00010000
00002000
00000010
00003001
00000000
,
00000100
00001000
00000100
00000001
00000010
00000100
00010000
00001000
,
01000000
00010000
00100000
00000000
01000000
10000000
00100000
00000000
,
10000000
00000000
01000000
00010000
01000000
01000000
00100000
00000000
,
00010000
00100000
00001000
00000000
00010000
00000000
00001000
00000010
00000001
00000000
00000100
00000001
00000100
00000000
00000001
00001000
,
00000100
00000000
00001000
00000000
00010000
01000000
00100000
00000000
,
10000000
00000000
02000000
00000000
00010000
00000000
00000000
00000000
03100000
00000000
01000000
00000000
10000000
00000000
10000000
00010000
,
01000000
01010000
00000000
00110000
00000000
00100000
00001000
00010000
,
00001000
00000000
00021000
00000000
00000000
00000000
00030010
00001000
00000010
00000100
00000001
00001000
00000001
00000000
00000010
00000000
,
00000001
00000100
00000010
00000100
00000001
00000010
00001000
00010000
,
00100000
00000000
10000000
00000000
00100000
00000000
01000000
00000000
00010000
01000000
00100000
10000000
01000000
00100000
00010000
10000000
,
01000000
00000000
00010000
00000000
00001000
00000100
00000010
00000000
,
00000100
00000000
00000001
00000000
00000010
00000000
00001000
00000000
00000010
00000000
00000100
00000000
00010000
00000000
00001000
01000000
,
00010000
00000000
01010000
00000000
00000000
00000000
01100000
00000000
00100000
00000000
10000000
01000000
00100000
00010000
01000000
00000000
,
00010000
00100000
01000000
00100000
00001000
00010000
00001000
00010000
00001000
00000000
00000000
00000000
00011000
00000000
00000000
00000000
,
00001000
00000010
00000100
00000010
00000001
00000100
00000001
00001000
,
00001001
00000000
00000001
00000000
00000100
00000000
00000010
00000000
00001010
00000000
00000010
00001000
00000100
00001000
00000001
00000000
,
00000100
00000000
00001000
00010000
00001000
00000000
00010000
00000000
01000000
00000000
10000000
00010000
10000000
00100000
01000000
00000000
,
00010000
00000000
10020000
00000000
00000000
00000000
10030000
00000000
10100000
00000000
10000000
01000000
00100000
00010000
10000000
00000000
,
10010000
10000000
00100000
00010000
00100000
01000000
00010000
00001000
,
00000010
00001000
00000001
00000010
00001000
00010000
01000000
10000000
,
00100000
01000000
00010000
00010000
00100000
00001000
00010000
00010000
,
00001000
00000000
00000100
00000000
00000001
00000000
00000100
00000000
00000110
00000000
00000000
00000010
00001000
00000000
00000001
00000000
,
00001000
00000001
00000010
00001000
00000010
00000100
00001000
00010000
,
00100000
00010000
10000000
00100000
00010000
00001000
00000100
00000001
,
00000010
00000100
00001000
00001000
00000010
00010000
00001000
00001000
,
00011000
00000000
00001000
00010000
02000000
00000000
03010000
00001000
00000200
00000000
00001300
00010000
00001000
00010000
00001000
00010000
,
00100000
01000000
01010000
00010000
00110000
00010000
10010000
00000000
,
11000000
01000000
00100000
00010000
00002000
00003020
00000032
00000023
,
00000130
00000001
00000011
00000001
00001001
00001000
00001100
00002000
,
00000000
00000000
00003001
00000100
00000010
00000000
00000100
00000000
00000101
00000000
00000001
00000000
00001001
00000000
00000000
00000000
,
00001100
00000100
00010100
00010000
00011000
00010000
01010000
00000000
,
11000000
10000000
10100000
00100000
00110000
00010000
00011000
00000000
,
00001010
00000010
00000110
00000000
00001001
00000001
00000101
00000000
,
00000001
00000010
00000100
00001000
00000010
00000100
00000001
00000000
00000100
00001000
00010000
00000000
00001000
00010000
01000000
10000000
,
00100000
01000000
00010000
00100000
00010000
10000000
01000000
00010000
,
01000000
01000000
00100000
00001000
00010000
00010000
00000010
00001000
,
00000001
00000100
00000010
00000100
00000001
00000010
00001000
00000010
,
00000001
00000001
00000100
00001000
00010000
00010000
01000000
10000000
,
00100000
01000000
00010000
01000000
10000000
01000000
00100000
01000000
,
00010000
00010000
00100000
00001000
00010000
00010000
00000010
00001000
,
00000001
00000010
00001000
00010000
00000000
00100000
10000000
00020000
,
00000000
00000000
00000000
00000000
,
00000000
00000000
00000000
00000000
,
00000000
00000000
00000000
00000000
,
00030000
00000000
00000000
00000000
;
