#TITLE:My Famed Disappearing Act;
#ARTIST:Thank You Scientist;
#BANNER:My Famed Disappearing Act.png;
#BACKGROUND:My Famed Disappearing Act-bg.png;
#JACKET:My Famed Disappearing Act-jacket.png;
#CDTITLE:./CDTITLES/NONE.PNG;
#MUSIC:My Famed Disappearing Act.ogg;
#SAMPLESTART:60.705;
#SAMPLELENGTH:15;
#BPMS:0=170;

//---------------dance-single - t7r----------------
#NOTES:
     dance-single:
     t7r:
     Beginner:
     3:
     :
0000
0000
0000
0000
,
0000
0000
0000
0000
,
0000
0000
0000
0000
,
0000
0000
0000
0000
,
0000
0000
0000
0000
,
0010
0000
0000
0000
,
0010
0000
0000
0000
,
0100
0000
0000
0000
,
0100
0000
0000
0000
,
0000
0000
0000
0000
,
0001
0000
0000
0000
,
0001
0000
0000
0000
,
1000
0000
0000
0000
,
1000
0000
0000
0000
,
0100
0000
0000
0000
,
0100
0000
0000
0000
,
0010
0000
0010
0000
,
0001
0000
0000
0000
,
0000
0000
0000
0000
,
1000
0000
0000
0000
,
0000
0000
0000
0000
,
0010
0000
0000
0000
,
0010
0000
0000
0000
,
0100
0000
0000
0000
,
0100
0000
0000
0000
,
0001
0000
0001
0000
,
0001
0000
0000
0000
,
1000
0000
1000
0000
,
1000
0000
0000
0000
,
0100
0000
0000
0000
,
0100
0000
0000
0000
,
0010
0000
0000
0000
,
0010
0000
0000
0000
,
0001
0000
0000
0000
,
1000
0000
0001
0000
,
1000
0000
0000
0000
,
0000
0000
0000
0000
,
0010
0000
0000
0000
,
0100
0000
0010
0000
,
0100
0000
0000
0000
,
0000
0000
0000
0000
,
0001
0000
0000
0000
,
0010
0000
0100
0000
,
1000
0000
0000
0000
,
0000
0000
0000
0000
,
0001
0000
0000
0000
,
0000
0000
0000
0000
,
0100
0000
0000
0000
,
0000
0000
0000
0000
,
0010
0000
1000
0000
,
0001
0000
0000
0000
,
0010
0000
0000
0000
,
0000
0000
0000
0000
,
0001
0000
0000
0000
,
0000
0000
0000
0000
,
1000
0000
0000
0000
,
0100
0000
0000
0000
,
1000
0000
1000
0000
,
0001
0000
0001
0000
,
0100
0000
0000
0000
,
0100
0000
0000
0000
,
0010
0000
0000
0000
,
0000
0000
0000
0000
,
1000
0000
0000
0000
,
1000
0000
0000
0000
,
0001
0000
0000
0000
,
0001
0000
0000
0000
,
0100
0000
0000
0000
,
0100
0000
0000
0000
,
0010
0000
0000
0000
,
0010
0000
0010
0000
,
1000
0000
1000
0000
,
1000
0000
0000
0000
,
0001
0000
0001
0000
,
0001
0000
0000
0000
,
0100
0000
0100
0000
,
0100
0000
0000
0000
,
0010
0000
0000
0000
,
1001
0000
0000
0000
,
0100
0000
0000
0000
;

//---------------dance-single - t7r----------------
#NOTES:
     dance-single:
     t7r:
     Easy:
     6:
     :
0000
0000
0000
0000
,
0000
0000
0000
0000
,
0000
0000
0000
0000
,
0000
0000
0000
0000
,
0000
0000
0000
0000
,
1000
0000
0000
0000
,
1000
0000
0000
0000
,
0001
0000
0000
0000
,
1001
0000
0000
0000
,
0010
0000
0010
0000
,
1001
0000
1000
0000
,
0100
0010
0001
0001
,
1001
0000
0001
0000
,
0100
0010
1000
1000
,
0100
0010
0001
0001
,
0100
0000
0010
0000
,
2000
0000
3002
0000
,
1003
0000
0000
0100
,
0100
0000
0000
0010
,
0010
0000
0001
0000
,
1000
0000
0000
0001
,
0100
0000
0100
0000
,
0010
1000
0001
0000
,
0010
0000
0010
0000
,
0001
1000
0010
0000
,
1000
0000
0100
0000
,
0010
0100
1000
0000
,
0001
0000
0100
0000
,
0010
0100
0001
0000
,
2000
0000
0010
0000
,
3001
1000
0100
0000
,
0020
0000
1000
0000
,
0130
1000
0001
0000
,
0100
1000
0100
0000
,
0010
0100
0010
0000
,
2000
0000
0100
0000
,
3001
0100
0010
1000
,
0100
0001
0100
0000
,
0010
0100
0010
0000
,
0200
0000
0001
0000
,
0310
0001
1000
0000
,
0002
0000
0100
0000
,
1003
0010
0100
0000
,
1001
0000
1000
0000
,
0100
1000
0001
0000
,
1001
0000
0001
0000
,
0100
0001
1000
0000
,
1010
0000
1000
0000
,
0100
0010
0001
0000
,
1000
0010
0001
1000
,
0100
0001
1000
0001
,
1001
0000
0001
0000
,
0010
0100
1000
0000
,
1010
0000
1000
0000
,
0100
0010
0001
0000
,
0100
1000
0100
0000
,
0001
0010
0001
0000
,
1000
0000
0000
0100
0000
0220
0000
0330
,
0001
0000
0000
0100
0000
0220
0000
0330
,
1000
0000
0000
0010
0000
0000
0100
0000
,
0000
0001
0000
0000
1000
0000
1000
0000
,
0001
0000
0000
0010
0000
0000
0100
0000
,
0000
1000
0000
0000
0001
0000
0001
0000
,
1000
0100
0010
0100
,
1000
0100
0010
0100
,
1000
0100
0001
0100
,
1000
0010
0001
0020
,
1030
0001
0100
0010
,
0100
0001
1000
0001
,
0010
0100
1000
0001
,
0100
0000
0010
0100
0010
0000
0100
0000
,
0001
0100
0010
0100
,
0001
0100
0010
0100
,
0001
0100
1000
0100
,
0001
0010
1000
0020
,
0031
1000
0100
0010
,
0100
1000
0001
1000
,
0010
0100
0001
1000
,
1001
0000
0000
0000
,
0110
0000
0000
0000
;

//---------------dance-single - t7r----------------
#NOTES:
     dance-single:
     t7r:
     Medium:
     11:
     :
0000
0000
0000
0000
,
0000
0000
0000
0000
,
0000
0000
0000
0000
,
0000
0000
0000
0000
,
0000
0000
0000
0000
,
1000
0000
0000
1001
0000
0000
0000
0000
,
0000
0001
1000
0000
0000
0000
0000
0000
,
0000
0010
0000
0000
0110
0000
0000
0100
,
0002
0000
0000
0000
,
1003
1000
1000
1000
,
0001
0000
0000
0100
0000
0000
0001
0000
1000
0000
0000
0000
0001
0000
0000
0000
,
1000
0000
0000
0100
0000
0000
1000
0000
0001
0000
0000
0000
1001
0000
0000
0000
,
0001
0000
0000
0010
0000
0000
0001
0000
1000
0000
0000
0000
0010
0000
0000
0000
,
1000
0000
0000
0000
0100
0000
0010
0000
0001
0000
0000
0001
0000
0000
0001
0000
,
1000
0000
0000
0000
0100
0000
1000
0000
0001
0000
0000
0001
0000
0000
0001
0000
,
0100
0000
0000
0110
0000
0000
1000
0000
,
1002
0000
0023
0000
,
0031
0000
0000
0000
0000
0000
0100
0010
,
0000
1000
0000
0000
0000
0000
0100
0010
,
0100
0000
0010
0000
0001
0000
0100
0010
,
0000
0100
0000
0000
0000
0000
0001
0000
,
1000
0100
0000
1000
0001
0000
1000
0100
,
0000
1000
0001
0000
1000
0000
1001
0000
,
0001
0100
0000
0001
1000
0000
0001
0100
,
0000
0001
0010
0000
0001
1000
0001
0000
,
1000
0100
0000
0010
0100
0000
0001
0100
,
0000
0010
0100
0000
1000
0001
1000
0000
,
0001
0100
0000
0010
0100
0000
1000
0100
,
0000
0010
0100
0000
0001
1000
0001
0000
,
1000
1000
0000
0010
0010
0000
0100
0100
,
0000
0001
0001
0000
0010
0100
1000
0000
,
0001
0001
0000
0010
0010
0000
0100
0100
,
0000
1000
1000
0000
0001
0000
0110
0000
,
1000
0000
0010
0000
0100
1000
0000
0100
,
0000
0010
0000
0100
1000
0000
0100
0000
,
0002
0000
0010
0000
2003
0000
0000
3200
,
0000
0000
0310
0000
0001
1000
0100
1000
,
0001
0000
0010
0000
0100
0001
0000
0100
,
0000
0010
0000
0001
0100
0000
0010
0000
,
2000
0000
0010
0000
0001
0001
0000
0100
,
0000
0001
0000
3001
0100
0001
1000
0000
,
0002
0000
0010
0000
1000
1000
0000
0100
,
0000
0100
0000
1003
0001
1000
0001
0000
,
2000
0000
0000
3100
0010
0000
0002
0000
,
0100
0000
1003
0000
0001
0100
0010
0000
,
2000
0000
0000
3010
0100
0000
0002
0000
,
0010
0000
1003
0000
0100
0010
0001
0000
,
0200
0000
0000
0310
1000
0000
0200
0000
,
0001
0000
0310
0000
0001
1000
0010
0000
,
1000
0100
0010
0000
0100
0001
0100
0000
,
0010
0002
0100
0000
1003
0001
1000
0000
,
0002
0000
0000
0103
0010
0000
2000
0000
,
0100
0000
3001
0000
1000
0100
0010
0000
,
0002
0000
0000
0013
0100
0000
2000
0000
,
0010
0000
3001
0000
0100
0010
1000
0000
,
0200
0000
0000
0310
0001
0000
0200
0000
,
1000
0000
0310
0000
1000
0001
0010
0000
,
0001
0000
1000
0100
0000
2200
0000
3300
,
1000
0000
0001
0100
0000
0202
0000
0303
,
1010
1000
0000
0001
0001
0000
0011
0010
,
0000
0100
0100
0000
1000
0001
0100
0000
,
0001
0010
0001
1000
0010
1000
0001
0010
,
0001
1000
0010
1000
0001
1000
0001
0000
,
1000
0000
0000
0100
0000
0000
1000
0000
0001
0000
0100
0000
0001
0000
0000
0000
,
1000
0000
0000
0100
0000
0000
1000
0000
0001
0000
0010
0000
0001
0000
0000
0000
,
1000
0000
0000
0010
0000
0000
0001
0000
0010
0000
0000
1000
0000
0000
0001
0000
,
0010
0000
0000
1000
0000
0000
0010
0000
0001
0000
0100
0000
0002
0000
2003
0000
,
3001
0000
0000
0100
0000
0000
0001
0000
1000
0000
0100
0000
1000
0000
0000
0000
,
0001
0000
0000
0100
0000
0000
0001
0000
1000
0000
0010
0000
1000
0000
0000
0000
,
0001
0000
0000
0010
0000
0000
1000
0000
0010
0000
0000
0001
0000
0000
1000
0000
,
0010
0000
0001
0010
1000
0100
0010
0000
,
0001
0100
0001
0100
0010
1000
0010
1000
,
0001
0100
0001
0100
0010
1000
0001
1000
,
0001
0010
0001
0010
0100
0010
0100
1000
,
0001
0010
0100
0010
1000
0010
0002
2003
,
3001
0010
0001
0010
0100
1000
0100
1000
,
0001
0010
0001
1000
0010
0100
0001
1000
,
0100
0001
0100
0010
0100
1000
0010
0100
,
0110
0000
0000
0000
,
1001
0000
0000
0000
;

//---------------dance-single - t7r----------------
#NOTES:
     dance-single:
     t7r:
     Hard:
     15:
     :
0000
0000
0000
0000
,
0000
0000
0000
0000
,
0000
0000
0000
0000
,
0000
0000
0000
0000
,
0000
0000
0000
0000
,
1000
0001
0000
0000
0000
0000
0100
0000
0000
0000
0000
0000
0000
0000
0000
0000
,
0000
0000
0001
1000
0001
1000
0000
0000
0000
0000
0000
0000
0000
0000
0000
0000
,
0000
0000
0100
0010
0100
0010
0000
0000
0100
0000
0000
0100
0000
0000
1000
0000
,
2002
0000
0000
3003
,
0001
0000
0001
2000
0100
0000
3001
0000
,
1000
0000
0001
0100
0000
0001
1000
0000
0001
0000
0001
0000
0100
0000
0001
0000
,
1000
0000
0001
0010
0000
0001
1000
0000
0001
0000
0100
0000
0110
0000
0000
0000
,
0001
0000
1000
0010
0000
1000
0001
0000
1000
0000
1000
0000
0100
0000
1000
0000
,
0001
0000
0001
0000
0100
0000
0010
0000
1000
0000
0000
1001
0000
0000
0001
0000
,
1000
0000
1000
0000
0100
0000
0010
0000
0001
0000
0000
1001
0000
0000
1000
0000
,
0001
0100
0001
0000
1000
0000
0001
0010
0001
0000
1000
0000
0001
1000
0001
1000
,
0020
0000
0230
0000
,
0301
0010
0000
0001
1000
0000
0001
0100
,
0000
0001
1000
0000
0100
1000
0001
0001
,
1000
0010
0000
1000
0001
0000
1000
0100
,
0000
1000
0001
0000
1000
1000
0010
0000
,
0100
1000
0100
0010
0100
0000
1000
0100
,
0010
0100
0001
0000
1000
0001
0020
0000
,
0130
0010
0100
0001
0100
0000
0001
0100
,
0010
0100
1000
0000
0001
1000
1001
0000
,
1000
1000
0010
0100
0010
0000
0001
0001
,
0010
0100
0010
0000
1000
1000
0100
0010
,
0001
0001
0100
0010
0100
0000
1000
1000
,
0100
0010
0100
0000
0001
0010
0110
0000
,
1000
0100
1000
0000
0000
0000
0001
0100
0001
0000
0000
0000
1000
0100
1000
0000
,
0000
0000
0001
0100
0001
0000
0000
0000
1000
0001
1000
0000
0001
1000
0001
0000
,
1000
0010
1000
0000
0000
0000
0001
0010
0001
0000
0000
0000
1000
0010
1000
0000
,
0000
0000
0001
0010
0001
0000
0000
0000
1001
0000
0100
0000
0010
0100
0010
0000
,
1001
1000
0100
0010
1000
0010
0100
0001
,
0100
0010
0100
1000
0001
0100
1000
0100
,
0120
0000
0001
0000
0230
0000
0010
0302
,
1000
0010
0010
0000
0103
0010
0100
0001
,
1001
0001
0100
0010
0001
0010
0100
1000
,
0100
0010
0100
0001
1000
0100
0001
0100
,
0020
0000
1000
0000
0100
0100
0000
0001
,
0000
0001
0000
0100
0000
0100
0130
1000
,
0020
0000
0001
0000
0100
0100
0000
1000
,
0000
1000
0000
0130
0001
1000
1001
1000
,
0200
0000
0301
0100
0010
0000
0011
0001
,
0100
0001
1000
0000
1010
0010
0100
0000
,
0101
0001
1000
0001
1001
0000
1100
0100
,
1000
0001
1001
0000
1100
0100
0010
0000
,
0011
0001
1000
0001
0101
0000
0110
0010
,
1000
0010
0110
0000
0101
0001
1000
0000
,
1100
0100
0001
1000
0010
0001
1000
0010
,
0001
1000
0100
0001
0101
0001
1000
0010
,
0200
0000
1300
0100
0010
0000
1010
1000
,
0100
1000
0001
0000
0011
0010
0100
0000
,
1100
1000
0001
1000
1001
0000
0101
0100
,
0001
1000
1001
0000
0101
0100
0010
0000
,
1010
1000
0001
1000
1100
0000
0110
0010
,
0001
0000
0010
0000
0110
0000
0000
0000
1100
0000
0100
0000
1000
0001
1000
0001
,
0100
1000
0001
0010
1000
0200
0001
0000
,
0310
1000
0001
0100
1000
0020
0001
0000
,
0130
0110
0000
0001
0101
0000
1000
1100
,
0000
0001
0011
0000
1001
0001
0100
0000
,
0001
0000
1000
0100
1000
0000
0001
0000
1000
0010
1000
0000
0001
0000
1000
0100
,
1000
0000
0001
0000
0100
0001
0100
0000
0010
0000
1000
0000
0001
0000
0000
0000
,
1000
0000
0100
0010
0000
0100
1000
0000
0100
0010
0000
0010
0100
0000
1000
0000
,
0001
0000
0100
0010
0000
0100
0001
0000
0100
0010
0000
0010
0100
0000
0001
0000
,
1000
0000
0010
0100
0000
0010
1000
0000
0010
0100
0000
0100
0010
0000
1000
0000
,
0001
0000
0010
0100
0000
0010
0001
0000
1000
0001
0000
0001
0020
0000
0032
0000
,
1003
0000
0001
0100
0000
0001
1000
0000
0001
0100
0000
0100
0001
0000
1000
0000
,
0001
0000
1000
0100
0000
1000
0001
0000
1000
0100
0000
0100
1000
0000
0001
0000
,
1000
0000
0010
1000
0000
0001
1000
0000
0010
1000
0000
1000
0001
0000
1000
0000
,
0001
0000
1000
0100
1000
0000
0001
0000
0100
0000
0010
0100
0010
0000
1000
0000
,
0001
0000
0010
0100
0000
0001
0100
0000
0010
0100
0000
0100
1000
0000
0001
0000
,
1000
0000
0010
0100
0000
1000
0100
0000
0010
0100
0000
0100
0001
0000
1000
0000
,
0001
0000
1000
0100
0000
0010
1000
0000
0010
0100
0000
0100
1000
0000
0001
0000
,
1000
0000
0001
0100
0000
0010
0001
0000
0010
0100
0010
0100
0002
0000
2003
0000
,
3001
0000
0010
1000
0000
0010
0100
0000
1000
0001
0000
0001
0100
0000
0001
0000
,
1000
0000
0010
0001
0000
0010
0100
0000
0001
1000
0000
1000
0100
0000
1000
0000
,
0001
0000
0010
0001
0010
0001
0010
0000
0001
0000
1000
0010
1000
0010
1000
0000
,
0110
0000
0000
0000
,
1001
0000
0000
0000
;

//---------------dance-single - t7r----------------
#NOTES:
     dance-single:
     t7r:
     Challenge:
     18:
     :
0000
0000
0000
0000
,
0000
0000
0000
0000
,
0000
0000
0000
0000
,
0000
0000
0000
0000
,
0000
0000
0000
0000
,
0001
0100
0000
0000
0000
0000
0110
0000
0000
0000
1000
0000
0001
0000
1000
0100
,
1000
0000
0001
1000
0001
1000
0000
0000
0001
0000
0100
0010
1000
0000
0001
0000
,
1000
0000
0010
0100
0010
0100
0000
0001
1000
0000
0001
0100
0000
0000
0110
0000
,
1001
0001
0010
1000
0001
0100
1000
0010
,
0200
0000
1000
0320
0100
0000
2030
0000
,
3001
0000
0010
0001
0000
1000
0001
0010
0001
0100
0001
1000
0100
1000
0001
0100
,
0001
0000
0000
0000
0010
0000
0001
0000
0000
0000
1000
0000
0100
0000
1000
0000
0001
0000
0100
0000
0010
0000
1000
0000
0001
1000
0000
0000
0000
0000
0000
0000
,
1010
0000
0010
1000
0000
0001
1000
0010
1000
0100
1000
0001
0100
0001
1000
0100
,
1000
0001
0100
0010
0100
0001
1000
0100
0010
0000
0100
0001
0000
0100
1000
0000
,
0001
1000
0100
0010
0100
1000
0001
0100
0010
0000
0100
1000
0000
0100
0001
0000
,
1000
0100
0010
0001
0100
0010
1000
0001
0010
0001
1000
0010
0100
0010
1000
0001
,
0020
0000
0032
0000
,
0103
1000
0001
0010
1000
0000
0100
0001
,
1000
0010
0001
0000
1000
1000
0001
0001
,
0010
1000
0001
0100
1000
0000
0010
0001
,
1000
0100
0001
0000
0100
0100
1001
0000
,
0011
0001
0100
0001
1001
0000
1010
1000
,
0100
1000
1001
0000
0100
0100
1001
0000
,
1100
1000
0010
1000
1001
0000
0101
0001
,
0010
0001
1001
0000
0001
1000
1001
0000
,
0101
0101
0100
1000
1100
0000
0101
0101
,
0100
1000
1100
0000
0101
0101
1001
0001
,
1100
1100
0100
0001
0101
0000
1100
1100
,
0100
0001
0101
0000
0110
0100
1001
0000
,
1000
0010
0100
0000
0000
0000
0010
1000
0001
0000
0000
0000
1000
0010
0100
0000
,
0000
0000
0010
1000
0001
0000
0000
0000
1000
0010
0100
0000
0001
0010
0100
0000
,
1000
0001
0010
0000
0000
0000
0001
1000
0010
0000
0000
0000
0100
0010
1000
0000
,
0000
0000
0100
0010
0001
0000
0000
0000
0100
0001
1000
0000
0100
1000
0001
0000
,
1001
1000
0100
0010
0200
0302
0103
0010
,
0001
0100
1000
0200
0320
1030
0002
0010
,
2003
0000
0100
0100
3002
0000
0103
0020
,
0001
0001
0100
1030
0200
0001
0001
0310
,
0011
0001
0100
0010
0200
2300
3100
0010
,
1000
0100
0001
0200
0320
0031
2000
0010
,
3002
0000
0100
0000
1003
1001
1000
1100
,
0000
0110
0000
0011
0001
1000
1010
0010
,
0210
0000
1000
0000
0310
0110
0010
1010
,
0000
1001
0000
0011
0001
1000
1001
1000
,
1200
0000
0301
0100
0110
0000
0101
0100
,
0010
0000
0000
0000
0100
0000
0000
0000
1100
0000
0000
0000
0000
0000
0000
0000
1000
0001
0000
0000
0100
0000
0000
0000
0110
0000
0000
0000
0000
0000
0000
0000
,
0201
0001
0310
0100
0110
0000
1100
0100
,
0010
0000
0000
0000
0100
0000
0000
0000
0101
0000
0000
0000
0000
0000
0000
0000
0001
1000
0000
0000
0100
0000
0000
0000
0110
0000
0000
0000
0000
0000
0000
0000
,
0021
0001
0130
0010
0110
0000
1010
0010
,
0100
0000
0000
0000
0010
0000
0000
0000
0011
0000
0000
0000
0000
0000
0000
0000
0001
1000
0000
0000
0010
0000
0000
0000
0110
0000
0000
0000
0000
0000
0000
0000
,
2010
3020
0032
2003
3200
0302
0023
2030
,
3001
0201
0010
1300
1020
0001
0230
0300
,
1020
0000
0031
0010
0110
0000
0011
0010
,
0100
0000
0000
0000
0010
0000
0000
0000
1010
0000
0000
0000
0000
0000
0000
0000
1000
0001
0000
0000
0010
0000
0000
0000
0110
0000
0000
0000
0000
0000
0000
0000
,
0021
0100
1030
0010
0110
0000
1010
0010
,
0100
0000
0000
0000
0010
0000
0000
0000
0011
0000
0000
0000
0000
0000
0000
0000
0001
1000
0000
0000
0010
0000
0000
0000
0110
0000
0000
0000
0000
0000
0000
0000
,
0201
0010
1300
0100
0110
0000
1100
0100
,
0001
0000
0000
0000
1000
0000
0000
0000
1010
0000
0000
0000
0000
0000
0000
0000
0001
1000
0000
0000
0100
0000
0000
0000
1000
0000
0001
0000
1000
0000
0001
0000
,
0100
1000
0001
0021
0130
2010
0001
3100
,
0010
1000
0001
0201
0310
2100
0001
3010
,
0110
0100
0001
1000
1001
0000
1100
0100
,
0010
0000
0000
0000
0001
0000
0000
0000
1001
0000
0000
0000
0000
0000
0000
0000
0101
0000
0000
0000
0100
0000
0000
0000
0001
1000
0000
0000
0000
0000
0000
0000
,
0001
1000
0001
1000
0001
1000
0010
0100
0010
0100
0010
0100
0001
0010
0001
0010
,
0001
0000
0000
0000
0010
0000
0000
0000
0100
0000
0000
0000
1000
0000
0000
0000
0100
0000
0000
0000
1000
0000
0000
0000
0100
0000
0000
0000
1000
0000
0000
0000
0001
0000
0000
0000
1000
0000
0000
0000
0001
0000
0000
0000
1000
0000
0000
0000
0200
0300
0000
0000
0000
0000
0000
0000
0200
0300
0000
0000
0000
0000
0000
0000
,
0001
0010
0100
1000
0100
0010
0001
1000
0001
0010
0100
1000
0100
0010
0001
1000
,
0001
0010
0100
1000
0100
0010
0001
1000
0001
0100
0010
1000
0010
0100
0001
1000
,
0001
0010
0100
1000
0100
0010
0001
1000
0001
0010
0100
1000
0100
0010
0001
1000
,
0001
0100
0010
1000
0001
0010
1000
0010
0001
0100
0010
1000
0002
0000
0100
0000
,
1003
0010
0100
0001
0100
0010
1000
0001
1000
0010
0100
0001
0100
0010
1000
0001
,
1000
0010
0100
0001
0100
0010
1000
0001
1000
0100
0010
0001
0010
0100
1000
0001
,
1000
0010
0100
0001
0100
0010
1000
0001
1000
0010
0100
0001
0100
0010
0100
0001
,
1000
0001
1000
0001
1000
0001
1000
0001
0100
0010
0010
0001
1000
0100
0100
0010
,
1000
0100
0010
0001
0100
0010
1000
0001
0010
0100
1000
0010
0100
0001
1000
0100
,
0010
0001
0100
0010
1000
0010
0100
0001
1000
0001
0010
0100
1000
0010
0100
0001
,
1000
0010
0100
0001
0010
0100
1000
0001
0100
0010
1000
0100
0010
0001
1000
0010
,
0100
0001
0010
0100
1000
0010
0001
0010
1000
0100
0001
0100
2000
0000
0010
0000
,
3001
0010
0100
1000
0010
0100
0001
1000
0100
0010
0001
0100
0010
1000
0001
0010
,
0100
1000
0010
0100
0001
0100
0010
1000
0001
1000
0100
0010
0001
0100
0010
1000
,
0001
0100
0010
1000
0100
0010
0001
1000
0010
0100
0001
0010
0100
1000
0001
0100
,
0010
1000
0100
0001
0100
1000
0010
0001
0010
1000
0100
0001
1000
0010
0001
0100
,
1000
0000
0000
0000
;

//---------------dance-double - t7r----------------
#NOTES:
     dance-double:
     t7r:
     Easy:
     6:
     :
00000000
00000000
00000000
00000000
,
00000000
00000000
00000000
00000000
,
00000000
00000000
00000000
00000000
,
00000000
00000000
00000000
00000000
,
00000000
00000000
00000000
00000000
,
00001000
00000000
00000000
00000000
,
01000000
00000000
00000000
00000000
,
00100000
00000000
00000000
00000000
,
10010000
00000000
00000000
00000000
,
10000000
00000000
10000000
00000000
,
01000000
00000000
00100000
00000000
,
00001000
00000000
00010000
00000000
,
00001000
00000000
00000100
00000000
,
00000010
00000000
00001000
00000000
,
00000001
00000000
00000010
00000000
,
00001000
00000000
00010000
00000000
,
00012000
00000000
02003000
00000000
,
03100000
00000000
00000000
10000000
,
10000000
00000000
00000000
01000000
,
01000000
00000000
00100000
00000000
,
00001000
00000000
00000000
00010000
,
00010000
00000000
00000000
00000100
,
00001000
00000000
00000001
00000000
,
00000100
00000000
00000000
00001000
,
00010000
00000000
00001000
00000000
,
00010000
00000000
00100000
00000000
,
01000000
00000000
00010000
00000000
,
10000000
00000000
01000000
00000000
,
00010000
00000000
00001000
00000010
,
00000010
00000000
00000000
00000001
,
00001000
00000000
00000001
00000100
,
00001000
00000000
00000000
00010000
,
00001000
00000000
00010000
00000000
,
00100000
00000000
01000000
00000000
,
00010000
10000000
01000000
00000000
,
00020000
00000000
00032000
00000000
,
00003010
00000100
00001000
00000000
,
00000001
00000000
00000100
00000000
,
00000001
00001000
00000100
00000000
,
00010000
00000000
00001000
00000000
,
00010000
00001000
01000000
00000000
,
00010000
00000000
00100000
00000000
,
01000000
10000000
00010000
00000000
,
00110000
00000000
00001000
00000000
,
00010000
00001000
00000010
00000000
,
00000110
00000000
00000001
00000000
,
00000100
00001000
00010000
00000000
,
00011000
00000000
00001000
00000000
,
01000000
00010000
10000000
00000000
,
01000000
00010000
00001000
00000000
,
00000010
00000001
00001000
00000000
,
00001001
00000000
00000001
00000000
,
00000010
00000100
00001000
00000000
,
00010100
00000000
00010000
00000000
,
00001000
01000000
00010000
00000000
,
10100000
00000000
10000000
00000000
,
01000000
00010000
00001000
00000000
,
00010000
00000000
00000000
00000100
00000000
00000200
00000000
00000300
,
00001000
00000000
00000000
00000001
00000000
00000002
00000000
00000003
,
00000100
00000000
00000000
00001000
00000000
00000000
00010000
00000000
,
00000000
01000000
00000000
00000000
10000000
00000000
00010000
00000000
,
10000000
00000000
00000000
00100000
00000000
00000000
00010000
00000000
,
00000000
00001000
00000000
00000000
00000010
00000000
00000001
00000000
,
00001000
00000100
00001000
00000000
,
00000001
00000100
00001000
00010000
,
00001000
01000000
00010000
00000000
,
10000000
01000000
00010000
00002000
,
00013000
00000010
00001000
00000000
,
00000010
00001000
00000001
00000010
,
00001000
00010000
00001000
00000000
,
00010000
00100000
01000000
00100000
,
10000000
01000000
10000000
01000000
,
00100000
00010000
00100000
00010000
,
00001000
00000010
00001000
00000010
,
00000100
00000001
00001000
00000002
,
00000013
00000100
00000010
00000100
,
00010000
00001000
00010000
00001000
,
00010000
01000000
10000000
00100000
,
00010000
00000000
00000000
00000000
,
00001100
00000000
00000000
00000000
;

//---------------dance-double - t7r----------------
#NOTES:
     dance-double:
     t7r:
     Medium:
     11:
     :
00000000
00000000
00000000
00000000
,
00000000
00000000
00000000
00000000
,
00000000
00000000
00000000
00000000
,
00000000
00000000
00000000
00000000
,
00000000
00000000
00000000
00000000
,
00010000
00000000
00000000
00001000
00000000
00000000
00000000
00000000
,
00000000
00010000
00001000
00000000
00000000
00000000
00000000
00000000
,
00000000
01000000
00010000
00000000
10000000
00000000
01000000
00000000
,
00020000
00000000
00000000
00000000
,
00031000
00001000
00001000
00001000
,
00010000
00000000
00000000
00000100
00000000
00000000
00001000
00000000
00000001
00000000
00000000
00000000
00001000
00000000
00000000
00000000
,
00000001
00000000
00000000
00000100
00000000
00000000
00001000
00000000
00010000
00000000
00000000
00000000
00001000
00000000
00000000
00000000
,
01000000
00000000
00000000
00010000
00000000
00000000
10000000
00000000
00100000
00000000
00000000
00000000
10000000
00000000
00000000
00000000
,
01000000
00000000
00000000
00000000
00010000
00000000
00001000
00000000
00010000
00000000
00000000
00010000
00000000
00000000
00010000
00000000
,
00000100
00000000
00000000
00000000
00001000
00000000
00000001
00000000
00001000
00000000
00000000
00001000
00000000
00000000
00001000
00000000
,
00000001
00000000
00000000
00000100
00000000
00000000
00001000
00000000
,
00020000
00000000
00032000
00000000
,
00013000
00000000
00000000
00000000
00000000
00000000
00001000
00010000
,
00000000
01000000
00000000
00000000
00000000
00000000
10000000
00000000
,
00100000
00000000
01000000
00000000
01000000
00000000
00010000
00100000
,
00000000
00001000
00000000
00000000
00000000
00000000
00010000
00000000
,
00000100
00001000
00000000
00000001
00000100
00000000
00000001
00001000
,
00000000
00001000
00000100
00000000
00010000
00000000
00011000
00000000
,
00001000
01000000
00000000
00010000
10000000
00000000
00100000
10000000
,
00000000
10000000
00010000
00000000
00100000
00000000
00110000
00000000
,
00001000
00010000
00000000
00000100
00001000
00000000
00000001
00000100
,
00000000
00000100
00001000
00000000
00010000
00001000
00010000
00000000
,
00001000
00100000
00000000
00010000
10000000
00000000
00010000
10000000
,
00000000
10000000
01000000
00000000
00010000
00001000
00010000
00000000
,
00001000
00001000
00000000
00000010
00000010
00000000
00000001
00000001
,
00000000
00000100
00000100
00000000
00001000
00000000
00011000
00000000
,
00010000
00010000
00000000
00100000
00100000
00000000
10000000
10000000
,
00000000
01000000
01000000
00000000
00010000
00001000
00010000
00000000
,
00001000
00000000
00000010
00000000
00000100
00001000
00000000
00000001
,
00000000
00000100
00000000
00001000
00010000
00000000
00001000
00000000
,
00200000
00010000
00301000
00000000
,
01000000
00010000
10000000
00000000
01000000
00000000
00010000
00001000
,
00010000
00000000
00100000
00000000
01000000
00010000
00000000
10000000
,
00000000
01000000
00000000
00010000
00001000
00000000
00000100
00000000
,
00000002
00000000
00000010
00000000
00001003
00000001
00000000
00000100
,
00000000
00001000
00000000
00010000
00001000
00000000
00010000
00000000
,
02000000
00000000
00010000
00000000
03100000
00010000
00000000
10000000
,
00000000
00100000
00000000
00010000
00001000
00010000
00001000
00000000
,
00020000
00000000
00000000
00030100
00001000
00000000
00000002
00000000
,
00000100
00000000
00001003
00000000
00000001
00000010
00000100
00000000
,
00001000
00000100
00000000
00000100
00010000
00000000
00001000
00010000
,
00000000
00010000
01000000
00000000
10000000
00100000
01000000
00000000
,
00020000
00000000
00100000
00000000
10030000
00000000
01000000
00100000
,
00000000
00100000
00010000
00000000
10000000
00000000
00100000
00000000
,
00010000
00000000
00001000
00000010
00000100
00000000
00001000
00000000
,
00000001
00000200
00000000
00001300
00010000
00001000
00010000
00000000
,
00002000
00000000
00000000
01003000
00010000
00000000
20000000
00000000
,
01000000
00000000
30010000
00000000
10000000
00100000
01000000
00000000
,
00010000
01000000
00000000
01000000
00001000
00000000
00010000
00001000
,
00000000
00001000
00000100
00000000
00000001
00000010
00000100
00000000
,
00002000
00000000
00000010
00000000
00003001
00000000
00000100
00000010
,
00000000
00000010
00001000
00000000
00000001
00000000
00000010
00000000
,
00001000
00000000
00010000
01000000
00000000
20000000
00000000
30100000
,
00010000
00000000
00001000
00000100
00000000
00000002
00000000
00000013
,
00001000
00010000
00000000
00000100
00001000
00000000
00000100
00010000
,
00000000
00001000
01000000
00000000
00010000
10000000
01000000
00000000
,
00010000
00001000
00010000
00001000
00100000
00001000
00010000
00001000
,
00010000
00000010
00001000
00000000
00000001
00000000
00001001
00000000
,
00000001
00000000
00000000
00000100
00000000
00000000
00000001
00000000
00001000
00000000
00000000
00000000
00000100
00000000
00000000
00000000
,
00010000
00000000
00000000
00001000
00000000
00000000
01000000
00000000
00010000
00000000
00000000
00000000
10000000
00000000
00000000
00000000
,
01000000
00000000
00000000
00010000
00000000
00000000
00001000
00000000
00000010
00000000
00000000
00000000
00000001
00000000
00000000
00000000
,
00000100
00000000
00000000
00001000
00000000
00000000
00010000
00000000
00100000
00000000
00000000
00000000
20000000
00000000
30020000
00000000
,
10030000
00000000
00000000
01000000
00000000
00000000
00100000
00000000
00010000
00000000
00000000
00000000
00001000
00000000
00000000
00000000
,
00000010
00000000
00000000
00000100
00000000
00000000
00000001
00000000
00001000
00000000
00000000
00000000
00000001
00000000
00000000
00000000
,
00000010
00000000
00000000
00000100
00000000
00000000
00001000
00000000
00010000
00000000
00000000
00000000
00100000
00000000
00000000
00000000
,
00010000
00000000
10000000
00100000
00010000
00000000
00001000
00000000
,
00010000
00000100
00001000
00000100
00010000
00001000
00000100
00000000
,
00000001
00000010
00000100
00001000
00000001
00000000
00000100
00000000
,
00001000
00100000
00010000
00100000
00001000
00010000
00100000
00000000
,
10000000
01000000
00100000
00010000
10000000
00100000
00020000
00032000
,
00013000
00000010
00001000
00000010
00010000
00001000
00000010
00000000
,
00000001
00000100
00000010
00001000
00000001
00000000
00000010
00000000
,
00001000
00100000
00010000
00100000
00001000
00010000
00100000
00000000
,
10010000
00000000
00000000
00000000
,
00010100
00000000
00000000
00000000
;

//---------------dance-double - t7r----------------
#NOTES:
     dance-double:
     t7r:
     Hard:
     15:
     :
00000000
00000000
00000000
00000000
,
00000000
00000000
00000000
00000000
,
00000000
00000000
00000000
00000000
,
00000000
00000000
00000000
00000000
,
00000000
00000000
00000000
00000000
,
10000000
01000000
00000000
00000000
00000000
00000000
00100000
00000000
00000000
00000000
00000000
00000000
00000000
00000000
00000000
00000000
,
00000000
00000000
00001000
00010000
00001000
00010000
00000000
00000000
00000000
00000000
00000000
00000000
00000000
00000000
00000000
00000000
,
00000000
00000000
00000100
00001000
00000100
00001000
00000000
00000000
00000001
00000000
00000000
00000001
00000000
00000000
00000100
00000000
,
00002000
00000000
00000000
00003000
,
00010000
00000000
00010000
00002000
00010000
00000000
01003000
00000000
,
00010000
00000000
10000000
01000000
00000000
10000000
00010000
00000000
10000000
00000000
01000000
00000000
00010000
00000000
00000000
00000000
,
00001000
00000000
00010000
00000100
00000000
00010000
00001000
00000000
00000100
00000000
00000001
00000000
00001000
00000000
00000000
00000000
,
00000001
00000000
00000010
00000100
00000000
00001000
00000001
00000000
00000100
00000000
00001000
00000000
00010000
00000000
00000000
00000000
,
00001000
00000000
01000000
00000000
00010000
00000000
10000000
00000000
00100000
00000000
00000000
00010000
00000000
00000000
00001000
00000000
,
00010000
00000000
00000100
00000000
00001000
00000000
00000001
00000000
00000010
00000000
00000000
00001000
00000000
00000000
00010000
00000000
,
00001000
00000000
00000010
00000000
00000001
00000000
00000100
00000000
00001000
00000000
00000000
00000000
00010000
00000000
00100000
01000000
,
00200000
00000000
20300000
00000000
,
30010000
00100000
00000000
00010000
00100000
00000000
00001000
00010000
,
00000000
00001000
00010000
00000000
00001000
00000100
00000001
00000001
,
00001000
00000010
00000000
00001000
00000010
00000000
00010000
00001000
,
00000000
00010000
00001000
00000000
00010000
01000000
10000000
00000000
,
00100000
00010000
00100000
10000000
00010000
00000000
10000000
01000000
,
00010000
00001000
00010000
00000000
00001000
00000100
00000001
00000000
,
00000010
00001000
00000010
00000001
00001000
00000000
00000001
00000100
,
00001000
00010000
00001000
00000000
01000000
00010000
10010000
00000000
,
10000000
10000000
01000000
00100000
00010000
00000000
00001000
00001000
,
00000010
00000100
00000001
00000000
00000010
00000010
00001000
00010000
,
00001000
00001000
01000000
00010000
10000000
00000000
00100000
00100000
,
00010000
00001000
00000100
00000000
00000001
00000010
00000110
00000000
,
00000001
00000100
00000001
00000000
00000000
00000000
00001000
00000100
00001000
00000000
00000000
00000000
00000100
00001000
00000100
00000000
,
00000000
00000000
00010000
00001000
00010000
00000000
00000000
00000000
00001000
00000000
00010000
00000000
01000000
00000000
10000000
00000000
,
00100000
10000000
00100000
00000000
00000000
00000000
01000000
00010000
01000000
00000000
00000000
00000000
00010000
00100000
00010000
00000000
,
00000000
00000000
00100000
00001000
00100000
00000000
00000000
00000000
00001000
00000000
00010000
00000000
00011000
00000000
00000000
00000000
,
00001000
00000100
00000010
00000100
00000001
00000010
00000100
00001000
,
00010000
00100000
00010000
10000000
00100000
00010000
00001000
00000000
,
00021000
00000000
01000000
00000000
00032000
00000000
00003100
00000020
,
00000001
00000001
00000100
00000000
00001030
00000001
00000010
00001000
,
00011000
00010000
01000000
00100000
01000000
10000000
00100000
00010000
,
00001000
01000000
00010000
10000000
01000000
00010000
00001000
00000100
,
00000002
00000000
00000010
00000000
00001000
00001000
00000000
00000100
,
00000000
00000100
00000000
00001000
00001003
00000000
00010000
00000000
,
20000000
00000000
01000000
00000000
00010000
00010000
00000000
00100000
,
00000000
00010000
00000000
01000000
31000000
00010000
00001000
00000000
,
00011000
00000000
00010000
00000100
00001000
00000000
00001100
00000100
,
00001000
00000001
00000100
00000000
00000001
00000010
00001000
00000000
,
00011000
00001000
01000000
00010000
10000000
00000000
10100000
00100000
,
01000000
00010000
10000000
00000000
01000000
00010000
00001000
00000000
,
00011000
00010000
00000010
00001000
00000001
00000000
00000011
00000001
,
00000100
00000010
00001000
00000000
00001100
00000100
00010000
00000000
,
00001000
00010000
00100000
10000000
00010000
00100000
01000000
00010000
,
00001000
00000200
00000010
00000301
00001001
00001000
00000100
00000000
,
00011000
00000000
00001000
00100000
00010000
00000000
00110000
00100000
,
00010000
10000000
00100000
00000000
10000000
01000000
00010000
00000000
,
00011000
00010000
00000010
00001000
00000001
00000000
00000101
00000100
,
00000010
00001000
00000001
00000000
00000010
00001000
00010000
00000000
,
00011000
00001000
01000000
00010000
10000000
00000000
11000000
10000000
,
00100000
00000000
01000000
00000000
00010000
00000000
00000000
00000000
00110000
00000000
00000000
00000000
00001000
00010000
00001000
00010000
,
00001000
00000100
00000001
00000010
00000000
00002000
01000000
00000000
,
00013000
01000000
10000000
00100000
00000000
00020000
00000100
00000000
,
00031000
00011000
00000000
00010000
00010100
00000000
00001000
00011000
,
00000000
00001000
01001000
00000000
01000000
00010000
10010000
00000000
,
10000000
00000000
01000000
10000000
01000000
00000000
10000000
00000000
00010000
00000000
01000000
00010000
01000000
00000000
00001000
00000000
,
00010000
00000000
00001000
00010000
00001000
00000000
00010000
00000000
00000100
00000000
00001000
00000000
00000001
00000000
00000000
00000000
,
00000100
00000000
00001000
00010000
00000000
00000100
00001000
00000000
00000001
00000010
00000000
00000010
00000001
00000000
00001000
00000000
,
00000100
00000000
00010000
00001000
00000000
00010000
01000000
00000000
10000000
00100000
00000000
00100000
10000000
00000000
00010000
00000000
,
10000000
00000000
00100000
00010000
00000000
00001000
00010000
00000000
00001000
01000000
00000000
01000000
00010000
00000000
10000000
00000000
,
01000000
00010000
00001000
00000010
00000001
00000100
00002000
00023000
,
00031000
00000000
01000000
00010000
00000000
10000000
01000000
00000000
00100000
00010000
00000000
00010000
10000000
00000000
00100000
00000000
,
00010000
00000000
00001000
00010000
00000000
00001000
00000010
00000000
00000100
00001000
00000000
00001000
00000001
00000000
00000100
00000000
,
00001000
00000000
00010000
00001000
00000000
00010000
00100000
00000000
01000000
00010000
00000000
00010000
10000000
00000000
01000000
00000000
,
00010000
00000000
00001000
00010000
00001000
00000000
00010000
00000000
00000010
00000000
00000100
00000001
00000100
00000000
00000001
00000000
,
00001000
00000000
00000100
00001000
00000000
00000001
00001000
00000000
00000001
00000100
00000000
00000100
00001000
00000000
00010000
00000000
,
00001000
00000000
01000000
00010000
00000000
10000000
00010000
00000000
10000000
01000000
00000000
01000000
00010000
00000000
00001000
00000000
,
00010000
00000000
00001000
00000010
00000000
00000001
00001000
00000000
00000001
00000010
00000000
00000010
00001000
00000000
00010000
00000000
,
00001000
00000000
00010000
00100000
00000000
10000000
00010000
00000000
10000000
00100000
00000000
00100000
00020000
00000000
00032000
00000000
,
00013000
00000000
00001000
00000100
00000000
00000010
00001000
00000000
00000001
00000010
00000000
00000010
00000100
00000000
00010000
00000000
,
00001000
00000000
00010000
01000000
00000000
00100000
00010000
00000000
10000000
00100000
00000000
00100000
01000000
00000000
00001000
00000000
,
00010000
00000000
00000100
00001000
00000100
00001000
00000100
00000000
00010000
00000000
00001000
01000000
00001000
01000000
00001000
00000000
,
00011000
00000000
00000000
00000000
,
00000110
00000000
00000000
00000000
;

//---------------dance-double - t7r----------------
#NOTES:
     dance-double:
     t7r:
     Challenge:
     18:
     :
00000000
00000000
00000000
00000000
,
00000000
00000000
00000000
00000000
,
00000000
00000000
00000000
00000000
,
00000000
00000000
00000000
00000000
,
00000000
00000000
00000000
00000000
,
00010000
00000100
00000000
00000000
00000000
00000000
00001100
00000000
00000000
00000000
00001000
00000000
00000001
00000000
00000100
00000000
,
00001000
00000000
00010000
00001000
00010000
00001000
00000000
00000000
01000000
00000000
00010000
10000000
00100000
00000000
10000000
00000000
,
01000000
00000000
00010000
00001000
00010000
00001000
00000000
00000000
00010000
00000000
00000000
00000100
00000000
00000000
00001100
00000000
,
00001001
00000001
00000100
00001000
00010000
00100000
10000000
01000000
,
00020000
00000000
01000000
00032000
00010000
00000000
01003000
00000000
,
00010000
00000000
10000000
01000000
00000000
10000000
00010000
00000000
10000000
00000000
00100000
01000000
00010000
00000000
00100000
00000000
,
00001000
00000000
00010000
00000100
00000000
00001000
00000001
00000000
00000100
00000000
00001000
00010000
00001000
00000000
00000000
00000000
,
00010000
00000000
00000010
00001000
00000000
00000001
00001000
00000000
00000001
00000000
00000010
00000100
00001000
00000000
00000001
00000000
,
00000100
00000000
00001000
00010000
00001000
00000000
00010000
00100000
10000000
00000000
00000000
10010000
00000000
00000000
11000000
00000000
,
01000000
00000000
00010000
00001000
00010000
00000000
00001000
00000010
00000001
00000000
00000000
00001001
00000000
00000000
00000101
00000000
,
00000001
00001000
00000100
00001000
00000001
00000000
00000100
00001000
00010000
00001000
01000000
00000000
00010000
10000000
01000000
00100000
,
00020000
00000000
20030000
00000000
,
31000000
00010000
00001000
00000010
00000001
00000000
00000100
00001000
,
00010000
00100000
10000000
00000000
01000000
00100000
00010000
00001000
,
00100000
00010000
00001000
00000100
00000001
00000000
00000010
00001000
,
00010000
01000000
10000000
00000000
00100000
01000000
00001000
00000000
,
00011000
00010000
00000100
00001000
00001001
00000000
00000101
00000001
,
00001000
00000100
00010100
00000000
00011000
00001000
01001000
00000000
,
01010000
00010000
10000000
01000000
01010000
00000000
00011000
00001000
,
00000100
00000001
00001001
00000000
00001000
00000100
00010100
00000000
,
00011000
00011000
00010000
01000000
01010000
00000000
01100000
01100000
,
01000000
10000000
10010000
00000000
10000000
00100000
00010000
00001000
,
00011000
00011000
00001000
00000100
00001100
00000000
00000110
00000110
,
00000100
00000001
00001001
00000000
00000001
00000010
00000110
00000000
,
00001000
00000001
00000100
00000000
00000000
00000000
00000001
00001000
00000100
00000000
00000000
00000000
00010000
00001000
00010000
00000000
,
00000000
00000000
00001000
00010000
00001000
00000000
00000000
00000000
01000000
00010000
10000000
00000000
01000000
00100000
00010000
00000000
,
10000000
00100000
00010000
00000000
00000000
00000000
00001000
00010000
00001000
00000000
00000000
00000000
00010000
00001000
00000010
00000000
,
00000000
00000000
00000001
00001000
00000001
00000000
00000000
00000000
00000100
00000000
00001000
00000000
00010000
00001000
00010000
00000000
,
00011000
00010000
00100000
01000000
00002000
00023000
00130000
01000000
,
00010000
00100000
10000000
00020000
02030000
13000000
00100000
00010000
,
00002000
00000000
00010000
00010000
00003100
00000000
00000001
00000010
,
00001000
00010000
01000000
10000000
00100000
00010000
00001000
00010000
,
00011000
00001000
00000010
00000100
00020000
00032000
00003010
00000100
,
00001000
00000010
00000001
00002000
00003200
00000301
00000010
00001000
,
00021000
00000000
00100000
00000000
00001000
00001000
00000000
00000010
,
00000000
00001000
00000000
00000100
00030100
00010000
00011000
00001000
,
00012000
00000000
00000100
00000000
00010000
00010000
00000000
01000000
,
00000000
00010000
00000000
00100000
00103000
00001000
00010000
01000000
,
12000000
00000000
03010000
01000000
01100000
00000000
01010000
00010000
,
00001000
00000000
00000000
00000000
01000000
00000000
00000000
00000000
02010000
00000000
00000000
00000000
00000000
00000000
00000000
00000000
03001000
00010000
00000000
00000000
00001000
00000000
00000000
00000000
00011000
00000000
00000000
00000000
00000000
00000000
00000000
00000000
,
00001000
00000100
00000010
00000100
00000101
00000000
00001100
00001000
,
00010000
00000000
00000000
00000000
00000100
00000000
00000000
00000000
00020100
00000000
00000000
00000000
00000000
00000000
00000000
00000000
00031000
00010000
00000000
00000000
00001000
00000000
00000000
00000000
01001000
00000000
00000000
00000000
00000000
00000000
00000000
00000000
,
01100000
01000000
10000000
01000000
01010000
00000000
10010000
10000000
,
01000000
00000000
00000000
00000000
00010000
00000000
00000000
00000000
00021000
00000000
00000000
00000000
00000000
00000000
00000000
00030000
00001000
00010000
00000000
00000000
00000100
00000000
00000000
00000000
00001100
00000000
00000000
00000000
00000000
00000000
00000000
00000000
,
00002001
00003002
00000203
00002300
00003002
00000023
00002030
00003200
,
00020300
00032000
01000000
00013000
01000000
10000000
11000000
00000000
,
10200000
00000000
00310000
00100000
01100000
00000000
00110000
00010000
,
00001000
00000000
00000000
00000000
00100000
00000000
00000000
00000000
00210000
00000000
00000000
00000000
00000000
00000000
00000000
00000000
00301000
00010000
00000000
00000000
00001000
00000000
00000000
00000000
00011000
00000000
00000000
00000000
00000000
00000000
00000000
00000000
,
00001000
00000010
00000100
00000010
00000011
00000000
00001010
00001000
,
00010000
00000000
00000000
00000000
00000010
00000000
00000000
00000000
00020010
00000000
00000000
00000000
00000000
00000000
00000000
00000000
00031000
00010000
00000000
00000000
00001000
00000000
00000000
00000000
00101000
00000000
00000000
00000000
00000000
00000000
00000000
00000000
,
01100000
00100000
10000000
00100000
00110000
00000000
10010000
10000000
,
00100000
00000000
00000000
00000000
00010000
00000000
00000000
00000000
00021000
00000000
00000000
00000000
00000000
00000000
00000000
00030000
00001000
00010000
00000000
00000000
00000010
00000000
00000000
00000000
00001000
00000000
00000001
00000000
00001000
00000000
00000001
00000000
,
00000100
00001000
00010000
00210000
01000000
20300000
00010000
00000000
,
31000000
00010000
00001000
00001020
00000100
00000032
00001000
00000000
,
00000103
00000110
00000010
00010000
00011000
00000000
01000000
01100000
,
00100000
10000000
10010000
00000000
10000000
01000000
01010000
00000000
,
00010000
00001000
00010000
00001000
00010000
00001000
00010000
00000100
00001000
00000100
00001000
00000100
00001000
00000001
00001000
00000001
,
00001000
00000001
00000100
00000000
00001000
00010000
00001000
00010000
00001000
01000000
00010000
10000000
01000000
00000000
10000000
00010000
,
10000000
01000000
00100000
01000000
10000000
00000000
01000000
00100000
00010000
00100000
01000000
00000000
00100000
00001000
00010000
00001000
,
00100000
00000000
00001000
00010000
00000010
00010000
00001000
00000000
00010000
00000010
00001000
00000001
00000010
00000100
00001000
00000001
,
00001000
00000001
00000100
00000010
00001000
00000000
00000001
00000010
00000100
00010000
00001000
00000000
00010000
00001000
01000000
00010000
,
10000000
00100000
10000000
00010000
00100000
00010000
00100000
00001000
00010000
00001000
00010000
00000010
00002000
00000000
00003002
00000000
,
00000103
00000010
00001000
00000010
00000100
00000000
00000001
00001000
00000100
00000010
00000100
00000000
00001000
00000100
00010000
00001000
,
00010000
00001000
01000000
00010000
10000000
00000000
00100000
10000000
00010000
10000000
00100000
00000000
10000000
01000000
00100000
00010000
,
10000000
00100000
01000000
00100000
00010000
00000000
00001000
00000100
00000010
00000100
00000001
00000000
00000010
00000100
00010000
00000100
,
00010000
00001000
00010000
00001000
00010000
00001000
00010000
00001000
01000000
00100000
00010000
00010000
00100000
00001000
00010000
00010000
,
10000000
01000000
00100000
00010000
00100000
01000000
10000000
00010000
10000000
01000000
00100000
00010000
00100000
01000000
10000000
00010000
,
10000000
01000000
00100000
01000000
00010000
00000000
00001000
00000010
00000100
00000010
00000001
00000000
00001000
00000001
00000100
00000010
,
00001000
00000010
00000100
00000001
00000100
00000010
00001000
00000001
00001000
00000010
00000100
00000001
00000100
00000010
00001000
00000001
,
00001000
00000001
00000100
00001000
00010000
00001000
00100000
00010000
10000000
00100000
00010000
00001000
02000000
00000000
03020000
00000000
,
10030000
01000000
00100000
00010000
00001000
00000100
00000010
00000001
00000010
00000100
00001000
00000001
00000100
00000010
00001000
00000000
,
00000001
00000100
00000010
00001000
00010000
01000000
00100000
10000000
00100000
01000000
00010000
10000000
01000000
00100000
00010000
00000000
,
10000000
00100000
00010000
00001000
00000010
00000001
00000100
00001000
00010000
00001000
00010000
00100000
10000000
00010000
00100000
00001000
,
00010000
00000000
00001000
00000100
00000001
00000010
00001000
00000000
00010000
00001000
00010000
01000000
10000000
00100000
00010000
00000000
,
00011000
00000000
00000000
00000000
;
