#TITLE:斑咲花;
#ARTIST:mami,駄々子 by BEMANI Sound Team "Akhuta Works";
#TITLETRANSLIT:Murasakibana;
#ARTISTTRANSLIT:mami,Dadaco by Akhuta Works;
#BANNER:Murasakibana.png;
#BACKGROUND:Murasakibana-bg.png;
#JACKET:Murasakibana-jacket.png;
#CDTITLE:./CDTITLES/NOSTALGIA.PNG;
#MUSIC:Murasakibana.ogg;
#SAMPLESTART:71.045;
#SAMPLELENGTH:15;
#BPMS:0=201,175.5=134,193=201;
#STOPS:175.5=0.37313432835820895522388059701493;

//---------------dance-single - t7r----------------
#NOTES:
     dance-single:
     t7r:
     Beginner:
     5:
     :
0000
0000
0000
0000
,
0000
0000
0000
0000
,
0000
0000
0000
0000
,
0000
0000
0000
0000
,
0000
0000
1000
0000
,
0000
0000
0000
0000
,
0000
0010
0000
0000
,
0000
0100
0000
0000
,
0000
0000
0000
0001
,
0000
0001
0000
0001
,
0000
0000
0000
1000
,
0000
1000
0000
1000
,
0000
0000
0010
0000
,
0010
0000
0010
0000
,
0010
0000
0100
0000
,
0100
0000
0100
0000
,
0000
0000
0001
0001
,
0000
1000
1000
1000
,
0000
0010
0000
0000
,
0000
0000
0000
0000
,
0000
0100
0000
0000
,
0000
0000
0000
0000
,
0000
0001
0000
0000
,
0000
0000
0000
0000
,
0000
0010
0000
0000
,
0000
0000
0000
0100
,
0000
1000
0000
0000
,
0000
0010
0000
0000
,
0000
0100
0000
0000
,
0000
0001
0000
0000
,
0000
1000
0000
1000
,
0000
1000
0000
0000
,
0000
0010
0000
0000
,
0000
0100
0000
0000
,
0000
0001
0000
0001
,
0000
0001
0000
0000
,
0000
0010
0000
0000
,
0000
0100
0000
0000
,
0000
0000
1000
0000
,
1000
1000
0000
1000
,
0000
0000
0001
0000
,
0001
0001
0000
0001
,
0000
0100
0000
0010
,
0000
0100
0000
0000
,
0000
0010
0010
0010
,
0000
1000
1000
1000
,
0000
0001
0001
0001
,
0000
0010
0000
0001
,
0000
1000
0000
0000
,
0000
1000
0000
0000
,
0001
0000
0000
0000
,
0001
0000
0000
0100
,
0000
0000
0000
0100
,
0000
0010
0010
0000
,
0000
0000
1000
0000
,
0000
0000
0001
0000
,
0010
0000
0001
0000
,
0000
0000
1000
0000
,
0010
0000
0100
0000
,
0001
0000
1000
0000
,
0100
0000
0010
0000
,
0001
0001
0001
0000
,
1000
1000
1000
0000
,
0010
0010
0010
0000
,
0100
0000
0100
0000
,
0001
0000
1000
0000
,
0100
0000
1000
1000
,
1000
0000
0001
0000
,
0100
0000
0001
0001
,
0001
0000
1000
0000
,
0010
0000
0100
0000
,
0001
0000
0010
0000
,
0100
0000
1000
0000
,
0000
0000
0001
0000
,
0100
0000
1000
0000
,
0100
0000
0001
0000
,
0010
0000
1000
0000
,
0010
0000
0100
0000
,
1000
0000
0001
0000
,
0100
0000
0010
0000
,
0010
0000
1000
0000
,
0001
0000
1001
0000
,
0000
0000
0000
0000
,
0000
0000
0000
0000
,
1000
0000
1000
1000
,
1000
0000
0000
0010
,
0000
0010
0010
0000
,
0010
0000
0000
0100
,
0000
0100
0100
0000
,
0100
0000
0000
0001
,
0000
0001
0001
0000
,
0001
0000
1000
0000
,
0001
0000
0100
0100
,
0100
0000
0000
0000
;

//---------------dance-single - t7r----------------
#NOTES:
     dance-single:
     t7r:
     Easy:
     10:
     :
0000
0000
0000
0000
,
0000
0000
0000
0000
,
0000
0000
0000
0000
,
0000
0000
0000
0000
,
0000
0000
0000
0000
0010
0000
0000
1000
,
0000
0001
0000
1000
,
0100
0020
0001
0130
,
0000
0000
2000
0000
0010
0000
3001
1000
,
0000
2001
0000
0000
3100
0000
0010
0000
,
0100
0001
0100
0010
,
0000
0002
0000
0000
0103
0000
0010
0000
,
0100
1000
0100
0010
,
0000
2000
0000
0000
3100
0000
0010
0000
,
0001
0100
0010
1000
,
0001
0010
0100
0001
,
0100
0010
0100
1000
,
0020
1030
0100
0001
,
0100
0000
0010
0000
0100
0000
1000
0001
,
0000
0000
1000
0000
0000
2000
0000
0000
,
0001
0000
0100
0000
0000
0100
0000
0000
,
0010
0000
0001
0000
0000
0001
0000
0000
,
3020
0000
0100
0000
,
1030
0000
0001
0000
0000
0002
0000
0000
,
1000
0000
0010
0000
0000
0010
0000
0000
,
0100
0000
1000
0000
0000
1000
0000
0000
,
0103
0020
0000
1030
,
0000
0002
0000
0000
1003
0000
0010
0000
,
0100
0000
0001
0000
0010
0000
0100
1000
,
0000
2001
0000
0000
3001
0000
0010
0000
,
0100
0000
1000
0000
0010
0000
0100
0001
,
0000
0000
1000
0000
0100
0020
0000
0000
,
0031
0000
0001
0200
0000
0000
0010
0000
,
0310
0000
2000
0000
0000
3200
0000
0000
,
0310
0001
0100
1000
,
0100
0000
0001
0000
0010
0200
0000
0000
,
1300
0000
1000
0020
0000
0000
0100
0000
,
0130
0000
0002
0000
0000
0023
0000
0000
,
0130
1000
0010
0110
,
0000
2001
0000
3010
1000
0000
0010
0000
,
0100
0000
0010
0000
0001
0000
0010
0100
,
0000
0002
0000
0013
0100
0000
0010
0000
,
1000
0000
0010
0000
0001
0000
1000
0010
,
0000
1000
0100
1000
0000
0001
0100
0001
,
0000
1000
0010
1000
0001
0000
1000
1000
,
0000
0001
0010
1000
,
0110
1000
0010
0001
,
0110
1000
0100
0001
,
0110
0000
0000
0002
0000
1000
0000
1003
0000
0020
0000
0100
,
0000
0000
0130
0000
0000
0000
0001
0000
0000
0000
0000
0000
0010
0000
0000
0001
0000
0000
0000
0000
0000
0000
0000
0000
,
0011
0000
1000
0001
,
1000
0000
0010
1000
0000
0000
1010
0000
,
0000
0001
1000
0010
,
0100
0001
0000
0000
0101
0000
0000
0000
,
0000
0001
0020
0000
,
0032
0000
0203
0000
,
0320
0000
0000
0000
1030
0001
0001
0000
,
0100
0100
0000
0010
0000
0000
0000
0000
,
0200
0000
0000
0000
0301
0000
0010
0001
,
0010
0001
1000
0001
,
1000
0100
1000
0000
0010
0000
0100
0001
,
0100
0010
1000
0001
,
0010
0001
0010
0000
0001
0000
0000
1000
,
0000
0100
0010
0000
0001
0000
0000
0100
,
0000
0010
1000
0000
0001
0000
0010
0000
,
0100
1000
0010
0000
,
0100
0000
0010
0000
1000
0000
0001
0010
,
0001
0000
1000
0000
0100
0000
0010
0001
,
1000
0000
0001
0000
1000
0000
0001
0100
,
0001
0000
0010
0000
0100
0000
0010
0001
,
1000
0000
0001
0000
0100
0000
0000
0010
,
0000
1000
0001
0000
0010
0000
0000
0001
,
0000
1000
0010
0000
0100
0000
0001
0000
,
0100
0000
1000
0000
0100
0010
0010
0000
,
0100
0110
1000
1100
,
0100
1100
0002
0010
,
1000
0103
0001
0101
,
0100
0101
2000
0010
,
0001
0000
3100
0000
1000
0100
0010
0000
,
0001
0000
0001
0000
0100
0010
1000
0000
,
0001
0001
0020
0130
,
2000
0000
3001
0000
0100
0010
0010
0000
,
1000
0100
0010
0000
2002
0000
0000
0000
,
0000
0000
0000
3003
,
0010
0100
0000
0102
0000
0013
1000
0000
,
0010
0000
0100
0000
0010
0000
0001
1000
,
0000
1001
0000
2100
0000
3010
0100
0000
,
0010
0000
0001
0000
0010
0100
0010
0000
,
1000
0001
0000
2001
0000
3100
0010
0000
,
0100
0000
0001
0000
0100
0000
1000
0010
,
0000
0100
0000
0010
0000
0001
0010
0000
,
0100
0010
1000
0101
,
0001
0000
1100
0000
1000
0010
0100
0000
,
0001
0010
0100
0000
1000
0001
0100
0010
,
1000
0001
0000
0000
0000
0000
0000
0000
;

//---------------dance-single - t7r----------------
#NOTES:
     dance-single:
     t7r:
     Medium:
     13:
     :
0000
0000
0000
0000
,
0000
0000
0000
0000
,
0000
0000
0000
0000
,
0000
0000
0000
0000
,
0000
0000
0000
0000
1000
0000
0001
0100
,
0000
0001
0010
0000
0001
1000
0010
0100
,
0001
1000
0200
0000
2300
0000
3010
0100
,
0001
0000
0010
0100
1000
0010
0100
0001
,
0000
2001
0000
3100
0010
0000
0100
0001
,
0100
0000
0010
0000
0001
0100
0000
0110
,
0000
1002
0000
0103
0010
0000
0100
1000
,
0100
0000
0001
0010
0100
1000
0010
0100
,
0000
0102
0000
0013
0100
0000
0010
0001
,
1000
0000
0010
1000
0001
0000
0010
0001
,
1000
0020
0000
0031
0010
0000
0110
0000
,
1001
0000
1000
0100
0010
0001
0100
0010
,
2000
0000
3001
0010
0001
0100
0001
0010
,
0001
1000
0010
0100
0001
1000
0100
0010
,
0000
0000
2001
0000
0000
0010
0000
0000
,
0100
0000
0100
0000
0000
0001
0000
0000
,
0010
0000
0010
0000
0000
0100
0000
0000
,
3001
0100
0010
1000
,
1000
0000
0002
0000
0000
0010
0000
0000
,
0100
0000
0000
0010
0000
0000
1000
0000
,
1003
0000
0001
0000
1000
0020
0000
0000
,
0130
0000
0002
0000
0000
0000
1003
0100
,
0000
1200
0000
0301
0100
0000
0010
0000
,
0100
0000
1000
0000
0100
0000
0010
0100
,
0000
0012
0000
0103
0010
0000
0001
0000
,
0010
0000
1000
0010
1000
0000
0001
1000
,
0000
0000
0001
0000
0010
0200
0000
0000
,
0001
0000
0000
0010
0000
0000
1300
0000
,
0010
0100
0020
0000
0000
0001
0000
0000
,
1030
0000
0001
0010
0001
0000
1000
0000
,
0010
0000
2000
0000
0000
0100
0000
0000
,
0001
0000
0000
0010
0000
0000
0100
0000
,
3100
0010
0002
0000
0000
0100
0000
0000
,
1003
0000
2001
0000
0000
3010
0100
0010
,
1000
0002
0000
0013
0100
0000
0010
1000
,
0010
0000
0001
0000
0100
0010
0000
0100
,
0000
0002
0000
1003
0010
0000
0100
1000
,
0100
0000
0010
0000
0100
0001
1000
0100
,
0000
1000
0010
0001
0000
1000
0100
0001
,
0000
1000
0100
0010
0001
1000
0001
1000
,
0000
0000
0000
0000
0001
0000
0000
0001
0100
0000
0000
0100
0010
0000
0000
0010
,
1000
0000
0000
0000
0001
0000
0000
0000
1000
0000
0000
0000
0100
0000
0000
0000
0000
0000
0000
0000
0000
0100
0000
0000
0010
0000
0000
0000
0000
0000
0000
0000
0000
0010
0000
0000
0001
0000
0000
0000
0100
0000
0000
0000
0001
0000
0000
0000
,
2000
0000
3200
0000
1300
0000
0000
1000
0010
0000
0000
0010
0001
0000
0000
0001
,
0010
0100
0010
2000
0000
0001
0000
3001
0000
0020
0000
0100
,
0000
0000
0130
0000
0000
0000
0010
0000
0000
0001
0000
0000
0100
0000
0000
0010
0000
0000
1000
0000
0000
0100
0000
0000
,
0010
0000
0001
0100
0001
1000
0100
0010
,
0100
1000
0010
0100
0001
0010
0100
0000
,
1000
0010
1000
0001
1000
0100
0010
0001
,
0100
1000
0100
0010
0100
0000
0010
1000
,
0001
0010
1000
0010
0002
0000
0000
0000
,
2003
0000
0000
0000
3020
0000
0000
0130
,
0002
0000
0000
0000
1003
0100
0100
0000
,
0010
0000
0000
0010
0000
0000
0000
0000
0000
2001
0000
0000
0000
0000
0000
0000
3010
0000
0000
0000
0010
0000
0000
0000
,
0200
0000
0000
0000
0301
0000
0010
0001
,
0100
0000
0001
0000
0010
0001
0100
0001
,
1000
0000
0001
0000
1000
0000
0010
1000
,
0100
0000
1000
0000
0010
1000
0100
1000
,
0001
0000
0010
0100
1000
0000
0010
0001
,
0000
0010
1000
0001
0010
0000
1000
0010
,
0000
0001
1000
0010
0100
1000
0100
0000
,
0001
0010
0100
0000
1000
0010
0100
0001
,
0010
0000
0011
0000
1001
0000
0001
0100
,
0010
0000
0001
0010
0100
0010
1000
0100
,
0010
0001
1000
0000
0001
0000
1000
0100
,
0010
0000
1000
0010
0100
0010
0001
1000
,
0010
0100
0001
0000
1010
0000
0001
0100
,
0000
1000
0100
0001
1000
0000
0100
0001
,
0000
0100
1000
0001
0100
0010
1000
0000
,
0100
0010
0001
0000
1000
0010
0010
0000
,
0100
0000
1010
0000
1001
0000
1000
0001
,
0200
0000
0301
1000
0100
1000
0000
0001
,
0010
0100
1000
0010
0200
0000
0301
1000
,
0020
0000
1030
0001
0010
0001
0100
0010
,
0100
0000
1000
0000
0100
0000
0000
0000
0010
0000
0000
1000
0001
0000
0000
0000
,
0010
0000
0000
0001
1000
0000
0000
0000
0001
0000
0000
0100
0010
0000
1000
0000
,
0100
0010
0100
0001
0100
1000
0020
0000
,
0130
0001
0020
0000
0130
1000
0010
0001
,
0010
0100
0010
0000
2001
0000
0000
0000
,
0000
0000
0000
0000
0000
0000
0000
0000
0000
0000
0000
0000
0000
0000
3001
1000
,
0001
0100
0000
2010
0000
3100
0001
0000
,
0100
0010
0100
0000
0010
1000
0010
0100
,
0010
0001
0000
0102
0000
1003
0010
0000
,
0001
0010
0100
0010
1000
0100
0010
0100
,
1000
0001
0000
2001
0000
3010
0100
0010
,
0001
0000
0010
1000
0100
0000
0010
0001
,
0100
0000
0001
0000
1000
0000
0001
0000
1000
0000
0100
0010
0100
0000
1000
0000
,
0001
0100
0001
0000
1000
0000
0010
0000
1000
0000
0001
1000
0001
0000
0100
0000
,
0010
0000
1001
0000
1000
0100
0010
1000
,
0001
0100
0010
0001
1000
0010
0001
0010
,
1000
1001
0000
0000
0000
0000
0000
0000
;

//---------------dance-single - t7r----------------
#NOTES:
     dance-single:
     t7r:
     Hard:
     16:
     :
0000
0000
0000
0000
,
0000
0000
0000
0000
,
0000
0000
0000
0000
,
0000
0000
0000
0000
,
0000
0000
0000
0000
1000
0100
0010
0001
,
0100
0000
0010
0000
1000
0000
0000
0000
0001
0010
0001
0010
0100
1000
0100
1000
,
0010
0000
0100
0000
0002
0000
0000
0000
0010
0000
0000
1003
0100
0000
0010
0000
,
0001
0000
1000
0000
0010
0100
0010
0100
0001
0100
0001
0100
0010
0000
1010
0000
,
0000
2001
0000
3100
0010
0100
0001
0100
,
0010
0100
0001
0100
1000
0010
0100
0110
,
0000
1002
0000
0103
0010
0100
1000
0100
,
0010
0000
0100
0000
0001
0010
0001
0010
0100
1000
0100
1000
0010
0000
0110
0000
,
0000
0201
0000
0310
0001
0010
0100
0010
,
1000
0010
0100
0010
0001
0010
1000
0100
,
0001
0200
0000
0310
1000
0010
0001
0000
,
1001
0000
0000
0000
1000
0010
1000
0010
0100
0010
0100
0010
0100
0000
0001
0000
,
0011
0000
0001
0100
0010
0100
0001
0010
,
0100
0000
0010
0000
0001
1000
0010
0100
0001
0000
1000
0100
0010
0000
0110
0000
,
0000
0000
0010
0001
1000
0020
0000
0000
,
1000
0000
0100
0000
0000
0100
0000
0000
,
1030
0000
0001
0010
0100
2000
0000
0000
,
0001
0000
0100
0000
0010
0000
3001
1000
,
0001
0000
1000
0010
0100
0002
0000
0000
,
0010
0000
0000
0100
0000
0000
1000
0000
,
1003
0000
0001
1000
0010
0200
0000
0000
,
0001
0000
0000
0000
0320
0000
0000
0000
0000
0000
0000
0000
1030
0010
0100
0001
,
1000
0000
2001
0000
0000
0000
3100
1000
0001
0000
0100
0000
0010
0000
0100
0000
,
1000
0000
0100
0001
1000
0000
0100
0000
0010
0000
0100
0000
1000
0100
1000
0100
,
0010
0000
0012
0000
0000
0000
1003
0001
0010
0000
0001
0000
0100
0000
0010
1000
,
0001
0000
1000
0010
0100
0010
0100
0010
1000
0000
0010
0100
0001
0000
1002
0000
,
0000
0000
0013
0001
0010
0200
0000
0000
,
0301
0000
0100
0020
0000
0000
0001
0000
,
0130
0100
1000
0010
0100
0002
0000
0000
,
0023
0000
0031
1000
0010
1000
0001
0100
,
0020
0000
1030
0100
0010
0200
0000
0000
,
1300
0000
0010
0200
0000
1000
0000
0000
,
1300
0100
0200
0000
0000
0320
0000
0000
,
2030
0000
0000
0000
3002
0000
0000
0000
0000
0000
1003
0001
0010
0001
1000
0100
,
0010
0000
0120
0000
0000
0000
0031
0100
0010
0000
0100
0000
1000
0000
0100
0000
,
0010
0000
0100
0001
1000
0000
0100
0000
0010
0000
0100
0000
1000
0000
0100
1000
,
0001
2001
0000
3001
0010
0100
0010
1000
,
0010
0000
0100
0010
0001
0000
0100
0000
0010
1000
0010
0100
0010
0000
0100
0000
,
0001
1000
0010
1010
0000
0001
0010
0011
,
0000
0000
1000
0000
0100
0000
0010
0001
1000
0000
0010
0000
0100
0000
0110
0000
,
0000
0000
0000
0000
0010
0000
0001
0010
0100
0000
0001
0010
0100
1000
0010
0100
,
0001
0000
0000
0000
0001
0000
0000
0000
0001
0000
0000
0000
0010
0000
0000
0000
0000
0000
1000
0000
0000
0010
0000
0000
0100
0000
0000
0000
0000
0000
1000
0000
0000
0010
0000
0000
0100
0000
0000
0000
0100
0000
0000
0000
0100
0000
0000
0000
,
0020
0000
2030
0000
3100
0000
0001
0100
0010
0000
0001
0100
0010
1000
0001
1000
,
0010
0010
0010
0200
0000
0010
0000
0310
1000
0100
0000
0001
,
0100
0000
0000
0000
1000
0000
0000
0000
0010
0000
0000
0000
1000
0000
0000
0000
0000
0000
0001
0000
0000
0100
0000
0000
0001
0000
0000
0000
0000
0000
1000
0000
0000
0001
0000
0000
1000
0000
0000
0001
0000
0000
1000
0000
0000
0000
0000
0000
,
0001
0000
1000
0000
0001
0100
0010
1000
0001
0000
0100
0000
1000
0000
0100
0000
,
0001
0000
0010
0001
0010
0000
0001
1000
0001
1000
0001
0000
0100
0000
1000
0100
,
0010
0000
0100
0000
0001
0000
0010
0000
1000
0000
0010
0000
0001
0000
1000
0010
,
1000
0000
0001
0010
0001
0010
0001
0000
1000
0000
0100
0000
1000
0010
0100
0001
,
0010
0001
0010
0001
1000
0000
0001
1000
0020
0000
0000
0000
0000
0000
0000
0000
,
0230
0000
0000
0000
0000
0000
0000
0000
0302
0000
0000
0000
0000
0000
1003
0100
,
0010
0100
1000
0001
0020
0000
0000
0000
0031
0000
1000
0000
1001
0000
0001
0100
,
0010
0000
0000
0000
0000
0000
1010
0000
0000
0000
0000
0000
1000
0000
0000
0100
0000
0000
0020
0000
0000
0000
0000
0000
0000
0000
0000
0000
0000
0000
0000
0000
0100
0000
0000
0000
0000
0000
0000
0000
0130
0000
0000
0000
0000
0000
0000
0000
,
2000
0000
0000
0000
3010
0000
1000
0010
,
0100
0000
1000
0000
0100
0000
0000
0010
0100
0000
0001
0000
1000
0000
0100
0000
,
0010
0000
0001
0000
1000
0000
0000
0001
0010
0000
0100
0000
0001
0000
0100
0000
,
0010
0000
0001
0000
1000
0000
0000
0010
0100
0000
0001
0000
0100
0000
1000
0000
,
0100
0010
1000
0001
0101
0000
0100
1000
,
0001
0010
1000
0100
1100
0000
0100
0001
,
1000
0000
0010
0000
0001
0000
0100
0000
0001
0000
1000
0000
0100
0000
1000
0001
,
0010
0000
0001
0000
1000
0000
0010
0100
0001
0000
0010
0000
0100
0000
1000
0000
,
0010
0100
0010
0100
0001
1000
0100
0000
1000
0000
0000
0000
0001
0000
0100
0000
,
0010
0000
0001
0000
0010
0000
0000
0100
0010
0000
1000
0000
0001
0000
0010
0000
,
0100
0000
1000
0000
0001
0000
0000
1000
0100
0000
0010
0000
1000
0000
0010
0000
,
0100
0000
1000
0000
0001
0000
0000
0100
0010
0000
1000
0000
0010
0000
0001
0000
,
0010
0100
0001
1000
1010
0000
0010
0001
,
1000
0100
0001
0010
0011
0000
0010
1000
,
0001
0100
1000
0010
1000
0001
0010
0001
,
0100
0010
1010
0000
1000
0001
1001
0000
,
0001
0010
0100
1000
0010
0000
0000
0000
0100
0000
0000
0001
0100
0000
1000
0000
,
0100
0000
0000
0010
0100
0000
0001
0000
0100
0000
0101
0000
0000
0000
0001
0010
,
0001
0000
1000
0000
0100
1000
0001
0000
0010
0000
0000
0001
0010
0000
0100
0000
,
0010
0000
0000
1000
0010
0000
0100
0000
0010
0000
0001
0000
0100
0010
0100
0010
,
1000
0000
0100
0000
0010
0000
0001
0000
1001
0000
0000
1000
0100
0000
1000
0000
,
0010
0000
0000
0100
0010
0000
0001
0000
0010
0000
0000
0100
0010
0000
1000
0100
,
1000
0000
0010
0100
0001
0000
0010
0100
1000
0000
0001
0100
0001
0000
1000
0010
,
1000
0000
0001
0010
0001
0000
1000
0000
0100
0000
1100
0000
1000
0010
0100
0001
,
0010
0100
0011
0000
2001
0000
0000
0000
,
0000
0000
0000
0000
0000
0000
0000
0000
0000
0000
0000
0000
0000
0000
3001
1000
,
0010
0000
1010
0000
0000
0000
0120
0000
0000
0000
1030
0001
0100
0000
1000
0000
,
0100
0000
0010
0000
0100
0000
0001
0000
0010
0100
0010
0100
1000
0000
0001
0000
,
0010
0011
0000
2001
0000
3100
0010
0100
,
0001
0000
0100
0000
0010
0000
0001
0100
0010
0100
0010
0100
0001
0000
0010
0100
,
1000
0001
1000
0001
1000
0001
2000
0000
0000
0000
3001
0100
0010
0000
1000
0000
,
0100
0001
0100
0010
0100
1000
0010
1010
,
0000
0000
1001
0000
0001
0000
0100
0000
0001
0000
1000
0010
0100
0000
0010
0000
,
1000
0000
0001
1000
0010
0000
1000
0001
1000
0010
1000
0010
0100
0010
0100
0010
,
1000
0000
0100
0010
0001
0000
0000
0000
1000
0000
0010
0000
0100
0000
1000
0000
,
0001
0000
0010
0000
1000
0100
1000
0100
1000
0000
0001
1000
0010
0000
1000
0001
,
0010
0110
0000
0000
0000
0000
0000
0000
;

//---------------dance-single - t7r----------------
#NOTES:
     dance-single:
     t7r:
     Challenge:
     18:
     :
0000
0000
0000
0000
,
0000
0000
0000
0000
,
0000
0000
0000
0000
,
0000
0000
0000
0000
,
0000
0000
0000
0000
0010
1000
0100
0001
,
0100
0000
1000
0000
0010
0000
0100
0000
0001
0010
0100
1000
0001
0010
0100
1000
,
0001
0100
0010
1000
0200
0000
1000
0001
0000
0000
0001
1000
0000
0000
1000
0001
,
0300
0000
0010
0100
0001
0010
0001
0010
0001
1000
0001
1000
0010
0000
0110
0000
,
0000
0102
0000
0103
1010
0000
1100
0100
,
0110
0000
1100
0100
0110
0100
1000
1010
,
0000
0000
2100
0000
0000
0000
3100
0000
0011
0000
0000
0000
0001
1000
0010
0100
,
0001
0000
1000
0000
0001
0010
0001
0010
0100
1000
0010
1000
0001
0000
1001
0000
,
0000
1020
0000
0130
0110
0000
1010
0100
,
0011
0000
0000
0000
1000
0000
0100
0010
0001
0000
0100
0010
1000
0000
0001
0000
,
0010
1020
0000
0130
0011
0001
0101
0100
,
0110
0000
0010
1000
0100
0010
0100
0010
0001
1000
0001
1000
0010
0100
0001
1000
,
0020
0000
1030
0100
0101
0100
1000
1010
,
0010
0100
0010
0100
0001
0010
0100
1000
0010
0100
0001
1000
0100
0000
0110
0000
,
0000
0000
1000
0100
0010
0002
0000
0103
,
0010
0100
1000
0100
0010
0002
0000
0013
,
0100
0010
1000
0100
0010
0002
0000
0013
,
0100
0000
0010
0000
1000
0000
0010
0000
0100
0000
0010
0000
0001
1000
0001
1000
,
0010
1000
0001
0010
0100
0020
0000
1030
,
0010
0100
0010
0002
0000
0103
0020
0000
,
2030
0000
3001
0100
0010
0200
0000
1300
,
0100
0000
0000
0000
0001
0000
0000
0000
1000
0020
0000
0000
0000
0000
0000
0000
0000
0000
0000
0000
0000
0000
0000
0000
1030
0000
0100
0000
0010
0000
0001
0000
,
0100
0010
2000
0000
0000
0000
3100
0001
0100
0000
0010
0100
0010
0000
0100
1000
,
0100
0000
0010
0100
0010
0000
0001
0000
0100
0000
1000
0100
0010
0100
0001
0000
,
1000
0000
1002
0000
0000
0000
0103
1000
0100
0000
0010
0000
0110
0000
0010
0000
,
1010
0000
1000
0001
0010
0100
0010
0100
1000
0010
0100
0001
1000
0000
2100
0000
,
0000
0000
3001
0010
0100
2000
0000
3010
,
0100
0010
0001
0010
0100
2000
0000
3100
,
0010
0100
0001
0010
0100
2000
0000
3100
,
0010
0000
0100
0000
0001
0000
0100
0000
0010
0000
0100
0000
1000
0000
0010
0100
,
0002
0000
1003
0100
0010
0200
0000
0301
,
0100
0000
0010
0000
0100
0000
1000
0000
0001
1000
0010
0100
0001
1000
0100
0010
,
0001
0100
0120
0000
0031
0010
2000
0000
,
3100
0000
0000
0000
0020
0000
0000
0000
0000
0000
0130
1000
0001
0010
0100
1000
,
0010
0100
0002
0000
0000
0000
0103
1000
0100
0000
0010
0100
0010
0000
0100
0001
,
0100
0000
0010
0100
0010
0000
1000
0000
0100
0000
0001
0100
0010
0100
1000
0000
,
0001
0000
2001
0000
0000
0000
3100
0001
0100
0000
0010
0000
0110
0000
0010
0000
,
0011
0000
0001
1000
0010
0000
0100
0000
0010
1000
0100
0010
0001
0100
0010
1000
,
0001
0010
0001
1100
0000
0010
1000
0101
,
0000
0010
1001
0010
1100
0010
1001
0102
,
0000
0000
0000
0000
1003
0100
0010
0001
1000
0010
0100
0001
1000
0001
0100
0010
,
1000
0000
0000
0000
0100
0000
0000
0000
0100
0000
0000
0000
0001
0000
0000
0010
0000
0000
0100
0000
0000
1000
0000
0000
0001
0000
0000
0100
0000
0000
0010
0000
0000
1000
0000
0000
0001
0000
0000
0000
0010
0000
0000
0000
0010
0000
0000
0000
,
1000
0000
0110
0000
0001
0010
0100
1000
0010
0100
0001
1000
0100
0010
0001
1000
,
0010
0010
0010
2001
0000
3200
0000
0310
0001
1002
0000
0103
,
0010
0000
0000
0000
1000
0000
0000
0000
0001
0000
0000
0000
1000
0000
0000
0000
0000
0000
0100
0000
0000
1000
0000
0000
0010
0000
0000
0000
0000
0000
0100
0000
0000
0001
0000
0000
0010
0000
0000
0000
0000
0000
0001
0000
0000
0000
0000
0000
,
1001
0000
0001
1000
0001
0010
0100
0000
1000
0000
0010
0000
0010
0000
0001
0000
,
1000
0000
0010
1000
0100
0000
0010
0001
0100
0000
0001
0000
1001
0000
0001
1000
,
0001
0100
0010
0000
1000
0000
0100
0000
0100
0000
0001
0000
0100
0000
1000
0100
,
0010
0000
0100
0000
0001
0010
0100
0000
0001
0000
0100
0000
1000
0010
0100
0001
,
1000
0100
0010
0100
0010
0001
1000
0001
2000
0000
0010
0000
0001
0000
0000
0000
,
3002
0000
0010
0000
1000
0000
0000
0000
2003
0000
0100
0000
0010
0000
3100
1000
,
0010
0000
0100
0010
2000
0000
0000
0000
3001
1000
0100
0000
0102
0000
0103
1000
,
0010
0000
0000
0000
0000
0000
0001
0000
0000
0000
0000
0000
0010
0000
0000
0100
0000
0000
0002
0000
0000
0000
0000
0000
0000
0000
0000
0000
0000
0000
0000
0000
0013
0000
0000
0000
0000
0000
0000
0000
0010
0000
0000
0000
0000
0000
0000
0000
,
2010
0000
0000
0000
0000
0000
0000
0000
3010
0000
0100
0001
1000
0000
0001
0000
,
0010
0000
0001
1000
0001
0000
0100
0001
1000
0000
0001
0000
0010
0000
0001
0100
,
0010
0000
1000
0100
0010
0000
0001
1000
0001
0000
0010
0000
0001
0000
0100
0010
,
1000
0000
0100
0000
0010
0000
0001
0100
0010
0000
0100
0000
0001
0000
1000
0100
,
0010
0001
0000
0001
0100
0001
0000
0001
1000
0000
0100
0000
0010
0000
0100
1000
,
0100
0010
0000
0010
0001
1000
0000
1000
0010
0000
0100
0000
0001
0000
0010
0100
,
1000
0010
0000
0010
0100
0001
0000
0001
0010
0000
0100
0001
0100
0000
0010
0000
,
0100
0000
1000
0010
1000
0000
0010
0000
0100
0000
0010
0001
0010
0000
0110
0000
,
0001
0000
0100
0000
0010
1000
0001
1000
0100
0000
0010
0001
1000
0000
0001
0000
,
0100
0000
0001
1000
0001
0000
0010
0001
1000
0000
0001
0000
0100
0000
0001
0010
,
0100
0000
1000
0010
0100
0000
0001
1000
0001
0000
0100
0000
0001
0000
0010
0100
,
1000
0000
0010
0000
0100
0000
0001
0010
0100
0000
0010
0000
0001
0000
1000
0010
,
0100
0001
0000
0001
0010
0001
0000
0001
1000
0000
0010
0000
0100
0000
0010
1000
,
0010
0100
0000
0100
0001
1000
0000
1000
0100
0000
0010
0000
0001
0000
0100
0010
,
1000
0100
0000
0100
0010
0001
0000
0001
0100
0000
0010
0001
0010
0000
0100
0000
,
0010
0000
1000
0100
1000
0000
0100
0000
0001
0000
0100
0000
1100
0000
1000
0000
,
1010
0000
0010
0001
0010
0000
0100
0001
1000
0000
0100
0010
1000
0000
0010
0000
,
0100
0000
1000
0010
0100
0000
1000
0000
0100
0000
0110
0000
0001
0010
0100
1000
,
0001
0000
1010
0000
1000
0100
0010
0001
0010
0000
0001
0100
0010
0000
0001
0000
,
0010
0000
0100
0001
0010
0000
0100
0000
0001
0000
0100
0000
1000
0010
0100
0010
,
0001
0000
0010
0100
0001
0000
0011
0000
1001
0000
0001
0100
1000
0000
0100
0010
,
0100
0000
0010
0000
1000
0000
0001
0010
0001
0000
1000
0100
0010
0000
0100
0001
,
0100
0000
0010
0100
0010
0000
0100
1000
0010
0000
0100
0001
0010
0000
0100
1000
,
0001
0000
0100
0001
1000
0000
0100
0000
0010
0000
1001
0000
0001
0100
0010
1000
,
0100
0010
0110
0000
2001
0000
0000
0000
,
0000
0000
0000
0000
0000
0000
0000
0000
0000
0000
0000
0000
0000
0000
3100
0010
,
0001
0000
1010
0000
0000
0000
2100
0000
0000
0000
3100
0010
0001
0000
0000
0000
,
0101
0100
0110
0000
0101
0100
0110
0100
,
0001
0011
0000
0102
0000
0103
1010
0000
,
1000
0001
0010
0100
1000
0000
0010
0100
0001
0010
0001
0010
0100
0000
1000
0010
,
1000
0001
1000
0001
1000
0001
0020
0000
0000
0000
0130
0010
0001
0000
0000
0000
,
1100
0000
0010
0000
1001
0000
0000
0000
0001
0000
0100
0010
1000
0000
0100
0010
,
0001
0000
1000
0000
0010
0000
0100
0000
0001
0000
0100
0010
1001
0000
1000
0000
,
0100
0010
0001
0000
0100
0000
0010
1000
0101
0000
0010
0001
1100
0000
0010
0100
,
0011
0100
1001
0000
1000
0100
0101
0100
,
1000
0000
1010
0000
0010
0100
0010
0100
0001
0010
0100
1000
0010
0100
0001
1000
,
0100
0110
0000
0000
0000
0000
0000
0000
;

//---------------dance-double - t7r----------------
#NOTES:
     dance-double:
     t7r:
     Easy:
     11:
     :
00000000
00000000
00000000
00000000
,
00000000
00000000
00000000
00000000
,
00000000
00000000
00000000
00000000
,
00000000
00000000
00000000
00000000
,
00000000
00000000
00000000
00000000
10000000
00000000
00000000
01000000
,
00000000
00100000
00000000
00010000
,
00100000
00001000
00010000
00001000
,
00000010
00000001
00000100
00000010
,
00000000
00000200
00000000
00000000
00000301
00000000
00000100
00000000
,
00000010
00000100
00001000
00000100
,
00000000
00000020
00000000
00000000
00001030
00000000
00000100
00000000
,
00010000
00001000
00010000
00100000
,
00000000
20000000
00000000
00000000
30010000
00000000
00100000
00000000
,
01000000
00100000
10000000
00100000
,
00010000
01000000
00001000
00010000
,
00001000
00000100
00000001
00000010
,
00001001
00000001
00000100
00001000
,
00010000
00000000
01000000
00000000
10000000
00000000
00010000
10000000
,
00000000
00000000
00200000
00000000
00000000
01000000
00000000
00000000
,
10000000
10000000
00000000
01300000
,
00000000
00000000
00020000
00000000
00000000
00230000
00000000
00000000
,
20300000
00000000
00000000
30100000
,
01000000
00000000
20000000
00000000
00000000
00100000
00000000
00000000
,
01000000
01000000
00000000
30010000
,
10000000
00000000
00200000
00000000
00000000
00320000
00000000
00000000
,
00032000
00000000
00000000
00003010
,
00000000
00000200
00000000
00000000
00000310
00000000
00001000
00000000
,
00000010
00000000
00000100
00000000
00000010
00000000
00000001
00000100
,
00000000
00000002
00000000
00000000
00000103
00000000
00001000
00000000
,
00010000
00000000
00100000
00000000
01000000
00000000
00010000
10000000
,
00000000
00000000
01000000
00000000
00100000
02000000
00000000
00000000
,
00100000
00000000
00100000
00000000
00000000
10000000
00000000
00000000
,
03100000
00000000
00002000
00000000
00000000
00023000
00000000
00000000
,
00030020
00000000
00000000
00000130
,
00000001
00000000
00000010
00000000
00000100
00000020
00000000
00000000
,
00000100
00000000
00000100
00000000
00000000
00000001
00000000
00000000
,
00000130
00000000
00002000
00000000
00000000
00003200
00000000
00000000
,
00010300
00000000
00002000
00000000
00000000
00000000
00103000
00010000
,
00000000
20010000
00000000
00000000
30100000
00000000
01000000
00000000
,
00100000
00000000
00010000
00000000
00100000
00000000
01000000
00100000
,
00000000
20000000
00000000
00000000
31000000
00000000
00010000
00000000
,
00001000
00000000
00000010
00000000
00000001
00000000
00001000
00000010
,
00000000
00000100
00000001
00000100
00000000
00000001
00001000
00000100
,
00000000
00010000
00001000
00010000
00000000
01000000
00000000
10000000
,
00000000
00100000
01000000
01100000
,
00010000
10000000
01000000
01010000
,
00010000
00001000
00000010
00000110
,
00000010
00000000
00000000
00000002
00000000
00000100
00000000
00000103
00000000
00000010
00000000
00001000
,
00000000
00000000
00000100
00000000
00000000
00000000
00010000
00000000
00000000
00000000
00000000
00000000
00001000
00000000
00000000
00010000
00000000
00000000
00000000
00000000
00000000
00000000
00000000
00000000
,
00110000
00000000
00100000
10000000
,
01000000
00000000
00010000
01000000
00000000
00000000
01010000
00000000
,
00000000
00010000
00001000
00011000
,
00010000
00001000
00000000
00000000
00001100
00000000
00000000
00000000
,
00000100
00000001
00002000
00000000
,
00003002
00000000
00000023
00000000
,
00002030
00000000
00000000
00000000
00013000
00001000
00001000
00000000
,
00010000
01000000
00000000
21000000
00000000
00000000
00000000
00000000
,
30010000
00000000
00000000
00000000
10000000
00000000
00100000
10000000
,
00100000
01000000
00010000
00100000
,
00001000
00000000
00010000
00000000
00001000
00000000
00000010
00000100
,
00000010
00000001
00000100
00000010
,
00001000
00000000
00000001
00000100
00000010
00000000
00000000
00001000
,
00000000
00000100
00010000
00000000
00001000
00000000
00000000
00010000
,
00000000
01000000
10000000
00000000
00100000
00000000
01000000
00000000
,
00010000
00000000
00100000
00000000
00001000
00010000
00001000
00000000
,
00010000
00000000
00001000
00000000
00000010
00000000
00000100
00000010
,
00000100
00001000
00000001
00000010
,
00000100
00000000
00010000
00000000
00001000
00000000
00010000
00100000
,
00010000
00100000
10000000
00100000
,
01000000
00000000
00100000
00000000
10000000
00000000
00000000
00010000
,
00000000
00100000
01000000
00000000
10000000
00000000
00000000
00100000
,
00000000
01000000
00001000
00000000
00010000
00000000
00001000
00000000
,
00000100
00000000
00000001
00000000
00000010
00000100
00000010
00000000
,
00000001
00001000
00000001
00000100
,
00001000
00010000
01000000
01000000
,
10000000
00010000
10000000
00000000
00100000
00000000
00010000
00000000
,
00001000
00100000
00010000
00010000
,
01000000
10010000
10000000
00100000
,
00010000
00001000
00000010
00000010
,
00000001
00000000
00000100
00000000
00000010
00000100
00000001
00000000
,
00000010
00000100
00001000
00000000
00000100
00010000
00001000
00000000
,
00010000
00011000
00200000
00000000
,
00000000
00000000
00000000
00000000
,
01300000
10000000
00000000
20010000
00000000
00000000
30100000
00000000
,
01000000
00000000
00100000
00000000
00010000
00000000
00100000
01000000
,
00000000
00100000
00000000
20000000
00000000
00000000
31000000
00000000
,
00010000
00001000
00000100
00000001
,
00000100
00000010
00000000
00002010
00000000
00000000
00003001
00000000
,
00000010
00000000
00001000
00000000
00000010
00000000
00000100
00010000
,
00000000
00010000
00000000
00001000
00000000
00000000
00010000
00000000
,
00100000
10000000
00010000
01000000
,
00001000
00010000
00001000
00000010
,
00000001
00000000
00000100
00000000
00001000
00010000
00001000
00000000
,
00010000
01000000
00000000
00000000
00000000
00000000
00000000
00000000
;

//---------------dance-double - t7r----------------
#NOTES:
     dance-double:
     t7r:
     Medium:
     13:
     :
00000000
00000000
00000000
00000000
,
00000000
00000000
00000000
00000000
,
00000000
00000000
00000000
00000000
,
00000000
00000000
00000000
00000000
,
00000000
00000000
00000000
00000000
00000010
00000000
00000001
00000100
,
00000000
00000010
00001000
00000000
00000001
00000010
00000100
00000010
,
00000001
00000100
00000020
00000000
00002030
00000000
00003100
00010000
,
00001000
00000000
00010000
00001000
01000000
00010000
10000000
00010000
,
00000000
20010000
00000000
31000000
00100000
00000000
01000000
00010000
,
01000000
00000000
00100000
00000000
00001000
00010000
00001000
00000100
,
00000000
00000120
00000000
00001030
00000010
00000000
00000001
00000010
,
00000100
00000000
00000010
00001000
00000001
00000000
00000010
00000100
,
00000000
00002100
00000000
00003010
00000001
00000000
00000010
00001000
,
00000100
00000000
00010000
00001000
00010000
00100000
01000000
00100000
,
10000000
00020000
00000000
10030000
01000000
00000000
10000000
00000000
,
10100000
00000000
00100000
01000000
00001000
00010000
00001000
00000010
,
00000001
00000000
00000100
00000001
00000100
00001000
00000100
00000010
,
00000100
00000001
00000010
00000100
00010000
00001000
00010000
00010000
,
00000000
00000000
02000000
00000000
00000000
10000000
00000000
00000000
,
00100000
00000000
00100000
00000000
00000000
00010000
00000000
00000000
,
00001000
00000000
00001000
00000000
00000000
00010000
00000000
00000000
,
03100000
01000000
10000000
00100000
,
00010000
00000000
00002000
00000000
00000000
00000100
00000000
00000000
,
00010000
00000000
00000000
00010000
00000000
00000000
01000000
00000000
,
01000000
00000000
00010000
00000000
00000000
00000100
00000000
00000000
,
00013000
00002000
00000000
00013000
,
00000000
00010200
00000000
00001300
00000100
00000000
00000010
00000000
,
00000100
00000000
00000001
00000000
00000100
00000010
00000000
00000001
,
00000100
00000010
00000000
00001000
00000010
00000000
00000001
00000000
,
00000010
00000000
00001000
00000100
00010000
00001000
00010000
00100000
,
00000000
00000000
10000000
00000000
01000000
00200000
00000000
00000000
,
10000000
00000000
00000000
00010000
00000000
00000000
00001000
00000000
,
00301000
00010000
00002000
00000000
00000000
00003200
00000000
00000000
,
00000310
00000000
00001000
00000100
00000010
00000000
00000001
00001000
,
00000010
00000000
00000200
00000000
00000000
00000001
00000000
00000000
,
00000010
00000000
00000000
00010000
00000000
00000000
00001300
00000000
,
00010000
00001000
00020000
00000000
00000000
02030000
00000000
00000000
,
13000000
00000000
00200000
00000000
00000000
01300000
00010000
10000000
,
00010000
00200000
00000000
01300000
00010000
00000000
01000000
00100000
,
01000000
00000000
10000000
00000000
00100000
01000000
00000000
00010000
,
00000000
00200000
00000000
00301000
00010000
00000000
00001000
00000000
,
00000010
00000100
00001000
00000000
00000010
00000100
00000001
00000010
,
00000000
00000001
00000100
00001000
00000000
00010000
01000000
10000000
,
00000000
00100000
01000000
00010000
00100000
00001000
00010000
00000010
,
00000000
00000000
00000100
00001000
00010000
00000000
00011000
00000000
,
00010000
00000000
01000000
00000000
00010000
00000000
01000000
00000000
00000000
10000000
00000000
00000000
00100000
00000000
00000000
00000000
00000000
00000000
01000000
00000000
00010000
00000000
10000000
00000000
,
00010000
10000000
01000000
00010000
00001000
00000000
00011000
00000000
,
00001000
00000100
00001000
00000200
00000000
00000320
00000000
00002030
00000000
00003002
00000000
00000023
,
00000000
00000000
00002030
00000000
00000000
00000000
00013000
00000000
00000000
00000000
00000000
00000000
01000000
00000000
00000000
10000000
00000000
00000000
00000000
00000000
00000000
00100000
00000000
00000000
,
01000000
00000000
00100000
10000000
01000000
00100000
00001000
00010000
,
00001000
00000000
00000100
00000001
00000000
00000010
00000100
00000000
,
00000010
00000001
00000100
00000010
00010000
00001000
00010000
00000000
,
00100000
10000000
00000000
00100000
01000000
00000000
00100000
10000000
,
01000000
00100000
00001000
00010000
00002000
00000000
00000000
00000000
,
00003020
00000000
00000000
00000000
00000032
00000000
00000000
00000103
,
00000001
00000000
00001001
00000000
00000001
00001000
00001000
00000000
,
00010000
00000000
00000000
10000000
00000000
00000000
00000000
00000000
00000000
20010000
00000000
00000000
00000000
00000000
00000000
00000000
30100000
00000000
00000000
00000000
00100000
00000000
00000000
00000000
,
02000000
00000000
00000000
00000000
03100000
00000000
10000000
01000000
,
10000000
00000000
00010000
00000000
10000000
01000000
00100000
00010000
,
00001000
00000000
00000100
00000000
00001000
00000000
00000010
00000100
,
00000001
00000000
00001000
00000000
00000001
00000010
00000100
00001000
,
00010000
00000000
00100000
00010000
01000000
00000000
00010000
00100000
,
00000000
10000000
00100000
00000000
00010000
00000000
00001000
00000010
,
00000000
00000001
00000010
00000000
00000100
00000000
00000010
00001000
,
00000100
00000000
00010000
00000000
00001000
00010000
00100000
01000000
,
00100000
00000000
10000000
00000000
10010000
00000000
10000000
00100000
,
10000000
00000000
00010000
00000000
10000000
00100000
01000000
00010000
,
00001000
00000000
00000010
00000000
00001000
00000000
00000100
00000010
,
00000001
00000000
00001000
00000000
00000001
00000100
00000010
00001000
,
00010000
00000000
01000000
00010000
00100000
00000000
00010000
01000000
,
00000000
10000000
01000000
00000000
00010000
00000000
00001000
00000100
,
00000000
00000001
00000100
00000000
00000010
00000000
00000100
00001000
,
00000010
00000000
00010000
00000000
00001000
00010000
00010000
00000000
,
00022000
00033000
00010000
01000000
,
20000000
00000000
30100000
10000000
00010000
00000000
10000000
01000000
,
00010000
00001000
00010000
00001000
,
00000100
00000000
00000001
00000000
00000010
00000000
00000100
00000010
,
00000001
00001000
00000001
00000000
00000100
00000000
00001000
00010000
,
00001000
00000000
00010000
00000000
01000000
00000000
00010000
00001000
,
00010000
00000000
00001000
00000000
00000010
00000001
00000100
00000000
,
00001000
00010000
00100000
00000000
10000000
01000000
00100000
00000000
,
00001000
00010000
00011000
00000000
00000020
00000000
00000000
00000000
,
00000000
00000000
00000000
00000000
00000000
00000000
00000000
00000000
00000000
00000000
00000000
00000000
00000000
00000000
00000130
00000001
,
00000100
00000001
00000000
00001002
00000000
00000013
00001000
00000000
,
00000010
00000100
00000010
00000000
00000001
00000100
00000001
00001000
,
00000000
00001100
00000000
00021000
00000000
00031000
00010000
00000000
,
01000000
10000000
00100000
00000000
10000000
00100000
01000000
00100000
,
00010000
00100000
00000000
20100000
00000000
31000000
00010000
00000000
,
00001000
00010000
00000100
00000000
00001000
00000010
00000001
00000010
,
00000000
00000100
00000001
00001000
00000000
00000100
00010000
00000000
,
00001000
00010000
01000000
00000000
10000000
00100000
00010000
00001000
,
00010000
00001000
00000200
00000000
00000310
00000100
00001000
00010000
,
00000010
00000100
00001000
00010000
00100000
10000000
01000000
00010000
,
00001000
00011000
00000000
00000000
00000000
00000000
00000000
00000000
;

//---------------dance-double - t7r----------------
#NOTES:
     dance-double:
     t7r:
     Hard:
     16:
     :
00000000
00000000
00000000
00000000
,
00000000
00000000
00000000
00000000
,
00000000
00000000
00000000
00000000
,
00000000
00000000
00000000
00000000
,
00000000
00000000
00000000
00000000
10000000
01000000
00100000
00010000
,
01000000
00000000
00100000
00000000
10000000
00000000
00000000
00000000
00010000
00100000
00010000
00100000
00010000
10000000
00010000
10000000
,
00100000
00000000
01000000
00000000
00020000
00000000
00000000
00000000
02030000
00000000
00000000
03100000
10000000
00000000
01000000
00000000
,
00100000
00000000
00010000
10000000
00010000
00000000
10000000
00100000
10000000
00000000
00100000
00000000
00010000
00000000
00011000
00000000
,
00000000
00020100
00000000
00030100
00001000
00000100
00000010
00000100
,
00000001
00000100
00000010
00000001
00000100
00001000
00000100
00000110
,
00000000
00002010
00000000
00003010
00000001
00000010
00000100
00000010
,
00001000
00000000
00000100
00000000
00010000
00001000
00010000
00001000
00010000
00000000
00100000
00000000
10000000
00000000
10100000
00000000
,
00000000
20010000
00000000
31000000
00100000
01000000
00010000
01000000
,
00100000
01000000
10000000
00100000
00010000
00001000
00000010
00000100
,
00000010
00000002
00000000
00000103
00001000
00000100
00000010
00000000
,
00000110
00000000
00000000
00000000
00000001
00000000
00001000
00000010
00000100
00000000
00000001
00000010
00000100
00000000
00010000
00000000
,
00002000
00000000
00103000
01000000
00010000
00001000
00100000
01000000
,
00010000
00000000
00001000
00000000
00000100
00000010
00000100
00000010
00000100
00000000
00000001
00001000
00000010
00000000
00001010
00000000
,
00000000
00000000
00000001
00000100
00000010
00000200
00000000
00000000
,
00000001
00000000
00000010
00000000
00000000
00000010
00000000
00000000
,
00010300
00000000
00001000
00000010
00000100
00000002
00000000
00000000
,
00000013
00000001
00000100
00001000
,
00010000
00000000
00100000
10000000
01000000
00200000
00000000
00000000
,
01000000
00000000
00000000
00010000
00000000
00000000
00001000
00000000
,
00301000
00000000
00010000
00001000
00000100
00000020
00000000
00000000
,
00000100
00000000
00000000
00000000
00002030
00000000
00000000
00000000
00000000
00000000
00000000
00000000
00003001
00000010
00000001
00000000
,
00000100
00000102
00000000
00000103
00001000
00000100
00000010
00000100
,
00000001
00000000
00000010
00000100
00001000
00000000
00000100
00000000
00010000
00000000
00001000
00000000
01000000
00010000
01000000
00000000
,
00010000
00000000
20010000
00000000
00000000
00000000
31000000
00100000
01000000
00000000
00010000
00000000
01000000
00000000
10000000
00000000
,
00100000
00000000
01000000
00000000
00010000
00000000
00100000
00001000
00100000
00001000
00010000
00000000
00001000
00000000
00021000
00000000
,
00000000
00000000
00031000
00000000
00000100
00000000
00000010
00000100
,
00000010
00000000
00001000
00000200
00000000
00000000
00000310
00000000
,
00000001
00000100
00000200
00000000
00000301
00000010
00000001
00000000
,
00002000
00000000
00003001
00000010
00001000
00010000
00100000
10000000
,
00200000
00000000
01300000
00000000
00010000
10000000
01000000
00000000
,
20000000
00000000
30100000
02000000
00000000
03010000
00100000
01000000
,
10000000
01000000
02000000
00000000
00000000
03020000
00000000
00000000
,
00032000
00000000
00000000
00000000
00003200
00000000
00000000
00000000
00000000
00000000
00000301
00001000
00000010
00000000
00001000
00000001
,
00001000
00000000
00001002
00000000
00000000
00000000
00000013
00000100
00000010
00000000
00001000
00000000
00000010
00000000
00000100
00000000
,
00000010
00000000
00000001
00000000
00000100
00000000
00001000
00000000
00000100
00000000
00000010
00000000
00001000
00000000
00000100
00010000
,
00001000
00012000
00000000
00013000
01000000
10000000
00010000
01000000
,
00100000
00000000
10000000
01000000
00100000
00000000
01000000
00000000
10000000
00100000
01000000
00100000
10000000
00000000
00010000
00000000
,
10000000
01000000
00010000
00011000
00000000
00001000
00010000
00011000
,
00000000
00000000
00001000
00000000
00000100
00000000
00000001
00000010
00000001
00000000
00001000
00000000
00000001
00000000
00001001
00000000
,
00000000
00000000
00000000
00000000
00000001
00000000
00000010
00000100
00001000
00000000
00000010
00000100
00001000
00000000
00010000
00000000
,
00100000
00000000
00000000
00000000
00100000
00000000
00000000
00000000
00100000
00000000
00000000
00000000
10000000
00000000
00000000
00000000
00000000
00000000
00100000
00000000
00000000
01000000
00000000
00000000
00010000
00000000
00000000
00000000
00000000
00000000
00100000
00000000
00000000
01000000
00000000
00000000
00010000
00000000
00000000
00000000
00010000
00000000
00000000
00000000
00010000
00000000
00000000
00000000
,
00001000
00000000
00000010
00000000
00000001
00000000
00000100
00000010
00001000
00000000
00000100
00000010
00001000
00000000
00010000
00000000
,
01000000
10000000
00010000
02000000
00000000
23000000
00000000
31000000
00100000
20000000
00000000
31000000
,
00010000
00000000
00000000
00000000
00001000
00000000
00000000
00000000
00010000
00000000
00000000
00000000
00001000
00000000
00000000
00000000
00000000
00000000
01000000
00000000
00000000
00010000
00000000
00000000
01000000
00000000
00000000
00000000
00000000
00000000
00001000
00000000
00000000
00010000
00000000
00000000
00001000
00000000
00000000
00000000
00000000
00000000
00010000
00000000
00000000
00000100
00000000
00000000
,
00010000
00001000
00000100
00000001
00000010
00000100
00010000
00001000
,
00010000
00000000
00000010
00001000
00000010
00000000
00010000
00001000
00010000
00000000
00001000
00100000
00001000
00000000
00010000
00000000
,
01000000
00000000
10000000
00000000
00100000
00000000
01000000
00000000
00001000
00000000
00010000
00000000
00001000
00000000
00100000
00001000
,
00100000
00000000
00001000
00010000
00001000
00000000
00010000
00000010
00010000
00000000
00001000
00000000
00000010
00000000
00000001
00000000
,
00000100
00000010
00001000
00000010
00001000
00000000
00000001
00001000
00000002
00000000
00000000
00000000
00000000
00000000
00000000
00000000
,
00000023
00000000
00000000
00000000
00000000
00000000
00000000
00000000
00002030
00000000
00000000
00000000
00000000
00000000
00013000
00001000
,
01000000
00010000
01000000
00010000
02000000
00000000
00000000
00000000
03100000
00000000
10000000
00000000
10010000
00000000
10000000
01000000
,
00100000
00000000
00000000
00000000
00000000
00000000
00101000
00000000
00000000
00000000
00000000
00000000
00001000
00000000
00000000
00010000
00000000
00000000
00000020
00000000
00000000
00000000
00000000
00000000
00000000
00000000
00000000
00000000
00000000
00000000
00000000
00000000
00000130
00000000
00000000
00000000
00000000
00000000
00000000
00000000
00000100
00000000
00000000
00000000
00000000
00000000
00000000
00000000
,
00000002
00000000
00000000
00000000
00000013
00000000
00000001
00000100
,
00000010
00000000
00000100
00000000
00000001
00000000
00000000
00001000
00000100
00000000
00000010
00000000
00001000
00000000
00010000
00000000
,
00100000
00000000
10000000
00000000
00010000
00000000
00000000
00100000
00010000
00000000
10000000
00000000
00100000
00000000
01000000
00000000
,
10000000
00000000
01000000
00000000
00100000
00000000
00000000
10000000
01000000
00000000
00100000
00000000
01000000
00000000
00010000
00000000
,
00001000
00000100
00000001
00000010
00000011
00000000
00000010
00000001
,
00000100
00001000
00010000
00001000
00011000
00000000
00001000
00010000
,
00100000
00000000
01000000
00000000
00010000
00000000
00100000
00000000
00010000
00000000
10000000
00000000
01000000
00000000
00000000
10000000
,
00100000
00000000
01000000
00000000
00010000
00000000
00000000
00100000
00010000
00000000
01000000
00000000
00100000
00000000
10000000
00000000
,
00010000
00000000
10000000
01000000
00100000
00010000
10000000
00000000
00100000
00000000
00000000
00000000
10000000
00000000
01000000
00000000
,
00100000
00000000
01000000
00000000
10000000
00000000
00000000
00010000
01000000
00000000
00100000
00000000
00010000
00000000
00001000
00000000
,
00000010
00000000
00000001
00000000
00001000
00000000
00000000
00000010
00001000
00000000
00000001
00000000
00000010
00000000
00000100
00000000
,
00000001
00000000
00000100
00000000
00000010
00000000
00000000
00000001
00000100
00000000
00000010
00000000
00000100
00000000
00001000
00000000
,
00010000
01000000
10000000
00100000
10100000
00000000
00100000
10000000
,
01000000
00010000
00001000
00010000
00011000
00000000
00010000
00001000
,
00000010
00000000
00000100
00000000
00001000
00000000
00000010
00000000
00001000
00000000
00000001
00000000
00000100
00000000
00000000
00000001
,
00000010
00000100
00001000
00000000
00000100
00010000
00011000
00000000
,
00100000
00000000
00000000
00000000
10010000
00000000
00000000
00000000
10000000
00000000
00000000
01000000
00100000
00000000
01000000
00000000
,
00010000
00000000
00000000
00001000
00010000
00000000
00001000
00000000
00000100
00000000
00000101
00000000
00000000
00000000
00000001
00000010
,
00000001
00000000
00000100
00000000
00000010
00000000
00001000
00000000
00000001
00000000
00000000
00000010
00000100
00000000
00000010
00000000
,
00001000
00000000
00000000
00010000
00001000
00000000
00010000
00000000
00100000
00000000
01000000
00010000
01000000
00000000
00010000
00100000
,
00010000
00000000
10000000
00000000
00010000
00000000
01000000
00000000
01100000
00000000
00000000
00100000
10000000
00000000
00010000
00000000
,
00100000
00000000
00000000
01000000
00100000
00000000
00001000
00000000
00010000
00000000
00001000
00000000
00000100
00000000
00000010
00000100
,
00000010
00000000
00001000
00000000
00000001
00000000
00000010
00000001
00000010
00000000
00000001
00000000
00001000
00000000
00000001
00000100
,
00000001
00000000
00001000
00000000
00000100
00000000
00010000
00001000
00010000
00000000
01000000
00000000
00100000
00000000
00001000
00010000
,
00001000
00000100
00001010
00000000
00021000
00000000
00000000
00000000
,
00000000
00000000
00000000
00000000
00000000
00000000
00000000
00000000
00000000
00000000
00000000
00000000
00000000
00000000
00031000
00100000
,
00010000
00000000
10010000
00000000
00000000
00000000
12000000
00000000
00000000
00000000
13000000
00100000
01000000
00000000
10000000
00000000
,
01000000
00000000
00100000
00000000
01000000
00000000
00010000
00000000
00100000
00001000
00100000
00001000
00010000
00000000
00001000
00000000
,
00010000
00011000
00000000
00010200
00000000
00001300
00000010
00000100
,
00000010
00000000
00000001
00000000
00000010
00000000
00000100
00000001
00001000
00000000
00000001
00000010
00000100
00000000
00010000
00000100
,
00010000
00001000
00010000
00001000
00010000
00000000
00012000
00000000
00000000
00000000
00013000
01000000
00100000
00000000
00010000
00000000
,
00001000
00000010
00000100
00000001
00000100
00001000
00010000
00100000
,
01000000
00000000
00100000
00000000
10000000
00000000
01000000
00000000
00100000
00000000
01000000
00010000
00001000
00000000
00010000
00000000
,
00001000
00000000
00000100
00000010
00001000
00000000
00000001
00000010
00000100
00000010
00000100
00000010
00000001
00000000
00000100
00000010
,
00001000
00000100
00020100
00000000
00030010
00000100
00001000
00010000
,
00000010
00000000
00000100
00000000
00001000
00000000
00010000
00001000
01000000
00010000
01000000
00010000
00100000
00000000
00010000
10000000
,
00100000
01100000
00000000
00000000
00000000
00000000
00000000
00000000
;

//---------------dance-double - t7r----------------
#NOTES:
     dance-double:
     t7r:
     Challenge:
     18:
     :
00000000
00000000
00000000
00000000
,
00000000
00000000
00000000
00000000
,
00000000
00000000
00000000
00000000
,
00000000
00000000
00000000
00000000
,
00000000
00000000
00000000
00000000
00000010
00001000
00000100
00000010
,
00000001
00000000
00000100
00000000
00000010
00000000
00001000
00000000
00000100
00010000
00000100
00010000
00001000
00010000
00001000
00010000
,
00001000
00000000
01000000
00000000
01010000
00000000
01000000
00100000
10000000
00000000
01000000
00100000
00010000
00000000
10000000
00000000
,
10010000
00000000
10000000
00100000
01000000
00010000
01000000
00010000
00100000
00001000
00100000
00001000
00010000
00000000
00011000
00000000
,
00000000
00001200
00000000
00000310
00001001
00000000
00000011
00000010
,
00000110
00000000
00000011
00000010
00000110
00000010
00000001
00001100
,
00000000
00000000
00020100
00000000
00000000
00000000
00031000
00000000
00011000
00000000
00000000
00000000
00001000
01000000
00010000
10000000
,
00100000
00000000
10000000
00010000
10000000
00100000
10000000
00100000
01000000
00000000
00010000
00000000
10000000
00000000
11000000
00000000
,
00000000
01020000
00000000
00030100
00011000
00000000
00001000
00000100
,
00000110
00000000
00000101
00000001
00001001
00001000
00000100
00001000
,
00010000
01020000
00000000
00030100
00011000
00001000
01001000
01000000
,
01100000
00000000
00100000
10000000
00010000
00100000
01000000
10000000
00100000
00000000
00010000
00001000
00010000
00000100
00010000
00001000
,
00020000
00000000
01030000
10000000
10100000
00100000
00010000
00011000
,
00001000
00000000
00000010
00000001
00001000
00000010
00001000
00000010
00000100
00000001
00001000
00000100
00010000
00000000
00011000
00000000
,
00000000
00000000
00010000
01000000
00100000
02000000
00000000
13000000
,
00100000
01000000
10000000
01000000
00100000
00020000
00000000
00130000
,
01000000
00100000
10000000
01000000
00010000
00002000
00000000
00003100
,
00000010
00000000
00000100
00000000
00000001
00000000
00000010
00000000
00001000
00000000
00010000
00000000
00100000
00000000
01000000
00010000
,
10000000
01000000
00010000
00001000
00000100
00000020
00000000
00000130
,
00001000
00000100
00000010
00000002
00000000
00000013
00000200
00000000
,
00002300
00000000
00013000
01000000
10000000
00200000
00000000
10300000
,
01000000
00000000
00000000
00000000
00010000
00000000
00000000
00000000
00001000
00020000
00000000
00000000
00000000
00000000
00000000
00000000
00000000
00000000
00000000
00000000
00000000
00000000
00000000
00000000
00031000
00000000
00000000
00000000
00000100
00000000
00000001
00000000
,
00001000
00000001
00000020
00000000
00000000
00000000
00000031
00000100
00000010
00000000
00001000
00000100
00001000
00000000
00000100
00000001
,
00000100
00000000
00001000
00000100
00010000
00000000
00001000
00010000
00001000
00000000
01000000
00100000
01000000
00000000
10000000
01000000
,
00100000
00000000
10200000
00000000
00000000
00000000
10300000
01000000
00100000
00000000
00010000
00000000
10010000
00000000
10000000
00000000
,
10100000
00000000
00100000
01000000
00010000
00100000
00001000
00010000
00001000
00000000
00000100
00000001
00001000
00000000
00001200
00000000
,
00000000
00000000
00010300
01000000
10000000
00200000
00000000
00310000
,
00100000
01000000
10000000
01000000
00100000
20000000
00000000
31000000
,
00010000
00001000
00000100
00000010
00000100
00000002
00000000
00000013
,
00001000
00000000
00010000
00000000
01000000
00000000
10000000
00000000
00100000
00000000
00010000
00000000
00001000
00000000
00000010
00000001
,
00002000
00000000
00003100
00000010
00000100
00000002
00000000
00001003
,
00000010
00000000
00000100
00000000
00000001
00000000
00000100
00010000
00001000
00010000
00001000
01000000
00100000
00000000
01000000
00000000
,
00010000
10000000
12000000
00000000
03010000
00001000
00000100
00000010
,
00000200
00000000
00000000
00000000
00000302
00000000
00000000
00000000
00000000
00000000
00001003
00000100
00000010
00000001
00000100
00000010
,
00010000
00000000
00012000
00000000
00000000
00000000
00003100
00000010
00000100
00000000
00001000
00010000
00001000
00000000
01000000
00100000
,
01000000
00000000
00001000
00010000
00001000
00000000
00000100
00000010
00000100
00000000
00001000
00000000
00011000
00000000
00010000
00000100
,
00001000
00000000
00021000
00000000
00000000
00000000
01030000
00100000
01000000
00000000
00010000
00001000
00010000
00000000
00000100
00000010
,
00000100
00000000
00010000
00001000
00010000
00000000
01000000
00100000
01000000
00000000
00010000
00001000
00000100
00000000
00000010
00001000
,
00000001
00000010
00001000
00011000
00000000
00010000
00100000
10100000
,
00000000
10000000
01100000
00010000
00001000
00000010
00000100
00001010
,
00000000
00000000
00000000
00000000
00000001
00000100
00000010
00001000
00000100
00010000
00001000
00010000
01000000
10000000
00100000
01000000
,
00010000
00000000
00000000
00000000
00100000
00000000
00000000
00000000
00100000
00000000
00000000
00000000
10000000
00000000
00000000
01000000
00000000
00000000
00100000
00000000
00000000
00010000
00000000
00000000
01000000
00000000
00000000
00001000
00000000
00000000
00010000
00000000
00000000
00001000
00000000
00000000
00000100
00000000
00000000
00000000
00000100
00000000
00000000
00000000
00000100
00000000
00000000
00000000
,
00000010
00000000
00000110
00000000
00000001
00000010
00000100
00001000
00000010
00010000
00001000
00010000
00100000
10000000
01000000
00100000
,
00010000
01000000
01000000
20010000
00000000
30100000
00010000
00001000
00000100
00000210
00000000
00000301
,
00000010
00000000
00000000
00000000
00000100
00000000
00000000
00000000
00010000
00000000
00000000
00000000
00001000
00000000
00000000
00000000
00000000
00000000
01000000
00000000
00000000
00010000
00000000
00000000
01000000
00000000
00000000
00000000
00000000
00000000
00001000
00000000
00000000
00010000
00000000
00000000
00001000
00000000
00000000
00010000
00000000
00000000
00001000
00000000
00000000
00000000
00000000
00000000
,
00000100
00000000
00000001
00001000
00000001
00000010
00000001
00000000
00000010
00000000
00001000
00000000
00010000
00000000
00100000
00000000
,
00010000
00000000
00000010
00001000
00000010
00000000
00010000
00001000
00010000
00001000
00010000
00000000
00100000
00000000
10000000
00010000
,
10000000
01000000
10000000
00000000
01000000
00000000
00010000
00000000
00001000
00000000
00000100
00000000
00001000
00000000
00100000
00010000
,
00100000
00000000
00001000
00010000
00001000
00010000
00001000
00000000
00000010
00000000
00000001
00001000
00000001
00000100
00000001
00000000
,
00000100
00000001
00000010
00000100
00010000
00000000
00001000
00010000
00002000
00000000
00010000
00000000
00000100
00000000
00000000
00000000
,
00023000
00000000
00001000
00000000
01000000
00000000
00000000
00000000
00032000
00000000
00010000
00000000
00003100
00000000
00000010
00000100
,
00000001
00000000
00000010
00000100
00020000
00000000
00000000
00000000
00031000
00000000
00011000
00000000
00010000
01000000
00100000
00000000
,
00010000
00000000
00000000
00000000
00000000
00000000
01000000
00000000
00000000
00000000
00000000
00000000
10000000
00000000
00000000
01000000
00000000
00000000
00020000
00000000
00000000
00000000
00000000
00000000
00000000
00000000
00000000
00000000
00000000
00000000
00000000
00000000
00130000
00000000
00000000
00000000
00000000
00000000
00000000
00000000
00100000
00000000
00000000
00000000
00000000
00000000
00000000
00000000
,
00012000
00000000
00000000
00000000
00000000
00000000
00000000
00000000
00003100
00000000
00000010
00001000
00000001
00000000
00001000
00000000
,
00000100
00000000
00001000
00000001
00001000
00000000
00000010
00001000
00000001
00000000
00000010
00000000
00001000
00000000
00010000
00001000
,
01000000
00000000
00010000
00100000
01000000
00000000
10000000
00010000
10000000
00000000
01000000
00000000
10000000
00000000
00100000
01000000
,
00010000
00000000
00001000
00000000
00000010
00000000
00000001
00000100
00000010
00000000
00000100
00000000
00000001
00000000
00001000
00000100
,
00010000
00001000
00000000
00000000
00011000
00000000
00000000
00010000
01000000
00000000
10000000
00000000
00100000
00000000
01000000
00010000
,
00100000
00001000
00000000
00000000
00011000
00000000
00000000
00001000
00000100
00000000
00000010
00000000
00001000
00000000
00000100
00000010
,
00000001
00000100
00000000
00000000
00001010
00000000
00000000
00001000
00000100
00000000
00010000
00001000
00010000
00000000
00001000
00000000
,
00010000
00000000
01000000
10000000
00010000
00000000
01000000
00000000
00100000
00000000
01000000
00001000
00010000
00000000
00011000
00000000
,
00001000
00000000
00000100
00000000
00000010
00000100
00000001
00001000
00000010
00000000
00000100
00000001
00001000
00000000
00000001
00000000
,
00000010
00000000
00001000
00010000
00001000
00000000
01000000
00010000
10000000
00000000
01000000
00000000
00010000
00000000
01000000
10000000
,
00010000
00000000
10000000
00100000
01000000
00000000
00100000
10000000
00010000
00000000
00100000
00000000
00001000
00000000
00010000
00000100
,
00001000
00000000
00000100
00000000
00000010
00000000
00000001
00000100
00000010
00000000
00000100
00000000
00000001
00000000
00000010
00000000
,
00001000
00010000
00000000
00000000
00011000
00000000
00000000
00010000
00100000
00000000
10000000
00000000
01000000
00000000
00100000
00010000
,
01000000
00001000
00000000
00001000
00010000
00001000
00000000
00001000
00000010
00000000
00000100
00000000
00001000
00000000
00000010
00000100
,
00000001
00000010
00000000
00000010
00000100
00001000
00000000
00001000
00000010
00000000
00010000
00001000
00010000
00000000
00001000
00000000
,
00010000
00000000
00100000
10000000
00010000
00000000
00100000
00000000
01000000
00000000
01100000
00000000
00100000
00000000
00001000
00000000
,
00011000
00000000
00001000
00000000
00001010
00000000
00000010
00000100
00001000
00000000
00000100
00000001
00000100
00000000
00000001
00000000
,
00000100
00000000
00010000
00001000
00010000
00000000
00001000
00000000
01000000
00000000
01100000
00000000
00100000
10000000
01000000
00100000
,
00001000
00000000
00011000
00000000
00001000
00000100
00000010
00000100
00000001
00000000
00000010
00001000
00000010
00000000
00001000
00000000
,
00000010
00000000
00000001
00000100
00000001
00000000
00000100
00000000
00001000
00000000
00010000
00000000
00100000
01000000
00100000
00010000
,
00100000
00000000
01000000
00010000
10000000
00000000
10100000
00000000
10100000
00000000
10000000
01000000
00100000
00000000
01000000
00000000
,
10000000
00000000
00100000
01000000
00001000
00000000
00010000
00000000
00001000
00000000
00000100
00000001
00000010
00000000
00000001
00000000
,
00000010
00000000
00001000
00010000
00001000
00000000
00010000
00000000
00100000
00000000
10000000
01000000
00100000
00000000
00010000
00100000
,
00001000
00000000
00010000
00000010
00001000
00000000
00000010
00000000
00000100
00000000
00001001
00000000
00000001
00000010
00001000
00010000
,
00001000
00010000
01010000
00000000
02100000
00000000
00000000
00000000
,
00000000
00000000
00000000
00000000
00000000
00000000
00000000
00000000
00000000
00000000
00000000
00000000
00000000
00000000
03100000
00010000
,
10000000
00000000
01010000
00000000
00000000
00000000
00210000
00000000
00000000
00000000
01300000
00100000
00010000
00000000
00000000
00000000
,
11000000
01000000
01100000
00000000
11000000
01000000
01100000
01000000
,
10000000
00110000
00000000
00102000
00000000
00013000
00011000
00000000
,
00010000
00000010
00001000
00000001
00000100
00000000
00000001
00001000
00000001
00000100
00000001
00000100
00000010
00000000
00001000
00000000
,
00000001
00001000
00000001
00001000
00000010
00000000
00002010
00000000
00000000
00000000
00103000
00000000
00011000
00000000
00000000
00000000
,
00010000
00100000
01100000
00000000
10100000
10000000
10010000
00010000
,
00100000
00000000
00010000
00000000
00001000
00000000
00002010
00000000
00000000
00000000
00103000
00001000
00010000
00000000
00001000
00000000
,
00011000
00000000
00001000
00000100
00000001
00000000
00000100
00000001
00001000
00000100
00000010
00000001
00000100
00000000
00001000
00010000
,
00001000
00100000
00001000
00010000
00002000
00000000
00000000
00000000
00003010
00000000
00000001
00000000
00000101
00000000
00000100
00000000
,
00001000
00000000
00011000
00000000
00010000
00000000
01000000
10000000
00010000
01000000
00010000
01000000
00100000
10000000
00010000
00100000
,
00001000
00011000
00000000
00000000
00000000
00000000
00000000
00000000
;
