#TITLE:Mister magic;
#ARTIST:Thomas Howard Lichtenstein;
#BANNER:Mister magic.png;
#BACKGROUND:Mister magic-bg.png;
#JACKET:Mister magic-jacket.png;
#LYRICSPATH:Mister magic.lrc;
#CDTITLE:./CDTITLES/GUITAR FREAKS & DRUMMANIA.PNG;
#MUSIC:Mister magic.ogg;
#SAMPLESTART:2;
#SAMPLELENGTH:15;
#BPMS:0=120;

//---------------dance-single - seBen----------------
#NOTES:
     dance-single:
     seBen:
     Beginner:
     1:
     :
0000
0000
0000
0000
,
0000
0000
0000
0000
,
0000
0000
0000
0000
,
0000
0000
0000
0000
,
0000
0000
0000
0000
,
1000
0000
0000
0000
,
0000
0000
0000
0000
,
0001
0000
0000
0000
,
0000
0000
0000
0000
,
0100
0000
0000
0000
,
0000
0000
0000
0000
,
0000
0000
0000
0000
,
0000
0000
0000
0000
,
0001
0000
0000
0000
,
0000
0000
0000
0000
,
0010
0000
0010
0000
,
0000
0000
0000
0000
,
0100
0000
0000
0000
,
0000
0000
0000
0000
,
1000
0000
1000
0000
,
0000
0000
0000
0000
,
0000
0000
0000
0000
,
0000
0000
0000
0000
,
0000
0000
0000
0000
,
0000
0000
0000
0000
,
0001
0000
0000
0000
,
0000
0000
0000
0000
,
0000
0000
0000
0000
,
0000
0000
0000
0000
,
1001
0000
0000
0000
,
0000
0000
0000
0000
,
0010
0000
0000
0000
,
0000
0000
0000
0000
,
0000
0000
0000
0000
,
0000
0000
0000
0000
,
0010
0000
0000
0000
,
0000
0000
0000
0000
,
0000
0000
0000
0000
,
0100
0000
0000
0000
,
0000
0000
0000
0000
,
0000
0000
0000
0000
,
0000
0000
0000
0000
,
0010
0000
0000
0000
,
0000
0000
0000
0000
,
0000
0000
0000
0000
,
0000
0000
0000
0000
,
0001
0000
0000
0000
,
0000
0000
0000
0000
,
0010
0000
0000
0000
,
0010
0000
0000
0000
,
1001
0000
0000
0000
;

//---------------dance-single - seBen----------------
#NOTES:
     dance-single:
     seBen:
     Easy:
     4:
     :
0000
0000
0000
0000
,
0000
0000
0000
0000
,
0000
0000
0000
0000
,
0000
0000
0000
0000
,
0000
0000
0000
0000
,
1000
0000
0000
0000
,
0001
0000
0000
0000
,
0100
0000
0000
0000
,
0010
0000
1000
0000
,
0001
0000
0001
0000
,
0010
0000
0000
0000
,
0100
0000
0100
0000
,
1000
0000
0001
0000
,
1000
0000
0000
0000
,
0000
0000
0000
0000
,
0010
0000
0000
0000
,
0000
0000
0000
0000
,
0100
0000
0000
0000
,
0001
0000
0000
0000
,
1000
0000
0000
0000
,
0000
0000
0000
0000
,
1001
0000
0002
0003
,
0020
0030
0200
0300
,
1000
1000
1000
0000
,
0001
0000
0000
0000
,
2000
3000
0020
0030
,
0200
0300
0002
0003
,
1000
1000
1000
0000
,
0001
0010
0100
1000
,
0001
0000
0000
0000
,
1000
0000
0000
0000
,
0020
0030
0020
0030
,
0200
0300
0002
0003
,
2000
3000
0010
0100
,
0020
0030
0100
0100
,
0002
0003
2000
3000
,
0100
0100
0010
0010
,
0001
0000
1000
0000
,
1001
0000
0001
0000
,
0100
0100
0010
0010
,
1000
0000
0000
0000
,
0001
0000
0001
0000
,
1001
0000
1000
0100
,
0010
0010
0001
0000
,
1000
0000
0000
0000
,
0001
0000
0100
0000
,
0010
0000
1000
0001
,
1000
0000
0001
0010
,
0001
0000
1000
0100
,
1000
0000
0010
0000
,
0220
0000
0000
0000
,
0330
0000
0000
0000
;

//---------------dance-single - seBen----------------
#NOTES:
     dance-single:
     seBen:
     Medium:
     6:
     :
0000
0000
0000
0000
,
0000
0000
0000
0000
,
0000
0000
0000
0000
,
0000
0000
0000
0000
,
0000
0000
0000
0000
,
1001
1000
0200
0300
,
0010
0000
0000
0001
0000
0000
1000
0000
0000
0000
0000
0001
,
0200
0000
0310
0000
,
1000
0000
0000
0010
0000
0100
0010
0000
0000
1000
0000
0000
,
0001
0010
0110
0000
,
1000
0000
0000
0010
0000
0000
0110
0000
0000
0000
0000
0100
,
0001
0000
0000
1000
0000
0000
0100
0000
0000
0000
0000
1000
,
0001
1000
0010
0000
,
0202
0000
0000
0303
0000
0000
1000
0000
0100
1000
0000
0000
,
0001
0000
1000
0010
,
0200
0310
0020
0030
,
1000
0100
0010
0011
,
2002
0000
0000
3003
0000
0000
0001
0000
0100
0001
0000
0000
,
1000
0000
0001
0100
,
0020
0030
0100
0002
,
1003
1100
0010
0011
,
1001
0000
1000
0010
,
1000
0000
0001
0010
,
0002
0100
2003
0010
,
3001
0000
0010
0100
0000
0000
1000
0000
0010
0100
0000
0000
,
1001
1000
0100
0000
,
0010
0000
0000
0001
0000
0000
1000
0000
0000
0000
0000
0001
,
0100
0000
0000
0010
0000
0000
1000
0000
0000
0000
0000
0100
,
0010
0001
1000
0001
,
2001
0000
3001
0100
0001
0000
0100
0001
,
0100
0000
0001
0100
0001
0000
0100
0000
,
0020
0000
2030
0000
,
3001
0010
0001
0000
0010
0000
0100
0000
,
1000
0010
1010
0000
,
1000
0100
1100
0000
,
0001
0000
0000
0010
0000
0000
0001
0000
0000
0000
0000
1000
,
0010
0100
0001
1000
,
2002
0000
0000
3003
0000
0000
0001
1000
0001
1000
0000
0000
,
0001
0010
0011
0000
,
1000
0000
0000
0010
0000
0000
1010
0000
0000
0000
0000
0001
,
0100
0000
0000
0001
0000
0000
1000
0000
0000
0000
0000
0001
,
1000
0100
0010
0001
,
1001
0000
0000
1000
0000
0000
0010
0000
0000
0000
0000
0100
,
0010
0000
0000
1000
0000
0000
0001
0000
0000
0000
0000
0010
,
0100
0010
0001
1000
,
0002
0010
2003
3100
,
1100
0000
0000
0001
0000
0100
0001
0000
0000
0000
0000
0000
,
1000
0000
0000
0010
0000
0010
0100
0000
0000
0001
0000
1000
,
0100
0000
0000
0100
0000
0000
0110
0000
0000
0010
0000
0001
,
2000
0000
0000
3002
0000
0000
0103
0000
0010
0100
0000
0000
,
2002
0000
0000
0000
,
3003
0000
0000
0000
;

//---------------dance-single - seBen----------------
#NOTES:
     dance-single:
     seBen:
     Hard:
     9:
     :
0000
0000
0000
0000
,
0000
0000
0000
0000
,
0000
0000
0000
0000
,
0000
0000
0000
0000
,
0000
0000
0000
0000
,
1000
0000
0001
0100
0000
0000
0101
0000
0000
0000
0000
0000
,
0001
0000
1000
0100
0000
0000
1100
0000
0000
0000
0000
1000
,
0001
0000
1000
0010
0000
0000
1010
0000
0000
0000
0000
0010
,
1000
0000
0001
0010
0000
0100
0010
0000
0001
1000
0000
0000
,
1002
0000
0000
0103
0000
0000
0001
0000
0100
0010
0000
0100
,
0020
0000
0000
1030
0000
0100
0010
0000
0000
0001
0000
0000
,
2000
0000
0000
0010
0000
0000
0001
0000
0000
3100
0000
1000
,
0001
0100
0001
0100
0000
0000
0010
1000
0001
1000
0000
0000
,
0001
0000
0000
0010
0000
0100
0010
0000
0000
0000
0000
0001
,
1000
0000
0010
0100
0000
0000
0101
0000
0000
0000
0000
0001
,
1000
0000
0000
0100
0000
0010
0100
0000
0000
0000
0000
1000
,
0001
0000
0100
0001
0000
0000
1001
0000
0001
1000
0100
1000
,
0001
0000
0100
0010
0000
0200
1000
0000
0000
0310
0000
0000
,
1000
0000
0100
0010
0000
0200
0001
0000
0000
0310
0000
0000
,
0001
0000
1000
0100
0000
0000
1000
0000
0000
0110
0000
0001
,
1000
0000
0010
0100
0000
0001
1000
0100
1000
0001
0000
0000
,
1010
0000
0000
0001
0000
0000
1000
0000
0001
0010
0000
0100
,
2000
0000
0000
3001
0000
0100
0010
0000
0001
0010
0000
1000
,
0200
0000
0000
0310
0000
0001
0200
0000
0000
0310
0000
0000
,
1000
0000
0001
0100
0000
0000
0101
0000
0000
1000
0100
1000
,
0100
0000
0000
0010
0000
0000
0011
0000
0000
0001
0000
1000
,
0010
0000
0010
0100
0000
0000
0101
0000
0000
1000
0000
0100
,
0020
0000
0000
0031
1000
0001
1000
0000
0000
0010
0000
0000
,
1000
0100
1000
0100
0000
0000
0010
0001
1000
0001
0000
0000
,
1000
0000
0001
0100
0010
0001
0010
0100
,
0001
0010
0100
0001
0100
0010
0001
1000
,
0002
0000
0000
0000
0000
0000
0000
0000
0000
0000
0000
0000
0100
0000
0000
0000
0000
0000
0000
0000
0003
1000
0000
0000
0020
0000
0000
0000
0000
0000
0000
0000
0000
0000
0000
0000
0001
0000
0000
0000
0000
0000
0000
0000
0000
0130
0000
0000
,
0010
1000
0100
0010
1000
0010
0100
1000
,
2020
0000
0000
3030
0000
0000
0001
0000
0000
1000
0100
0010
,
0002
0000
0000
0000
0000
0000
1003
0000
0001
0100
0000
0000
,
0001
0000
0001
0010
0000
0010
0100
0000
0100
1000
0000
1000
,
0020
0000
0000
0001
0000
0000
0130
0000
0110
0000
0110
0000
,
1000
0100
0000
0010
0000
0001
0100
0010
1000
0001
0000
0000
,
1002
0000
0000
0103
0000
0001
1000
0000
1000
0100
0000
0010
,
2000
0000
0000
3010
0000
0001
0200
0000
0000
0310
0000
1000
,
0001
0000
0000
0100
0000
0000
0101
0000
0000
0000
0000
1000
,
0100
0000
1000
0010
0000
0010
0100
0000
0000
0001
1000
0001
,
2000
0000
0000
3010
0000
1000
0001
0000
0001
0010
0000
0100
,
0002
0000
0000
0103
0000
1000
0020
0000
0000
0130
0000
0001
,
1000
0010
2020
3030
,
0001
0000
1000
0100
0000
0100
0010
0000
0010
0001
0000
1000
,
0001
0000
0000
1000
0100
0010
0002
0000
0000
0100
0000
1003
,
0001
0000
1000
0001
0010
0100
2000
0000
0000
0010
0000
3001
,
1000
0000
0100
1000
0001
0100
0010
0000
0100
0001
1000
0001
,
1000
0000
0100
1000
0001
0000
0100
0010
0100
0010
0000
0000
,
2002
0000
0000
0000
,
3003
0000
0000
0000
;

//---------------dance-single - seBen----------------
#NOTES:
     dance-single:
     seBen:
     Challenge:
     13:
     :
0000
0000
0000
0000
,
0000
0000
0000
0000
,
0000
0000
0000
0000
,
0000
0000
0000
0000
,
0000
0000
0000
0000
,
1000
0010
1000
0001
0100
0001
0020
0000
0000
0031
0000
1000
,
0001
0010
0001
1000
0100
1000
0020
0000
0000
0130
0000
0001
,
1000
0000
0100
1000
0000
0000
1010
0000
0000
0001
0000
0100
,
0020
0000
0000
0000
1030
0001
1000
0000
0000
0000
0001
0000
0010
0000
0000
0000
0001
0000
0100
0000
0010
0000
1000
0000
,
0001
0000
0010
0000
0100
0000
1000
0000
0010
0000
0100
0000
0002
0000
0000
0000
0000
0000
0010
0000
0000
0000
1003
0001
,
1000
0010
0100
0001
1000
0001
2000
0000
0000
0100
0000
3001
,
0100
0000
0001
0000
1000
0000
0100
0000
0010
0000
0001
0000
1000
0000
0000
0000
0010
0000
0100
0000
0000
0000
0001
1000
,
0001
0100
0100
0010
1000
1000
0100
0010
0010
0001
1000
1000
,
1001
0000
1000
0010
0000
1000
0100
0000
0100
0010
0000
0001
,
1000
0000
1000
0001
0000
0001
0100
0000
0001
1000
0000
0010
,
0002
0000
0000
0013
0000
1000
0200
0000
0000
0301
0000
0100
,
1000
0000
1000
0010
0000
0010
0100
0000
0001
0010
0100
1000
,
0001
0000
0001
0100
0000
0001
0010
0000
0010
0100
0000
1000
,
0001
0000
0001
1000
0000
1000
0010
0000
1000
0001
0000
0100
,
2000
0000
0000
0100
0000
0000
0001
0000
0000
3100
0000
0001
,
1000
0100
0100
0010
0001
0100
1000
0100
0001
1000
0000
0001
,
1000
0100
1000
0001
0100
0001
0020
0000
1000
1000
0000
0130
,
1000
0010
1000
0001
0010
0001
0200
0000
1000
1000
0000
0310
,
2000
0000
3100
0010
0000
0100
0002
0000
0100
0103
0000
0010
,
0001
1000
0010
0100
0000
1000
0100
0000
0001
0001
1000
0100
,
1100
0000
1000
0001
0100
0001
0020
0000
1000
1000
0000
0130
,
0010
0000
0001
1000
0100
1000
0020
0000
0001
0001
0000
0130
,
2000
0000
3001
0010
1000
0100
0002
0000
1000
1000
0000
0103
,
1000
0010
0010
0100
0001
0001
0010
0100
0100
1000
0001
0001
,
1002
0000
0010
1000
0100
1000
0010
1000
,
0100
1000
0010
1000
0100
1000
0013
0100
,
2000
0000
0000
0000
0000
0000
3010
0000
0000
0000
0100
0001
0200
0000
0000
0000
0000
0000
0310
0000
0000
0000
1000
0001
,
2000
0001
0100
0001
0010
0001
0100
3001
,
1002
0000
1003
0100
1000
0001
0100
0000
0010
1000
0001
0010
,
0001
0000
0000
0000
0100
0010
0100
0000
0001
0000
1000
0000
0010
0000
1000
0000
0001
0000
1000
0000
0100
0000
0010
0000
,
0001
0100
1000
0001
0010
1000
0001
0010
1000
0001
0100
1000
,
0002
0000
0000
0000
0100
0000
0000
0000
0000
0000
0000
0000
2003
0000
0000
0000
0000
0000
0000
0000
3010
0000
0000
0000
1000
0001
0000
0000
0000
0000
0000
0000
0010
0000
0000
0000
0000
0000
0000
0000
0110
0000
0000
0000
0000
0000
0000
0000
,
1000
1000
0000
0001
0000
0100
1000
0100
0001
1000
0000
0000
,
0001
0000
0010
0000
0001
0000
1000
0000
0100
0000
1000
0000
0002
0000
0000
0000
0000
0000
0100
0000
0000
0000
1003
0001
,
1000
0010
1000
0001
0100
0001
2000
0000
0000
0100
0000
3001
,
1000
0000
0100
0000
1000
0000
0001
0000
0100
0000
0010
0000
0200
0000
0000
0000
0010
0000
0010
0000
0000
0000
0301
1000
,
0001
0010
0100
0020
0000
1030
0002
0000
0103
1000
0001
1000
,
1001
0000
0000
0000
1000
0000
0010
0000
0100
0000
0001
0000
0020
0000
0000
0000
0000
0000
1000
0000
0000
0000
0130
1000
,
0001
0000
0100
0010
0000
0100
1000
0100
0001
1000
0000
0001
,
2000
0000
0000
0000
3100
0000
0010
0000
0000
0000
0100
0000
0002
0000
0000
0000
0103
0000
0010
0000
0000
0000
0100
1000
,
0001
0000
0100
0110
0000
1000
1001
0000
0001
1000
0001
0100
,
0102
0000
0000
0000
0000
0000
1003
0000
0100
0000
0010
0000
0120
0000
0000
0000
0000
0000
0031
0000
0000
0000
1000
0001
,
1000
0001
0100
0010
1000
0100
1200
0000
0000
0310
0001
1000
,
0001
0000
0102
0000
0000
1003
2100
0000
3001
0100
0100
0100
,
0010
0000
1000
0000
0001
0000
1000
0000
0100
0000
0010
0000
0001
0000
0100
0010
0100
0000
0001
0000
1000
0000
0001
0000
,
2002
0000
0000
0000
,
3003
0000
0000
0000
;

//---------------dance-double - seBen----------------
#NOTES:
     dance-double:
     seBen:
     Easy:
     5:
     :
00000000
00000000
00000000
00000000
,
00000000
00000000
00000000
00000000
,
00000000
00000000
00000000
00000000
,
00000000
00000000
00000000
00000000
,
00000000
00000000
00000000
00000000
,
00001000
00000000
00000000
00000000
,
01000000
00000000
00010000
00000000
,
10000000
00000000
00000000
00000000
,
01000000
00000000
00100000
00000000
,
00022000
00033000
00001000
00100000
,
00020000
00030000
10000000
00100000
,
02000000
03000000
00000000
00010000
,
00100000
00001000
00010000
00000000
,
00001000
00000000
00010000
00000000
,
00000100
00000000
00001000
00000001
,
00000100
00000000
00010000
00000000
,
00100000
00000000
10000000
00000000
,
01000000
00000000
00010000
00000000
,
00001000
00000000
00010000
00000000
,
00000010
00000000
00000100
00000000
,
00000001
00000000
00001000
00000000
,
00002002
00003003
00000001
00000100
,
00000010
00000000
00001000
00000100
,
00020000
00030000
00002000
00003000
,
01000000
01000000
00010000
00000000
,
20020000
30030000
10000000
01000000
,
00200000
00300000
00010000
00000000
,
02000000
03000000
00002000
00003000
,
00010000
00010000
00001000
00001000
,
00010000
00000000
00000100
00000000
,
00001000
00000000
00000010
00000000
,
00002000
00003000
00000002
00000003
,
00001000
01000000
00010000
00000000
,
20000000
30000000
00010000
00010000
,
00100000
00000000
00001000
00000000
,
00020000
00030000
00000020
00000030
,
00000100
00000100
00000010
00000000
,
00001000
00000000
00000100
00000000
,
00022000
00033000
00001000
00001000
,
02000000
03000000
00200000
00300000
,
20000000
00000000
30000000
00000000
,
00010000
00010000
00100000
00000000
,
00022000
00033000
00010000
00010000
,
00000020
00000030
00000200
00000300
,
00000002
00000003
00002000
00003000
,
00000220
00000000
00000000
00000330
,
00000001
00000000
00000010
00000000
,
00001000
00000000
00010000
00000000
,
01000000
00000000
10000000
00000000
,
00100000
00010000
00001000
00000000
,
00022000
00000000
00000000
00000000
,
00033000
00000000
00000000
00000000
;

//---------------dance-double - seBen----------------
#NOTES:
     dance-double:
     seBen:
     Medium:
     7:
     :
00000000
00000000
00000000
00000000
,
00000000
00000000
00000000
00000000
,
00000000
00000000
00000000
00000000
,
00000000
00000000
00000000
00000000
,
00000000
00000000
00000000
00000000
,
00020000
00000000
00000000
00000100
00000000
00000000
00032000
00000000
00000000
00000000
00000000
00103000
,
00010000
10000000
10100000
00010000
,
02000000
10000000
03010000
00000000
,
01000000
00000000
00001000
00010000
00000000
00000000
00001000
00000000
00100000
00001000
00000000
00000000
,
00010000
00000000
00000000
00001000
00000000
00000000
00000100
00000000
00000000
00000000
00000000
00000001
,
00001000
00000100
00010000
00000000
,
00001000
00000000
00000000
00010000
00000000
00000000
01000000
00000000
10000000
00010000
00000000
00000000
,
00100000
00001000
00010000
00000100
,
00002002
00000000
00000000
00003003
00000000
00000000
00000001
00000000
00000100
00000010
00000000
00000000
,
00002000
00003000
00000100
00010000
,
00002000
00100000
00023000
00000000
,
00031000
01000000
00100000
00000000
,
20020000
00000000
00000000
30030000
00000000
00000000
10000000
00000000
01000000
00100000
00000000
00000000
,
00020000
00030000
01000000
00001000
,
00020000
00000000
00031000
00010000
,
00000010
00000000
00000000
00001010
00000000
00000000
00001000
00000000
00000001
00001000
00000000
00000000
,
00000001
00000000
00000000
00000100
00000000
00000000
00001001
00000000
00000000
00000000
00000000
00001000
,
00000100
00000000
00000000
00010000
00000000
00000000
00011000
00000000
00000000
00000000
00000000
00001000
,
01000000
00010000
10010000
00000000
,
10000000
00000000
00100000
01000000
00000000
00000000
00010000
00000000
00000000
10000000
00000000
00000000
,
10010000
00000000
00000000
00010000
00000000
00000000
00100000
00000000
00000000
00000000
00000000
00001000
,
00010000
00000000
00000000
00000010
00000000
00000000
00001010
00000000
00000000
00000000
00000000
00001000
,
00000001
00000000
00000000
00000100
00000000
00000000
00001000
00000000
00000000
00000000
00000000
00010000
,
00001000
01000000
00010000
00100000
,
00012000
00000000
00103000
00010000
00100000
00000000
00001000
00100000
,
00001000
00000000
00010000
00001000
00010000
00000000
00000010
00000000
,
00002020
00003030
00000202
00000303
,
00001000
00000100
00020000
00000000
00031000
00000000
01000000
00010000
,
10000000
00000000
00000000
00100000
00000000
00000000
10100000
00000000
00000000
00000000
00000000
10000000
,
01000000
00000000
00000000
00010000
00000000
00000000
00011000
00000000
00000000
00000000
00000000
00001000
,
00000100
00000000
00000000
00000001
00000000
00000000
00001001
00000000
00000000
00000000
00000000
00000001
,
00000010
00000000
00000000
00000100
00000000
00000000
00010000
00000000
00001000
00000000
00010000
00000000
,
00002000
00000000
00000000
00100000
00000000
00000000
00013000
00000000
00001000
00010000
00000000
00000000
,
00001000
00000000
00000000
01000000
00000000
00000000
01100000
00000000
00000000
00000000
00000000
10000000
,
01000000
00000000
00000000
00010000
00000000
00000000
00001000
00000000
00000000
00000000
00000000
00010000
,
00001000
00000000
00000000
00010000
00000000
00000000
00011000
00000000
00000000
00000000
00000000
00010000
,
00000100
00001000
00000001
00000100
,
00001000
00000000
00000000
00000000
00000000
00000000
00010000
00000000
00000000
00001000
00000000
01000000
,
00010000
00000000
00000000
10000000
00000000
00000000
00100000
00000000
00000000
00000000
00000000
10000000
,
00010000
00000000
00000000
00100000
00000000
00000000
00001000
00000000
00000000
00000000
00000000
00010000
,
00000100
00000000
00000000
00010000
00000000
00000000
00001000
00000000
00010000
01000000
00000000
00000000
,
10010000
00000000
00000000
00010000
00000000
01000000
00200000
00000000
00000000
00300000
00000000
00000000
,
10000000
00000000
00000000
01000000
00000000
00100000
00020000
00000000
00000000
00030000
00000000
00000000
,
00100000
00001000
00011000
00010000
,
00010010
00000010
00000110
00000101
,
00002002
00000000
00000000
00000000
,
00003003
00000000
00000000
00000000
;

//---------------dance-double - seBen----------------
#NOTES:
     dance-double:
     seBen:
     Hard:
     9:
     :
00000000
00000000
00000000
00000000
,
00000000
00000000
00000000
00000000
,
00000000
00000000
00000000
00000000
,
00000000
00000000
00000000
00000000
,
00000000
00000000
00000000
00000000
,
00001000
00000000
00000000
01000000
00000000
00010000
10000000
00000000
00000000
00000000
00000000
00000000
,
01000000
00000000
00000000
00010000
00000000
00001000
00010000
00000000
00000000
00000000
00000000
00000000
,
00000100
00000000
00000000
00001000
00000000
00000001
00000100
00000000
00000000
00000000
00000000
00001000
,
00010000
00000000
00001000
01000000
00000000
00001000
00010000
00000000
00000100
00010000
00000000
00000000
,
00012000
00000000
00000000
01003000
00000000
00000000
00001000
00000000
00010000
00000100
00000000
00000100
,
00001000
00000000
00000000
00001000
00000000
00000000
00000001
00000000
00000100
00000010
00000000
00000000
,
00002020
00000000
00000000
00003030
00000000
00000000
00000001
00000000
00001000
00000100
00000000
00010000
,
00002000
00000000
00000000
00203000
00000000
00000000
01300000
00000000
01000000
10000000
00000000
00010000
,
10000000
00000000
00000000
01000000
00000000
00100000
00010000
00000000
00000000
00000000
00000000
00000000
,
10000000
00000000
00000000
00100000
00000000
00010000
00001000
00000000
00000000
00020000
00000000
00000000
,
00030100
00000000
00000000
00001000
00000000
00000001
00000100
00000000
00000000
00000000
00000000
00000000
,
00000001
00000000
00000000
00000010
00000000
00001000
00010000
00000000
00000100
00001000
00000001
00001000
,
00000001
00000000
00000000
00000100
00000000
00001000
00010000
00000000
00000000
00000000
00000000
00001000
,
01000000
00000000
00000000
00010000
00000000
10000000
01000000
00000000
00000000
00000000
00000000
00010000
,
00001000
00000000
00010000
00000100
00000000
00000000
00001000
00000000
00000000
00000001
00000100
00000010
,
00001000
00000000
00000001
00000010
00000000
00001000
00010000
00000000
00001000
01000000
00000000
00000000
,
01002000
00000000
00000000
00013000
00000000
00000000
00001000
00000000
00010000
00000100
00000000
00010000
,
00000200
00000000
00000000
00000310
00000000
00000001
00000100
00000000
00000100
00000010
00000000
00001000
,
00000200
00000000
00000000
00000301
00000000
00000100
00002000
00000000
00000000
00003001
00000000
00000000
,
00001000
00000000
00000010
00010000
00000000
00000000
00011000
00000000
00000000
00001000
00000000
00100000
,
00002000
00000000
00000000
00013000
00000000
00000000
00010000
00000000
00001000
01000000
00000000
00001000
,
02000000
00000000
00000000
03100000
00000000
10000000
01000000
00000000
01000000
00100000
00000000
00010000
,
02000000
00000000
00000000
10000000
00000000
00000000
03010000
00000000
00000000
00100000
00000000
00001000
,
00010000
00000000
00010000
00000010
00000000
00000010
00000100
00000000
00000100
00001000
00000000
00001000
,
00010000
00000000
00000100
00001000
00000001
00001000
00000001
00000100
,
00001000
00000000
00010000
00000100
00010000
00001000
01000000
00010000
,
20000000
00000000
30100000
00010000
00002000
00000000
00003010
00000001
,
00000100
00001000
00010000
00000100
00001000
00000001
00001000
00000010
,
00020020
00000000
00000000
00030030
00000000
00000000
00010000
00001000
00010000
00001000
00000000
00000000
,
00202000
00000000
00000000
00303000
00000000
00000000
00001000
00000000
00010000
00000010
00000000
00000010
,
00000100
00000000
00000001
00000010
00000000
00000100
00001000
00000000
00000010
00000100
00000000
00001000
,
00020000
00000000
00000000
00100000
00000000
00000000
00031000
00000000
00010000
00000000
00011000
00000000
,
00001000
00010000
00000000
01000000
00000000
10000000
00010000
00000000
01000000
00100000
00000000
00000000
,
20010000
00000000
00000000
30010000
00000000
10000000
00100000
00000000
00100000
01000000
00000000
00010000
,
00200000
00001000
00302000
00013000
,
00022000
00000000
00000000
00033000
00000000
00000000
00010000
00000000
00000000
00000010
00000000
00010000
,
00000100
00000000
00000100
00000010
00000000
00000001
00001000
00000000
00000000
00001000
00000100
00000010
,
00000002
00000000
00000000
00001003
00000000
00000001
00000100
00000000
00000100
00000010
00000000
00001000
,
00000200
00010000
00020300
00031000
,
00022000
00000000
00000000
00033000
00000000
00000000
00001000
00000000
00000000
01000000
00000000
00001000
,
00100000
00000000
00100000
01000000
00000000
10000000
00010000
00000000
00010000
01000000
00000000
00010000
,
10000000
00000000
00000000
01000000
10000000
00010000
10000000
00000000
00000000
00010000
00000000
00000000
,
00001000
00000000
00000000
00000001
00000100
00000010
00001000
00000000
00000000
00000001
00000000
00000000
,
00001000
00000000
00010000
00100000
00000000
01000000
10000000
00000000
00010000
10000000
00100000
10000000
,
00010000
00000000
10000000
01000000
00010000
00000000
00001000
00000000
00000000
00000100
00000001
00001000
,
00000200
00000000
00000000
00000000
,
00000300
00000000
00000000
00000000
;

//---------------dance-double - seBen----------------
#NOTES:
     dance-double:
     seBen:
     Challenge:
     13:
     :
00000000
00000000
00000000
00000000
,
00000000
00000000
00000000
00000000
,
00000000
00000000
00000000
00000000
,
00000000
00000000
00000000
00000000
,
00000000
00000000
00000000
00000000
,
10000000
00100000
10000000
00010000
00100000
00010000
02000000
00000000
00000000
03001000
00000000
00010000
,
00000100
00000010
00000100
00001000
00000001
00001000
00000020
00000000
00000000
00000031
00000000
00000010
,
00001000
00000000
00000001
00000010
00000000
00000010
00000100
00000000
00000000
00001000
00000000
00000010
,
00010000
00000000
00000000
00000000
00001000
00010000
00001000
00000000
00000000
00000000
00100000
00000000
00100000
00000000
00000000
00000000
00001000
00000000
00010000
00000000
00100000
00000000
10000000
00000000
,
00010000
00100000
01000000
10000000
00000000
00010000
02000000
00000000
00000000
00010000
00000000
03001000
,
00010000
00000100
00001000
00000001
00000000
00000100
00000020
00000000
00000000
00000001
00000000
00000130
,
00000001
00000000
00000010
00000100
00000000
00010000
00001000
00000000
00010000
01000000
00000000
10000000
,
00100000
10000000
00010000
00100000
00001000
00010000
00001000
00000100
00000100
00000001
00001000
00000001
,
00000102
00000000
00000000
00001003
00000000
00000000
00000001
00000010
00000100
00001000
00000000
00000001
,
00000100
00000000
00000100
00000010
00000000
00001000
00000100
00000000
00000100
00010000
00000000
00001000
,
00200000
00000000
00000000
10300000
00000000
00100000
00020000
00000000
00000000
01030000
00000000
00100000
,
10000000
00000000
10000000
00010000
00000000
00100000
00010000
00000000
10000000
00100000
00010000
00100000
,
20000000
00000000
00000000
30010000
00000000
00010000
00100000
00000000
00100000
01000000
00000000
10000000
,
00100000
00000000
00100000
01000000
00000000
00010000
00100000
00000000
00100000
00001000
00000000
00010000
,
00000020
00000000
00000000
00000001
00000000
00000000
00001030
00000000
00000000
00000001
00000010
00000100
,
00001000
00000000
00000001
00000100
00001000
00000100
00000010
00001000
00000100
00010000
00000000
00001000
,
00020000
00000000
00000000
01000000
00000000
00031000
00010000
00000000
00001000
01000000
00000000
00010000
,
20000000
00000000
00000000
00100000
00000000
30010000
10000000
00000000
01000000
00100000
00000000
00001000
,
00020000
00000000
00000000
00100000
00000000
00031000
00010000
00000000
00001000
00001000
00000000
00000010
,
00000001
00000000
00000100
00000010
00000000
00001000
00000100
00000000
00010000
00010000
00001000
00100000
,
00010000
00000000
10000000
00100000
01000000
00010000
10000000
00000000
01000000
01000000
00000000
00010000
,
00001000
00000000
00000100
00000010
00001000
00000001
00000010
00000000
00000001
00000001
00000000
00000010
,
00002000
00000000
00013000
00001000
00010000
00100000
20000000
00000000
31000000
01000000
00000000
00010000
,
00001000
00000100
00000010
00001000
00000100
00000010
00001000
00010000
01000000
00100000
00001000
00010000
,
00021000
00000000
00000010
00000100
00001000
00000100
00000010
00000100
,
00001000
00000100
00000010
00000100
00001000
00000100
00000010
00001000
,
00032000
00000000
00000000
00000000
00000000
00000000
00003000
00000000
00000000
00000000
00100000
00010000
00200000
00000000
00000000
00000000
00000000
00000000
00300000
00000000
00000000
00000000
00001000
00010000
,
00002000
01000000
00100000
01000000
00010000
01000000
00100000
01000000
,
00023000
00000000
00031000
01000000
00010000
10000000
01000000
00000000
10000000
00010000
00100000
00001000
,
00010000
00000000
00000000
00000000
00001000
00010000
00001000
00000000
00000000
00000000
00000100
00000000
00000001
00000000
00000010
00000000
00000100
00000000
00001000
00000000
00000001
00000000
00000100
00000000
,
00001000
00010000
00100000
10000000
01000000
00010000
00001000
00000010
00000001
00001000
00000100
00010000
,
00002000
00000000
00000000
00000000
00010000
00000000
00000000
00000000
00000000
00000000
00000000
00000000
01003000
00000000
00000000
00000000
00000000
00000000
00000000
00000000
00001000
00000000
00000000
00000000
00010000
00001000
00000000
00000000
00000000
00000000
00000000
00000000
01000000
00000000
00000000
00000000
00000000
00000000
00000000
00000000
00000100
00000000
00000000
00000000
00000000
00000000
00000000
00000000
,
00010000
00020000
00000000
00032000
00000000
00103000
00000010
01000000
00000100
00020000
00000000
00000000
,
00031000
00000000
01000000
00010000
10000000
01000000
00100000
00000000
00010000
10000000
00100000
00010000
,
00001000
00000000
00010000
00000100
00001000
00000001
00000010
00000000
00000001
00000100
00001000
00010000
,
00000100
00000000
00000000
00000000
00010000
00000000
00001000
00000000
01000000
00000000
00010000
00000000
10000000
00000000
00000000
00000000
00010000
00000000
00200000
00000000
00000000
00000000
00310000
10000000
,
00010000
10000000
00100000
00020000
00000000
00031000
00200000
00000000
01300000
00010000
00001000
00010000
,
00000010
00000000
00000000
00000000
00001000
00000000
00000001
00000000
00000100
00000000
00000001
00000000
00000020
00000000
00000000
00000000
00000000
00000000
00001000
00000000
00000000
00000000
00000130
00001000
,
00000001
00000000
00000100
00000010
00000000
00010000
00001000
00000000
00010000
00010000
00000000
00100000
,
20000000
00000000
00000000
00000000
00000000
00000000
01000000
00000000
00000000
00000000
30010000
00000000
00200000
00000000
00000000
00000000
10000000
00000000
10000000
00000000
00000000
00000000
01300000
10000000
,
00010000
00000000
00100000
00110000
00000000
00001000
00011000
00000000
00010000
00001000
00000010
00001000
,
00012000
00000000
00000000
00000000
00000000
00000000
00103000
00000000
00010000
00000000
01000000
00000000
02010000
00000000
00000000
00000000
00000000
00000000
03100000
00000000
00000000
00000000
10000000
00010000
,
10000000
00000000
00010000
00100000
00001000
00010000
00010200
00000000
00000000
00001300
00000010
00000100
,
00000001
00000000
00000022
00000000
00000033
00000000
00001001
00000000
00000000
00001000
00000001
00001000
,
00000001
00000100
00001000
00010000
00100000
10000000
01000000
00010000
00001000
00000010
00000001
00000100
,
00002000
00000000
00000000
00000000
,
00003000
00000000
00000000
00000000
;
