#TITLE:Meissa;
#ARTIST:BEMANI Sound Team "Yvya";
#ARTISTTRANSLIT:Yvya;
#BANNER:Meissa.png;
#BACKGROUND:Meissa-bg.png;
#JACKET:Meissa-jacket.png;
#CDTITLE:./CDTITLES/BEATMANIA IIDX.PNG;
#MUSIC:Meissa.ogg;
#SAMPLESTART:83.448;
#SAMPLELENGTH:15;
#DISPLAYBPM:62:174;
#BPMS:0=174,28=87,32=174,197=348,198=174,278=162,292=156,294=150,298=140,299=135,300=124,302=62;
#STOPS:197=0.17241379310344827586206896551724;

//---------------dance-single - t7r----------------
#NOTES:
     dance-single:
     t7r:
     Beginner:
     2:
     :
0000
0000
0000
0000
,
0000
0000
0000
0000
,
0000
0000
0000
0000
,
0000
0000
0000
0000
,
0000
0000
0000
0000
,
1000
0000
0000
0000
,
0000
0000
0000
0000
,
0001
0000
0000
0000
,
0100
0000
0000
0000
,
0000
0000
0000
0000
,
0010
0000
0000
0000
,
0000
0000
0000
0000
,
1000
0000
0000
0000
,
0000
0000
0000
0000
,
0001
0000
0000
0000
,
0000
0000
0000
0000
,
1000
0000
0000
0000
,
1000
0000
0000
0000
,
1000
0000
0000
0000
,
0000
0000
0000
0000
,
0010
0000
0000
0000
,
0000
0000
0000
0000
,
0100
0000
0000
0000
,
0100
0000
0000
0000
,
0001
0000
0000
0000
,
0000
0000
0010
0000
,
0000
0000
0000
0000
,
0100
0000
0000
0000
,
0000
0000
1000
0000
,
0000
0000
0000
0000
,
0010
0000
0000
0000
,
0000
0000
0010
0000
,
0000
0000
0000
0000
,
0100
0000
0000
0100
,
0000
0000
0100
0000
,
0000
0000
0000
0000
,
0010
0000
0000
0000
,
0000
0000
0000
0000
0000
0000
0000
1000
,
0000
0000
0000
0000
0000
0000
0000
0001
,
0000
0000
0000
0000
,
0000
0000
0000
0000
,
0000
0000
0000
0000
,
0010
0000
0000
0000
,
0000
0000
0000
0000
0000
0000
0000
0100
,
0000
0000
0010
0000
,
0000
0000
0000
0000
,
0000
0000
0001
0000
,
1000
0000
0000
0000
,
0000
1000
0000
0000
,
0000
0000
0001
0000
,
0000
0000
0000
1000
,
0000
0000
0000
0000
,
0010
0000
0000
0000
,
0000
0100
0000
0000
,
0000
0000
0001
0000
,
0000
0000
0000
0010
,
0000
0000
0000
0000
,
0100
0000
0000
0000
,
0000
1000
0000
0000
,
0000
0000
0010
0000
,
0000
0000
0000
0100
,
0000
0000
0000
0000
,
0001
0000
0000
0000
,
0000
1000
0000
0000
,
0000
0000
0010
0000
,
0000
0000
0000
0100
,
0000
0000
0000
0000
,
0001
0000
0000
0000
,
0000
1001
0000
0000
,
0000
0000
1000
0000
,
0000
0000
0000
0000
,
0000
0000
0100
0000
,
0000
0000
0000
0000
,
0000
0000
0010
0000
,
0000
0000
0001
0000
,
0000
0000
1000
0000
;

//---------------dance-single - t7r----------------
#NOTES:
     dance-single:
     t7r:
     Easy:
     11:
     :
0000
0000
0000
0000
,
0000
0000
0000
0000
,
0000
0000
0000
0000
,
0000
0000
0000
0000
,
0000
0000
0000
0000
,
1000
0100
0010
0000
,
0001
0100
0010
1000
,
0002
0000
0000
0000
,
1003
0000
0000
0200
0000
0000
0310
0000
,
0000
0002
0000
0000
0103
0000
0010
0000
,
1000
0000
0000
0020
0000
0000
0130
0000
,
0000
0002
0000
0000
0000
0013
0100
0000
,
1000
0000
0000
0002
0000
0000
0103
0000
,
0000
0020
0000
1030
0001
0000
0010
0000
,
0001
0000
0000
0200
0000
0000
0320
0000
,
0000
0130
0001
0000
0000
1000
0001
0000
,
1000
0000
0100
1000
0100
0000
1000
0000
,
0001
0000
0010
0001
0010
0000
0001
0000
,
2000
0000
0000
3010
0000
0100
0000
0001
,
0000
0010
0000
0100
0000
1000
0000
0001
,
0020
0000
0000
0000
0000
0031
1000
0000
,
0001
0100
1000
0001
,
0010
2000
3100
0020
,
0031
0200
0310
1000
,
2001
0000
3100
0020
,
0000
0031
0200
0000
,
0310
2000
0000
3001
,
0020
0000
1030
0002
,
0000
0103
2000
0000
,
3010
0002
0000
1003
,
0100
0000
0010
0000
0100
0001
0200
0000
,
0000
0301
0000
0000
1000
0000
0000
1100
,
0000
0000
0001
0000
0000
0011
0000
0000
,
1001
1000
0100
1000
,
0001
0100
0101
0101
,
0001
1000
0100
0000
1000
0001
1000
0000
,
1001
0000
0000
1100
0000
1100
0000
0000
,
1001
0000
1001
0000
0000
0101
0000
0001
,
0000
0010
0000
0100
0000
1000
0000
0001
,
0000
0000
0101
0000
0101
0000
0000
1001
,
0000
1001
0000
0000
1100
0000
0000
0000
,
0000
0000
0000
0000
,
1000
0000
0010
0100
0010
1000
0000
0010
,
0100
0010
1000
0000
0010
0100
0010
1000
,
0000
0000
0000
1001
0000
0000
0000
0000
0101
0000
0000
0000
0001
0000
0010
0000
,
0100
0010
0001
0000
0010
0100
0010
0001
,
1000
0000
0010
0100
0010
1000
0001
0000
,
1001
0000
0000
0000
0000
1100
0000
0000
0000
0000
1001
0000
0000
0000
0000
0011
,
0000
0000
0001
0100
0001
0000
1000
0010
,
1000
0000
0001
0000
0000
0000
0000
0000
1000
0000
0000
0100
0000
0000
1000
0000
,
0001
0000
0000
0000
0100
0000
0000
0000
0001
0000
1000
0000
0001
0000
0000
0100
,
0000
0001
1000
0000
0100
0000
1000
0001
,
1000
0000
0000
0010
0000
0000
1000
0000
0001
0000
0000
0000
0010
0000
0000
0000
,
0001
0000
1000
0000
0001
0000
0000
0010
0000
0000
0001
0000
1000
0000
0000
0000
,
0010
0000
0000
0000
1000
0000
0001
0000
1000
0000
0000
0100
0000
0000
0001
0000
,
0100
0000
0000
0000
1000
0000
0000
0000
0010
0000
0100
0000
0001
0000
0000
0100
,
0000
1000
0100
0000
0010
0000
0100
0001
,
1000
0000
0000
0010
0000
0000
0001
0000
0010
0000
0000
0000
1000
0000
0000
0000
,
0100
0000
0010
0000
0001
0000
0000
0010
0000
0000
1000
0000
0010
0000
0000
0000
,
0100
0000
0010
0001
2000
0000
3010
0100
,
0000
0100
0000
0000
0002
0000
0000
0000
2003
0000
0000
0000
3002
0000
0000
0000
,
0013
0000
0100
0000
0000
0100
0000
0000
2000
0000
0000
0000
3020
0000
0000
0000
,
2030
0000
0000
0000
3100
0000
0010
0000
0000
0010
0000
0000
0002
0000
0000
0000
,
1003
0000
0001
0000
0200
0000
0000
0000
0310
0000
1000
0000
0000
1000
0000
0000
,
0002
0000
0000
0000
0013
0000
0100
0000
1000
0000
0000
0010
0000
0000
0100
0000
,
0000
0001
0000
0000
0020
0000
0000
0000
0230
0000
0000
0000
1300
0000
0000
0001
,
0000
0000
0100
0000
0000
0010
0000
0000
2000
0000
0000
0000
3002
0000
0000
0000
,
1003
0000
0000
0010
0000
0000
0001
0000
0000
0010
0000
0000
0200
0000
0000
0000
,
0320
0000
1030
0001
1000
0000
0100
0010
,
0100
1000
0010
0100
0002
0000
0010
0000
,
1003
0000
2000
0010
,
3001
0100
0020
0001
,
0130
0000
0001
0010
,
0100
1000
0100
0010
,
0001
0000
0100
0010
,
1000
0000
2002
0000
,
0000
0000
3003
0000
;

//---------------dance-single - t7r----------------
#NOTES:
     dance-single:
     t7r:
     Medium:
     14:
     :
0000
0000
0000
0000
,
0000
0000
0000
0000
,
0000
0000
0000
0000
,
0000
0000
0000
0000
,
0000
0000
0000
0000
,
0100
0000
0010
1000
0001
0010
0000
0001
,
0100
0100
0010
1000
0100
0010
0001
1000
,
0020
0000
0000
0000
,
2030
0000
3100
0020
0000
0031
0200
0000
,
0000
0320
0000
0130
0001
1000
0001
0010
,
0002
0000
0103
0020
0000
0130
0002
0000
,
0000
2003
0000
0000
3000
0100
0010
0001
,
2000
0000
3010
0200
0000
0301
0020
0000
,
0000
0032
0000
1003
0100
0010
0001
1000
,
0002
0000
0103
0020
0000
0130
0001
2000
,
0000
0000
3100
0010
0200
0000
0000
0000
0300
0000
1000
0000
0001
1000
0001
0000
,
1000
0000
0010
0000
0001
0000
0010
1000
0000
0000
0001
0000
1000
0001
1000
0000
,
0001
0010
1000
0010
0001
0100
0010
1000
,
0200
0000
0301
0200
0000
0320
0000
0032
,
0000
2003
0000
3020
0000
0130
1000
0100
,
0010
0000
1010
0000
1000
0100
0010
0100
,
1000
0010
0100
0001
0010
0100
1000
0001
,
1000
0000
0000
0100
0000
0000
0001
0000
1000
0000
0000
0010
0000
0000
0001
0000
,
1000
0000
0000
0010
0000
0000
0001
0000
1000
0000
0000
0100
0000
0000
0001
0000
,
2000
0000
0000
0100
0000
0000
0100
0000
3100
0000
0000
0000
0020
0000
0000
0001
,
0000
0000
0001
0000
0031
0000
0000
0000
0200
0000
0000
0010
0000
0000
0010
0000
,
0310
0000
0000
0000
2000
0000
0000
0001
0000
0000
0001
0000
3001
0000
0000
0000
,
0020
0000
0000
1000
0000
0000
0100
0000
0130
0000
0000
0000
2000
0000
0000
0010
,
0000
0000
0001
0000
3001
0000
0000
0000
0200
0000
0000
1000
0000
0000
0010
0000
,
0310
0000
0000
0000
2000
0000
0000
0100
0000
0000
0001
0000
3001
0000
0000
0000
,
1000
0000
0100
1000
0001
1000
0100
0000
,
1000
0001
0010
0000
0001
0000
0100
1000
,
0000
0001
0010
0000
1000
0001
0000
1000
,
0100
0000
1000
0001
0100
0001
1000
0000
,
0001
1000
0010
1000
0001
0000
1001
0000
,
1001
0000
0001
0000
0010
0000
0000
0000
0100
0000
1000
0001
1000
0000
0001
1000
,
0001
0000
0000
0101
0000
1010
0000
0000
,
1100
0000
0011
0000
0000
1001
0000
0001
,
0100
0010
1000
0001
0010
0100
1000
0001
,
0000
0000
1100
0000
0011
0000
0000
0101
,
0000
1010
0000
0000
0110
0000
2000
0000
,
0000
3002
0000
0000
0000
0000
2003
0000
0000
0000
0000
3002
0000
0000
0000
0000
,
1003
0000
0000
0100
0000
0000
0010
0000
0001
0000
1000
0000
0000
0100
0000
0000
,
0010
0000
0001
0000
1000
0000
0000
0100
0000
0000
0010
0000
0001
0000
1000
0000
,
0000
0010
0000
0001
0000
0000
0010
0000
0100
0000
0000
0000
0001
0000
0010
0000
,
0100
1000
0010
0000
1000
0100
0010
0001
,
0100
0010
1000
0001
0010
0100
1000
0010
,
0100
0000
0000
1000
0000
0100
0000
0000
0001
0000
0010
0000
0000
1000
0000
0010
,
0000
0000
0100
0000
1000
0000
1000
0000
0001
0000
0001
0000
0100
0010
0100
0010
,
0100
0010
0100
0000
0000
0000
0000
0000
0001
0000
0000
0010
0000
0000
0100
0000
,
1000
0000
0001
0000
0100
0000
0010
0000
1000
0000
0100
0000
1000
0000
0000
0010
,
0000
0100
0001
1000
0100
0010
0001
0100
,
0001
0000
0000
0010
0000
0000
1000
0000
0010
0000
0100
0000
0010
0000
0001
0000
,
1000
0000
0001
0000
1000
0000
0000
0010
0000
0000
0100
0000
0010
0000
0001
0000
,
0010
0000
0100
0000
0010
0000
1000
0000
0001
0000
1000
0100
0000
0000
1000
0000
,
0001
0000
0010
0000
0100
0000
1000
0000
0001
0000
1000
0001
1000
0000
0001
0100
,
0000
0000
0001
0000
1000
0000
0010
0000
0100
0000
0001
0000
1000
0000
0001
1000
,
0001
0000
0010
1000
0000
0000
0010
0000
0100
0000
1000
0000
0010
0000
0100
0000
,
0001
0000
1000
0100
1000
0000
0010
0001
0000
0000
0010
0000
0100
0000
0001
0000
,
1000
0000
0100
1000
0001
0000
0100
0001
2000
0000
0000
0000
3100
0000
0020
0000
,
0000
1000
0000
0000
0130
0000
0000
0000
2000
0000
0000
0000
3002
0000
0000
0000
,
0103
0000
0020
0000
0000
0001
0000
0000
0230
0000
0000
0000
0302
0000
0000
0000
,
2003
0000
0000
0000
3010
0000
0200
0000
0000
1000
0000
0000
0320
0000
0000
0000
,
1030
0000
0001
0000
0020
0000
0000
0000
0130
0000
2000
0000
0000
0010
0000
0000
,
3002
0000
0000
0000
0103
0000
0010
0000
1000
0000
0100
0010
0000
0000
0001
0000
,
1000
0000
0100
0000
0010
0000
0001
0000
1000
0000
0001
1000
0001
0000
0100
0010
,
0000
0000
1000
0000
0001
0000
0100
0000
0010
0000
1000
0000
0001
0000
1000
0001
,
2000
0000
0000
0100
0000
0000
0001
0000
0000
3010
0000
0000
1000
0000
0001
0000
,
0100
0000
0001
1000
0001
0000
0001
0000
0010
0000
0010
0000
0100
0000
0100
0000
,
1000
0000
0000
0001
0000
0000
1000
0000
0000
0001
0000
0000
1000
0000
0000
0001
0000
0000
1000
0000
0000
0001
0000
0000
2000
0000
0000
0000
0000
0000
0000
0000
0000
0000
0000
0000
3010
0000
0000
0000
0000
0000
0000
0000
0100
0000
0000
0000
,
0002
0000
0000
0013
0000
0100
2000
0000
0000
3010
0000
0100
,
0001
0000
1000
0001
0000
0010
0200
0000
0000
0310
0000
0001
,
0200
0000
0000
0310
0000
1000
0010
0000
0100
0001
0000
0010
,
0100
0000
1000
0001
0000
0100
0020
0000
0000
0130
0000
1000
,
0200
0000
0000
0310
0000
0100
0002
0000
0000
0013
0000
0100
,
0010
0000
1000
0000
0010
0000
0002
0000
0000
0000
0000
0000
,
0000
0000
0003
0000
;

//---------------dance-single - t7r----------------
#NOTES:
     dance-single:
     t7r:
     Hard:
     17:
     :
0000
0000
0000
0000
,
0000
0000
0000
0000
,
0000
0000
0000
0000
,
0000
0000
0000
0000
,
0000
0000
0000
0000
,
1000
0000
0010
0000
1000
0100
1000
0100
0010
0000
0100
0000
1000
0001
0100
0000
,
0001
0010
0100
0000
1000
0001
1000
0010
0100
0000
0001
0000
1000
0100
0010
0000
,
0002
0000
0000
0000
,
2003
0000
3100
0020
0000
0130
0002
0000
,
0103
0000
0020
0000
0000
0000
0130
0000
1000
0010
1000
0000
0010
0000
0100
0000
,
0002
0000
0013
0200
0000
0310
2000
0000
,
3010
0000
0200
0000
0000
0000
0000
0000
0300
0000
0010
0000
0001
0100
0010
1000
,
0002
0000
0103
0020
0000
0130
2000
0000
,
3100
0000
0020
0000
0000
0000
1030
0000
0100
0010
0100
0000
0010
0000
0001
0000
,
2000
0000
3010
0002
0000
0013
0200
0001
,
0000
0000
0310
1000
0002
0000
0000
0000
0003
0000
1000
0100
1000
0001
1000
0000
,
0001
0010
0001
0010
0001
0000
1000
0010
0000
0010
0100
0000
0001
0010
0100
0000
,
1000
0010
0100
0000
0001
0010
0001
0000
1000
0010
1000
0000
0001
1000
0010
0000
,
2000
0000
3100
0002
0000
0203
0000
0320
,
0000
0032
0000
0203
0000
1300
0100
0010
,
0100
0000
0000
0000
1010
0000
0000
0000
1000
0001
0100
0000
0001
0000
1000
0000
,
0001
0100
1000
0001
0010
0100
0001
0010
,
2000
0000
0000
3020
0000
0000
0130
0000
2000
0000
0000
3020
0000
0000
0031
0000
,
2000
0000
0000
3200
0000
0000
0310
0000
2000
0000
0000
3200
0000
0000
0310
0000
,
0002
0000
0000
0100
0000
0000
0100
0000
1003
0000
0000
0000
2000
0000
0000
0100
,
0000
0000
0100
0000
3001
0000
0000
0000
0002
0000
0000
0010
0000
0000
0010
0000
,
1003
0000
0000
0000
2000
0000
0000
0010
0000
0000
0010
0000
3001
0000
0000
0000
,
0002
0000
0000
0100
0000
0000
0100
0000
0013
0000
0000
0000
0020
0000
0000
1000
,
0000
0000
1000
0000
0130
0000
0000
0000
0200
0000
0000
0010
0000
0000
0010
0000
,
1300
0000
0000
0000
2000
0000
0000
0010
0000
0000
0010
0000
3001
0000
0000
0000
,
1000
0000
0100
0000
0010
0000
0100
1000
0100
1000
0100
0000
1000
0000
0001
0000
,
0100
0001
0100
0001
1000
0000
0000
0000
0001
0000
0100
0000
1000
0000
0001
0000
,
0010
1000
0001
0010
1000
0001
0100
1000
,
1001
0101
1001
1100
,
1001
0000
1010
0000
1100
0100
1100
0100
,
1100
0000
1000
0010
0100
0001
0100
0001
1000
0100
1000
0100
0010
0001
0010
0001
,
1000
0010
0100
0001
1000
0000
1000
0010
0100
0001
1000
0010
0100
0001
1000
0000
,
1000
0010
0100
0001
1000
0010
0100
0001
1000
0000
1000
0010
0100
0001
1000
0000
,
0100
0010
0001
0000
0100
0010
1000
0000
0001
0010
0100
1000
0001
1000
0001
0100
,
0010
1000
0001
0000
0001
0100
0010
1000
0001
0100
0010
1000
0001
0000
0001
0100
,
0010
1000
0001
0100
0010
1000
0001
0000
0001
0100
0010
1000
0002
0000
0000
0000
,
0000
2003
0000
0000
0000
0000
3002
0000
0000
0000
0000
2003
0000
0000
0000
0000
,
3001
0010
0100
1000
0001
0000
0001
0010
0100
1000
0001
0010
0100
1000
0001
0000
,
0001
0010
0100
1000
0001
0010
0100
1000
0001
0000
0001
0010
0100
1000
0001
0100
,
0010
1000
0001
1000
0010
0100
0001
0000
1000
0100
0010
0001
1000
0000
0001
0000
,
1000
0100
0010
0001
1000
0010
0100
0001
1000
0000
0001
0000
1000
0010
0100
0001
,
1000
0100
0010
0001
0100
0010
1000
0001
0010
0100
1000
0010
0100
0001
1000
0100
,
0010
0001
1000
0001
0000
0100
0001
1000
0010
0000
1000
0100
0010
0001
0000
0100
,
0010
1000
0001
0000
0100
0000
0100
0000
0010
0000
0010
0000
1000
0100
1000
0100
,
0010
0001
0100
0010
1000
0000
0000
0000
0001
0000
0100
0010
0000
0100
0001
0000
,
1000
0100
0010
0001
1000
0010
0100
0001
1000
0000
0100
0010
0100
0000
1000
0100
,
0000
0010
0100
0000
0010
0001
1000
0010
0100
0001
1000
0010
0100
0000
0001
1000
,
0001
0000
0010
0100
0000
0010
0001
0000
1000
0010
0100
0001
1000
0100
0010
0001
,
1000
0000
0010
0100
0010
0000
1000
0010
0000
0100
0010
0000
0001
0010
0100
0010
,
1000
0100
0010
0001
1000
0000
0010
0100
0001
0000
0010
0100
0000
0010
1000
0000
,
0010
0001
0100
0010
1000
0100
0010
0001
1000
0010
0100
0001
1000
0000
0010
0100
,
0000
0010
0001
0000
0010
1000
0100
0010
0001
0100
0010
1000
0001
0010
0100
1000
,
0001
0000
0100
0010
0000
0100
1000
0000
0100
0001
0010
0100
1000
0010
0100
0001
,
1000
0100
0010
0001
1000
0000
0100
0010
0000
0100
0001
0000
0100
1000
0010
0100
,
0001
0010
0100
1000
0001
0100
0010
1000
0002
0000
0000
0000
0100
0000
2003
0000
,
0000
0100
0000
0000
3002
0000
0000
0000
1003
0100
0010
0001
2000
0000
0000
0000
,
0010
0000
3002
0000
0000
0010
0000
0000
2003
0000
0000
0000
3001
0010
0100
1000
,
0002
0000
0000
0000
1000
0000
0023
0000
0000
0001
0000
0000
0130
1000
0001
0010
,
0100
1000
0001
0000
2000
0000
0000
0000
0001
0000
3020
0000
0000
1000
0000
0000
,
0130
0001
1000
0010
0100
0001
1000
0000
0002
0000
0000
0100
0000
0000
1003
0000
,
0100
0010
0001
1000
0010
0100
0001
1000
0010
0000
0100
0001
2000
0000
0000
0100
,
0000
0000
3001
0000
0100
0010
1000
0001
0010
0100
0010
0001
1000
0000
0100
1000
,
0020
0000
0000
0001
0000
0000
0100
0000
0000
0100
0000
0000
1030
0000
0001
1000
,
0100
0000
1000
0001
0100
0000
0010
0000
0110
0000
0010
0000
0110
0000
0010
0000
,
1000
0000
0000
0100
0000
0000
1000
0000
0000
0100
0000
0000
0010
0000
0000
0001
0000
0000
0100
0000
0000
0010
0000
0000
2000
0000
0000
0000
0000
0000
0000
0000
0000
0000
0000
0000
3010
0000
0000
0000
0100
0000
0000
0000
0001
0000
0000
0000
,
2000
0000
0000
3010
0100
0001
0020
0000
0000
0031
0010
0100
,
1000
0001
0100
0010
0000
1000
0002
0000
0000
0013
0100
1000
,
0002
0000
0000
0103
0010
1000
0001
0100
0010
1000
0100
0010
,
0001
1000
0010
0100
0001
1000
0200
0000
0000
0301
0100
0010
,
0200
0000
0000
1300
0010
0100
0020
0000
0000
0031
0010
0100
,
0010
0000
1000
0000
0001
0000
2002
0000
0000
0000
0000
0000
,
0000
0000
3003
0000
;

//---------------dance-single - t7r----------------
#NOTES:
     dance-single:
     t7r:
     Challenge:
     18:
     :
0000
0000
0000
0000
,
0000
0000
0000
0000
,
0000
0000
0000
0000
,
0000
0000
0000
0000
,
0000
0000
0000
0000
,
0100
0000
0001
0000
1000
0000
0010
1000
0001
0000
1000
0000
0100
0010
0001
0000
,
0100
0010
1000
0000
0100
0000
0010
0001
1000
0000
0001
0000
0100
0010
1000
0000
,
0002
0000
0000
0000
,
1003
0000
0100
0000
0010
0000
0100
1000
0100
1000
0001
0000
0100
0000
0001
0000
,
0100
0000
0010
0000
1000
0000
0001
0010
0001
0010
0100
0000
1000
0000
0001
0100
,
0010
0000
1000
0000
0001
0000
0010
0001
0010
0001
1000
0000
0001
0000
0100
0000
,
0010
0000
1000
0000
0001
0000
1000
0100
1000
0100
0010
0000
0100
1000
0001
0100
,
0010
0000
0100
0000
0001
0000
0010
0001
0010
0001
1000
0000
0001
0000
1000
0000
,
0100
0000
0010
0000
0100
0000
1000
0001
1000
0001
0100
0000
0010
0000
1000
0000
,
0001
0000
0010
0100
1000
0000
0010
0100
0001
0100
0010
0000
1000
0000
0100
0010
,
0001
0000
0100
0000
0010
0000
1000
0001
0100
0001
1000
0000
0001
0010
0100
1000
,
0001
0010
0001
0010
0001
0000
1000
0010
0000
0001
0010
1000
0001
0010
0100
0010
,
0001
1000
0010
1000
0010
1000
0001
0010
0001
0010
0001
1000
0010
1000
0010
1000
,
0001
0000
0100
0000
0010
0000
1000
0100
1000
0100
0010
0000
0100
0000
1000
0001
,
0100
0001
1000
0000
0001
0000
0100
0001
1000
0001
0010
0000
0001
0000
0100
0010
,
1000
0000
0100
0000
0010
0000
0001
1000
0001
1000
0010
0000
0100
0001
1000
0000
,
0100
0000
0010
0000
0001
0000
0100
0010
0100
0010
1000
0000
0001
0000
0010
0100
,
1000
0000
0001
0100
0000
0100
1000
0000
0001
0000
1000
0010
0000
0010
0001
1000
,
0010
0100
0001
0000
0010
0100
1000
0000
0001
0000
0100
0010
1000
0000
0100
0010
,
0001
0000
1000
0100
0000
0100
0001
0000
1001
0000
0000
0000
1100
0000
0001
0100
,
0000
0100
1000
0000
1001
0000
0000
0000
0011
0000
1000
0010
0000
0010
0001
0000
,
1001
0000
0000
0000
1010
0000
0001
0010
0000
0010
1000
0000
1001
0000
0000
0000
,
1100
0000
0001
0100
0000
0100
1000
0000
1001
0000
0000
0000
0101
0000
1000
0100
,
0000
0100
0001
0000
1001
0000
0000
0000
1100
0000
0001
0010
0000
0010
0100
0000
,
0101
0000
0001
1000
0100
0000
1000
0010
0000
0010
0100
0000
1100
0000
1000
0001
,
1000
0000
0100
0010
0001
0000
0100
0010
1000
0010
0100
0000
0010
0000
1000
0100
,
0010
0100
1000
0000
0001
0000
0100
0010
1000
0100
1000
0100
0010
0000
0001
0100
,
0001
0100
0010
0000
1000
0010
1000
0010
0100
0000
0001
0010
0001
0010
0100
0000
,
1100
0000
0100
1000
0010
0000
0100
0001
0010
0000
0100
1000
0001
0000
0100
0001
,
1000
0000
0100
1000
0001
0000
0100
0001
1000
0100
1000
0100
1000
0001
0100
0001
,
0100
0001
1000
0100
0010
0001
0100
0010
1000
0100
0010
0001
0100
0010
1000
0001
,
1000
0100
0010
0001
0010
0100
1000
0100
0010
0001
0010
0100
1000
0100
0010
0001
,
0010
0100
1000
0100
0010
0001
0010
0100
1000
0100
0010
0001
0010
0100
2000
0000
,
3020
0000
0032
0000
1003
0100
0001
0010
0100
0010
0001
1000
0001
1000
0001
0100
,
0010
1000
0010
0100
0001
0100
0010
1000
0010
0100
0001
0100
0010
1000
0010
0100
,
0001
0100
0010
1000
0010
0100
0001
0100
0010
1000
0010
0100
0001
1000
0100
0100
,
0001
1000
0001
0100
0100
1000
0001
1000
0100
0100
0001
1000
0001
0100
0100
1000
,
0001
0010
0100
1000
0100
0010
0001
0010
0100
1000
0100
0010
0001
0010
0100
1000
,
0100
0010
0001
0010
0100
1000
0100
0010
0001
0010
0100
1000
0100
0010
0001
0100
,
0001
0100
0001
1000
0100
1000
0100
1000
0001
0100
0010
1000
0010
0100
0001
0100
,
0010
1000
0010
0100
0001
0100
0010
1000
0010
0100
0001
0100
0010
1000
0010
0100
,
0001
0100
0010
1000
0010
0100
0001
0100
0010
1000
0010
0100
0001
0100
0010
1000
,
0001
0010
0001
0010
0001
1000
0010
1000
0010
1000
0001
0010
0001
0010
0001
1000
,
0010
1000
0010
1000
0001
0100
0001
0100
0010
1000
0010
1000
0100
0010
0001
1000
,
0010
0100
0001
1000
0010
0000
0000
0000
1000
0100
1000
0100
0010
0100
0010
0100
,
0010
0001
0010
0001
1000
0010
0100
0001
0100
0010
1000
0001
1000
0100
1000
0100
,
0010
0100
0010
0100
0010
0001
0010
0001
1000
0010
0100
0001
0100
0010
1000
0001
,
1000
0010
1000
0010
0100
0010
0100
0010
0100
0001
0100
0001
1000
0100
0010
0001
,
0010
0100
1000
0001
1000
0010
1000
0010
0100
0010
0100
0010
0100
0001
0010
0100
,
1000
0100
0010
0001
0010
0100
1000
0001
1000
0100
1000
0100
0010
0100
0010
0100
,
0010
0001
0010
0001
1000
0010
0100
0001
0100
0001
1000
0100
1000
0010
1000
0010
,
0100
0010
0100
0010
0100
0001
0100
0001
1000
0100
0010
0001
0010
0100
1000
0001
,
0010
0001
0010
0001
1000
0010
1000
0010
0100
0001
0010
0100
1000
0100
0010
0001
,
1000
0010
0100
0001
0100
0010
0100
0010
1000
0001
1000
0001
0010
0100
1000
0010
,
0100
0001
1000
0100
0010
0001
1000
0001
0100
0000
0001
0010
0100
1000
0010
0100
,
0000
1010
0000
1000
0001
1000
0100
0010
0001
1000
0001
0100
0010
0000
1000
0010
,
0100
0001
0010
0100
0000
0011
0000
0001
1000
0001
0100
0010
1000
0001
1000
0100
,
0010
0100
1000
0100
0010
0100
1000
0001
0000
1001
0000
1000
0001
0010
0100
1000
,
0001
0100
0010
1000
0010
0100
0001
0100
0010
0100
0001
1000
0000
1001
0000
0001
,
1000
0010
0100
0001
1000
0100
0010
0001
1000
0100
1000
0100
0010
0100
0001
0100
,
0000
0110
0000
0010
0001
1000
0010
0100
0001
0010
0001
1000
0001
0100
0001
0100
,
0010
0100
1000
0100
0000
0110
0000
0010
1000
0001
0010
0001
1000
0010
0100
0001
,
0020
0000
0001
0100
0000
0000
1000
0100
0000
0000
0001
0100
0000
0000
1000
0100
,
0030
0000
0001
1000
0200
1000
0001
1000
0000
1000
0001
1000
0000
1000
0001
1000
,
0300
0000
0000
1000
0000
0000
0001
0000
0000
1000
0000
0000
0001
0000
0000
1000
0000
0000
0001
0000
0000
1000
0000
0000
0001
0000
0000
0000
0010
0000
0000
0000
0100
0000
0000
0000
0010
0000
0000
0000
0001
0000
0000
0000
1000
0000
0000
0000
,
0001
0010
0100
1000
0100
0010
0001
0100
0010
1000
0001
1000
,
0001
0010
1000
0010
0001
1000
0010
0100
0001
1000
0010
1000
,
0010
0100
0001
1000
0010
1000
0001
0010
1000
0001
0100
1000
,
0001
0100
1000
0001
0010
1000
0001
0100
0010
1000
0001
0100
,
0001
1000
0100
0010
0001
1000
0010
0100
0001
1000
0001
0010
,
0001
0100
0010
1000
0001
1000
2002
0000
0000
0000
0000
0000
,
0000
0000
3003
0000
;

//---------------dance-double - t7r----------------
#NOTES:
     dance-double:
     t7r:
     Easy:
     11:
     :
00000000
00000000
00000000
00000000
,
00000000
00000000
00000000
00000000
,
00000000
00000000
00000000
00000000
,
00000000
00000000
00000000
00000000
,
00000000
00000000
00000000
00000000
,
10000000
00100000
01000000
00000000
,
00010000
10000000
01000000
00010000
,
00002000
00000000
00000000
00000000
,
00003010
00000000
00000000
00000002
00000000
00000000
00000103
00000000
,
00000000
00000020
00000000
00000000
00001030
00000000
00000100
00000000
,
00010000
00000000
00000000
00002000
00000000
00000000
01003000
00000000
,
00000000
00200000
00000000
00000000
00000000
10300000
00010000
00000000
,
10000000
00000000
00000000
02000000
00000000
00000000
03100000
00000000
,
00000000
00002000
00000000
00013000
00001000
00000000
00000100
00000000
,
00000001
00000000
00000000
00000020
00000000
00000000
00000230
00000000
,
00000000
00010300
00001000
00000000
00000000
00000000
00010000
00000000
,
01000000
00000000
10000000
00010000
10000000
00000000
00000000
00000000
,
00100000
00000000
01000000
00010000
01000000
00000000
00001000
00000000
,
00010000
00000000
00000000
00001000
00000000
00000010
00000000
00000001
,
00000000
00000100
00000000
00000010
00000000
00010000
00000000
00001000
,
00020000
00000000
00000000
00000000
00000000
00031000
00010000
00000000
,
00001000
00000100
00000010
00001000
,
00000001
00000020
00001030
00020000
,
00130000
20000000
30010000
10000000
,
20010000
00000000
31000000
00200000
,
00000000
00310000
00002000
00000000
,
00003010
00000200
00000000
00000301
,
00000020
00000000
00000130
00020000
,
00000000
00031000
00200000
00000000
,
00310000
20000000
00000000
30100000
,
10000000
01000000
10000000
00010000
,
01000000
00000000
00001000
00000000
00010000
00000000
00000000
00010100
,
00000000
00000000
00010000
00000000
00000000
00011000
00000000
00000000
,
00001000
00000100
00000010
00001000
,
00000100
00000010
00000001
00001001
,
00000000
00000001
00000100
00000000
00001000
00000000
00010000
00000000
,
00011000
00000000
00000000
00010100
00000000
00010100
00000000
00000000
,
00011000
00000000
00011000
00000000
00000000
01001000
00000000
00001000
,
00000000
00010000
00000000
00100000
00000000
10000000
00000000
10010000
,
00000000
00000000
11000000
00000000
11000000
00000000
00000000
00110000
,
00000000
00110000
00000000
00000000
00101000
00000000
00000000
00000000
,
00000000
00000000
00000000
00000000
,
00010000
00000000
00001000
00000010
00000100
00000000
00001000
00000000
,
00000001
00000100
00000010
00000000
00001000
00000000
00000001
00000010
,
00000000
00000000
00000000
00001000
00000000
00000000
00000000
00000000
00010000
00000000
00000000
00000000
00100000
00000000
01000000
00000000
,
00010000
00000000
00100000
00000000
01000000
10000000
00010000
00000000
,
10000000
00000000
01000000
00100000
00010000
00000000
10000000
00000000
,
00100000
00000000
00000000
00000000
00000000
00010000
00000000
00000000
00000000
00000000
00001000
00000000
00000000
00000000
00000000
00000010
,
00000000
00000000
00000100
00000000
00000100
00000000
00010000
00001000
,
00010000
00001000
00000000
00000000
00011000
00000000
00010000
00000000
,
01000000
00000000
10000000
00000000
00010000
10000000
00010000
00000000
,
01000000
00000000
00100000
00000000
10000000
00000000
01000000
00100000
,
00010000
00001000
00000010
00000100
,
00000001
00000010
00000100
00000000
00000010
00000000
00000001
00000000
,
00000100
00000000
00000000
00000000
00001000
00000000
00010000
00000000
00001000
00000000
00000000
00000100
00000000
00000000
00000010
00000000
,
00000100
00000000
00000000
00000000
00000001
00000000
00000000
00000000
00000010
00000000
00000100
00000000
00001000
00000000
00000000
00000100
,
00000000
00010000
00001000
00000000
00010000
00000000
01000000
10000000
,
00100000
00000000
00000000
01000000
00000000
00000000
00100000
00000000
10000000
00000000
00000000
00000000
00010000
00000000
00000000
00000000
,
00100000
00000000
00001000
00000000
00010000
00000000
00000000
00001000
00000000
00000000
00000010
00000000
00000001
00000000
00000000
00000000
,
00000100
00000000
00001000
00010000
00002000
00000000
01003000
00010000
,
00000000
00010000
00000000
00000000
20000000
00000000
00000000
00000000
32000000
00000000
00000000
00000000
03200000
00000000
00000000
00000000
,
00301000
00000000
00010000
00000000
00000000
00010000
00000000
00000000
00000020
00000000
00000000
00000000
00002030
00000000
00000000
00000000
,
00003002
00000000
00000000
00000000
00000013
00000000
00000100
00000000
00000000
00000100
00000000
00000000
00000020
00000000
00000000
00000000
,
00000031
00000000
00001000
00000000
00000020
00000000
00000000
00000000
00000130
00000000
00000001
00000000
00000000
00000001
00000000
00000000
,
00002000
00000000
00000000
00000000
00003100
00000000
00010000
00000000
00001000
00000000
00000000
00010000
00000000
00000000
01000000
00000000
,
00000000
10000000
00000000
00000000
00200000
00000000
00000000
00000000
02300000
00000000
00000000
00000000
03010000
00000000
00000000
10000000
,
00000000
00000000
00100000
00000000
00000000
00010000
00000000
00000000
00002000
00000000
00000000
00000000
00023000
00000000
00000000
00000000
,
00031000
00000000
00000000
00000010
00000000
00000000
00000001
00000000
00000000
00000100
00000000
00000000
00000020
00000000
00000000
00000000
,
00020030
00000000
00031000
00010000
00001000
00000000
01000000
00010000
,
10000000
01000000
00100000
00000000
00001000
00000000
00010000
00000000
,
00002000
00003010
00000002
00000103
,
00000010
00001000
00020000
00130000
,
00020000
10030000
00100000
00010000
,
00001000
00100000
02000000
03010000
,
00001000
00000000
00000200
00001300
,
00010000
00000000
00022000
00000000
,
00000000
00000000
00033000
00000000
;

//---------------dance-double - t7r----------------
#NOTES:
     dance-double:
     t7r:
     Medium:
     14:
     :
00000000
00000000
00000000
00000000
,
00000000
00000000
00000000
00000000
,
00000000
00000000
00000000
00000000
,
00000000
00000000
00000000
00000000
,
00000000
00000000
00000000
00000000
,
01000000
00000000
00100000
10000000
00010000
00100000
00000000
00010000
,
01000000
00001000
00010000
00000000
00001000
00000000
00000100
00000001
,
00000020
00000000
00000000
00000000
,
00000032
00000000
00000103
00000020
00000000
00001030
00000002
00000000
,
00000000
00000203
00000000
00000310
00001000
00000001
00001000
00000000
,
00000002
00000000
00000013
00002000
00000000
00013000
00002000
00000000
,
00000000
02003000
00000000
00000000
03000000
00010000
00100000
01000000
,
20000000
00000000
30100000
02000000
00000000
03010000
20000000
00000000
,
00000000
32000000
00000000
03010000
00001000
01000000
00010000
00100000
,
00002000
00000000
00013000
00000020
00000000
00000130
00000001
00002000
,
00000000
00000000
00003100
00001000
00000200
00000000
00000000
00000000
00000300
00000000
00001000
00000000
00000001
00001000
00000001
00000000
,
00001000
00000000
00000010
00000000
00000001
00000000
00000010
00000100
00000000
00000000
00000001
00000000
00001000
00000100
00001000
00000000
,
00000100
00001000
00010000
00100000
00010000
10000000
00100000
10000000
,
00020000
00000000
10030000
02000000
00000000
03020000
00000000
02030000
,
00000000
03200000
00000000
00302000
00000000
00013000
00001000
00000100
,
00000010
00000000
00001010
00000000
00001000
00000100
00000010
00000100
,
00001000
00000001
00000010
00000100
00001000
00010000
00100000
00010000
,
10000000
00000000
00000000
00100000
00000000
00000000
00010000
00000000
00001000
00000000
00000000
00000100
00000000
00000000
00000001
00000000
,
00000010
00000000
00000000
00001000
00000000
00000000
00010000
00000000
00100000
00000000
00000000
10000000
00000000
00000000
00010000
00000000
,
20000000
00000000
00000000
01000000
00000000
00000000
00100000
00000000
30100000
00000000
00000000
00000000
10000000
00000000
00000000
01000000
,
00000000
00000000
00010000
00000000
00010000
00000000
00000000
00000000
00002000
00000000
00000000
01000000
00000000
00000000
00010000
00000000
,
00013000
00000000
00000000
00000000
00001000
00000000
00000000
00010000
00000000
00000000
00000100
00000000
00000100
00000000
00000000
00000000
,
00002000
00000000
00000000
00000010
00000000
00000000
00000100
00000000
00003100
00000000
00000000
00000000
00001000
00000000
00000000
00000001
,
00000000
00000000
00000010
00000000
00000010
00000000
00000000
00000000
00000002
00000000
00000000
00000100
00000000
00000000
00000010
00000000
,
00000013
00000000
00000000
00000000
00000100
00000000
00000000
00010000
00000000
00000000
00001000
00000000
00001000
00000000
00000000
00000000
,
00011000
00000000
00001000
00000000
00000100
00000001
00001000
00000000
,
00000001
00000010
00001000
00000000
00010000
00000000
00100000
10000000
,
00000000
00010000
00100000
00000000
00001000
00010000
00000000
00000000
,
00011000
00010100
00011000
00011000
,
01001000
00000000
00011000
00000000
00001000
00001000
00010000
00010000
,
01000000
00000000
10000000
00010000
20000000
00000000
00000000
00000000
01000000
00000000
00000000
00000000
30010000
10000000
00010000
10000000
,
00010000
00000000
00000000
11000000
00000000
00110000
00000000
00000000
,
00011000
00000000
00010100
00000000
00000000
00011000
00000000
00010000
,
00000010
00001000
00000001
00000010
00000100
00001000
00000001
00000100
,
00000000
00000000
00000110
00000000
00001010
00000000
00000000
00001100
,
00000000
00010100
00000000
00000000
00011000
00000000
00002000
00000000
,
00000000
00023000
00000000
00000000
00000000
00000000
00032000
00000000
00000000
00000000
00000000
00023000
00000000
00000000
00000000
00000000
,
00031000
00000000
00000000
00010000
00000000
00000000
00100000
00000000
01000000
00000000
00010000
00000000
00000000
00100000
00000000
00000000
,
01000000
00000000
10000000
00000000
01000000
00000000
00000000
00100000
00000000
00000000
00010000
00000000
00001000
00000000
00000010
00000000
,
00000000
00000100
00000000
00000001
00000000
00000000
00001000
00000000
00000100
00000000
00000000
00000000
00010100
00000000
00000000
00000000
,
00010000
00001000
01000000
00010000
10000000
00000000
10010000
00000000
,
10000000
00100000
01000000
00001000
00010000
00000000
00011000
00000000
,
00001000
00000000
00000000
00000010
00000000
00000001
00000000
00000000
00000100
00000000
00001000
00000000
00000000
00010000
00000000
00100000
,
00000000
00000000
00000000
00000000
10000000
00000000
10000000
00000000
01000000
00000000
01000000
00000000
00010000
00001000
00010000
00001000
,
00010000
00001000
00010000
00000000
00000000
00000000
00000000
00000000
00011000
00000000
00000000
00001000
00000000
00000000
00000100
00000000
,
00000010
00000000
00000100
00000000
00000001
00000000
00001000
00000000
00000100
00000000
00000000
00000000
00001000
00000000
00000000
00000001
,
00000000
00000010
00000100
00001000
00000100
00010000
00001000
00000000
,
01000000
00000000
00000000
00010000
00000000
00000000
10000000
00000000
00100000
00000000
01000000
00000000
00010000
00000000
10000000
00000000
,
01000000
00000000
00000000
00000000
10000000
00000000
00000000
00100000
00000000
00000000
00010000
00000000
00001000
00000000
00000010
00000000
,
00000100
00000000
00001000
00000000
00000001
00000000
00000000
00000000
00001000
00000000
00000001
00000100
00000000
00000000
00001000
00000000
,
00000100
00000000
00000010
00000000
00000100
00000000
00000001
00000000
00001000
00000000
00000000
00000000
00000100
00000000
00010000
00001000
,
00000000
00010000
01000000
00100000
01000000
10000000
00010000
00000000
,
10000000
00000000
00100000
01000000
00000000
00000000
00100000
00000000
00010000
00000000
00100000
00000000
10000000
00000000
01000000
00000000
,
00100000
00000000
00000000
00000000
00001000
00000000
00010000
00001000
00000000
00000000
00000010
00000000
00000001
00000000
00001000
00000000
,
00000001
00000100
00001000
00010000
00002000
00000000
01003000
00020000
,
00000000
00100000
00000000
00000000
20030000
00000000
00000000
00000000
30200000
00000000
00000000
00000000
20300000
00000000
00000000
00000000
,
31000000
00000000
00200000
00000000
00000000
10000000
00000000
00000000
02300000
00000000
00000000
00000000
23000000
00000000
00000000
00000000
,
30020000
00000000
00000000
00000000
02030000
00000000
00010000
00000000
00000000
00001000
00000000
00000000
03200000
00000000
00000000
00000000
,
01300000
00000000
00001000
00000000
00020000
00000000
00000000
00000000
00031000
00000000
00000200
00000000
00000000
00000001
00000000
00000000
,
00000320
00000000
00000000
00000000
00000130
00000000
00000001
00000000
00001000
00000000
00000001
00000010
00000000
00000000
00000001
00000000
,
00000100
00000000
00000010
00000000
00001000
00000000
00000100
00000000
00010000
00000000
00001000
00000000
00100000
00000000
00010000
01000000
,
00000000
00010000
00100000
01000000
10000000
00100000
10000000
01000000
,
00100000
00000000
00010000
10000000
00000000
00000000
00100000
00000000
00010000
00000000
00001000
00000000
00000010
00000000
00000100
00000000
,
00010000
00000000
00001000
00010000
00001000
00000000
00001000
00000000
00010000
00000000
00010000
00000000
00000100
00000000
00000100
00000000
,
00001000
00000000
00000000
00000001
00000000
00000000
00001000
00000000
00000000
00000001
00000000
00000000
00001000
00000000
00000000
00000001
00000000
00000000
00001000
00000000
00000000
00000001
00000000
00000000
00002000
00000000
00000000
00000000
00000000
00000000
00000000
00000000
00000000
00000000
00000000
00000000
00003001
00000000
00000000
00000000
00000000
00000000
00000000
00000000
00000100
00000000
00000000
00000000
,
00000020
00000000
00000000
00001030
00000000
00000100
00020000
00000000
00000000
00031000
00000000
01000000
,
00010000
00000000
00100000
00010000
00000000
10000000
00200000
00000000
00000000
01300000
00000000
00010000
,
20000000
00000000
00000000
31000000
00000000
00100000
00010000
00000000
10000000
00100000
00000000
00010000
,
00001000
00000000
00000100
00000010
00000000
00001000
00000200
00000000
00000000
00000310
00000000
00000001
,
00002000
00000000
00000000
00003001
00000000
00000010
00000200
00000000
00000000
00010300
00000000
00001000
,
01000000
00000000
00010000
00000000
10000000
00000000
20020000
00000000
00000000
00000000
00000000
00000000
,
00000000
00000000
30030000
00000000
;

//---------------dance-double - t7r----------------
#NOTES:
     dance-double:
     t7r:
     Hard:
     17:
     :
00000000
00000000
00000000
00000000
,
00000000
00000000
00000000
00000000
,
00000000
00000000
00000000
00000000
,
00000000
00000000
00000000
00000000
,
00000000
00000000
00000000
00000000
,
00001000
00000000
01000000
00000000
00100000
10000000
00100000
10000000
00010000
00000000
10000000
00000000
01000000
00100000
00010000
00000000
,
10000000
01000000
00100000
00000000
00010000
00000000
00001000
00000010
00000100
00000000
00000010
00000000
00001000
00000001
00000010
00000000
,
00000002
00000000
00000000
00000000
,
00002003
00000000
00003100
00000020
00000000
00000130
00000002
00000000
,
00000103
00000000
00000020
00000000
00000000
00000000
00000130
00000000
00001000
00000010
00001000
00000000
00000001
00000000
00000100
00000000
,
00002000
00000000
00013000
02000000
00000000
03100000
00020000
00000000
,
10030000
00000000
00200000
00000000
00000000
00000000
00000000
00000000
00300000
00000000
01000000
00000000
00010000
10000000
01000000
00100000
,
00020000
00000000
10030000
00200000
00000000
01300000
00200000
00000000
,
10300000
02000000
00000000
03010000
00001000
00000100
00000001
00000010
,
00000200
00000000
00001300
00000002
00000000
00000103
00001000
00020000
,
00000100
00000000
00031000
00010000
00002000
00000000
00000000
00000000
00003000
00000000
01000000
00010000
10000000
00100000
10000000
00000000
,
00010000
00100000
00010000
00100000
00010000
00000000
10000000
00100000
00000000
00100000
01000000
00000000
00010000
00100000
01000000
00000000
,
10000000
00000000
00100000
00000000
00010000
00001000
00010000
00000000
00001000
00000000
00000010
00000000
00000001
00001000
00000001
00000000
,
00000200
00000000
00001300
00000200
00000000
00000320
00000000
00002030
,
00000000
00003200
00000000
00020300
00000000
00031000
00010000
01000000
,
00100000
00000000
00000000
00000000
00110000
00000000
00000000
00000000
10000000
00010000
01000000
00000000
00010000
00000000
10000000
00000000
,
00100000
00010000
00001000
01000000
00100000
00010000
00001000
00000010
,
00000200
00000000
00000000
00002300
00000000
00000000
00003001
00000000
00000200
00000000
00000000
00002300
00000000
00000000
00013000
00000000
,
02000000
00000000
00000000
03200000
00000000
00000000
00310000
00000000
20000000
00000000
00000000
30200000
00000000
00000000
00310000
00000000
,
00002000
00000000
00000000
01000000
00000000
00000000
01000000
00000000
00013000
00000000
00000000
00000000
00020000
00000000
00000000
00000100
,
00000000
00000000
00000100
00000000
00031000
00000000
00000000
00000000
00002000
00000000
00000000
00100000
00000000
00000000
00100000
00000000
,
00013000
00000000
00000000
00000000
00020000
00000000
00000000
00000010
00000000
00000000
00000010
00000000
00031000
00000000
00000000
00000000
,
00002000
00000000
00000000
00000100
00000000
00000000
01000000
00000000
00013000
00000000
00000000
00000000
00020000
00000000
00000000
01000000
,
00000000
00000000
00000100
00000000
00031000
00000000
00000000
00000000
00002000
00000000
00000000
00000010
00000000
00000000
00100000
00000000
,
00013000
00000000
00000000
00000000
00020000
00000000
00000000
00100000
00000000
00000000
00000010
00000000
00031000
00000000
00000000
00000000
,
00001000
00000000
00010000
00000000
01000000
00000000
10000000
00100000
10000000
00100000
10000000
00000000
00010000
00000000
10000000
00000000
,
00100000
01000000
00100000
00000000
10000000
00000000
00010000
00000000
10000000
00000000
01000000
00000000
00010000
00000000
00001000
00000000
,
00000010
00000001
00000100
00001000
00010000
00100000
10000000
00010000
,
10010000
11000000
01100000
00101000
,
00011000
00000000
00010010
00000000
00001010
00000010
00001010
00000010
,
00001010
00000000
00000010
00001000
00000001
00000010
00000001
00000010
00000100
00001000
00000100
00010000
00001000
01000000
00010000
10000000
,
01000000
00000000
00010000
00001000
00010000
00000000
01000000
00000000
10000000
00000000
01000000
00000000
00010000
00001000
00010000
00000000
,
01000000
00000000
10000000
00000000
01000000
00000000
00010000
00001000
00010000
00000000
01000000
00000000
10000000
00000000
00100000
00000000
,
01000000
00001000
00010000
00000000
00001000
00010000
00000100
00000000
00001000
00000001
00000010
00000100
00001000
00000001
00000100
00000000
,
00001000
00010000
00001000
00000000
00000100
00000000
00000001
00000000
00000100
00000000
00001000
00010000
00001000
00000000
00000100
00000000
,
00000001
00000000
00000100
00000000
00001000
00010000
00001000
00000000
00010000
00000000
01000000
10000000
00020000
00000000
00000000
00000000
,
00000000
02030000
00000000
00000000
00000000
00000000
03002000
00000000
00000000
00000000
00000000
00023000
00000000
00000000
00000000
00030100
,
00000010
00000000
00001000
00010000
00001000
00000000
00000010
00000000
00000001
00000000
00000010
00000000
00001000
00010000
00001000
00000000
,
00000010
00000000
00000001
00000000
00000010
00000000
00001000
00010000
00001000
00000000
00000010
00000000
00000001
00000000
00000100
00000000
,
00001000
00010000
00001000
01000000
00010000
00000000
10000000
00000000
00100000
00000000
00010000
00001000
00010000
00000000
00100000
00000000
,
10000000
00000000
00100000
00000000
00010000
00001000
00010000
00000000
00100000
00000000
10000000
00000000
00100000
00000000
00010000
00001000
,
00010000
00000000
00100000
00000000
10000000
00000000
00100000
00000000
00010000
00001000
00010000
00000000
00001000
00000000
00000010
00000100
,
00001000
00000001
00000100
00000001
00000000
00000100
00000001
00001000
00000010
00000000
00001000
00000100
00010000
00001000
00000000
01000000
,
00010000
10000000
00100000
00000000
10000000
00000000
10000000
00000000
01000000
00000000
01000000
00000000
00010000
00001000
00010000
00001000
,
00010000
00000010
00000100
00000001
00001000
00000000
00000000
00000000
00000001
00000000
00000100
00000001
00000000
00000100
00000010
00000000
,
00001000
00000100
00000010
00000001
00001000
00000010
00000100
00000001
00001000
00000000
00000001
00000010
00000100
00000000
00001000
00000010
,
00000000
00010000
00001000
00000000
01000000
00010000
10000000
00100000
01000000
00010000
10000000
01000000
00100000
00000000
01000000
10000000
,
00010000
00000000
01000000
00010000
00000000
00100000
00001000
00000000
00010000
00000010
00001000
00000001
00000100
00000010
00001000
00000001
,
00000010
00000000
00000001
00000100
00000010
00000000
00001000
00000001
00000000
00000100
00000010
00000000
00001000
00000001
00000010
00000100
,
00010000
00001000
01000000
00010000
10000000
00000000
01000000
00100000
00010000
00000000
01000000
10000000
00000000
01000000
00100000
00000000
,
10000000
01000000
00100000
00010000
10000000
00100000
01000000
00010000
10000000
00000000
01000000
00010000
00001000
00000000
00000100
00000010
,
00000000
00001000
00000100
00000000
00001000
00000010
00000100
00000001
00001000
00000001
00000010
00000100
00001000
00000000
00000001
00001000
,
00000001
00000000
00000100
00000010
00000000
00000100
00001000
00000000
00000100
00000001
00001000
00000100
00010000
00001000
00010000
00100000
,
01000000
00000000
00100000
10000000
00010000
00000000
10000000
01000000
00000000
00010000
00001000
00000000
00000010
00000001
00001000
00000001
,
00000100
00000001
00001000
00000010
00010000
00000000
00001000
01000000
00020000
00000000
00000000
00000000
00100000
00000000
20030000
00000000
,
00000000
00100000
00000000
00000000
30020000
00000000
00000000
00000000
10030000
01000000
00100000
00010000
20000000
00000000
00000000
00000000
,
01000000
00000000
30020000
00000000
00000000
00100000
00000000
00000000
20030000
00000000
00000000
00000000
30100000
00000000
00010000
00001000
,
00020000
00000000
00000000
00000000
00001000
00000000
00030200
00000000
00000000
00000001
00000000
00000000
00000320
00000000
00000000
00000000
,
00000031
00000100
00000010
00001000
00000002
00000000
00000000
00000000
00000010
00000000
00002003
00000000
00000000
00000100
00000000
00000000
,
00003002
00000000
00000000
00000000
00000103
00000000
00001000
00010000
00002000
00000000
00000000
00010000
00000000
00000000
02003000
00000000
,
00000000
10000000
00000000
00000000
03200000
00000000
00000000
00000000
10300000
01000000
00100000
00010000
20000000
00000000
00000000
00100000
,
00000000
00000000
30020000
00000000
00000000
00100000
00000000
00000000
20030000
00000000
00000000
00000000
31000000
00000000
00010000
00001000
,
00020000
00000000
00000000
01000000
00000000
00000000
00000100
00000000
00000000
00000100
00000000
00000000
00031000
00000000
00010000
00000100
,
00001000
00000000
00000001
00001000
00000001
00000000
00000001
00000000
00000010
00000000
00000010
00000000
00001000
00000000
00001000
00000000
,
00010000
00000000
00000000
00000100
00000000
00000000
00001000
00000000
00000000
00000001
00000000
00000000
00000010
00000000
00000000
00000100
00000000
00000000
00010000
00000000
00000000
00001000
00000000
00000000
00200000
00000000
00000000
00000000
00000000
00000000
00000000
00000000
00000000
00000000
00000000
00000000
00310000
00000000
00000000
00000000
10000000
00000000
00000000
00000000
00100000
00000000
00000000
00000000
,
02000000
00000000
00000000
03010000
10000000
01000000
00200000
00000000
00000000
00301000
00010000
00000010
,
00001000
00000000
00001000
00000001
00000000
00000001
00000020
00000000
00000000
00000031
00000100
00000010
,
00002000
00000000
00000000
00003001
00000010
00000100
00010000
00001000
00010000
00100000
10000000
01000000
,
00100000
00010000
00001000
00000100
00000010
00000001
00002000
00000000
00000000
00003010
00000100
00000001
,
00002000
00000000
00000000
00003001
00000010
00001000
00020000
00000000
00000000
00031000
01000000
00100000
,
10000000
00000000
01000000
00000000
00010000
00000000
00022000
00000000
00000000
00000000
00000000
00000000
,
00000000
00000000
00033000
00000000
;

//---------------dance-double - t7r----------------
#NOTES:
     dance-double:
     t7r:
     Challenge:
     18:
     :
00000000
00000000
00000000
00000000
,
00000000
00000000
00000000
00000000
,
00000000
00000000
00000000
00000000
,
00000000
00000000
00000000
00000000
,
00000000
00000000
00000000
00000000
,
00010000
00000000
00000100
00000000
00001000
00000000
00000001
00001000
00000001
00001000
00000010
00000000
00000100
00000001
00001000
00000000
,
00000100
00010000
00001000
00000000
00010000
00000000
01000000
10000000
00100000
00000000
00010000
00000000
00001000
00000100
00000010
00000000
,
00002000
00000000
00000000
00000000
,
00003001
00000000
00000010
00000000
00000100
00000000
00000010
00000001
00000010
00000001
00001000
00000000
00000001
00000000
00000100
00000000
,
00001000
00000000
00010000
00000000
01000000
00000000
10000000
00100000
10000000
00100000
01000000
00000000
00010000
00000000
10000000
00000000
,
01000000
00000000
00010000
00000000
00001000
00000000
01000000
00010000
01000000
00010000
10000000
00000000
00100000
00000000
00010000
00000000
,
00001000
00000000
00000010
00000000
00000100
00000000
00000010
00000001
00000010
00000001
00001000
00000000
00000001
00000100
00000010
00001000
,
00000001
00000000
00000010
00000000
00001000
00000000
00010000
00000100
00010000
00000100
00001000
00000000
00000001
00000000
00000100
00000000
,
00001000
00000000
00010000
00000000
00100000
00000000
01000000
00010000
01000000
00010000
10000000
00000000
01000000
00100000
00010000
00000000
,
10000000
00000000
00010000
00000000
00100000
00000000
00001000
00010000
00001000
00010000
00000010
00000000
00001000
00000000
00000001
00000000
,
00000100
00000000
00001000
00010000
00000100
00000000
00001000
00000001
00001000
00000001
00000100
00000000
00001000
00010000
00000100
00001000
,
00000001
00000010
00000001
00000010
00000001
00000000
00000010
00001000
00000000
00010000
00001000
00000000
00010000
00000000
00100000
00000000
,
10000000
00100000
10000000
00100000
10000000
00000000
00100000
00000000
00010000
00001000
00010000
00000000
00001000
00000010
00000100
00000000
,
00001000
00000000
00000001
00000000
00000100
00000000
00001000
00010000
00001000
00010000
00000100
00000000
00001000
00000000
00000001
00000000
,
00000010
00000000
00001000
00000000
00010000
00000000
00001000
01000000
00001000
01000000
00100000
00000000
01000000
00010000
10000000
00000000
,
01000000
00000000
00100000
00000000
00010000
00000000
00001000
00000010
00001000
00000010
00000100
00000000
00000001
00001000
00000100
00000000
,
00000010
00000001
00000100
00001000
00010000
00100000
10000000
01000000
,
00010000
00000000
00001000
00000100
00000000
00001000
00010000
00001000
00100000
00000000
01000000
00010000
00000000
00001000
00010000
00001000
,
00000010
00000000
00000001
00000000
00001000
00000100
00010000
00000000
00000100
00010000
00001000
01000000
00000000
00010000
00100000
00000000
,
00020000
00000000
00000000
01000000
00000000
00000000
10000000
00000000
00100000
00000000
00000000
00000000
00032000
00000000
00000000
00000100
,
00000000
00000000
00000001
00000000
00000010
00000000
00000000
00000000
00023000
00000000
00000000
00100000
00000000
00000000
10000000
00000000
,
01000000
00000000
01000000
00000000
00032000
00000000
00000000
00000010
00000000
00000000
00000001
00000000
00000100
00000000
00000100
00000000
,
00013000
00000000
10000000
01000000
00000000
01000000
00010000
00000000
00011000
00000000
00000000
00000000
00010100
00000000
00000001
00000100
,
00000000
00000100
00001000
00000000
00010000
00000000
01000000
00000000
01100000
00000000
10000000
00100000
00000000
00100000
00010000
00000000
,
00011000
00000000
00000000
00000000
00010010
00000000
00000001
00000010
00000000
00000010
00001000
00000000
00011000
00000000
00000000
00000000
,
00101000
00000000
10000000
01000000
00100000
00000000
01000000
10000000
00010000
10000000
01000000
00000000
10000000
00000000
00100000
01000000
,
00001000
00010000
00001000
00000000
00010000
00000000
00001000
00000100
00000001
00000000
00000010
00000100
00001000
00000000
00001100
00000000
,
00000100
00010000
00001000
00000000
00011000
00000000
00001000
01000000
00010000
00000000
01010000
00000000
00010000
10000000
01000000
00000000
,
11000000
00000000
10000000
01000000
00100000
00000000
00010000
00001000
00000100
00000000
00000010
00000001
00001000
00000000
00000001
00000100
,
00000010
00000000
00001000
00010000
01000000
00000000
00100000
10000000
00010000
00100000
00010000
00100000
00010000
00000000
00100000
00000000
,
00001000
00010000
00000100
00001000
00000100
00001000
00000001
00001000
00000001
00000100
00000001
00000100
00000010
00010000
00000010
00010000
,
00001000
00000000
00010000
01000000
10000000
01000000
00010000
00001000
00010000
00001000
00010000
00000000
00001000
00000100
00000001
00000100
,
00001000
00010000
00001000
00010000
00001000
00000000
00010000
01000000
10000000
01000000
00010000
00001000
00010000
00001000
00020000
00000000
,
00032000
00000000
00003020
00000000
00000031
00000100
00000010
00001000
00000001
00000010
00000100
00010000
00001000
00010000
00001000
00000000
,
00010000
00100000
10000000
00100000
00010000
00001000
00010000
00001000
00010000
00000000
00001000
00000010
00000001
00000010
00001000
00010000
,
00001000
00010000
00001000
00000000
00010000
00100000
10000000
00100000
00010000
00001000
00010000
00001000
00010000
00000100
00001000
00001000
,
00010000
00001000
01000000
00010000
00010000
00001000
00010000
00000100
00001000
00001000
00010000
00001000
01000000
00010000
00010000
00000000
,
00001000
00010000
00000100
00000010
00000100
00001000
00000001
00000100
00000010
00000000
00000100
00000001
00001000
00000100
00010000
00001000
,
01000000
00010000
10000000
00000000
00010000
00100000
01000000
00100000
00001000
00010000
00000100
00001000
00000001
00000000
00000100
00000000
,
00001000
00010000
00100000
10000000
00000000
01000000
00010000
00001000
00000010
00000000
00000001
00000000
00001000
00000100
00000010
00000001
,
00001000
00000000
00000001
00000000
00000100
00000010
00001000
00000001
00001000
00000000
00000100
00000000
00010000
00001000
01000000
00010000
,
01000000
00000000
00010000
00000000
10000000
01000000
00100000
00010000
10000000
00000000
00100000
00000000
10000000
00010000
00100000
00001000
,
00010000
00000000
00001000
00000010
00000001
00000100
00000000
00001000
00010000
00100000
10000000
00000000
01000000
00010000
00001000
00000010
,
00000000
00000001
00000100
00001000
00010000
00001000
00010000
00001000
01000000
00010000
01000000
00010000
10000000
01000000
00100000
00010000
,
00001000
00000010
00000100
00000001
00001000
00000000
00000000
00000000
00000001
00000010
00000100
00000010
00000001
00000000
00000100
00000000
,
00001000
00010000
00000000
00001000
00100000
00010000
10000000
01000000
00100000
01000000
10000000
00010000
10000000
00100000
01000000
00100000
,
10000000
00000000
01000000
00000000
00010000
00001000
00000000
00010000
00000010
00001000
00000001
00000100
00000010
00000100
00000001
00001000
,
00000001
00000100
00000010
00000100
00000001
00000000
00000010
00000000
00001000
00010000
00000000
00001000
01000000
00010000
10000000
00100000
,
01000000
00100000
10000000
00010000
10000000
01000000
00100000
01000000
10000000
00000000
00100000
00000000
00010000
00001000
00000000
00000010
,
00000100
00001000
00000001
00000010
00000100
00000010
00000001
00001000
00000001
00000100
00000001
00001000
00000001
00000010
00000100
00001000
,
00000001
00000100
00000000
00001000
00010000
00000000
00000100
00001000
00000001
00000100
00000010
00010000
00001000
01000000
00010000
10000000
,
00010000
00100000
00010000
10000000
01000000
00100000
00000000
00001000
00010000
00000000
00001000
01000000
00010000
00100000
00001000
00010000
,
00000010
00001000
00000001
00001000
00000001
00000010
00000100
00001000
00000001
00000010
00000000
00001000
00010000
00000000
00000010
00001000
,
00000001
00000100
00000001
00001000
00000100
00010000
00001000
00010000
00001000
01000000
00010000
10000000
00010000
00100000
00010000
10000000
,
00100000
01000000
00001000
00010000
00000100
00001000
00000001
00000010
00000001
00000000
00000010
00000100
00001000
00000001
00001000
00000010
,
00000000
00001000
00000000
00000001
00000100
00000000
00001000
00010000
00001000
00000000
01000000
00010000
10000000
00000000
00100000
01000000
,
00010000
10000000
00010000
00100000
00000000
00010000
00000000
10000000
01000000
00000000
00010000
00001000
00010000
00000000
00000100
00001000
,
00000001
00000000
00000100
00000010
00001000
00000001
00001000
00000100
00000000
00001000
00000000
00000001
00000010
00000000
00001000
00010000
,
00001000
00000000
00100000
00010000
10000000
00000000
00100000
01000000
00010000
10000000
00010000
00100000
00000000
00010000
00000000
10000000
,
01000000
00000000
00010000
00001000
00010000
00000000
00000100
00001000
00000001
00000100
00000010
00000100
00000001
00001000
00000100
00000010
,
00000001
00000100
00000000
00001000
00010000
00000000
00001000
01000000
00010000
10000000
01000000
10000000
00010000
00100000
00010000
10000000
,
00100000
01000000
00010000
10000000
00100000
00010000
00000000
00001000
00010000
00000000
00001000
00000010
00000100
00000010
00000001
00001000
,
00000100
00010000
00001000
00010000
00000100
00010000
00001000
00010000
00000100
00010000
00000000
00001000
01000000
00000000
00010000
00100000
,
00010000
10000000
01000000
00010000
00002000
00000000
00010000
00000100
00000000
00000000
00000100
00010000
00000000
00000000
00010000
00000100
,
00003000
00000000
00000000
00000001
00000000
00000000
00001000
00000000
00000000
00000001
00000000
00000000
00000010
00000000
00000000
00000100
00000000
00000000
00001000
00000000
00000000
00010000
00000000
00000000
01000000
00000000
00000000
00000000
00010000
00000000
00000000
00000000
10000000
00000000
00000000
00000000
00100000
00000000
00000000
00000000
10000000
00000000
00000000
00000000
00010000
00000000
00000000
00000000
,
00100000
00001000
00010000
00000010
00001000
00000001
00000100
00000001
00001000
00000100
00010000
00001000
,
00010000
00100000
10000000
00010000
00100000
10000000
00100000
00001000
00010000
00001000
00000010
00000100
,
00000010
00000001
00000100
00001000
00010000
00000100
00001000
00000001
00000100
00001000
00010000
01000000
,
10000000
00100000
01000000
00010000
10000000
01000000
00010000
00000100
00001000
00000001
00000100
00000010
,
00001000
00000100
00010000
00001000
01000000
00010000
10000000
00100000
01000000
00010000
00001000
00000010
,
00000100
00000001
00001000
00000100
00010000
00001000
00022000
00000000
00000000
00000000
00000000
00000000
,
00000000
00000000
00033000
00000000
;
