#TITLE:冥 (かめりあ's "甦" Remix);
#ARTIST:Remixed by かめりあ;
#TITLETRANSLIT:Mei (Camellia's "so" Remix);
#ARTISTTRANSLIT:Remixed by Camellia;
#BANNER:Mei (Camellia's ''so'' Remix).png;
#BACKGROUND:Mei (Camellia's ''so'' Remix)-bg.png;
#JACKET:Mei (Camellia's ''so'' Remix)-jacket.png;
#CDTITLE:./CDTITLES/BEATMANIA IIDX.PNG;
#MUSIC:Mei (Camellia's ''so'' Remix).ogg;
#SAMPLESTART:32.857;
#SAMPLELENGTH:15;
#DISPLAYBPM:70:210;
#BPMS:0=210,180=105,196=120,200=130,204=140,208=150,212=160,216=170,220=180,224=190,228=200,232=210,236=220,240=230,244=210,360=205,368=200,376=195,380=185,382=160,383=100,384=125,385=105,386=70;
#BGCHANGES:0=../../../BGAs/19cy.mp4=1=0=0=1=====;

//---------------dance-single - t7r----------------
#NOTES:
     dance-single:
     t7r:
     Beginner:
     5:
     :
0000
0000
0000
0000
,
0000
0000
0000
0000
,
0000
0000
0000
0000
,
0000
0000
0000
0000
,
0000
0000
0000
0000
,
1000
0000
0000
0000
,
0000
0000
0000
0000
,
0001
0000
0000
0000
,
0000
0000
0000
0000
,
0100
0000
0000
0000
,
0000
0000
0000
0000
,
0010
0000
0000
0000
,
0000
0000
0000
0000
,
0000
1000
0000
0000
,
0000
0000
0000
0000
,
0000
0001
0000
0000
,
0000
0000
0000
0000
,
0000
0100
0000
0000
,
0000
0000
0000
0000
,
0000
0010
0000
0000
,
0000
0000
0000
0000
,
1000
0000
1000
0000
,
0000
0000
0000
0000
,
0001
0000
0001
0000
,
0000
0000
0000
0000
,
0010
0000
0000
0000
,
0010
0000
0000
0000
,
0100
0000
0100
0000
,
0100
0000
0000
0000
,
0010
0000
0000
0000
,
0010
0000
0000
0000
,
0001
0000
0000
0000
,
0001
0000
0000
0000
,
1000
0000
0000
0000
,
1000
0000
0000
0000
,
0010
0000
0000
0000
,
0010
0000
0000
0000
,
0100
0000
0000
0000
,
0000
0000
0000
0000
,
0010
0000
0000
0000
,
0000
0000
0000
0000
,
1000
0000
0000
0000
,
0000
0000
0000
0000
,
0001
0000
0000
0000
,
0001
0000
0000
0000
,
1001
0000
0000
0000
,
0000
0000
0000
0000
,
0000
0000
0000
0000
,
0000
0000
0000
0000
,
1000
0000
0000
0000
,
0001
0000
0000
0000
,
0100
0000
0000
0000
,
0010
0000
0000
0000
,
1000
0000
0000
0000
,
0001
0000
0000
0000
,
0100
0000
0000
0000
,
0010
0000
0000
0000
,
1000
0000
0000
0000
,
0001
0000
0000
0000
,
0100
0000
0000
0000
,
0010
0000
0000
0000
,
1000
0000
0000
0000
,
0000
0000
0000
0000
,
0000
0000
0000
0000
,
0000
0000
0000
0000
,
0001
0000
0000
0000
,
0010
0000
0000
0000
,
0000
0000
0000
0000
,
0100
0000
0000
0000
,
0000
0000
0000
0000
,
1000
0000
0000
0000
,
0000
0000
0000
0000
,
0010
0000
0000
0000
,
0000
0000
0000
0000
,
0000
0000
0100
0000
,
0100
0000
0000
0000
,
0000
0000
0010
0000
,
0010
0000
0000
0000
,
1000
0000
0000
0000
,
0000
0000
0000
0000
,
0001
0000
0000
0000
,
0000
0000
0000
0000
,
0010
0000
0000
0000
,
0010
0000
0000
0000
,
0100
0000
0000
0000
,
0100
0000
0000
0000
,
1000
0000
0000
0000
,
1000
0000
0000
0000
,
0001
0000
0000
0000
,
0001
0000
0000
0000
,
0100
0000
0000
0000
,
0000
0000
0000
0000
,
0010
0000
0000
0000
,
0000
0000
0000
0000
,
1000
0000
0000
0000
,
0000
0000
0001
0000
,
1001
0000
0000
0010
;

//---------------dance-single - t7r----------------
#NOTES:
     dance-single:
     t7r:
     Easy:
     12:
     :
0000
0000
0000
0000
,
0000
0000
0000
0000
,
0000
0000
0000
0000
,
0000
0000
0000
0000
,
0000
0000
0000
0000
,
0110
0000
0000
0000
0000
0110
0000
0000
,
0000
0000
0000
0000
,
1001
0000
0000
0000
0000
1001
0000
0000
,
0000
0000
0000
0000
,
1100
0000
0000
0000
0000
1100
0000
0000
,
0000
0000
0000
0000
,
0001
0001
0010
0010
,
0200
0000
1300
0001
,
1000
0000
0010
0000
0000
1000
0001
0000
,
1000
0000
0010
0000
0000
1000
0001
0000
,
1000
0000
0100
0000
0000
1000
0001
0000
,
1000
0000
0100
0000
0000
1000
0001
0000
,
0100
0000
0001
0000
0000
0010
0100
0000
,
0010
0000
0001
0000
0000
1000
0010
0000
,
0100
0000
0001
0000
0000
1000
0001
0000
,
1000
0010
0001
0010
,
1000
0000
0100
0010
0000
0001
0000
1000
,
0001
0000
0100
0000
0010
1000
0010
0000
,
0100
0000
0001
0020
0000
0000
0000
0000
,
0130
0000
1000
0000
0001
1000
0100
0000
,
1000
0010
0001
0010
,
1000
0000
0100
0000
0010
0001
0010
0000
,
0001
0000
1000
0001
1000
0000
0010
0100
,
0010
1000
0001
1000
,
0001
0000
0010
0100
0000
0010
0001
0000
,
0010
0100
0000
0010
0001
0000
1000
0000
,
0001
0000
0100
0010
0100
0000
0010
0000
,
1000
0000
0001
1000
0001
0000
1001
0000
,
1000
0100
0000
0010
0100
0010
0000
0001
,
1000
0001
0000
0100
0010
0000
0100
0001
,
1000
0000
0001
0000
0010
0000
0001
1000
,
0010
0000
0000
0010
0000
0000
0100
0000
0000
0100
0000
0000
0001
0000
1000
0000
,
0001
0001
0001
0001
,
0001
0000
0100
0010
0000
0100
0001
1000
,
0001
0000
1000
0100
0010
0000
0001
0100
,
0010
0000
1000
0001
0100
0000
0010
0000
,
2000
0000
0000
3001
0010
0000
1000
0000
,
0010
0001
1000
0010
,
1000
0000
0000
1000
0000
0000
1000
0000
0000
1000
0000
0000
0001
0000
0010
0000
,
0001
0000
0000
0001
0000
0000
0001
0000
0000
0001
0000
0000
1000
0000
0001
0000
,
0200
0000
0000
0000
,
0000
0000
0000
0000
,
0300
0000
0000
0000
,
0000
0000
0000
0000
,
1001
0000
1100
0000
,
0011
0000
0000
0000
0000
0000
0001
0000
0100
0000
0000
0100
0000
0000
0010
0000
,
1000
0000
1001
0000
,
1010
0000
0000
0000
0000
0000
1000
0000
0100
0000
0000
0100
0000
0000
0010
0000
,
0001
0100
0110
1000
,
0100
0010
0110
0001
,
1000
0010
0110
1000
,
0001
0010
0110
0001
,
1000
0100
0000
1000
0001
1000
0000
0001
,
0100
0100
0010
0010
,
1000
0100
1000
0100
1000
0100
1000
0000
,
0001
0100
0001
0100
0001
0100
0001
0000
,
0020
0000
0000
0000
,
0000
0000
0000
0000
,
0031
0001
1000
1000
,
0001
1000
0001
1000
0001
1000
0001
1000
,
0010
0000
0000
1000
0100
0000
0010
0000
,
0001
0000
0100
0010
0200
0000
0000
0301
,
0010
0000
0000
0001
0000
1000
0000
0000
0001
0000
0000
0000
1000
0000
0010
0000
,
0200
0000
0000
0310
1000
0001
0000
1000
,
0100
0000
0010
0001
1000
0000
0010
0000
,
0100
0000
0001
0010
0200
0000
0000
0000
,
1300
0010
0100
0000
0001
0010
0100
0000
,
1000
0000
0001
0010
0001
0000
1000
0000
,
0001
0000
1000
0010
1000
0000
0010
0000
,
0100
0001
0100
0000
0002
0000
1003
0020
,
0000
1030
0001
0000
0020
0000
0031
2000
,
0000
3010
1000
0000
0002
0000
0013
0002
,
0000
1003
0001
0000
0100
0000
0010
1000
,
0001
0000
1000
0000
0100
0010
0100
0010
,
0000
0000
0100
0000
1000
0000
0000
0000
0001
0000
0000
0001
0000
0000
0100
0000
,
0010
0100
0010
0100
0010
1000
0010
1000
,
0002
0010
2000
3003
,
0001
0100
0000
0010
0100
0000
1000
0100
,
0000
0010
0100
0000
0001
0010
0000
0100
,
0010
0100
0000
0010
1000
0010
0000
0100
,
0010
0001
2002
3003
,
1000
0000
0010
0001
0000
0010
0100
0000
,
0010
0000
1000
0000
0000
0000
0001
0000
0010
0000
0000
0100
0000
0000
1000
0000
,
0010
0100
0000
0001
0010
0100
0000
1000
,
0010
0110
2002
3003
,
0001
0010
0200
0000
,
1300
0000
0010
1000
0010
0000
1000
0000
,
0001
0000
0100
0000
1000
0100
0000
0010
,
0100
0000
0001
0100
0000
0001
1000
0000
,
0100
0001
0100
1000
,
0020
0000
0000
0000
0000
0000
0000
0000
2030
0000
0000
0000
0000
3001
0000
0000
,
2001
0000
0000
0000
3100
0000
0020
0000
0000
0031
0100
0010
2000
0000
0000
0000
,
0000
0000
0000
0000
,
3000
0000
0000
0000
;

//---------------dance-single - t7r----------------
#NOTES:
     dance-single:
     t7r:
     Medium:
     15:
     :
0000
0000
0000
0000
,
0000
0000
0000
0000
,
0000
0000
0000
0000
,
0000
0000
0000
0000
,
0000
0000
0000
0000
,
1100
0000
0000
0000
0000
1100
0000
0000
,
0000
0000
0000
0000
,
0011
0000
0000
0000
0000
0011
0000
0000
,
0000
0000
0000
0000
,
1001
0000
0000
0000
0000
1001
0000
0000
,
0000
0000
0000
0000
,
0001
0001
1000
1000
0010
0010
0100
0010
,
2000
0000
0000
0000
0000
3100
0010
0000
,
0001
0100
0001
1000
0001
0010
0100
0000
,
1000
0100
1000
0001
1000
0010
0100
0100
,
0001
0100
0001
1000
0001
0010
0100
0000
,
1000
0100
1000
0001
1000
0010
0100
0100
,
0001
0010
1000
0010
0100
1000
0001
0000
,
1000
0010
0001
0010
0100
0001
1000
1000
,
0001
0100
1000
0100
0010
1000
0001
1000
,
0001
0010
0001
0010
1000
0010
0100
0010
,
0001
0100
1000
0200
0000
0320
0000
1030
,
0100
0010
0100
1000
0001
0100
0010
1000
,
0100
0001
0100
0020
0000
0031
1000
0000
,
0001
0100
0001
1000
0001
0010
0100
1000
,
0010
0000
0000
1000
0001
0000
0000
0000
0010
0000
0000
0001
1000
0000
0000
0000
,
0001
0000
0000
0100
0010
0000
1000
0000
0100
0000
0100
0000
0010
0000
0000
0000
,
0001
0001
1000
1000
0010
0010
0100
0100
,
0001
0000
1000
0001
1000
0000
0001
0000
0020
0000
0000
0000
0031
0000
0000
0000
,
1000
0000
0100
1000
0000
0000
0001
0000
0100
0001
0000
0000
1000
0000
0010
1000
,
0000
0000
0001
0000
0010
0001
0000
0000
1000
0000
0000
0000
0110
0000
0000
0000
,
0001
0010
0100
1000
0001
0100
0010
1000
,
0100
0001
0100
1000
0020
0000
0130
0001
,
1000
0000
0010
0100
0000
0000
0001
0000
1000
0000
0010
0100
0000
0000
0001
0000
,
1000
0000
0100
0010
0000
0000
0001
0000
1000
0000
1000
0000
0100
0000
0100
0000
,
0010
0000
0000
0000
0001
0000
0000
0100
1000
0000
0100
0000
0010
0000
0100
0000
,
0001
0000
0000
0011
0000
0000
1000
0000
0000
1100
0000
0000
1000
0000
0001
0000
,
0200
1000
0010
0001
,
0010
0000
0301
1000
0000
0001
0010
0100
,
1000
0000
0001
0010
0001
0010
1000
0010
,
0100
0010
0001
0200
0000
1300
0100
0010
,
0100
0000
0001
0000
1000
0000
0100
0000
1000
0000
0000
0001
0010
0000
0000
0001
,
1000
0000
0000
0001
0010
0000
0000
0001
1000
0000
0000
0001
0100
0000
0010
0000
,
1000
0000
0000
1100
0000
0000
0001
0000
0000
0011
0000
0000
0001
0000
1000
0000
,
0010
0000
0000
0101
0000
0000
0010
0000
0000
1100
0000
0000
1001
0000
1000
0000
,
0020
0000
0000
0000
,
0000
0000
0000
0000
,
0030
0000
0000
0000
,
0000
0000
0000
0000
,
1001
0000
1100
0000
,
1001
0000
0000
0000
0000
0000
0001
0100
0001
0000
0000
0101
0000
0000
0001
0000
,
1001
0000
0011
0000
,
1001
0000
0000
0000
0000
0000
1000
0010
1000
0000
0000
1010
0000
0000
1000
0000
,
1001
0000
0000
0000
1000
0100
0000
1000
0100
0000
0000
0000
1000
0000
0001
0000
,
0100
0000
0000
0000
0001
0010
0000
0001
0010
0000
0000
0000
0001
0000
1000
0000
,
0010
0000
0000
0000
1000
0001
0000
1000
0001
0000
0000
0000
0010
0000
0100
0000
,
1000
0000
0000
0000
0010
0100
0000
0010
0100
0000
0000
0000
0010
0000
1000
0000
,
0001
0001
0000
1000
1000
1000
0000
0010
,
0010
0101
0010
1100
,
0001
0010
0001
0001
1000
0010
1000
1000
,
0001
0100
1000
0100
0001
0010
1000
0010
,
0002
0000
0000
0000
,
0000
0000
0000
0003
,
1001
1001
1001
1001
,
1000
0000
0001
0000
1000
0000
0001
0000
1000
0001
1000
0001
1000
0001
1000
0001
,
1000
0000
0000
0000
0000
0000
0000
0010
1000
0000
0010
0000
0100
0000
0001
0000
,
1000
0000
0000
0100
0010
0000
0100
0000
2000
0000
0000
0000
3010
0000
0100
0000
,
0001
0000
0000
0010
0100
0000
1000
0000
0020
0000
0000
0000
0130
0000
0001
0000
,
2000
0000
3001
0010
0100
0020
0000
1030
,
0010
0100
0010
0001
1000
0010
0001
1000
,
0100
0010
0100
0001
0020
0000
1000
0000
,
0130
0010
0001
0000
0100
0010
1000
0000
,
0001
0000
0000
0000
1000
0010
1000
0000
0001
0000
0100
0000
0001
0010
0001
0000
,
1000
0000
0100
0010
0100
0000
0000
0000
1000
0000
0010
0100
0010
0000
1000
0000
,
0001
0100
0100
0001
0020
0000
0031
0200
,
1000
0000
0310
1000
0002
0000
1003
0200
,
0001
0000
0310
0001
2000
0000
3001
0200
,
1000
0000
0000
0000
0310
0000
1000
0001
1000
0000
1000
0000
0001
0000
0100
0000
,
0010
0000
0110
0000
1000
0100
0001
0200
,
0000
0000
1300
0001
1000
0000
1000
0000
0010
0000
0000
0100
0000
0000
0100
0000
,
1000
0100
0010
0100
0001
0010
0100
0010
,
1000
0010
0200
0000
0000
0000
0000
0000
1300
0000
0001
1000
0001
1000
0001
0000
,
1000
0000
0100
0010
0000
0000
0001
0000
0100
0010
0000
0000
1000
0000
0010
0100
,
0000
0000
0001
0000
0010
0100
0000
0000
1000
0000
0001
0100
0000
0000
0001
1000
,
0001
0001
0000
1000
1000
1000
0000
0100
,
0100
0010
0100
0000
1100
0100
1000
0001
,
1000
0010
0100
1000
0001
0010
0100
0002
,
0010
0000
0000
0000
1003
0000
0001
0000
0100
0000
0010
1000
0000
0001
1000
0000
,
0100
0100
0000
0010
0010
0010
0000
0001
,
1001
0000
0110
0000
2001
0000
3010
0100
,
0001
0000
1000
0100
1000
0001
1000
0000
,
0001
0010
0001
1000
0001
0100
0010
0000
,
1000
0100
0010
0001
1000
0100
0010
0001
,
1000
0010
0100
0001
1000
0010
0200
0000
,
0310
1000
0001
0010
0100
1000
0001
0010
,
0002
0000
0000
0000
0000
0000
0000
0000
2003
0000
0000
0000
0000
3010
0000
0000
,
0120
0000
0000
0000
0130
0000
0002
0000
0000
1003
0100
0010
0022
0000
0000
0000
,
0000
0000
0000
0000
,
0033
0000
0000
0000
;

//---------------dance-single - t7r----------------
#NOTES:
     dance-single:
     t7r:
     Hard:
     18:
     :
0000
0000
0000
0000
,
0000
0000
0000
0000
,
0000
0000
0000
0000
,
0000
0000
0000
0000
,
0000
0000
0000
0000
,
1100
0000
0000
0000
0000
1100
0000
0000
,
0000
0000
0000
0000
,
0011
0000
0000
0000
0000
0011
0000
0000
,
0000
0000
0000
0000
,
1001
0000
0000
0000
0000
1001
0000
0000
,
0000
0000
0000
0000
,
1000
0000
1000
0000
0001
0000
0001
0000
0100
0000
0100
0000
0010
0100
0010
0100
,
0020
0000
0000
0000
0000
0000
0000
0000
0000
0000
1030
0001
0100
0000
0000
0000
,
0001
0010
0001
0010
0001
0000
1000
0000
0100
0000
0010
0000
0001
0000
0000
0000
,
1000
0010
1000
0010
1000
0000
0001
0000
0100
0000
0010
0000
0100
0000
0100
0000
,
0001
1000
0001
1000
0001
0000
0010
0000
0100
0000
1000
0000
0010
0000
0000
0000
,
1000
0001
1000
0001
1000
0000
0010
0000
0100
0000
0001
0000
0100
0000
0100
0000
,
0001
0010
0001
0010
0001
0000
0100
0000
0010
0000
1000
0000
0001
0000
0000
0000
,
1000
0010
1000
0010
1000
0000
0001
0000
0010
0000
0001
0000
0100
0000
0100
0000
,
0010
0100
0010
0100
0010
0000
0100
0000
0001
0000
1000
0000
0100
0000
0010
0001
,
1000
0000
0010
1000
0001
0000
0010
0100
1000
0000
0010
0100
0001
0000
0100
0010
,
1000
0100
0001
0200
0000
0320
0000
0031
,
1000
0010
1000
0010
1000
0000
0001
0000
0100
0000
0010
0000
1000
0000
0001
0000
,
0010
1000
0010
0200
0000
1300
0001
1000
,
0001
0100
0001
0100
0001
0000
1000
0000
0010
0000
0100
0000
0001
1000
0001
0000
,
0100
0000
0000
0010
1000
0000
0000
0100
0010
0000
0000
0001
1000
0000
0000
0010
,
0100
0000
0000
0001
0010
0000
0000
0100
1000
0000
0100
0000
0010
0000
0000
0000
,
0001
0001
0100
0100
1000
1000
0100
0100
,
0001
1000
0001
1000
0001
1000
0001
1000
0100
0010
0100
0010
0001
0000
0000
0000
,
0010
0100
1000
0000
0001
0000
0010
0100
1000
0000
0001
0000
0010
0100
1000
0000
,
0001
0000
0010
0100
1000
0000
0001
0000
1000
0000
0010
0100
0001
0000
1000
0000
,
0001
0000
0000
1000
0010
1000
0001
0100
0001
1000
0100
1000
0001
1000
0001
1000
,
0001
0000
0100
0010
1000
0000
0100
0010
0001
0000
0100
0000
0010
0000
1000
0000
,
0001
0000
0010
1000
0010
0000
0001
0000
1000
0000
0010
0001
0010
0000
1000
0000
,
0001
0000
0010
1000
0010
0000
0001
0000
1000
0000
0100
0010
0100
0000
1000
0000
,
0001
0000
0100
0000
1000
0000
0100
0010
1000
0000
0100
0000
0001
0000
0100
0000
,
0101
0000
0000
0110
0000
0000
0011
0000
0000
1001
0000
0000
0001
0000
0100
0001
,
0010
0000
0100
1000
0010
0000
0100
0001
0010
0000
0100
1000
0010
0000
0100
0001
,
0010
0100
1000
1001
0000
0001
0101
0100
,
0001
0000
0000
0000
1000
0000
0010
0001
0010
0000
1000
0010
1000
0000
0001
0010
,
0001
0000
0010
1000
0010
0000
0110
0000
0000
0000
0010
0000
0001
0000
1000
0000
,
1001
0000
0001
0000
0100
0000
0010
1000
0001
0000
0100
1000
0100
0000
0010
0100
,
0010
0000
0100
0001
0100
0000
1000
0100
1000
0000
0100
0010
0100
0001
1000
0000
,
1001
0000
0000
0011
0000
0000
1001
0000
0000
1010
0000
0000
0110
0000
0100
0000
,
0101
0000
0000
0011
0000
0000
0110
0000
0000
1100
0000
0000
1001
0000
1000
0000
,
0020
0000
0000
0000
,
0000
0000
0000
0000
,
0030
0000
0000
0000
,
0000
0000
0000
0000
,
1001
0000
1100
0000
,
0011
0000
0000
0000
0000
0000
0001
0100
0010
0000
0000
0101
0000
0000
1100
0000
,
1001
0000
0110
0000
,
1010
0000
0000
0000
0000
0000
1000
0100
0010
0000
0000
1100
0000
0000
0101
0000
,
1001
0000
0000
0000
0001
0100
0000
0010
1000
0000
0000
0000
1100
0000
0010
0000
,
1001
0000
0000
0000
1000
0100
0000
0010
0001
0000
0000
1000
0100
1000
0001
0000
,
1001
0000
0000
0000
0001
0100
0000
0001
0010
0000
0000
0000
0101
0000
0010
0000
,
1001
0000
0000
0000
1000
0100
0000
1000
0010
0000
0000
1000
0100
1000
0001
0000
,
0100
0101
0000
0001
1000
1100
0000
1000
,
1001
0011
1001
1010
,
0001
0100
1000
0100
0001
0010
1000
0010
,
0001
0100
0001
0100
0010
1000
0010
1000
0001
0010
0001
0010
0100
1000
0100
1000
,
0020
0000
0000
0000
,
0000
0000
0000
0030
,
1001
1001
1001
1001
,
1000
0001
1000
0001
1000
0001
1000
0001
1000
0001
1000
0001
1000
0001
1000
0001
,
0100
0000
0000
0000
0000
0000
0001
0010
0001
0000
1000
0010
0100
0000
0001
0000
,
1000
0000
0000
0001
0100
0001
0010
0000
0002
0000
0000
1003
0100
0000
1000
0000
,
0001
0000
0100
1000
0000
0100
0010
0000
0200
0000
0000
0301
0010
0000
0001
0000
,
2000
0000
0000
0000
3100
0000
0001
0100
0001
0000
0100
0000
0010
0000
0100
0000
,
1000
0001
0100
1000
0001
0010
1000
0010
,
0100
0000
0001
1000
0010
0000
1000
0000
0200
0000
0000
0000
0001
0000
0000
0000
,
0310
0000
0001
0000
1000
0000
0100
0010
0001
0000
0100
0010
2000
0000
3001
0000
,
0010
0000
0000
0001
1000
0010
1000
0001
0010
0001
1000
0100
1000
0001
0100
0001
,
1000
0000
0100
0010
0001
0000
0100
0010
1000
0000
0001
0100
0010
0000
0100
0001
,
1000
0000
0010
0000
1010
0000
1000
0010
0100
0000
0010
0000
0001
0000
0020
0000
,
1000
0000
0000
0000
0130
0000
0001
0010
0100
0000
0010
0000
2000
0000
3020
0000
,
0001
0000
0000
0000
0130
0000
1000
0010
0100
0000
0010
0000
0001
0000
0020
0000
,
0100
0000
0000
0000
1030
0000
0001
1000
0100
0000
1000
0000
1001
0000
0001
0000
,
0101
0000
0110
0000
1010
1000
0001
1001
,
0000
0000
1000
0100
0010
0000
0100
0000
0001
0000
0000
0101
0000
0000
0100
0000
,
1000
0000
0010
0100
0010
0100
0010
0100
0010
0000
1000
0000
0001
0000
0100
1000
,
0100
0000
0010
0000
1000
0000
0001
0010
0100
1000
0001
0100
0010
1000
0010
1000
,
0001
0010
0100
0000
1000
0000
0001
0010
0100
0000
1000
0000
0001
0100
0010
0000
,
1000
0000
0001
0100
0010
0000
1000
0000
0001
0000
0010
1000
0010
0000
0001
1000
,
0010
0011
0000
0010
1010
1000
0000
0100
,
0101
0000
0100
0000
1000
0000
0000
0000
1001
0000
1000
0010
0100
0000
0010
0000
,
0011
0010
0100
0101
0001
0010
0110
0010
,
1000
0000
1010
0000
0010
0000
0100
0000
1100
0000
1000
0001
0000
0100
0010
0100
,
0001
1001
0000
0100
0110
0110
0000
1010
,
1001
0000
0011
0000
1001
0001
0010
0100
,
2000
0000
3010
0100
0001
0020
0000
0031
,
1000
0100
0010
0001
1000
0010
0200
0000
,
0301
0100
0010
0001
1000
0100
0010
1000
,
0001
0010
0100
0001
1000
0010
0002
0000
,
1003
0010
0001
0010
1000
0100
0010
0001
,
2000
0000
0000
0000
0000
0000
0000
0000
3002
0000
0000
0000
0000
0103
0000
0000
,
0120
0000
0000
0000
1030
0000
0002
0000
0000
0013
1000
0010
0220
0000
0000
0000
,
0000
0000
0000
0000
,
0330
0000
0000
0000
;

//---------------dance-single - t7r----------------
#NOTES:
     dance-single:
     t7r:
     Challenge:
     19:
     :
0000
0000
0000
0000
,
0000
0000
0000
0000
,
0000
0000
0000
0000
,
0000
0000
0000
0000
,
0000
0000
0000
0000
,
1100
0100
0010
0100
1000
1100
0100
0010
,
0100
0000
1000
0000
0001
0000
0100
0010
0100
0010
1000
0000
0001
0000
0100
0000
,
0101
0100
0010
0100
0001
0101
0100
0010
,
0100
0000
0001
0000
1000
0000
0100
0010
0100
0010
0001
0000
1000
0000
0010
0000
,
1010
0010
0100
0010
1000
1010
0010
0100
,
0010
0000
1000
0000
0001
0000
0010
0100
0010
0100
1000
0010
1000
0010
0100
0001
,
1000
0000
0100
0000
1100
0000
1000
0000
1001
0000
0001
0010
0100
1000
0010
0100
,
0001
0000
0001
0000
0001
0000
0001
0000
0100
0000
0010
1000
0100
0010
0001
1000
,
0001
0010
0001
0010
0100
1000
0001
0100
0010
0000
1000
0000
1100
0000
0000
0000
,
1000
0010
1000
0010
0100
0001
1000
0100
0010
0000
0001
0000
0101
0000
0100
0000
,
0001
0010
0001
0010
0100
1000
0001
0100
0010
0000
1000
0000
1100
0000
0000
0000
,
1000
0010
1000
0010
0100
0001
1000
0100
0010
0000
0001
0000
0101
0000
0100
0000
,
0001
1000
0001
1000
0010
0100
0001
1000
0001
0000
0010
0000
0011
0000
0000
0000
,
1000
0001
1000
0001
0010
0100
1000
0001
1000
0000
0010
0000
1010
0000
1000
0000
,
0001
1000
0001
1000
0100
0010
0001
1000
0001
0000
0100
0001
1000
0010
0100
0001
,
1000
0010
1000
0001
0010
0001
1000
0010
1000
0001
0010
0001
1000
0010
1000
0001
,
1000
0000
0100
0010
0001
0010
0100
1000
0001
0000
0200
0000
0000
0000
0310
0000
,
1000
0100
1000
0100
0010
0001
1000
0001
0010
0000
0001
0000
0101
0000
0100
0000
,
0001
0000
0010
0100
1000
0000
0020
0000
0000
0000
0130
0000
0001
0000
1000
0000
,
0100
0010
0100
0010
0001
1000
0010
0100
0001
0000
0100
0000
0001
1000
0001
1000
,
0001
0000
0000
1000
0010
1000
0001
0010
0001
1000
0100
1000
0001
0100
0001
1000
,
0100
0010
0001
0100
0010
1000
0010
0100
0001
0010
0100
0000
0010
0000
0001
0000
,
1000
0100
1000
0000
0001
0010
0001
0000
1000
0010
1000
0000
0001
0010
0001
0010
,
0100
1000
0010
0100
0001
1000
0100
0010
0001
0010
0100
1000
0100
0010
0001
1000
,
0001
0100
0010
0000
0001
0000
0010
0100
0001
0000
0010
0000
0100
0001
0100
0000
,
0010
0000
0001
0100
0010
0000
0001
0000
0010
0000
0100
0001
1000
0100
0010
0001
,
1000
0010
1000
0010
0100
0001
0100
0001
1000
0100
1000
0100
0010
0001
0010
0001
,
1000
0100
0010
0100
1000
0100
0010
0100
1000
0010
0100
0010
1000
0010
0100
0010
,
1000
0000
0100
0010
1000
0000
0010
0000
0100
0000
1000
0010
0100
0000
1000
0000
,
0100
0000
0010
1000
0100
0000
0010
0000
1000
0000
0010
0100
1000
0000
0010
0100
,
1000
0000
0100
0010
1000
0000
0100
0010
0001
0000
0100
0010
1000
0001
0100
0001
,
1000
0000
0000
1001
0000
0000
0101
0000
0000
1001
0000
0000
1100
0000
0100
1000
,
0010
0000
0100
0001
0010
0000
0100
1000
0010
0000
0100
0001
0010
0000
0100
1000
,
0010
0000
0100
0001
0010
0000
0011
0000
0000
0000
1001
0000
1000
0000
0100
0000
,
1100
0000
1000
0000
0010
0000
0001
0010
0100
0000
0001
0010
0100
0000
0001
0100
,
1000
0000
0010
0100
0001
0000
1001
0000
0000
0000
1010
0000
0010
0000
0100
0000
,
0101
0000
0001
0000
1000
0000
0100
0100
0001
0000
0100
0100
1000
0000
0100
0100
,
0001
0000
0100
0100
1000
0000
0100
0100
0001
0000
0100
0100
1000
0001
0100
0001
,
1000
0000
0000
0101
0000
0000
1010
0000
0000
1100
0000
0000
0011
0000
0001
0000
,
1001
0000
0000
0101
0000
0000
1010
0000
0000
1001
0000
0000
0110
0000
0010
0000
,
2002
0000
0000
0000
,
0000
0000
0000
0000
,
3003
0000
0000
0000
,
0100
0000
0010
0000
,
1100
0000
1000
0100
0000
1000
0001
0100
0101
0000
0001
0010
0000
0001
1000
0100
,
1100
0000
1000
0001
0000
1000
0100
0100
0001
0000
0100
0110
0000
0001
1001
0000
,
0011
0000
0001
0010
0000
0001
1000
0010
1010
0000
1000
0100
0000
1000
0001
0010
,
0011
0000
0001
1000
0000
0001
0010
0010
1000
0000
0010
0110
0000
1000
1001
0000
,
0101
0000
0001
1000
0100
0100
0000
0010
0100
0000
0000
0100
0110
0000
0010
0000
,
1001
0000
0000
0000
1000
0000
0001
0000
0100
0000
0100
0000
0000
0000
0010
0000
0100
0000
0000
0000
0000
0000
0010
0100
0010
0000
0100
0000
0110
0000
0000
0000
,
1001
0000
0001
1000
0010
0010
0000
0100
0010
0000
0000
0010
0110
0000
0100
0000
,
1001
0000
0000
0000
1000
0000
0001
0000
0010
0000
0010
0000
0000
0000
0100
0000
0010
0000
0000
0000
0000
0000
0100
0010
0100
0000
0010
0000
0110
0000
0000
0000
,
1001
1001
0000
1100
1100
1100
0000
0011
,
0011
1001
0110
1001
,
0001
0100
0101
0001
1000
0100
1100
1000
,
0001
0010
0001
0010
0100
1000
0100
1000
0001
0100
1000
0100
0001
0010
1000
0010
,
0002
0000
0000
0000
,
0000
0000
0000
0000
,
1003
0001
1000
0001
1000
0001
1000
0001
1000
0001
1000
0001
1000
0001
1000
0001
,
1000
0001
1000
0001
1000
0001
1000
0001
1000
0001
1000
0001
1000
0001
1000
0001
,
1000
0000
0010
0000
0100
0000
0001
0010
0100
1000
0001
0100
0010
1000
0001
0000
,
2000
0000
0000
3100
1000
0001
1000
0000
0020
0000
0000
0031
0010
0100
0010
0000
,
1000
0000
0100
0010
1000
0010
0000
0000
0200
0000
0000
0000
1300
0000
1001
0000
,
0002
0000
0000
0103
0001
1000
0001
0000
0100
0000
1000
0000
0100
0000
0010
0000
,
1000
0000
0100
0000
0010
0000
0100
0000
0001
0000
0100
1000
0001
0000
0100
0001
,
1000
0000
0010
0100
0010
0000
0001
0000
0020
0000
0000
0000
1030
0000
0100
0000
,
0010
0000
0100
1000
0100
0000
1000
0001
0100
0000
0001
0000
0010
0000
0000
0000
,
0011
0000
0000
0001
1000
0010
1000
0001
0100
0001
1000
0100
1000
0001
0100
0001
,
1000
0100
0010
0001
0100
0000
0010
0100
0001
0000
0100
0100
1000
0000
0100
0100
,
0001
0000
0010
0000
0011
0000
0001
1000
0010
0000
0001
0010
0100
0000
0020
0000
,
0001
0000
0000
0000
0100
0000
1030
0001
0010
0000
1000
0010
0100
0000
0020
0000
,
1000
0000
0000
0000
0100
0000
0031
1000
0010
0000
0001
0010
0100
0000
0020
0000
,
0001
0000
0000
0000
0100
0000
1030
0100
0100
0000
0010
0000
0110
0000
0010
0000
,
1001
0000
0101
0000
1100
1000
0001
0102
,
0000
0000
0103
0100
1000
0000
0100
0000
0110
0000
0000
1001
0000
0000
1000
0000
,
0100
0000
1000
0100
0001
1000
0010
0001
1000
0100
0001
1000
0010
0100
1000
0010
,
0100
0001
0010
1000
0001
0100
1000
0001
0010
1000
0010
0001
1000
0001
1000
0001
,
1000
0010
0100
0001
1000
0100
1000
0010
0100
0001
1000
0100
1000
0010
0100
0001
,
1000
0100
0010
0100
1000
0100
0010
0001
1000
0001
0100
0020
0000
0000
0130
0100
,
1000
0110
0000
1001
0110
1010
0000
1100
,
0011
0001
1001
0000
0101
0010
1001
0010
,
1100
0100
0010
1010
1000
0010
0110
0100
,
1000
0000
1010
0000
0010
0000
0100
0000
0101
0000
0001
0010
0000
0001
0100
0100
,
1000
0000
0110
0000
0001
0010
0001
1000
0010
0000
0110
0000
1000
0010
1000
0001
,
0010
0001
0101
0100
0110
0010
0001
0010
,
2010
0000
3100
0001
0100
0010
0002
0000
,
0103
1000
0100
0010
1000
0001
0020
0000
,
1030
0010
0100
0010
0001
1000
0010
0100
,
1000
0100
0010
0100
0001
0010
0002
0000
,
1003
0010
0001
1000
0100
0001
0010
0100
,
2000
0000
0000
0000
0000
0000
0000
0000
3002
0000
0000
0000
0000
0013
0000
0000
,
2001
0000
0000
0000
0000
0000
0000
0000
0000
0000
0000
0000
0000
0000
0000
0000
0000
0000
0000
0000
0000
0000
0000
0000
3100
0000
0000
0000
0000
0000
0000
0000
0000
0000
0000
0000
0020
0000
0000
0000
0000
0000
0000
0000
0000
0000
0000
0000
0000
0000
0000
0000
0000
0000
0031
0000
0000
0000
0000
0000
0100
0000
0000
0000
0000
0000
0010
0000
0000
0000
0000
1000
0002
0000
0000
0000
0000
0000
0000
0000
0000
0000
0000
0000
0000
0000
0000
0000
0000
0000
0000
0000
0000
0000
0000
0000
,
0000
0000
0000
0000
,
0003
0000
0000
0000
;

//---------------dance-double - t7r----------------
#NOTES:
     dance-double:
     t7r:
     Easy:
     12:
     :
00000000
00000000
00000000
00000000
,
00000000
00000000
00000000
00000000
,
00000000
00000000
00000000
00000000
,
00000000
00000000
00000000
00000000
,
00000000
00000000
00000000
00000000
,
00011000
00000000
00000000
00000000
00000000
00011000
00000000
00000000
,
00000000
00000000
00000000
00000000
,
00001000
00000000
00000000
00000000
00000000
00001000
00000000
00000000
,
00000000
00000000
00000000
00000000
,
00010000
00000000
00000000
00000000
00000000
00010000
00000000
00000000
,
00000000
00000000
00000000
00000000
,
00001000
00001000
01000000
01000000
,
00020000
00000000
00000000
10030000
,
00010000
00000000
00100000
00000000
00000000
00010000
10000000
00000000
,
00010000
00000000
00100000
00000000
00000000
00010000
10000000
00000000
,
01000000
00000000
00100000
00000000
00000000
00010000
10000000
00000000
,
00100000
00010000
00001000
00000100
,
00000001
00000000
00000010
00000000
00000000
00000001
00001000
00000000
,
00000001
00000000
00000010
00000000
00000000
00000001
00001000
00000000
,
00000001
00000000
00000100
00000000
00000000
00000001
00001000
00000000
,
00000100
00010000
00001000
00010000
,
01000000
00000000
10000000
00100000
00000000
10000000
00000000
00020000
,
00000000
00000000
00130000
00000000
00000000
00001000
00010000
00000000
,
00001000
00000000
00010000
00000020
00000000
00000000
00000000
00000000
,
00001030
00000000
00000001
00000000
00000100
00000001
00001000
00000000
,
00000001
00000010
00000100
00001000
,
00010000
00000000
01000000
00000000
00100000
10000000
00100000
00000000
,
10000000
00000000
00010000
00100000
00010000
00000000
00100000
00000000
,
00001000
00010000
00022000
00033000
,
00001000
00000000
00000100
00000000
00000010
00000000
00000100
00000001
,
00000000
00001000
00000001
00000010
,
00000100
00001000
00010000
00100000
,
00010000
00000000
10000000
00010000
01000000
00000000
00010000
00000000
,
10000000
00100000
00000000
01000000
00100000
01000000
00000000
00010000
,
10000000
00010000
00000000
00000000
10000000
00000000
01000000
00000000
,
00010000
00000000
00001000
00000000
00000100
00000000
00000010
00000100
,
00000010
00000000
00000000
00000010
00000000
00000000
00001000
00000000
00000000
00001000
00000000
00000000
00000001
00000000
00000010
00000000
,
00000001
00000001
00001000
00001000
,
00010000
00000000
00000000
10010000
00000000
00000000
10000000
00000000
,
00100000
00000000
10000000
01000000
00100000
00000000
00010000
00000000
,
10000000
00000000
00100000
01000000
00000000
00010000
10000000
00000000
,
01000000
00010000
00011000
00001000
,
00011000
00010000
00011000
00001000
,
01000000
00000000
00000000
01000000
00000000
00000000
01000000
00000000
00000000
01000000
00000000
00000000
00001000
00000000
00010000
00000000
,
00000100
00000000
00000000
00000100
00000000
00000000
00000100
00000000
00000000
00000100
00000000
00000000
00010000
00000000
00001000
00000000
,
00020000
00000000
00000000
00000000
,
00000000
00000000
00000000
00000000
,
00030000
00000000
00000000
00000000
,
00000000
00000000
00000000
00000000
,
10010000
00000000
10000000
00000000
,
01000000
00000000
00000000
00000000
00000000
00000000
00010000
00000000
00001000
00000000
00000000
00001000
00000000
00000000
00010000
00000000
,
00001000
00000000
00011000
00000000
,
00010100
00000000
00000000
00000000
00000000
00000000
00010000
00000000
00001000
00000000
00000000
00000100
00000000
00000000
00000100
00000000
,
00000001
00000010
00000110
00000001
,
00000100
00001000
00011000
00010000
,
00001000
01000000
01100000
10000000
,
01000000
00010000
00011000
00001000
,
00010000
00000100
00000000
00010000
00001000
00010000
00000000
00001000
,
01000000
01000000
00010000
00010000
,
10000000
01000000
00100000
00010000
,
00001000
00000010
00000100
00000001
,
00002000
00000000
00000000
00000000
,
00000000
00000000
00000000
00000000
,
00003100
00010000
00010000
00001000
,
00010000
00001000
00010000
00001000
00010000
00001000
00010000
00001000
,
00010000
00000000
00000000
01000000
10000000
00000000
00100000
00000000
,
01000000
00000000
00100000
10000000
00200000
00000000
00000000
10300000
,
00010000
00000000
00100000
00000000
00001000
00000000
00010000
00001000
,
00020000
00000000
00000000
00030010
00001000
00000010
00000000
00001000
,
00000001
00000000
00000010
00000000
00000100
00001000
00000001
00000000
,
00000100
00000000
00001000
00010000
00002000
00000000
00000000
00000000
,
00013000
00000000
01000000
00000000
00100000
01000000
10000000
00000000
,
00100000
00000000
10000000
00010000
00100000
00000000
00010000
00000000
,
10000000
00100000
01000000
00000000
00010000
00100000
00001000
00000000
,
00010000
00001000
00010000
00000000
00000020
00000000
00001030
00000002
,
00000000
00000013
00000001
00000000
00002000
00000000
00003001
00002000
,
00000000
00003010
00010000
00000000
00002000
00000000
00103000
00020000
,
00000000
10030000
00010000
00000000
10000000
00000000
00100000
01000000
,
00010000
00000000
10000000
00000000
01000000
00000000
00010000
00001000
,
00000000
00000000
01000000
00000000
00010000
00000000
00000000
00000000
10000000
00000000
00000000
10000000
00000000
00000000
00100000
00000000
,
00010000
00000000
00001000
00010000
00001000
00000000
00000010
00000100
,
00002000
00000010
00000002
00003003
,
00000001
00000100
00000000
00001000
00010000
00000000
00000100
00001000
,
00000000
00000001
00001000
00000000
00000001
00000001
00000000
00000000
,
00000010
00001000
00000000
00010000
00001000
00010000
00000000
00001000
,
01000000
00010000
10000000
00000000
20020000
00000000
30030000
00000000
,
10000000
00000000
01000000
00100000
00000000
01000000
00010000
00000000
,
00001000
00000000
00010000
00000000
00000000
00000000
00001000
00000000
00000100
00000000
00000000
00000010
00000000
00000000
00000100
00000000
,
00000001
00000010
00000000
00000100
00001000
00000100
00000000
00010000
,
00001000
00011000
02002000
03003000
,
01100000
00000000
10000000
00000000
01000000
00200000
00000000
00000000
,
00310000
00000000
10000000
00100000
10000000
00000000
00010000
00000000
,
01000000
00000000
00001000
00000000
00010000
00000100
00000000
00001000
,
00000001
00000100
00000010
00001000
,
00010000
00100000
01000000
10000000
,
00200000
00000000
00000000
00000000
00000000
00000000
00000000
00000000
00320000
00000000
00000000
00000000
00000000
00031000
00000000
00000000
,
00012000
00000000
00000000
00000000
00003100
00000000
00000020
00000000
00000000
00000130
00000001
00001000
00000200
00000000
00000000
00000000
,
00000000
00000000
00000000
00000000
,
00000300
00000000
00000000
00000000
;

//---------------dance-double - t7r----------------
#NOTES:
     dance-double:
     t7r:
     Medium:
     15:
     :
00000000
00000000
00000000
00000000
,
00000000
00000000
00000000
00000000
,
00000000
00000000
00000000
00000000
,
00000000
00000000
00000000
00000000
,
00000000
00000000
00000000
00000000
,
00011000
00000000
00000000
00000000
00000000
00011000
00000000
00000000
,
00000000
00000000
00000000
00000000
,
01010000
00000000
00000000
00000000
00000000
01010000
00000000
00000000
,
00000000
00000000
00000000
00000000
,
00001100
00000000
00000000
00000000
00000000
00001100
00000000
00000000
,
00000000
00000000
00000000
00000000
,
00000001
00000001
00001000
00001000
00000010
00000010
00000100
00000001
,
00002000
00000000
00000000
00000000
00000000
00003100
00000010
00000000
,
00000001
00000100
00000001
00000010
00000100
00001000
00000001
00000000
,
00000100
00001000
00010000
00001000
01000000
00010000
10000000
00010000
,
10000000
01000000
10000000
00100000
01000000
00010000
10000000
00000000
,
01000000
00010000
00001000
00010000
00000100
00001000
00000001
00001000
,
00000001
00000010
00000001
00000100
00000010
00001000
00000001
00000000
,
00000010
00001000
00010000
00001000
00100000
00010000
10000000
00010000
,
10000000
00100000
10000000
01000000
00100000
00010000
10000000
00100000
,
00010000
00000000
00000000
00001000
01000000
00000000
00010000
00000000
00100000
00000000
00001000
00000000
00010000
00000000
00000010
00000000
,
00001000
00000100
00000010
00000002
00000000
00000203
00000000
00001300
,
00010000
01000000
00100000
01000000
10000000
00010000
01000000
00010000
,
10000000
00100000
01000000
00020000
00000000
10030000
01000000
00010000
,
00001000
00000100
00000010
00000100
00000001
00001000
00000100
00010000
,
00001000
00000000
00000000
01000000
00010000
00000000
00000000
10000000
00010000
00000000
00000000
00100000
00001000
00000000
00000000
00010000
,
00000100
00000000
00000000
00001000
00000010
00000000
00000100
00000000
00000001
00000000
00001000
00000000
00000010
00000000
00000000
00000000
,
00001000
00001000
00000100
00000100
00000010
00000010
00000001
00000001
,
00000100
00000000
00001000
00010000
00001000
00000000
00010000
00000000
00002000
00000000
00000000
00000000
01003000
00000000
00000000
00000000
,
00010000
00000000
00100000
00010000
00000000
00000000
10000000
00000000
00100000
10000000
00000000
00000000
00010000
00000000
00100000
00010000
,
00000000
00000000
10000000
00000000
00100000
10000000
00000000
00000000
00010000
00000000
00100000
00000000
01000000
00000000
00000000
00000000
,
00010000
00001000
00000010
00000100
00001000
00000001
00000100
00000001
,
00000010
00000100
00001000
00000001
00000100
00001000
00010000
01000000
,
00100000
00000000
00010000
10000000
00000000
00000000
00100000
00000000
01000000
00000000
00010000
10000000
00000000
00000000
01000000
00000000
,
00010000
00000000
00001000
00010000
00000000
00000000
00001000
00000000
00000010
00000000
00000100
00000000
00000010
00000000
00000001
00000000
,
00001000
00000000
00000000
00000000
00000001
00000000
00000000
00000100
00001000
00000000
00000100
00000000
00000010
00000000
00001000
00000000
,
00000100
00000000
00000000
00010100
00000000
00000000
00010000
00000000
00000000
00011000
00000000
00000000
00001000
00000000
01000000
00000000
,
00200000
00010000
01000000
10000000
,
01300000
00000000
00010000
10000000
00000000
01000000
00010000
00001000
,
00000100
00000000
00000010
00001000
00000001
00000010
00001000
00000010
,
00000001
00000100
00000010
00002000
00000000
00003100
00010000
00001000
,
01000000
00000000
00010000
00000000
10000000
00000000
01000000
00000000
00100000
00000000
00000000
00001000
00010000
00000000
00000000
00000010
,
00001000
00000000
00000000
00000001
00000010
00000000
00000000
00000001
00001000
00000000
00000001
00000000
00000100
00000000
00001000
00000000
,
00010000
00000000
00000000
00011000
00000000
00000000
00001000
00000000
00000000
01001000
00000000
00000000
00001000
00000000
00010000
00000000
,
00001000
00000000
00000000
00011000
00000000
00000000
00010000
00000000
00000000
00010010
00000000
00000000
00000010
00000000
00001000
00000000
,
00000002
00000000
00000000
00000000
,
00000000
00000000
00000000
00000000
,
00000003
00000000
00000000
00000000
,
00000000
00000000
00000000
00000000
,
00011000
00000000
10010000
00000000
,
00011000
00000000
00000000
00000000
00000000
00000000
00000100
00000010
00000100
00000000
00000000
00001001
00000000
00000000
00000010
00000000
,
00000110
00000000
00011000
00000000
,
01100000
00000000
00000000
00000000
00000000
00000000
00010000
10000000
00010000
00000000
00000000
10010000
00000000
00000000
10000000
00000000
,
01000000
00000000
00000000
00000000
00010000
00001000
00000000
00010000
00001000
00000000
00000000
00000000
00000100
00000000
00000001
00000000
,
00001000
00000000
00000000
00000000
00000100
00001000
00000000
00000100
00001000
00000000
00000000
00000000
00000001
00000000
00000100
00000000
,
00001000
00000000
00000000
00000000
00010000
00001000
00000000
00010000
00001000
00000000
00000000
00000000
00010000
00000000
01000000
00000000
,
10000000
00000000
00000000
00000000
00100000
01000000
00000000
00100000
01000000
00000000
00000000
00000000
00100000
00000000
10000000
00000000
,
01000000
01000000
00000000
00010000
00010000
00010000
00000000
00001000
,
00001000
00000100
00000010
00000100
,
00000001
00000010
00000100
00001000
00000001
00000010
00000100
00001000
,
00010000
00100000
01000000
10000000
00010000
00100000
01000000
10000000
,
00200000
00000000
00000000
00000000
,
00000000
00000000
00000000
00000000
,
00310000
00001000
00010000
00001000
,
00010000
00000000
00001000
00000000
00010000
00000000
00001000
00000000
00010000
00001000
00010000
00001000
00010000
00001000
00010000
00001000
,
00010000
00000000
00000000
00000000
00000000
00000000
00000000
00000010
00001000
00000000
00000001
00000000
00000010
00000000
00000100
00000000
,
00001000
00000000
00000000
00000001
00000100
00000000
00000010
00000000
00000200
00000000
00000000
00000000
00000301
00000000
00000010
00000000
,
00000100
00000000
00000000
00001000
00000001
00000000
00000100
00000000
00002000
00000000
00000000
00000000
00013000
00000000
00001000
00000000
,
00200000
00000000
00310000
01000000
00100000
02000000
00000000
13000000
,
01000000
00100000
01000000
00010000
10000000
01000000
00010000
00001000
,
01000000
00010000
00100000
00001000
00020000
00000000
00001000
00000000
,
00030100
00001000
00000001
00000000
00000100
00000001
00000010
00000000
,
00000100
00000000
00000000
00000000
00010000
00001000
00010000
00000000
00001000
00010000
00001000
00000000
01000000
00000000
00000000
00000000
,
00010000
00000000
00100000
00000000
01000000
00000000
00000000
00000000
10000000
00000000
00100000
01000000
00100000
00000000
10000000
00000000
,
01000000
00010000
00001000
00000100
00000020
00000000
00001030
00000002
,
00000010
00000000
00001003
00000001
00000200
00000000
00001300
00020000
,
00001000
00000000
00130000
01000000
00020000
00000000
10030000
00200000
,
01000000
00000000
10300000
01000000
00100000
00100000
00001000
00001000
,
00010000
00000000
00011000
00000000
00001000
00000010
00000100
00000020
,
00000000
00000000
00000031
00001000
00000001
00000000
00000001
00000000
00000100
00000000
00000000
00000010
00000000
00000000
00000010
00000000
,
00001000
00000001
00000010
00000100
00001000
00010000
01000000
00100000
,
10000000
01000000
20000000
00000000
00000000
00000000
00000000
00000000
30100000
00000000
10000000
00010000
10000000
00010000
10000000
00000000
,
00100000
00010000
00001000
00100000
00010000
10000000
01000000
00010000
,
00001000
00000000
00000100
00000000
00000010
00000000
00001000
00000000
00000100
00000000
00000010
00000001
00000000
00000000
00000100
00000000
,
00001000
00001000
00000000
00010000
00010000
00010000
00000000
01000000
,
01000000
00100000
01000000
00000000
11000000
01000000
10000000
00010000
,
10000000
00100000
01000000
10000000
00010000
00100000
01000000
00002000
,
00010000
00000000
00000000
00000000
01003000
00000000
00001000
00000000
00010000
00000000
00000100
00001000
00000000
00000001
00001000
00000000
,
00000001
00000001
00000000
00000010
00000010
00000010
00000000
00001000
,
00001000
00000000
00011000
00000000
01100000
00000000
10000000
00010000
,
00200000
00000000
00310000
01000000
00100000
10000000
00010000
00000000
,
10000000
01000000
00100000
00010000
00001000
00000100
00000010
00000000
,
00000001
00000100
00000010
00001000
00000001
00000010
00000100
00001000
,
00000001
00000100
00001000
00010000
01000000
00100000
02000000
00000000
,
13000000
00100000
01000000
00010000
00001000
00000100
00000010
00000001
,
00002000
00000000
00000000
00000000
00000000
00000000
00000000
00000000
00003002
00000000
00000000
00000000
00000000
00000013
00000000
00000000
,
00002000
00000000
00000000
00000000
00013000
00000000
00200000
00000000
00000000
01300000
00001000
00010000
00022000
00000000
00000000
00000000
,
00000000
00000000
00000000
00000000
,
00033000
00000000
00000000
00000000
;

//---------------dance-double - t7r----------------
#NOTES:
     dance-double:
     t7r:
     Hard:
     18:
     :
00000000
00000000
00000000
00000000
,
00000000
00000000
00000000
00000000
,
00000000
00000000
00000000
00000000
,
00000000
00000000
00000000
00000000
,
00000000
00000000
00000000
00000000
,
00011000
00000000
00000000
00000000
00000000
00011000
00000000
00000000
,
00000000
00000000
00000000
00000000
,
00001100
00000000
00000000
00000000
00000000
00001100
00000000
00000000
,
00000000
00000000
00000000
00000000
,
01010000
00000000
00000000
00000000
00000000
01010000
00000000
00000000
,
00000000
00000000
00000000
00000000
,
10000000
00000000
10000000
00000000
01000000
00000000
01000000
00000000
00100000
00000000
00100000
00000000
00010000
10000000
00010000
10000000
,
00020000
00000000
00000000
00000000
00000000
00000000
00000000
00000000
00000000
00000000
01030000
00100000
10000000
00000000
00000000
00000000
,
00010000
00100000
00010000
00100000
00010000
00000000
10000000
00000000
01000000
00000000
00100000
00000000
00010000
00000000
00000000
00000000
,
10000000
00100000
10000000
00100000
10000000
00000000
01000000
00000000
00100000
00000000
00001000
00000000
00010000
00000000
00010000
00000000
,
00000010
00001000
00000010
00001000
00000010
00000000
00001000
00000000
00000001
00000000
00000100
00000000
00000010
00000000
00000000
00000000
,
00001000
00000100
00001000
00000100
00001000
00000000
00000001
00000000
00000100
00000000
00000010
00000000
00001000
00000000
00001000
00000000
,
00000100
00001000
00000100
00001000
00000100
00000000
00001000
00000000
00000001
00000000
00000100
00000000
00001000
00000000
00000000
00000000
,
00010000
00001000
00010000
00001000
00010000
00000000
01000000
00000000
10000000
00000000
00100000
00000000
01000000
00000000
01000000
00000000
,
00100000
10000000
00100000
10000000
00100000
00000000
10000000
00000000
00010000
00000000
00100000
00000000
00001000
00000000
00010000
00001000
,
01000000
00000000
00001000
00010000
00000100
00000000
00010000
00001000
00100000
00000000
00001000
00010000
00000010
00000000
00010000
00001000
,
00010000
00001000
00000010
00000200
00000000
00002300
00000000
00003001
,
00000100
00000010
00000100
00000010
00000100
00000000
00000001
00000000
00000010
00000000
00000100
00000000
00001000
00000000
00000001
00000000
,
00000100
00001000
00010000
00200000
00000000
10300000
00010000
10000000
,
00100000
01000000
00100000
01000000
00100000
00000000
10000000
00000000
01000000
00000000
00100000
00000000
00010000
00000000
01000000
00010000
,
10000000
00000000
00000000
01000000
00100000
00000000
00000000
00001000
00010000
00000000
00000000
00001000
00000100
00000000
00000000
00000010
,
00000100
00000000
00000000
00000001
00000010
00000000
00000000
00000100
00010000
00000000
00001000
00000000
00010000
00000000
00000000
00000000
,
01000000
01000000
10000000
10000000
00100000
00100000
00010000
00010000
,
00001000
00010000
00001000
00010000
00001000
00010000
00001000
00010000
00002000
00000000
00000000
00000000
00013000
00000000
00000000
00000000
,
00000100
00000000
00001000
00000001
00000100
00000000
00000001
00000000
00001000
00000001
00000100
00000000
00000001
00000000
00001000
00000001
,
00000010
00000000
00000001
00000000
00001000
00000001
00000010
00000000
00000001
00000000
00000100
00000000
00001000
00000000
00010000
00000000
,
01000000
00000000
00100000
01000000
10000000
00000000
00100000
00000000
01000000
00000000
00010000
10000000
00100000
00000000
10000000
00000000
,
00010000
00100000
01000000
10000000
00010000
00000000
10000000
00000000
01000000
00000000
00100000
00010000
00100000
00000000
00001000
00000000
,
00010000
00000000
00001000
00000010
00001000
00000000
00010000
00000000
00001000
00000000
00010000
00100000
00010000
00000000
00001000
00000000
,
00010000
00000000
00001000
00000010
00001000
00000000
00010000
00000000
00001000
00000000
00010000
00100000
00010000
00000000
00100000
00000000
,
01000000
00000000
00010000
00000000
10000000
00000000
01000000
00100000
00010000
00000000
10000000
00000000
00100000
00000000
00010000
00000000
,
00011000
00000000
00000000
00010100
00000000
00000000
00011000
00000000
00000000
01001000
00000000
00000000
00011000
00000000
00001000
00010000
,
00000100
00000000
00001000
00000001
00000100
00000000
00000001
00001000
00000100
00000000
00001000
00000001
00000100
00000000
00000001
00001000
,
00000100
00001000
00000001
00001001
00000000
00000001
00000100
00001000
,
00011000
00000000
00000000
00000000
00010000
00000000
01000000
00000000
00100000
00000000
01000000
10000000
00010000
00000000
10000000
00010000
,
00100000
00000000
00010000
10000000
00100000
00000000
10100000
00000000
00000000
00000000
00100000
00000000
10000000
00000000
00010000
00000000
,
10010000
00000000
10000000
00000000
01000000
00000000
00100000
00001000
00010000
00000000
00000010
00010000
00001000
00000000
01000000
00001000
,
00010000
00000000
00000100
00010000
00001000
00000000
00010000
01000000
10000000
00000000
00100000
01000000
00100000
10000000
00010000
00000000
,
10010000
00000000
00000000
11000000
00000000
00000000
01100000
00000000
00000000
00101000
00000000
00000000
00001000
00000000
00010000
00000000
,
00011000
00000000
00000000
00010010
00000000
00000000
00000110
00000000
00000000
00001001
00000000
00000000
00000001
00000000
00000010
00000000
,
00002000
00000000
00000000
00000000
,
00000000
00000000
00000000
00000000
,
00003000
00000000
00000000
00000000
,
00000000
00000000
00000000
00000000
,
10010000
00000000
00011000
00000000
,
00001001
00000000
00000000
00000000
00000000
00000000
00000001
00000100
00000010
00000000
00000000
00000101
00000000
00000000
00000001
00000000
,
00001001
00000000
00011000
00000000
,
10010000
00000000
00000000
00000000
00000000
00000000
10000000
01000000
00100000
00000000
00000000
11000000
00000000
00000000
10000000
00000000
,
10010000
00000000
00000000
00000000
10000000
01000000
00000000
00100000
00010000
00000000
00000000
00000000
00001000
00000000
00000010
00000000
,
00000110
00000000
00000000
00000000
00000001
00000010
00000000
00000100
00001000
00000000
00000000
00010000
10000000
00010000
01000000
00000000
,
01010000
00000000
00000000
00000000
10000000
00100000
00000000
01000000
00010000
00000000
00000000
00000000
00001000
00000000
00000001
00000000
,
00001001
00000000
00000000
00000000
00000001
00000100
00000000
00000010
00001000
00000000
00000000
00000001
00001000
00000001
00000100
00000000
,
00000001
00000011
00000000
00001000
00000100
00001100
00000000
00000100
,
00010100
00011000
01001000
01010000
,
00010000
00100000
01000000
10000000
00100000
00010000
00001000
00000100
,
00000001
00000010
00000001
00000010
00000100
00001000
00000100
00001000
00000100
00010000
00000100
00010000
00001000
00010000
00001000
00010000
,
00002000
00000000
00000000
00000000
,
00000000
00000000
00000000
00003000
,
00011000
00011000
00011000
00011000
,
00001000
00010000
00001000
00010000
00001000
00010000
00001000
00010000
00001000
00010000
00001000
00010000
00001000
00010000
00001000
00010000
,
00001000
00000000
00000000
00000000
00000000
00000000
01000000
00010000
01000000
00000000
00100000
10000000
00010000
00000000
10000000
00000000
,
01000000
00000000
00000000
00100000
01000000
10000000
00100000
00000000
20000000
00000000
00000000
30010000
01000000
00000000
00010000
00000000
,
00100000
00000000
00001000
00010000
00000000
00001000
00000010
00000000
00000200
00000000
00000000
00001300
00000001
00000000
00000100
00000000
,
00000020
00000000
00000000
00000000
00000130
00000000
00000001
00000010
00000001
00000000
00001000
00000000
00000001
00000000
00000100
00000000
,
00001000
00010000
00100000
10000000
00010000
00100000
01000000
10000000
,
00100000
00000000
10000000
00010000
00100000
00000000
00010000
00000000
02000000
00000000
00000000
00000000
10000000
00000000
00000000
00000000
,
03100000
00000000
10000000
00000000
01000000
00000000
00100000
00010000
10000000
00000000
00100000
01000000
00020000
00000000
10030000
00000000
,
01000000
00000000
00000000
00100000
00001000
00010000
00001000
00010000
00000010
00001000
00000001
00001000
00000001
00000010
00000100
00001000
,
00000001
00000000
00000100
00000010
00001000
00000000
00010000
00100000
01000000
00000000
10000000
00100000
01000000
00000000
00010000
10000000
,
01000000
00000000
00100000
00000000
00110000
00000000
00010000
10000000
00100000
00000000
00010000
00000000
00001000
00000000
02000000
00000000
,
00010000
00000000
00000000
00000000
03100000
00000000
10000000
00010000
00100000
00000000
00001000
00000000
00010000
00000000
00000020
00000000
,
00000100
00000000
00000000
00000000
00001030
00000000
00000001
00001000
00000010
00000000
00001000
00000000
00000001
00000000
00000200
00000000
,
00001000
00000000
00000000
00000000
00000310
00000000
00001000
00000100
00010000
00000000
00001000
00000000
00010000
00000000
01000000
00000000
,
01100000
00000000
00110000
00000000
10010000
00010000
10000000
10100000
,
00000000
00000000
10000000
01000000
00100000
00000000
00001000
00000000
00010000
00000000
00000000
00011000
00000000
00000000
00001000
00000000
,
00000100
00000000
00000001
00000010
00000001
00000010
00000001
00000010
00000001
00000000
00000010
00000000
00001000
00000000
00010000
00000100
,
00001000
00000000
00000001
00000000
00000100
00000000
00001000
00010000
00000100
00000000
00010000
00001000
00010000
00001000
00010000
00001000
,
00010000
01000000
10000000
00000000
00000000
00000000
00100000
00010000
00001000
00000000
00000000
00000000
00000010
00000001
00001000
00000000
,
00000000
00000000
00000001
00000100
00001000
00000000
00000000
00000000
00010000
01000000
10000000
00000000
00000000
00000000
00100000
01000000
,
00100000
10100000
00000000
10000000
11000000
01000000
00000000
00100000
,
00101000
00001000
00010000
00000000
00011000
00001000
00000100
00000010
,
00000110
00000100
00000001
00000011
00000010
00000100
00010100
00000100
,
00010000
00000000
00011000
00000000
00010000
00000000
01000000
00000000
01100000
00000000
00100000
00010000
00000000
10000000
00010000
10000000
,
01000000
11000000
00000000
10000000
00100000
00110000
00000000
00010000
,
00011000
00000000
00001010
00000000
00000011
00000001
00000100
00000010
,
00002000
00000000
00003001
00000010
00000100
00001000
00000001
00000000
,
00000100
00001000
00010000
01000000
10000000
00100000
02000000
00000000
,
03010000
10000000
00100000
00010000
00001000
00000010
00000100
00001000
,
00000001
00000100
00001000
00010000
01000000
00100000
00020000
00000000
,
10030000
00100000
01000000
00010000
00001000
00000100
00000010
00000001
,
00002000
00000000
00000000
00000000
00000000
00000000
00000000
00000000
00003002
00000000
00000000
00000000
00000000
00000013
00000000
00000000
,
00001002
00000000
00000000
00000000
00000103
00000000
00002000
00000000
00000000
00013000
01000000
00100000
02200000
00000000
00000000
00000000
,
00000000
00000000
00000000
00000000
,
03300000
00000000
00000000
00000000
;

//---------------dance-double - t7r----------------
#NOTES:
     dance-double:
     t7r:
     Challenge:
     19:
     :
00000000
00000000
00000000
00000000
,
00000000
00000000
00000000
00000000
,
00000000
00000000
00000000
00000000
,
00000000
00000000
00000000
00000000
,
00000000
00000000
00000000
00000000
,
00010100
00000100
00001000
00000001
00001000
00001001
00000001
00000100
,
00001000
00000000
00010000
00000000
00001000
00000000
01000000
00010000
01000000
00010000
10000000
00000000
00100000
00000000
10000000
00000000
,
11000000
01000000
00100000
00010000
00100000
00101000
00100000
00001000
,
00010000
00000000
00001000
00000000
00000010
00000000
00000100
00000010
00000100
00001000
00000001
00000000
00000100
00000000
00001000
00000000
,
00011000
00010000
00001000
01000000
00100000
10100000
10000000
01000000
,
10000000
00000000
00010000
00000000
00100000
00000000
00001000
00010000
00001000
00010000
00001000
00010000
00001000
00010000
00001000
00010000
,
00001000
00000000
00001000
00000000
00000010
00000000
00000010
00000000
00000001
00000000
00000001
00000000
00000100
00000010
00000100
00000000
,
00001000
00000000
00010000
00000000
00100000
00000000
00100000
00000000
10000000
01000000
00100000
00010000
10000000
00000000
00100000
00000000
,
00010000
00001000
00010000
00001000
01000000
00010000
10000000
01000000
00100000
00000000
00001000
00000000
00011000
00000000
00000000
00000000
,
00010000
00001000
00010000
00001000
00100000
00010000
10000000
00100000
01000000
00000000
00001000
00000000
00011000
00000000
00000000
00000000
,
00001000
00010000
00001000
00010000
00000100
00001000
00000001
00000100
00000010
00000000
00010000
00000000
00011000
00000000
00000000
00000000
,
00001000
00010000
00001000
00010000
00000100
00001000
00000001
00000100
00000010
00000000
00010000
00000000
00011000
00000000
00001000
00000000
,
00010000
00000100
00001000
00000001
00000100
00000010
00001000
00000100
00010000
00000000
00001000
00000000
00011000
00000000
00000000
00000000
,
00010000
00000010
00001000
00000001
00000010
00000100
00001000
00000010
00010000
00000000
00001000
00000000
00011000
00000000
00010000
00000000
,
00001000
00100000
00010000
10000000
00100000
01000000
00010000
00100000
00001000
00000000
00010000
00000000
00001000
00010000
00100000
01000000
,
00100000
00000000
10000000
00010000
00100000
00000000
00001000
00010000
00000010
00001000
00000001
00000010
00000001
00001000
00000100
00000010
,
00000001
00000000
00000100
00000010
00001000
00000010
00000100
00000001
00001000
00000000
00000200
00000000
00000000
00000000
00010300
00000000
,
00001000
01000000
00010000
01000000
00100000
10000000
00010000
10000000
00100000
00000000
10000000
00000000
11000000
00000000
01000000
00000000
,
00010000
00000000
00001000
01000000
00010000
00000000
00200000
00000000
00000000
00000000
00301000
00000000
00010000
00000000
00000010
00000000
,
00001000
00000001
00001000
00000001
00000100
00000010
00001000
00000001
00000010
00000000
00001000
00000000
00010000
00001000
00010000
00001000
,
00010000
00000000
00100000
01000000
00010000
00000000
00100000
01000000
00010000
00000000
00001000
00000010
00000100
00000000
00001000
00000010
,
00000100
00000000
00001000
00010000
00100000
00000000
10000000
01000000
00100000
00000000
00001000
00000000
00010000
00000000
00001000
00000000
,
00000100
00000010
00000100
00000000
00000001
00001000
00000001
00000000
00000010
00000100
00000010
00000000
00000100
00010000
00000100
00010000
,
00001000
01000000
00010000
10000000
01000000
00100000
00001000
00010000
00000100
00001000
00000001
00000010
00000100
00001000
00000001
00000100
,
00000010
00000000
00001000
00000100
00000010
00000000
00000001
00000100
00001000
00000000
00010000
00100000
01000000
00000000
00010000
00100000
,
01000000
00000000
10000000
00100000
00010000
00000000
00001000
00010000
00000100
00000000
00010000
00000000
00001000
00000000
00010000
00001000
,
00010000
00000000
00001000
00000010
00000100
00000000
00001000
00000010
00000100
00000000
00001000
00000100
00000010
00000000
00001000
00010000
,
01000000
00000000
00100000
00010000
01000000
00000000
00100000
00000000
01000000
00010000
01000000
00010000
00100000
00000000
01000000
00000000
,
10000000
00000000
00100000
00010000
00001000
00000000
00100000
00000000
00001000
00000000
00010000
00100000
10000000
00000000
01000000
00000000
,
00010000
00000000
00001000
00000010
00000100
00000000
00010000
00000000
00001000
00000000
00000010
00000001
00000100
00000001
00001000
00000000
,
00000001
00000000
00000010
00000100
00001000
00000000
00000001
00000100
00000010
00000000
00000100
00001000
00010000
00000100
00001000
00000000
,
00001001
00000000
00000000
00001100
00000000
00000000
00010100
00000000
00000000
00011000
00000000
00000000
01001000
00000000
01000000
00010000
,
10000000
00000000
01000000
00010000
00001000
00000000
01000000
00100000
00010000
00000000
00001000
00000100
00000010
00000000
00001000
00000100
,
00000010
00000000
00000001
00000100
00000010
00000000
00002010
00000000
00000000
00000000
00003001
00000000
00000010
00000000
00001000
00000000
,
00011000
00000000
00010000
00000100
00001000
00000000
00000100
00010000
00001000
00000000
00010000
00100000
01000000
00000000
00010000
00100000
,
00001000
00000000
00010000
00100000
10000000
00000000
11000000
00000000
00000000
00000000
10010000
00000000
10000000
00000000
01000000
00000000
,
00100000
00000000
00001000
00000000
00010000
00000000
00001000
00001000
00000100
00000000
00001000
00001000
01000000
00000000
00001000
00001000
,
00000100
00000000
00001000
00001000
01000000
00000000
00001000
00001000
00000100
00000000
00001000
00001000
01000000
00010000
10000000
00100000
,
10000000
00000000
00000000
11000000
00000000
00000000
00110000
00000000
00000000
00011000
00000000
00000000
00000110
00000000
00000010
00000000
,
00000101
00000000
00000000
00001010
00000000
00000000
00011000
00000000
00000000
01100000
00000000
00000000
10010000
00000000
00010000
00000000
,
00200000
00000000
00000000
00000000
,
00000000
00000000
00000000
00000000
,
00300000
00000000
00000000
00000000
,
00001000
00000000
00010000
00000000
,
00011000
00000000
00010000
00000010
00000000
00001000
00000001
00000100
00000101
00000000
00000001
00001000
00000000
00000001
00000010
00001000
,
00011000
00000000
00001000
00100000
00000000
00010000
00100000
00100000
10000000
00000000
01000000
01100000
00000000
00100000
00101000
00000000
,
00011000
00000000
00010000
00000100
00000000
00001000
00000001
00000010
00000011
00000000
00000001
00001000
00000000
00000001
00000100
00001000
,
00011000
00000000
00001000
01000000
00000000
00010000
01000000
01000000
10000000
00000000
00100000
01100000
00000000
01000000
01001000
00000000
,
00011000
00000000
00001000
00010000
00000100
00000100
00000000
00000010
00000100
00000000
00000000
00000100
00000110
00000000
00000010
00000000
,
00010010
00000000
00000000
00000000
00010000
00000000
00001000
00000000
01000000
00000000
01000000
00000000
00000000
00000000
00100000
00000000
01000000
00000000
00000000
00000000
00000000
00000000
01000000
00100000
01000000
00000000
00100000
00000000
01100000
00000000
00000000
00000000
,
10010000
00000000
10000000
00010000
01000000
01000000
00000000
00100000
01100000
00000000
00000000
10000000
01000000
00000000
00010000
00000000
,
00011000
00000000
00000000
00000000
00010000
00000000
00000100
00000000
00001000
00000000
00001000
00000000
00000000
00000000
00000010
00000000
00000110
00000000
00000000
00000000
00000000
00000000
00000001
00001000
00000001
00000000
00000100
00000000
00000110
00000000
00000000
00000000
,
00001001
00001001
00000000
00001100
00001100
00001100
00000000
00011000
,
00011000
01001000
01100000
10010000
,
10000000
01000000
01010000
00010000
00001000
00000010
00000011
00000001
,
00000100
00001000
00010000
00000100
00010000
00001000
01000000
00010000
10000000
01000000
00010000
00001000
00000010
00000001
00001000
00000100
,
00020000
00000000
00000000
00000000
,
00000000
00000000
00000000
00000000
,
00031000
00010000
00001000
00010000
00001000
00010000
00001000
00010000
00001000
00010000
00001000
00010000
00001000
00010000
00001000
00010000
,
00001000
00010000
00001000
00010000
00001000
00010000
00001000
00010000
00001000
00010000
00001000
00010000
00001000
00010000
00001000
00010000
,
00001000
00000000
01000000
00000000
00010000
00000000
10000000
01000000
00100000
00010000
10000000
00100000
01000000
00010000
10000000
00000000
,
02000000
00000000
00000000
03010000
00001000
00100000
00010000
00000000
20000000
00000000
00000000
30100000
00010000
00001000
00010000
00000000
,
00001000
00000000
00000010
00000100
00001000
00000100
00000000
00000000
00000020
00000000
00000000
00000000
00000031
00000000
00001001
00000000
,
00002000
00000000
00000000
00003100
00010000
00001000
00010000
00000000
00001000
00000000
00010000
00000000
00100000
00000000
10000000
00000000
,
01000000
00010000
00001000
00000100
00000010
00001000
00000001
00000010
,
00001000
00000000
00010000
00001000
00010000
00000000
00001000
00000000
00000200
00000000
00000000
00000000
00000310
00000000
00001000
00000000
,
00000100
00000000
00010000
00001000
00010000
00000000
00001000
00010000
00100000
00000000
10000000
00000000
00010000
00000000
00000000
00000000
,
10010000
00000000
00000000
10000000
00010000
00100000
00010000
10000000
00100000
10000000
00010000
01000000
00001000
00010000
00000100
00010000
,
00000100
00001000
00000001
00000010
00000001
00001000
00000010
00001000
00000100
00000000
00010000
00010000
01000000
00000000
00010000
00010000
,
00000100
00000000
00010000
00000000
00011000
00000000
00010000
00100000
01000000
00000000
00010000
00100000
01000000
00000000
00200000
00000000
,
00000000
00000000
00301000
00000000
00010000
00000000
00001000
00000010
00000100
00000000
00001000
00000010
00000100
00000000
00000020
00000000
,
00000000
00000000
00010030
00000000
00001000
00000000
00010000
00100000
01000000
00000000
00010000
00100000
01000000
00000000
00200000
00000000
,
00000000
00000000
00301000
00000000
00010000
00000000
00001000
00001000
00000100
00000000
00001000
00000000
00001100
00000000
00000100
00000000
,
00011000
00000000
00000110
00000000
00000101
00000001
00001000
00001200
,
00000000
00000000
00010300
00010000
01000000
00000000
00100000
00000000
01100000
00000000
00000000
10010000
00000000
00000000
10000000
00000000
,
00100000
00000000
10000000
00100000
01000000
00010000
10000000
00100000
01000000
00010000
10000000
00100000
01000000
00010000
01000000
00001000
,
01000000
00001000
00010000
00001000
00010000
00000010
00001000
00000010
00001000
00000010
00000100
00000001
00001000
00000001
00001000
00000001
,
00000100
00001000
00010000
00100000
01000000
00000000
00001000
00010000
00100000
01000000
10000000
00000000
01000000
00010000
10000000
01000000
,
00010000
00001000
00000010
00000000
00000000
00000000
00000100
00001000
00000001
00000000
00000010
00002000
00000000
00000000
00013000
00010000
,
01000000
01100000
00000000
10010000
11000000
00110000
00000000
00011000
,
00001000
00000100
00000110
00000000
00001001
00000010
00001100
00000100
,
00010100
00010000
00001000
01001000
00001000
00010000
00010100
00010000
,
00001000
00000000
00011000
00000000
00001000
00000000
00100000
00000000
00110000
00000000
10000000
00100000
00000000
00010000
00001000
00001000
,
00000100
00000000
00000110
00000000
00000001
00000100
00000010
00001000
00000100
00000000
00010100
00000000
00000100
00010000
00001000
00010000
,
00100000
00000000
10000000
01000000
00010000
00000000
00001000
00000010
00000001
00000000
00000100
00000000
00001000
00000000
00010000
00000000
,
00210000
00000000
01300000
00010000
10000000
01000000
00020000
00000000
,
00031000
00000010
00000100
00001000
00000010
00000100
00002000
00000000
,
00013000
00100000
01000000
00001000
00010000
00001000
00000010
00000100
,
00001000
00000100
00000010
00000001
00000100
00001000
00020000
00000000
,
01030000
10000000
00100000
00010000
00001000
00000010
00000001
00000100
,
00000020
00000000
00000000
00000000
00000000
00000000
00000000
00000000
00002030
00000000
00000000
00000000
00000000
00003100
00000000
00000000
,
00012000
00000000
00000000
00000000
00000000
00000000
00000000
00000000
00000000
00000000
00000000
00000000
00000000
00000000
00000000
00000000
00000000
00000000
00000000
00000000
00000000
00000000
00000000
00000000
00013000
00000000
00000000
00000000
00000000
00000000
00000000
00000000
00000000
00000000
00000000
00000000
02000000
00000000
00000000
00000000
00000000
00000000
00000000
00000000
00000000
00000000
00000000
00000000
00000000
00000000
00000000
00000000
00000000
00000000
13000000
00000000
00000000
00000000
00000000
00000000
00100000
00000000
00000000
00000000
00000000
00000000
00010000
00000000
00000000
00000000
00000000
00001000
00020000
00000000
00000000
00000000
00000000
00000000
00000000
00000000
00000000
00000000
00000000
00000000
00000000
00000000
00000000
00000000
00000000
00000000
00000000
00000000
00000000
00000000
00000000
00000000
,
00000000
00000000
00000000
00000000
,
00030000
00000000
00000000
00000000
;
