#TITLE:Mata Hari;
#ARTIST:Efendi;
#BANNER:Mata Hari.png;
#BACKGROUND:Mata Hari-bg.png;
#JACKET:Mata Hari-jacket.png;
#CDTITLE:./CDTITLES/NONE.PNG;
#MUSIC:Mata Hari.ogg;
#SAMPLESTART:38.4;
#SAMPLELENGTH:15;
#BPMS:0=100,125=50,131=100,133=200;
#STOPS:96=1.8,131=1.2,193=0.9;

//---------------dance-single - t7r----------------
#NOTES:
     dance-single:
     t7r:
     Beginner:
     3:
     :
0000
0000
0000
0000
,
0000
0000
0000
0000
,
0000
0000
0000
0000
,
0000
0000
0000
0000
,
0000
0000
0000
0000
,
0000
0000
0000
0000
,
0000
0000
0000
0000
,
0001
0000
0000
0000
,
1000
0000
0000
0000
,
0010
0000
0000
0000
,
0100
0000
0000
0000
,
1000
0000
1000
0000
,
0001
0000
0001
0000
,
0010
0000
0000
0000
,
0001
0000
0001
0000
,
0001
0000
0000
0000
,
0100
0000
0100
0000
,
0010
0000
0000
0000
,
0000
1000
0000
1000
,
1000
0000
0000
0000
,
0001
0000
0001
0000
,
0010
0000
0000
0000
,
0000
0100
0000
0100
,
0100
0000
0000
0000
,
0010
0001
0000
0000
,
0000
1000
0000
0000
,
0000
0010
0000
0000
,
0000
0100
0000
0000
,
0000
0100
0000
0000
,
0000
0010
0000
0000
,
0000
0010
0000
0010
,
0000
1000
0000
0000
,
0000
0001
0000
0000
,
0000
0010
0000
0000
,
0000
0010
0000
0000
,
0000
0100
0000
0000
,
0000
0100
0000
0000
,
0000
1000
0000
0000
,
0000
1000
0000
0000
,
0000
0001
0000
0000
,
0000
0001
0000
0000
,
0000
1000
0000
1000
,
0000
1000
0000
0000
,
0000
0001
0000
0001
,
0000
0001
0000
0000
,
0000
0100
0100
0100
,
0000
0100
0000
0100
,
0000
0010
0010
0010
;

//---------------dance-single - t7r----------------
#NOTES:
     dance-single:
     t7r:
     Easy:
     5:
     :
0000
0000
0000
0000
,
0000
0000
0000
0000
,
0000
0000
0000
0000
,
0000
0000
0000
0000
,
0000
0000
0000
0000
,
0000
0000
0000
0000
,
0000
0000
0000
0000
,
0020
1030
0001
0001
,
0020
0031
1000
1000
,
0200
1300
0000
1000
,
0002
0003
0200
0300
,
0010
0010
2000
3001
,
0010
0010
0002
0003
,
1000
1000
0020
0030
,
1000
1000
0001
0001
,
0100
0000
0220
0330
,
1000
0100
0001
0100
,
2000
0000
0001
3001
,
0000
0010
0000
0010
,
0000
0100
0100
0000
,
0001
0010
1000
0010
,
0002
0000
1000
1003
,
0000
0100
0000
0100
,
0000
1000
0000
1000
,
1001
0010
0000
0010
,
0000
0100
0100
0100
,
0000
0001
0000
0001
,
0000
1000
1000
0001
,
0001
0100
0100
0020
,
0030
1000
1000
0010
,
0010
0001
0001
0010
,
0100
0002
0003
2000
,
3000
0200
0300
0010
,
0000
0001
0000
0001
,
0000
1000
0000
1000
,
0000
0010
0000
0010
,
0000
0100
0000
0100
,
0000
0001
0000
0010
,
0000
0100
0000
1000
,
0000
0010
0100
0002
,
0003
0010
0100
2000
,
3000
0001
1000
0001
,
1000
0010
0010
0200
,
0300
0010
1000
0002
,
0003
0010
0010
0001
,
0001
1000
0100
1000
,
0100
0010
0001
0010
,
0001
1000
0010
0100
,
0001
2002
3003
0000
;

//---------------dance-single - t7r----------------
#NOTES:
     dance-single:
     t7r:
     Medium:
     6:
     :
0000
0000
0000
0000
,
0000
0000
0000
0000
,
0000
0000
0000
0000
,
0000
0000
0000
0000
,
0000
0000
0000
0000
,
0000
0000
0000
0000
,
0000
0000
0000
0000
,
2000
0000
3100
0000
1000
0001
1000
0000
,
0002
0000
0103
0000
0001
1000
0001
0000
,
2000
0010
0000
3001
,
0020
0130
2000
3001
,
0200
0000
0310
0000
1000
1000
1000
0000
,
0020
0000
0130
0000
0002
0000
0000
1003
,
2000
3100
0010
0010
,
0001
0100
1000
0100
,
0001
0000
2001
3001
,
1000
0000
0100
0000
0010
0001
0100
0000
,
0020
0000
1030
0000
0001
0010
0001
0010
,
0000
0000
0001
0000
0001
0001
0000
1001
,
0000
0000
1000
0000
1000
0010
1000
0010
,
1000
0000
0010
0000
0100
0001
1000
0000
,
0200
0000
0310
0000
0001
1000
0001
1000
,
0000
0010
0010
0000
0010
0010
0000
1001
,
0000
0100
0100
0000
0100
0100
0000
0000
,
0110
0001
0001
0001
,
0000
1000
1000
1000
,
0000
0010
0010
0010
,
0000
0000
1000
0000
0100
0000
0010
0100
,
0010
0000
0001
0010
0001
0000
2000
0000
,
3010
0000
1001
0000
0010
0000
0100
0010
,
0100
0000
1000
0100
1000
0000
0001
0100
,
0010
2002
3003
0020
,
0030
2000
3000
0001
,
0000
0010
0000
0011
,
0000
0002
0000
0103
,
0000
0010
0000
1010
,
0000
2000
0000
3100
,
0000
0010
0000
0110
,
0000
0002
0000
1003
,
0000
0001
0100
1000
,
0000
0001
0100
0010
,
0010
1000
0100
1000
,
0100
0010
0001
1001
,
0000
0001
0100
0110
,
0000
1000
0010
0100
,
0110
1000
1000
0100
,
0100
0001
0001
0100
,
0100
0000
1000
0000
1000
0000
0001
1000
,
0001
0020
0030
0000
;

//---------------dance-single - t7r----------------
#NOTES:
     dance-single:
     t7r:
     Hard:
     8:
     :
0000
0000
0000
0000
,
0000
0000
0000
0000
,
0000
0000
0000
0000
,
0000
0000
0000
0000
,
0000
0000
0000
0000
,
0000
0000
0000
0000
,
0000
0000
0000
0000
,
0010
0000
0101
0000
0010
0001
0100
0000
,
0010
0000
1100
0000
0010
1000
0100
0000
,
0010
0000
1001
0000
0010
0100
0001
0000
,
2000
0000
3100
0000
0010
0100
1000
0000
,
0002
0000
0100
0000
1003
0001
0100
0000
,
2000
0000
0100
0000
3002
0000
1003
0110
,
0002
0000
0100
0000
1003
0010
0100
0000
,
0010
0000
0000
0010
0000
0000
0010
0000
0000
0010
0000
0000
0010
0000
0010
0000
,
0010
0000
0000
0000
1001
0010
0100
0000
,
1000
0000
0000
0100
0000
0000
0010
0000
0001
0000
0000
0100
0000
0000
0010
0000
,
2000
0000
3010
0000
1000
0001
0001
1000
,
0000
0001
0001
0000
0100
0100
0000
1010
,
0000
1000
1000
0100
0010
0001
0001
1000
,
0001
0000
0000
0100
0000
0000
0010
0000
1000
0000
0000
0001
0000
0000
0010
0000
,
0002
0000
0103
0000
0010
0100
0100
0001
,
0000
1000
1000
0000
0001
0001
0000
0110
,
0000
1000
1000
0001
0010
0100
0100
1000
,
0010
0100
0100
0010
,
0000
1000
1000
0001
,
0000
0010
0010
0100
,
0000
0000
0010
0001
0100
0000
0010
0001
,
0100
0000
0001
0010
0100
1000
0020
0000
,
1030
0000
0100
1000
0010
0000
0100
1000
,
0010
0000
1000
0100
0010
0001
0100
0010
,
2000
3001
0000
0010
,
0000
1000
0000
0100
,
0000
0010
1001
0100
,
0000
0100
1001
0010
,
0000
0100
1010
0001
,
0000
0010
1100
0001
,
0000
0000
0100
0001
0010
0000
0011
0000
,
0000
0000
0100
1000
0010
0000
1010
0000
,
0000
0000
0000
0000
1000
0000
0000
1000
0000
0000
1000
0000
0001
0000
0000
0000
,
0010
0001
1000
1000
,
0010
0000
0100
0001
0100
0000
0110
0000
,
0000
0000
0000
0000
0010
0000
0000
0010
0000
0000
0010
0000
0100
0000
0000
0000
,
0000
0000
0000
0000
0001
0000
0000
0010
0000
0000
0010
0000
0100
0000
0000
0000
,
0000
1000
0010
0110
,
1001
0000
0001
0100
0010
0000
1000
0100
,
0010
0000
0001
1000
0010
0000
1000
0001
,
0010
0000
0001
1000
0001
1000
0001
1000
,
0001
1000
0020
0000
0030
0000
0000
0000
;

//---------------dance-single - t7r----------------
#NOTES:
     dance-single:
     t7r:
     Challenge:
     16:
     :
0000
0000
0000
0000
,
0000
0000
0000
0000
,
0000
0000
0000
0000
,
0000
0000
0000
0000
,
0000
0000
0000
0000
,
0000
0000
0000
0000
,
0000
0000
0000
0000
,
0010
0000
0000
0100
0001
0000
1000
0000
0100
0000
0000
1000
0100
0000
0010
0000
,
0001
0000
0000
1000
0010
0000
0100
0000
0010
0000
0000
1000
0001
0000
0010
0000
,
0100
0000
0000
0010
0001
0000
0100
0000
0010
0000
0000
1000
0010
0000
0100
0000
,
0002
0000
0000
0013
1000
0000
0001
0000
0200
0000
0000
0310
0001
0000
1000
0000
,
0110
0000
0001
1000
0100
0000
1001
0000
0020
0000
0130
0001
1000
0000
0110
0000
,
1001
0000
0010
1000
0100
0000
0011
0000
0200
0000
0310
1000
0100
0000
0110
0000
,
1010
0000
0001
0010
1000
0000
0110
0000
0001
0000
1000
0010
0001
0000
0110
0000
,
0100
0100
0000
0100
0100
0000
0010
0010
0000
0010
0010
0000
1000
1000
0000
0001
,
0001
0000
0000
0110
0000
0010
0010
0010
0100
0000
0010
0000
1001
0000
0000
0000
,
1000
0000
0100
0000
0010
0000
0001
0000
0100
0000
0010
1000
0001
0000
0010
0000
0001
0000
0100
0001
1000
0000
0001
0000
0100
0000
0010
0100
0001
0000
0010
0000
,
0200
0000
1300
0001
0010
0000
0001
0000
0100
0000
0010
1000
0100
0000
0110
0000
,
0000
1000
0100
0100
0001
0000
0000
1000
0100
0100
0001
0000
0000
0000
0110
0000
,
0000
0000
0001
0000
0100
0000
0100
0000
1000
0000
0010
0000
0100
0000
0100
0000
0010
0000
0000
0000
0110
0000
0001
1000
0100
0000
0010
0000
0100
0000
0000
0000
,
1001
0000
0010
0000
0100
0000
0010
0000
0001
0000
0100
1000
0100
0010
0100
0000
0010
0000
0100
0001
1000
0000
0010
0000
0100
0000
0010
1000
0001
0000
0010
0000
,
0100
0000
0010
0001
0100
0000
0010
0000
1000
0000
0001
0010
1000
0010
0110
0000
,
0000
0001
0100
0100
0010
0000
0000
0001
0100
0100
0010
0000
0000
0000
0011
0000
,
0000
1000
0100
0100
0010
0000
0000
1000
0100
0100
0001
0100
1000
0100
0010
0000
,
2002
3003
0000
0000
0000
0000
0000
0000
0000
0000
0000
0000
0000
0000
0000
0000
0110
0000
0000
0000
0001
0000
0100
0000
0001
0000
0000
0000
1000
0000
0100
0000
1000
0000
0001
0000
1000
0000
0001
0000
1000
0000
0100
0000
1000
0000
0100
0000
0010
0000
0000
0000
0000
0000
0001
0000
0000
0000
0000
0000
0100
0000
0000
0000
,
0010
0100
0010
0100
0001
0010
0100
1000
0001
0000
1000
0100
0001
0000
0100
1000
0001
0100
0001
0100
0010
1000
0010
1000
0001
0010
0001
0010
0100
0010
0100
0010
,
0001
0100
0001
0100
0010
1000
0010
1000
0001
0000
0000
0100
0000
0000
0100
0000
0010
0000
0000
0000
0110
0000
0000
0000
1001
0000
0000
0100
0000
0000
0100
0000
,
0010
0000
0000
0000
1000
0001
1000
0001
1000
0000
0100
0000
0001
0000
0100
0000
1000
0100
0010
0000
0001
0100
0010
0000
1000
0000
0010
0000
0001
0000
0010
0000
,
0100
0001
0010
0001
0100
0000
0001
0000
1000
0000
0100
0001
0100
0000
1000
0000
0001
0000
0100
1000
0100
0000
0001
0000
1000
0000
0100
0010
1000
0000
0001
0000
,
0100
0000
0010
0001
1000
0000
0001
0000
0100
0000
0001
0010
1000
0000
0001
0000
0100
0000
1000
0010
0001
0000
1000
0000
0100
0000
0001
0010
0100
0000
1000
0010
,
0100
0000
0010
1000
0001
0100
0001
0000
0010
0000
0001
0100
1000
0000
0001
0010
0100
0000
0010
1000
0001
0000
1000
0000
0001
0000
0010
1000
0010
0000
0001
0000
,
1000
0000
0010
0001
0010
0000
0100
0001
2000
0000
0000
0000
0100
0000
0000
3001
0010
0000
0001
0100
0010
0000
1000
0000
0002
0000
0000
0000
0203
0000
0000
0000
,
2300
0000
0000
0000
0000
0000
0000
0000
3200
0000
0000
0000
0000
0000
0000
0000
0320
0000
0000
0000
0000
0000
0000
0000
2030
0000
0000
0000
0000
0000
3001
0000
0010
0000
0000
0000
1000
0000
0010
0000
0001
0000
0000
0000
0100
0000
0000
0000
0220
0330
0000
0000
0000
0000
0000
0000
0010
0000
0000
0000
0000
0000
0000
0000
,
0010
0000
0101
0001
1000
0100
1100
1000
,
0001
1000
1010
1000
0001
0010
0011
0001
,
1000
0001
0101
0100
0010
1000
1100
0100
,
0001
0100
0110
0010
0001
1000
1010
0010
,
0001
0000
0010
0000
0110
0000
0100
0000
0101
0000
0001
0010
0100
0000
1000
0000
,
1010
0000
0000
0000
0110
0000
0010
0000
1010
0000
1000
0100
0010
0000
0001
0000
,
0011
0000
0000
0000
0101
0000
0001
0100
0000
0100
1000
0000
0110
0000
0000
0000
,
0000
0000
1100
0100
0110
0000
0011
0001
,
1001
0000
0101
0100
1000
0100
0110
0010
,
1000
0000
0001
0000
0011
0000
0001
0100
0000
0100
1000
0000
0110
0000
1000
0000
,
0001
0000
0000
0000
1010
0000
1000
0100
0000
0100
0001
0000
0110
0000
0010
0000
,
1010
0001
0011
0001
1001
0000
1010
1000
,
1001
0000
0101
0100
0110
0010
1010
1000
,
1100
0100
0101
0100
1100
1000
1010
0010
,
0011
0000
0010
0000
0100
0010
0100
0010
1000
0001
1000
0001
1000
0100
0001
0100
,
1000
0010
0001
0010
2000
0000
0000
0000
3000
0000
0000
0000
0000
0000
0000
0000
;

//---------------dance-double - t7r----------------
#NOTES:
     dance-double:
     t7r:
     Easy:
     5:
     :
00000000
00000000
00000000
00000000
,
00000000
00000000
00000000
00000000
,
00000000
00000000
00000000
00000000
,
00000000
00000000
00000000
00000000
,
00000000
00000000
00000000
00000000
,
00000000
00000000
00000000
00000000
,
00000000
00000000
00000000
00000000
,
02000000
03010000
10000000
01000000
,
00200000
00301000
00010000
00000100
,
00002000
00003001
00000000
00000000
,
00000200
00000310
00020000
00030000
,
00001000
00001000
00020000
00030000
,
00001000
00001000
02000000
03000000
,
00100000
10000000
00010000
00010000
,
10000000
01000000
00010000
00001000
,
00000100
00000000
00000010
00001001
,
00000001
00000010
00001000
00010000
,
00200000
00300000
10000000
00010000
,
00000000
10000000
10000000
00000000
,
00000000
01000000
01000000
00000000
,
10000000
00100000
00010000
00001000
,
00000020
00000030
00000001
00001000
,
00000000
00000001
00000001
00000000
,
00000000
00000100
00000100
00001000
,
00011000
00010000
00000000
00010000
,
00000000
01000000
01000000
01000000
,
00000000
00010000
00000000
00010000
,
00000000
00001000
00001000
00000100
,
00000000
00000001
00000001
00002000
,
00003000
00000100
00000100
00010000
,
00000000
00001000
00001000
00010000
,
01000000
20000000
30000000
00020000
,
00030000
00002000
00003000
00000001
,
00000000
00000100
00000000
00000000
,
00000000
00000100
00000000
00000000
,
00000000
00000010
00000000
00000000
,
00000000
00000010
00000000
00000000
,
00000000
00010000
00000000
00000000
,
00000000
00010000
00000000
00000000
,
00000000
00001000
00000000
00001000
,
00000000
00010000
00000000
00010000
,
00000000
01000000
00000000
01000000
,
00000000
10000000
00000000
10000000
,
00000000
00100000
00000000
00100000
,
00000000
01000000
00000000
01000000
,
00000000
00010000
00000000
00100000
,
00000000
00001000
00000000
00010000
,
00000000
00000010
00000000
00000010
,
00000000
00000200
00000300
00000000
;

//---------------dance-double - t7r----------------
#NOTES:
     dance-double:
     t7r:
     Medium:
     6:
     :
00000000
00000000
00000000
00000000
,
00000000
00000000
00000000
00000000
,
00000000
00000000
00000000
00000000
,
00000000
00000000
00000000
00000000
,
00000000
00000000
00000000
00000000
,
00000000
00000000
00000000
00000000
,
00000000
00000000
00000000
00000000
,
00200000
00000000
00310000
00000000
10000000
00010000
10000000
00000000
,
02000000
00000000
03100000
00000000
00001000
00010000
00001000
00000000
,
00020000
00030010
00000000
00000000
,
00000200
00001000
00000320
00001030
,
00000001
00000000
00000010
00000100
00002000
00003000
00000000
00001000
,
00000100
00000000
00010000
00001000
00020000
00030000
00000000
00010000
,
01000000
00000000
10000000
00100000
20000000
00000000
30020000
00000000
,
00130000
00000000
00000000
00100000
00000000
00000000
00001000
00000000
,
00011000
00000000
00010000
00000000
,
00001000
00000100
00000001
00000010
,
00000200
00000000
00000000
00000000
00001300
00000001
00001000
00000001
,
00000000
00000100
00000010
00000000
00010000
00001000
00000000
00000000
,
00000000
01000000
00100000
00000000
10000000
00000000
00010000
00000000
,
10000000
00100000
00010000
00001000
,
00000020
00000000
00000000
00000000
00000031
00001000
00000001
00001000
,
00000000
00000001
00000100
00000000
00001000
00010000
00000000
00011000
,
00000000
00010000
01000000
00000000
10000000
00010000
00000000
00000000
,
10010000
10000000
00000000
10000000
,
00000000
01000000
01000000
01000000
,
01000000
00010000
00000000
00010000
,
00000000
00000000
00001000
00000000
00010000
00000000
00001000
00010000
,
00001000
00010000
00001000
00000200
,
00000000
00000000
00000301
00000000
00000010
00000000
00000001
00001000
,
00000001
00000100
00001000
00010000
,
01000000
20020000
00000000
30030000
,
00000000
00000020
00000000
00000130
,
00000000
00000001
00001000
00000001
,
00000100
00000020
00000000
00010030
,
00000000
00001000
00010000
00001000
,
01000000
00020000
00000000
00130000
,
00000000
00010000
10000000
01000000
,
00100000
00002000
00000000
00013000
,
00000000
00001000
00000100
00000001
,
00000000
00000010
00001000
00010000
,
00001000
00010000
01000000
10000000
,
00000000
20100000
00000000
30010000
,
00000000
10000000
00010000
01000000
,
00000000
02001000
00000000
03010000
,
00000000
00100000
00001000
00020000
,
00000000
00030010
00010000
00002000
,
00000000
00013000
00001000
00000010
,
00000001
00000200
00000300
00000000
;

//---------------dance-double - t7r----------------
#NOTES:
     dance-double:
     t7r:
     Hard:
     8:
     :
00000000
00000000
00000000
00000000
,
00000000
00000000
00000000
00000000
,
00000000
00000000
00000000
00000000
,
00000000
00000000
00000000
00000000
,
00000000
00000000
00000000
00000000
,
00000000
00000000
00000000
00000000
,
00000000
00000000
00000000
00000000
,
00000001
00000000
00001010
00000000
00000001
00000010
00000100
00000000
,
00010000
00000000
00011000
00000000
00001000
00100000
00010000
00000000
,
01000000
00000000
01100000
00000000
00100000
10000000
00010000
00000000
,
20000000
00000000
31000000
00100000
00002000
00000000
00013000
00000000
,
00012000
00000000
00003100
00000001
00000020
00000000
00000130
00010000
,
00002000
00000000
00013000
01000000
20000000
00000000
30100000
20000000
,
30010000
00000000
10000000
01000000
00020000
00000000
00032000
00000000
,
00003010
00000000
00000000
00000001
00000000
00000000
00000100
00000000
00000000
00001000
00000000
00000000
00100000
00000000
00000000
00000000
,
00010000
00000000
00000000
10000000
00000000
00000000
10000000
00000000
00010000
00000000
00000000
00000000
00000000
00000000
00000000
00000000
,
10010000
00000000
00000000
10000000
00000000
00000000
01000000
00000000
00100000
00000000
00000000
00001000
00000000
00000000
00010000
00000000
,
00002000
00000000
00003100
00000000
00000010
00000010
00000100
00000100
,
00000000
00000001
00000001
00000000
00001000
00001000
00000000
00001001
,
00000000
00000001
00000001
00000010
00001000
00000000
00011000
00000000
,
00001000
00000000
00000000
00000100
00000000
00000000
00000001
00000000
00000010
00000000
00000000
00000100
00000000
00000000
00010000
00000000
,
00002000
00000000
01003000
00000000
00010000
00010000
10000000
10000000
,
00000000
00100000
00100000
00000000
01000000
01000000
00000000
10010000
,
00000000
10000000
01000000
00000000
00010000
00001000
00010000
00010000
,
00011000
00001000
00001000
00000010
,
00000000
00000000
00000001
00000000
00000001
00000000
00000100
00001000
,
00010000
00000000
00001000
00000000
00001000
00000000
00010000
01000000
,
00100000
00000000
00010000
00001000
00000100
00000000
00010000
00001000
,
00000100
00000000
00010000
00001000
00000010
00000000
00012000
00000000
,
00013000
00000000
00001000
00010000
01000000
00000000
00001000
00010000
,
01000000
00000000
00000000
00000000
00001000
00000000
00010000
00000000
00100000
00000000
00000000
00000000
00011000
00000000
00000000
00011000
,
00000000
00001000
00100000
00000000
00000000
00000000
00001000
00000000
,
00000000
00010000
00000000
00000010
,
00000000
00000100
00001001
00000001
,
00000000
00000010
00001001
00000100
,
00000000
00011000
00001000
00100000
,
00000000
00011000
00010000
00000010
,
00000000
00001001
00000001
00000100
,
00000000
00011000
00010000
01000000
,
00000000
00000000
00000000
00000000
10000000
00000000
00000000
00100000
00000000
00000000
10000000
00000000
00010000
00000000
00000000
00000000
,
00000000
10000000
01000000
00010000
,
00001000
00000000
00010000
00000100
00010000
00000000
00001000
00000000
,
00001000
00000000
00010000
00001000
00010000
00000000
00001000
00000000
,
00100000
00000000
00001000
00010000
00001000
00000000
01000000
00000000
,
01000000
00000000
00001000
00100000
00001000
00000000
00010000
00000000
,
00010000
00001000
00000010
00000001
,
00000100
00001000
00010000
00100000
,
10000000
00000000
01000000
00100000
00001000
00000000
00010000
00000010
,
00001000
00002002
00003003
00000000
;

//---------------dance-double - t7r----------------
#NOTES:
     dance-double:
     t7r:
     Challenge:
     15:
     :
00000000
00000000
00000000
00000000
,
00000000
00000000
00000000
00000000
,
00000000
00000000
00000000
00000000
,
00000000
00000000
00000000
00000000
,
00000000
00000000
00000000
00000000
,
00000000
00000000
00000000
00000000
,
00000000
00000000
00000000
00000000
,
01000000
00000000
00000000
00010000
10000000
00000000
01000000
00000000
10000000
00100000
00000000
01000000
00010000
00000000
10000000
01000000
,
00100000
00000000
00000000
00001000
00010000
00000000
00001000
00000000
00010000
00000100
00000000
00001000
00000010
00000000
00000100
00000000
,
00000001
00000000
00000000
00000010
00000100
00000000
00000010
00000000
00000001
00000000
00000000
00000100
00000010
00001000
00000000
00000100
,
00010000
00000000
00000000
00001000
01000000
00010000
00000000
00100000
00010000
00000000
00000000
10000000
00100000
00000000
01000000
00000000
,
10010000
00000000
10000000
01000000
00100000
00000000
01000000
00000000
20000000
00000000
30100000
00010000
00001000
00000000
00010000
00001000
,
00020000
00000000
00031000
00000010
00000100
00000000
00000010
00000000
00000002
00000000
00000103
00001000
00020000
00030000
00020000
00000000
,
00031000
00010000
00000000
01000000
00100000
00000000
01000000
00000000
20000000
00000000
30200000
00000000
00320000
00000000
00032000
00000000
,
00003010
00000010
00000000
00000100
00000100
00000000
00010000
00010000
00000000
00001000
00001000
00000000
00100000
00100000
00000000
00010000
,
00010000
00000000
00000000
10010000
00000000
10000000
10000000
10000000
01000000
00000000
00010000
00000000
00001000
00000000
00000100
00000000
,
00000010
00001000
00000001
00001000
00000000
00000001
00000010
00000100
00000010
00000001
00001000
00000010
00000000
00000001
00000010
00001000
,
00000200
00000000
00000000
00010300
00001000
00000000
00010000
00000000
00011000
00000000
01001000
00000000
00011000
00000000
00010100
00000000
,
00000000
00010000
00010000
00010000
00010000
00000000
00000000
00001000
00001000
00001000
00001000
00000000
00000000
00000000
00010001
00000000
,
00000000
00001000
00001000
00001000
00001000
00010000
00010000
00010000
01000000
00000000
10000000
00000000
00100000
00000000
00010000
00000000
,
00100000
01000000
00010000
10000000
00000000
01000000
00100000
00001000
00010000
00001000
00000010
00000001
00000000
00000100
00000010
00001000
,
00000200
00000000
00000000
00010300
00001000
00000000
00010000
00000000
00011000
00000000
00010010
00000000
00011000
00000000
00101000
00000000
,
00000000
00001000
00001000
00001000
00001000
00000000
00000000
00010000
00010000
00010000
00010000
00000000
00000000
00000000
10001000
00000000
,
00000000
00010000
00010000
00010000
00010000
00000000
00000000
00001000
00001000
00001000
00001000
00000100
00000001
00000010
00000100
00000000
,
00020200
00030300
00000000
00000000
00000000
00000000
00000000
00000000
00000000
00000000
00000000
00000000
00000000
00000000
00000000
00000000
00011000
00000000
00000000
00000000
00010000
00000000
01000000
00000000
00000000
00000000
00100000
00000000
01000000
00000000
00000000
00000000
00100000
00000000
00000000
00000000
00000000
00000000
00000000
00000000
00001000
00000000
00000000
00000000
00010000
00000000
00000000
00000000
00001000
00000000
00000000
00000000
00000100
00000000
00000010
00000000
00000000
00000000
00000100
00000000
00000001
00000000
00000000
00000000
,
00001000
00000000
00000001
00001000
00000001
00000100
00001000
00010000
00100000
10000000
01000000
00010000
00001000
00000010
00000001
00000100
,
00001000
00000000
00010000
00000000
00100000
00000000
10000000
00000000
01000000
00000000
00100000
00001000
00000000
00010000
00001000
00000000
00010000
00000000
00000000
00000000
00011000
00000000
00000000
00000000
00000010
00000000
00010000
00001000
00000000
00010000
00000010
00000000
,
00000100
00000000
00000001
00001000
00000001
00000100
00001000
00010000
01000000
10000000
01000000
00010000
00001000
00000100
00000001
00000100
,
00001000
00010000
01000000
10000000
01000000
00100000
10000000
00100000
00010000
00001000
00000010
00000001
00000020
00000000
00000130
00000001
,
00000100
00000000
00000001
00001000
00000001
00000000
00000000
00000000
00000001
00000000
00000010
00000000
00001000
00000000
00010000
00000000
00100000
00000000
10000000
00000000
00100000
00000000
00010000
00000000
00001000
00000000
00000010
00000000
00000001
00000000
00000010
00000000
,
00001000
00010000
00100000
10000000
00100000
01000000
10000000
01000000
00010000
00001000
00000100
00000001
00000100
00000010
00001000
00010000
,
00000010
00000000
00000100
00000000
00001000
00000000
00010000
00001000
00020000
00000000
00000000
00000000
01000000
00000000
00000000
00000000
00000100
00000000
00000000
00000000
01000000
00000000
00000000
00000000
00032000
00000000
00000000
00000000
00000010
00000000
00000000
00000000
,
00100000
00000000
00000000
00000000
00000000
00000000
00000000
00000000
00000010
00000000
00000000
00000000
00000000
00000000
00000000
00000000
00023000
00000000
00000000
00000000
00000000
00000000
00000000
00000000
00000100
00000000
00000000
00000000
00000000
00000000
00000000
00000000
00032000
00000000
00000000
00000000
00000000
00000000
00000000
00000000
00103000
00000000
00000000
00000000
00000000
00000000
00000000
00000000
00022000
00033000
00000000
00000000
00000000
00000000
00000000
00000000
00001000
00000000
00000000
00000000
00000000
00000000
00000000
00000000
,
00001000
00000000
00010000
01000000
00100000
01000000
00010000
01000000
,
10000000
00010000
10000000
00100000
01000000
00100000
00010000
00100000
,
10000000
00010000
00001000
00000100
00000010
00000100
00000001
00000100
,
00001000
00000001
00000100
00000010
00000100
00001000
00010000
00100000
,
10000000
00000000
00010000
10000000
00010000
00000000
00100000
00000000
01000000
00000000
00010000
00000000
00001000
00000000
00000010
00000000
,
00000100
00001000
00010000
01000000
00100000
00010000
00001000
00000100
,
00000010
00000000
00001000
00000000
00010000
00000000
00100000
00010000
00000000
10000000
00010000
00000000
10000000
00000000
01000000
00000000
,
00010000
00001000
00000100
00000010
00002010
00000000
00003100
00000010
,
00000012
00000000
00000103
00001000
00011000
00001000
01000000
00010000
,
10010000
00000000
10000000
00000000
01000000
00000000
00100000
00001000
00000000
00010000
00001000
00000000
00010000
00000000
00000010
00000000
,
00000110
00000000
00000010
00000000
00001000
00000000
00000100
00000010
00000000
00000001
00001000
00000000
00000001
00000000
00000100
00000000
,
00000101
00000001
00000010
00001000
00011000
00001000
00010000
00100000
,
10100000
10000000
01000000
01000000
00010000
00010000
00001000
00001000
,
00000100
00000100
00000001
00000001
00000010
00000010
00001000
00001000
,
00010000
00000000
00010000
00000000
00001000
00010000
00001000
00010000
00001000
00010000
00001000
00010000
00001000
00010000
00001000
00010000
,
00001000
00010000
00001000
00010000
00000020
00000000
00000000
00000000
00000030
00000000
00000000
00000000
00000000
00000000
00000000
00000000
;
