#VERSION:0.83;
#TITLE:マッハマンの歌;
#SUBTITLE:;
#ARTIST:あさきのくりむ童話;
#TITLETRANSLIT:Machman no uta;
#SUBTITLETRANSLIT:;
#ARTISTTRANSLIT:Asaki no crimm douwa;
#GENRE:;
#CREDIT:;
#MUSIC:Machman no uta.ogg;
#BANNER:Machman no uta.png;
#BACKGROUND:Machman no uta-bg.png;
#CDTITLE:./CDTITLES/REFLEC BEAT.PNG;
#SAMPLESTART:60.652;
#SAMPLELENGTH:15.000;
#SELECTABLE:YES;
#OFFSET:0.000;
#BPMS:0.000=161.000;
#STOPS:;
#JACKET:Machman no uta-jacket.png;
#BGCHANGES:0=../../../BGAs/tm0023.mp4=1=0=0=1=====;
#FGCHANGES:;

//--------------- dance-single - t7r ----------------
#NOTEDATA:;
#STEPSTYPE:dance-single;
#DESCRIPTION:t7r;
#DIFFICULTY:Beginner;
#METER:2;
#RADARVALUES:0,0,0,0,0;
#CREDIT:t7r;
#NOTES:
0000
0000
0000
0000
,
0000
0000
0000
0000
,
0000
0000
0000
0000
,
0000
0000
0000
0000
,
0000
0000
0000
0000
,
0010
0000
0000
0000
,
0010
0000
0000
0000
,
1000
0000
0000
0000
,
1000
0000
0000
0000
,
0001
0000
0000
0000
,
0001
0000
0000
0000
,
0010
0000
0000
0000
,
0010
0000
0000
0000
,
1000
0000
0000
0000
,
1000
0000
0000
0000
,
0001
0000
0000
0000
,
0001
0000
0000
0000
,
0100
0000
0100
0000
,
0100
0000
0000
0000
,
0010
0000
0010
0000
,
0010
0000
0000
0000
,
2000
0000
0000
0000
,
3000
0000
0000
0000
,
0002
0000
0000
0000
,
0003
0000
0000
0000
,
0010
0000
0010
0000
,
0010
0000
0000
0000
,
0001
0000
0001
0000
,
0001
0000
0000
0000
,
0100
0000
0100
0000
,
0100
0000
0000
0000
,
1000
0000
1000
0000
,
1000
0000
0000
0000
,
0010
0000
0100
0000
,
0010
0000
0000
0000
,
1000
0000
0001
0000
,
1000
0000
0000
0000
,
0100
0000
0010
0000
,
0100
0000
0000
0000
,
0010
0000
0000
0001
,
0001
0000
0000
0000
,
1000
0000
1000
0000
,
1000
0000
0000
0000
,
0010
0000
0010
0000
,
0010
0000
0000
0000
,
0100
0000
0100
0000
,
0100
0000
0000
0000
,
0001
0000
0000
0000
,
0001
0000
0000
0000
,
2000
0000
0000
0000
,
3000
0000
0000
0000
,
0002
0000
0000
0000
,
0003
0000
0000
0000
,
0100
0000
0100
0000
,
0010
0000
0000
0000
,
0010
0000
0000
0000
,
1000
0000
0000
0000
,
0002
0000
0000
0000
,
0003
0000
0000
0000
,
2000
0000
0000
0000
,
3000
0000
0000
0000
,
0010
0000
0010
0000
,
0100
0000
0100
0000
,
0001
0000
0001
0000
,
1000
1000
1000
0000
;

//--------------- dance-single - t7r ----------------
#NOTEDATA:;
#STEPSTYPE:dance-single;
#DESCRIPTION:t7r;
#DIFFICULTY:Easy;
#METER:6;
#RADARVALUES:0,0,0,0,0;
#CREDIT:t7r;
#NOTES:
0000
0000
0000
0000
,
0000
0000
0000
0000
,
0000
0000
0000
0000
,
0000
0000
0000
0000
,
0000
0000
0000
0000
,
0200
0000
0301
0000
,
2000
0000
3010
0000
,
0002
0000
0013
0000
,
2000
0000
3100
0000
,
1000
0001
1000
0000
,
0010
0100
0010
0000
,
1000
0100
0010
0000
,
2002
0000
0000
3003
,
0010
0000
1000
0000
,
0100
1000
0010
0000
,
0100
0000
0001
0000
,
0010
0001
0100
0000
,
0010
0000
1001
0000
,
0100
0000
1001
0000
,
0002
0000
0000
0013
,
0200
0000
1300
0000
,
0010
0010
0010
0000
,
0100
0100
0100
0000
,
0001
0001
0001
0000
,
1000
0001
2002
3003
,
0010
0000
0010
0000
,
1000
0100
0020
0030
,
0001
0000
0001
0000
,
0100
0010
2000
3000
,
0100
0000
0100
0000
,
0010
0001
0200
0300
,
0010
0000
0010
0000
,
0100
0010
1000
0001
,
1001
0000
0100
0000
,
1100
0000
0010
0000
,
0101
0000
0010
0000
,
0100
0001
1000
0001
,
0010
0000
0100
1000
,
0010
0000
0100
0001
,
0020
0001
0130
0000
,
1000
0001
2002
3003
,
1000
0010
0100
0000
,
1000
0010
0100
0000
,
1000
0010
0100
0001
,
0100
0010
2000
3001
,
0010
0000
1001
0000
,
0100
0000
0110
0000
,
0002
0000
0010
1003
,
0200
0000
0310
0000
,
0001
0100
0010
0000
,
0001
0100
0010
0000
,
0001
0100
0010
1000
,
0100
0010
0001
0000
,
1000
0000
1001
0000
,
0010
0000
0110
0000
,
0001
0100
1000
0000
,
0100
0010
1000
0001
,
2002
0000
0000
0000
,
3003
0000
0000
0000
,
0010
0010
0001
0001
,
0100
0100
2000
3000
,
0100
0001
0100
1000
,
0100
0010
0100
0001
,
1000
0100
0010
0001
,
1001
0110
2002
0000
,
3003
0000
0000
0000
;

//--------------- dance-single - t7r ----------------
#NOTEDATA:;
#STEPSTYPE:dance-single;
#DESCRIPTION:t7r;
#DIFFICULTY:Medium;
#METER:9;
#RADARVALUES:0,0,0,0,0;
#CREDIT:t7r;
#MUSIC:../Machman no theme ~ GITADORA Victory Mach Mix ~/Machman no theme ~ GITADORA Victory Mach Mix ~.ogg;
#NOTES:
0000
0000
0000
0000
,
0000
0000
0000
0000
,
0000
0000
0000
0000
,
0000
0000
0000
0000
,
0000
0000
0000
0000
,
2000
0000
0000
0000
3010
1000
0000
0000
,
0002
0000
0000
0000
0013
0001
0000
0000
,
2000
0000
0000
0000
3100
1000
0000
0000
,
0002
0000
0000
0000
0103
0001
0000
0000
,
1000
0100
1000
0000
0100
0000
0010
0000
,
0001
0100
0001
0000
0100
0000
0010
0000
,
1000
0000
0010
0000
0100
0001
1000
0000
,
2002
0000
0000
3003
,
2000
0000
3100
0010
0200
0000
0310
0000
,
0002
0000
0103
0010
0200
0000
0300
0000
,
0002
0000
0013
0001
0020
0000
0031
0000
,
0200
0000
0310
1000
0001
0000
1000
0000
,
0100
1100
0010
0000
,
0100
0101
0010
0000
,
0002
0000
0000
0103
,
2000
0000
3100
0000
,
0010
0100
0220
0330
,
1000
0001
2002
3003
,
0100
0010
0220
0330
,
0001
1000
0001
1000
0002
0000
0003
0000
,
1000
0000
0100
0001
0100
0000
1000
0000
,
0001
0100
0020
0030
,
0100
0000
0001
0010
0100
0000
0001
0000
,
0100
0110
2002
3003
,
0100
0000
0010
1000
0100
0000
0010
0000
,
0100
1000
0010
0000
0200
0000
0300
0000
,
0001
0000
0010
1000
0010
0000
0001
0100
,
0001
1000
0010
0100
,
0101
0010
2000
3100
,
1100
0010
0002
0103
,
0020
0000
0130
0000
0001
1000
0010
0000
,
0100
0001
0101
1100
,
0020
0000
1030
0100
0020
0000
0031
0000
,
0200
0000
0301
0010
0200
0000
1300
0000
,
0002
0000
0103
1000
0100
1000
0100
0010
,
0100
0010
2002
3003
,
1000
0001
0202
0303
,
0001
1000
2200
3300
,
0001
0010
1000
0010
,
0001
0100
0010
0000
0220
0000
0330
0000
,
0001
0000
0100
0001
0010
0000
0110
0000
,
1000
0001
0210
0301
,
2000
3200
0302
0203
,
0310
0001
0200
0300
,
0010
0000
1001
0000
0010
1000
0001
0000
,
0100
0000
1001
0000
0010
0001
1000
0000
,
0002
0023
2030
3020
,
0031
0100
0010
0000
0220
0000
0330
0000
,
1000
0000
0110
0000
0001
1000
0010
0000
,
0100
0000
1001
0000
0010
0001
0100
0000
,
0002
0010
1000
0103
,
0020
1000
0100
0031
,
0220
0000
0000
0000
,
0330
0000
0000
0000
,
0010
1000
0010
0000
0100
0001
0100
0000
,
0001
0010
0100
1000
0020
0000
0030
0000
,
1000
0100
1000
0000
0100
0001
0100
0000
,
1000
0010
1000
0000
0010
0001
0010
0000
,
0100
0001
1000
0100
0010
0001
1000
0000
,
0110
1001
0220
0000
,
0330
0000
0000
0000
;

//--------------- dance-single - t7r ----------------
#NOTEDATA:;
#STEPSTYPE:dance-single;
#DESCRIPTION:t7r;
#DIFFICULTY:Hard;
#METER:14;
#RADARVALUES:0,0,0,0,0;
#CREDIT:t7r;
#NOTES:
0000
0000
0000
0000
,
0000
0000
0000
0000
,
0000
0000
0000
0000
,
0000
0000
0000
0000
,
0000
0000
0000
0000
,
1000
0200
0000
1300
0010
0010
0100
0000
,
0001
0020
0000
0031
0100
0100
0010
0000
,
1000
0200
0000
0301
0100
0100
0010
0000
,
0001
0200
0000
1300
0100
0100
0010
0000
,
1000
0000
0001
0100
0001
0000
0000
0000
1000
0000
0010
0000
0002
0000
0000
0000
,
0013
0000
1000
0100
1000
0000
0000
0000
0001
0000
0010
0000
2000
0000
0000
0000
,
3010
0000
0000
0001
0100
0000
0010
0000
1000
0100
1000
0000
0001
0000
0100
0000
,
0220
0000
0000
0330
,
2001
0000
3100
0001
0200
0000
0310
0001
,
2000
0000
3001
0100
0020
0000
1030
0000
,
0002
0000
0103
1000
0200
0000
0310
1000
,
0002
0000
0013
0100
2000
0000
3001
0100
,
2000
0000
3001
0010
0200
0000
0301
0010
,
1000
0001
0100
0010
0002
0000
1003
0010
,
2000
0000
0100
0000
3001
0100
0010
0001
,
0020
0130
0002
1003
,
0001
0000
0000
0001
0010
0000
0000
0010
0100
0000
0000
0000
1100
0000
0000
0000
,
1000
0000
0000
1000
0010
0000
0000
0010
0100
0000
0000
0000
0101
0000
0000
0000
,
0001
0000
0000
0001
1000
0000
0000
1000
0010
0000
0000
0000
0110
0000
0000
0000
,
0001
1000
0001
1000
0001
1000
0001
1000
0002
0000
0000
0000
0003
0000
0000
0000
,
2001
0000
3010
0001
0020
0000
0130
0001
,
1000
0000
0000
1000
0100
0000
0010
0000
0002
0000
0000
0000
0103
0000
0000
0000
,
0002
0000
0000
0013
0100
0000
0001
0000
0200
0000
0000
0310
0001
0000
0100
0000
,
0010
0000
0000
1000
0001
0000
0000
0010
0200
0000
0000
0000
1300
0000
0000
0000
,
1002
0000
0103
1000
0200
0000
0310
1000
,
0001
0000
0000
0001
0010
0000
0100
0000
2000
0000
0000
0000
3010
0000
0000
0000
,
0200
0000
0000
1300
0100
0000
0001
0000
0200
0000
0000
0310
1000
0000
0001
0000
,
0010
0001
0100
0000
0110
0000
0001
1000
,
0020
0000
0000
0130
0001
0000
0100
0000
0010
0000
0000
0010
1000
0000
0001
0000
,
2000
0000
0000
3100
0001
0000
0100
0000
0010
0000
0000
0010
0001
0000
0100
0000
,
0020
0000
0000
0130
0001
0000
0100
0000
1000
0000
0000
1000
0100
0000
0010
0000
,
1000
0000
0001
0010
0001
0000
1000
0010
1000
0000
0000
0000
0110
0000
0000
0000
,
1001
0000
0000
0001
0010
0000
0001
0000
0100
0000
0000
0100
0010
0000
0000
0000
,
1001
0000
0000
1000
0010
0000
1000
0000
0100
0000
0000
0100
0010
0000
0001
0000
,
1000
0010
0010
0010
0010
0100
0001
0100
,
0010
0000
1000
0001
1000
0001
1000
0001
2000
0000
0000
0000
0000
0000
0000
0000
,
3001
0000
0011
0001
0100
0000
1010
0000
,
1000
0000
1100
0100
0010
0000
0011
0000
,
0001
0100
0010
0000
0001
0010
0100
0000
,
0010
1000
0001
0010
2000
0000
3010
0000
,
0012
0103
2001
3010
,
0210
0301
0021
0130
,
2100
0001
0010
3100
,
1000
0000
0010
0100
0010
0000
1000
0001
1000
0000
0100
0010
0100
0000
0010
0001
,
0020
0000
0031
0100
1000
0100
0110
0000
,
2000
0000
3100
0001
0100
0010
0011
0000
,
0001
0100
0010
0001
1000
0100
0010
1000
,
0001
0000
0010
0000
1000
0000
0010
0000
0001
0000
0100
0010
0100
0000
0010
0000
,
2010
0000
3100
0001
0201
0000
0310
0000
,
0012
0000
0103
1000
1200
0000
0310
0000
,
2001
0000
0100
0000
3001
0100
0010
0100
,
0001
0010
0000
0002
0000
0000
0000
1003
0010
0000
0100
0000
0001
1000
0001
0000
,
1000
0200
0001
0000
0320
0000
0130
1000
,
0001
0000
0100
0000
2000
0000
0000
0000
3100
0000
0100
0000
0010
0000
1000
0100
,
1000
0000
0001
0000
0010
0000
1000
0000
0001
0100
0010
0000
0100
0000
0001
0000
,
0100
0010
0100
0000
0010
0000
0001
0000
0100
0000
0010
0100
0010
0100
0010
0000
,
1000
0000
0001
0000
0012
0000
0000
0000
1003
0000
0001
0000
1100
0000
0000
1000
,
0001
0000
1000
0000
2010
0000
0000
0000
3001
0000
1000
0000
0101
0000
0000
0001
,
1000
0000
0001
0100
0010
0000
1000
0100
0010
0000
0001
1000
0010
0000
0100
0000
,
0110
1001
0220
0000
,
0330
0000
0000
0000
;

//--------------- dance-single - t7r ----------------
#NOTEDATA:;
#STEPSTYPE:dance-single;
#DESCRIPTION:t7r;
#DIFFICULTY:Challenge;
#METER:16;
#RADARVALUES:0,0,0,0,0;
#CREDIT:t7r;
#MUSIC:../Machman no theme ~ GITADORA Victory Mach Mix ~/Machman no theme ~ GITADORA Victory Mach Mix ~.ogg;
#NOTES:
0000
0000
0000
0000
,
0000
0000
0000
0000
,
0000
0000
0000
0000
,
0000
0000
0000
0000
,
0000
0000
0000
0000
,
1000
0010
0010
1000
0100
0100
0010
0001
,
0100
0001
0001
0010
0100
0100
1000
0001
,
0100
0001
0001
0010
0100
0100
0010
0001
,
1000
0010
0010
0100
0010
0010
1000
0001
,
1000
0000
0100
1000
0100
0000
1000
0000
0001
0000
0100
0001
0100
0000
0001
0000
,
1000
0000
0010
1000
0010
0000
1000
0000
0001
0000
0010
0001
0010
0000
0001
0000
,
1000
0100
0010
0100
1000
0010
0100
0001
0010
0100
0010
0001
0100
0010
1000
0001
,
1000
0000
0010
1000
0100
0000
0010
0001
0100
0010
1000
0100
0010
0001
0100
0010
,
2000
0000
0000
0000
3100
0000
0010
0100
0020
0000
0000
0000
0031
0000
0100
0000
,
0020
0000
0000
0000
1030
0000
0001
0010
0002
0000
0000
0000
1003
0000
0000
0000
,
0020
0000
0000
0000
0130
0000
0001
0000
0200
0000
0000
0000
1300
0000
0100
0001
,
0200
0000
0000
0000
0301
0000
0010
0000
0100
0000
0010
0001
1000
0000
0010
0000
,
2001
0000
0000
0000
3100
0000
0010
0001
2000
0000
0000
0000
3001
0000
0100
0000
,
0001
0000
0010
0000
1000
0000
0001
0000
0100
0000
0000
1000
0001
0000
0100
0000
,
0020
0000
0130
0001
1000
0100
0010
0100
,
0002
0000
0000
0000
0103
0000
0000
0000
1000
0000
0010
1000
0010
0000
0100
0000
,
0001
0010
0100
1000
0010
0100
0001
1000
0100
0010
0001
0100
0010
1000
0001
0010
,
0001
0100
0010
1000
0100
0010
0001
0100
0010
1000
0010
0100
0001
0010
0100
1000
,
0010
0100
0001
1000
0100
0010
0001
0100
0010
1000
0001
0010
0100
1000
0010
0100
,
0001
1000
0001
1000
0001
1000
0001
1000
0002
0000
0000
0000
0000
0000
0000
0000
,
1003
0000
1100
0100
0010
0000
1100
0100
,
0020
0000
0000
0031
0100
0000
0010
0000
0100
0000
0000
0000
1001
0000
0000
0000
,
0001
0000
0100
0010
0100
0000
1000
0000
0100
0000
0010
0100
0010
0000
0100
0000
,
0001
0000
1000
0100
0010
0000
0001
0100
0010
0000
0100
0010
1000
0000
0001
0000
,
1001
0000
0101
0100
0010
0000
0101
0100
,
0020
0000
0000
1030
0100
0000
0010
0000
0100
0000
0000
0000
1001
0000
0000
0000
,
1000
0000
0010
0100
0010
0000
0001
0000
0010
0000
0100
0010
0100
0000
0010
0000
,
1000
0000
0100
0000
0010
0000
0000
0000
0001
0000
1000
0001
0010
0000
0001
0000
,
1001
0000
0000
0001
0100
0000
0001
0000
1001
0000
0000
1000
0100
0000
1000
0000
,
1010
0000
0000
0010
0100
0000
0001
0000
0011
0000
0000
0001
0010
0000
0100
0000
,
1100
0000
0000
1000
0100
0000
0010
0000
0110
0000
0000
0010
0001
0000
1000
0000
,
0001
0000
0100
0010
0100
0000
1000
0100
1000
0000
0100
0010
1000
0000
0000
0000
,
0011
0000
0000
0001
1000
0000
0001
0000
0011
0000
0000
0001
1000
0000
0001
0000
,
1001
0000
0000
1000
0100
0000
1000
0000
1001
0000
0000
1000
0100
0000
1000
0000
,
1010
0010
0100
0100
0100
0100
0100
0100
,
0001
0010
0100
1000
0010
0100
0001
1000
0002
0000
0000
0000
0003
0000
0000
0000
,
1001
0000
1100
0100
0010
0100
1000
0010
,
0100
0000
0001
0100
0001
0000
0010
0000
0001
0000
1000
0000
0001
0000
0010
0100
,
1000
0010
0100
0010
0001
0010
0100
0010
,
1000
0000
0100
0000
0100
0000
0001
0000
1000
0000
0010
0100
0010
0000
0010
0000
,
1001
0000
0101
0001
1001
0000
1100
1000
,
1001
0000
0011
0001
1001
0000
1010
1000
,
0002
0023
0230
0302
2003
3020
0230
2300
,
3010
0000
0100
0001
0100
0000
1000
0100
1000
0100
0000
0100
0001
1000
0001
1000
,
0001
0000
0011
0010
0100
0010
0001
0100
,
0010
0000
1000
0010
1000
0000
0100
0000
1000
0000
0001
0000
1000
0000
0100
0010
,
0001
0100
0010
0100
1000
0100
0010
0100
,
0001
0000
0010
0000
0010
0000
1000
0000
0001
0000
0100
0010
0100
0010
0100
0000
,
1001
0000
1100
0100
0101
0000
0110
0010
,
1001
0000
0101
0100
1100
0000
0110
0010
,
1001
0000
1000
0010
1000
0100
0010
0001
,
0100
0001
0000
1000
0000
0000
0000
0001
0100
0001
0010
0001
1000
0100
0010
0001
,
0200
0010
0010
0301
0020
0100
0032
2003
,
3002
0000
0103
0000
0020
0000
1000
0000
0100
0000
0100
0000
1030
0000
0001
1000
,
0002
0000
0023
0000
0230
0000
0302
0000
1003
0010
0001
1000
0010
0000
1000
0000
,
0001
0100
1000
0000
0100
0000
0010
0000
2000
0000
3100
0010
0001
0100
0010
1000
,
0100
0000
0001
0100
0001
0000
0100
1000
0100
0000
1000
0001
1000
0000
0010
0000
,
0100
0000
1000
0100
1000
0000
0100
0001
0100
0000
0001
1000
0001
0000
1000
0000
,
0010
0100
0001
0010
0100
1000
0001
0100
0010
1000
0100
0010
0001
1000
0010
0100
,
0001
0110
2002
0000
,
3003
0000
0000
0000
;

//--------------- dance-double - t7r ----------------
#NOTEDATA:;
#STEPSTYPE:dance-double;
#DESCRIPTION:t7r;
#DIFFICULTY:Easy;
#METER:6;
#RADARVALUES:0,0,0,0,0;
#CREDIT:t7r;
#NOTES:
00000000
00000000
00000000
00000000
,
00000000
00000000
00000000
00000000
,
00000000
00000000
00000000
00000000
,
00000000
00000000
00000000
00000000
,
00000000
00000000
00000000
00000000
,
02000000
00000000
03010000
00000000
,
00200000
00000000
00301000
00000000
,
00020000
00000000
00030010
00000000
,
00000200
00000000
00000310
00000000
,
00001000
00000100
00000010
00000000
,
00000001
00000100
00001000
00000000
,
00010000
00100000
10000000
00000000
,
02200000
00000000
00000000
03300000
,
10000000
00000000
01000000
00000000
,
00010000
00001000
00000010
00000000
,
00000001
00000100
00001000
00000100
,
00010000
00100000
01000000
00100000
,
10010000
00000000
01000000
00000000
,
00011000
00000000
00000010
00000000
,
00000200
00000000
00000000
00000300
,
00000020
00000000
00001030
00000000
,
00020100
00000100
00030100
00000000
,
00010000
00010000
00010000
00000000
,
00012000
00010000
00013000
00000000
,
00001000
00010000
00022000
00033000
,
01000000
00000000
00100000
00000000
,
10000000
01000000
00010000
00000000
,
01000000
00010000
00001000
00000010
,
00000100
00000010
00000002
00000003
,
00000100
00000000
00010000
00000000
,
00000100
00010000
00001000
00000000
,
00100000
10000000
01000000
00010000
,
00001000
00000010
00000100
00000000
,
00000110
00000000
00000010
00000000
,
00011000
00000000
00010000
00000000
,
01100000
00000000
01000000
00000000
,
00100000
10000000
00010000
00100000
,
00001000
00010000
00002000
00003000
,
00010000
00000010
00000200
00000300
,
00000020
00001000
00000130
00000000
,
00000001
00001000
00002002
00003003
,
00000001
00000010
00001000
00000000
,
01000000
00010000
00100000
00000000
,
10000000
00100000
01000000
00010000
,
00000010
00000100
00000001
00000000
,
00000010
00000000
00001001
00000000
,
00000100
00000000
00011000
00000000
,
02000000
00010000
03100000
00000000
,
10000000
00010000
01000000
00000000
,
01100000
00100000
10000000
00000000
,
01000000
00010000
00001000
00000000
,
00000010
00000001
00000100
00001000
,
00100000
00010000
10000000
00000000
,
01100000
00000000
00001000
00000000
,
00011000
00000000
00000010
00000000
,
00000200
00000001
00000310
00000000
,
00020000
00000100
00031000
00000000
,
00022000
00000000
00000000
00000000
,
00033000
00000000
00000000
00000000
,
01000000
01000000
00100000
00100000
,
10000000
01000000
00020000
00000000
,
00031000
00001000
00000010
00000001
,
00000100
00000100
00001000
00010000
,
00100000
01000000
00001000
00010000
,
00011000
00000100
00022000
00000000
,
00033000
00000000
00000000
00000000
;

//--------------- dance-double - t7r ----------------
#NOTEDATA:;
#STEPSTYPE:dance-double;
#DESCRIPTION:t7r;
#DIFFICULTY:Medium;
#METER:9;
#RADARVALUES:0,0,0,0,0;
#CREDIT:t7r;
#MUSIC:../Machman no theme ~ GITADORA Victory Mach Mix ~/Machman no theme ~ GITADORA Victory Mach Mix ~.ogg;
#NOTES:
00000000
00000000
00000000
00000000
,
00000000
00000000
00000000
00000000
,
00000000
00000000
00000000
00000000
,
00000000
00000000
00000000
00000000
,
00000000
00000000
00000000
00000000
,
00000020
00000000
00000000
00000000
00001030
00000100
00000000
00000000
,
00020000
00000000
00000000
00000000
00031000
00100000
00000000
00000000
,
02000000
00000000
00000000
00000000
13000000
00010000
00000000
00000000
,
00200000
00000000
00000000
00000000
00301000
00010000
00000000
00000000
,
00000010
00000000
00000100
00000000
00000001
00001000
00000100
00000000
,
00001000
00000000
00100000
00000000
01000000
00010000
10000000
00000000
,
01000000
00010000
00000010
00000100
,
00002002
00000000
00000000
00003003
,
00000002
00000000
00000013
00001000
00020000
00000000
00031000
00000000
,
02000000
00000000
03100000
10000000
00020000
00000000
00030000
00000000
,
20000000
00000000
31000000
00010000
00002000
00000000
00003010
00000000
,
00000200
00000000
00001300
00000010
00000100
00000000
00000010
00000000
,
00001001
00000001
00000101
00000000
,
00000010
00001000
00010000
00000000
00200000
00000000
00310000
00000000
,
20000000
01000000
00010000
30100000
,
02000000
03010000
00200000
00301000
,
00010000
00001000
00022000
00033000
,
00000010
00000100
00000220
00000330
,
00000001
00001000
00002002
00003003
,
00000001
00000010
00001000
00010000
00001000
00000000
00000000
00000000
,
01100000
10000000
00020000
00130000
,
10000000
00100000
00010000
00000000
00002000
00000000
00003010
00000000
,
00000100
00000000
00000001
00001000
00000100
00000000
00010000
00000000
,
00001000
00010000
00022000
00033000
,
01100000
00010000
20000000
31000000
,
00010000
00001000
00000010
00000000
00000002
00000000
00000103
00000000
,
00000001
00000010
00000100
00000000
00010000
00001000
01000000
00000000
,
00100000
10000000
01000000
00000000
00100000
00000000
00010000
00000000
,
20000000
00000000
31000000
00010000
00002000
00000000
00003010
00000000
,
00000002
00000000
00000103
00001000
00020000
00000000
00130000
00000000
,
20000000
00000000
30100000
00010000
00002000
00000000
00003010
00000000
,
00000001
00000100
00001000
00011000
,
00100000
00000000
00010000
01000000
00200000
00000000
10300000
00000000
,
01000000
00000000
00010000
00001000
00000020
00000000
00000031
00000000
,
00000200
00000000
00000310
00010000
00000010
00010000
00000010
00000000
,
00010000
00001000
00010000
00001000
00020000
00000000
00030000
00000000
,
00001000
01000000
01100000
10000000
,
00010000
00001000
00000010
00000000
00000100
00000000
00000110
00000000
,
00000001
00000010
00001000
01000000
,
00100000
10000000
01000000
00000000
02200000
00000000
03300000
00000000
,
01000000
00000000
10000000
00100000
00010000
00000000
00001000
00000000
,
00000100
00000001
00002002
00003003
,
00000020
00000032
00000023
00002030
,
00013000
01000000
02200000
03300000
,
10000000
00000000
01000000
00010000
01000000
00000000
00010000
00000000
,
00001000
00000000
00000010
00000001
00000010
00000000
00000001
00000000
,
00000100
00000000
00001000
00000000
00010000
00001000
00010000
00000000
,
00001000
01000000
02200000
03300000
,
10000000
00010000
00220000
00330000
,
00001000
00010000
00020020
00030030
,
00000200
00000001
00000010
00001300
,
00020000
00001000
00000100
00031000
,
00022000
00000000
00000000
00000000
,
00033000
00000000
00000000
00000000
,
01000000
10000000
01000000
00000000
00001000
00010000
00001000
00000000
,
00000010
00000100
00000010
00000000
00000220
00000000
00000330
00000000
,
00000001
00000100
00000001
00000000
00000100
00001000
00010000
00000000
,
00100000
10000000
00100000
00000000
10000000
01000000
00010000
00000000
,
00000010
00000100
00000001
00000000
00000010
00000100
00010000
00001000
,
00010000
00011000
02200000
00000000
,
03300000
00000000
00000000
00000000
;

//--------------- dance-double - t7r ----------------
#NOTEDATA:;
#STEPSTYPE:dance-double;
#DESCRIPTION:t7r;
#DIFFICULTY:Hard;
#METER:14;
#RADARVALUES:0,0,0,0,0;
#CREDIT:t7r;
#NOTES:
00000000
00000000
00000000
00000000
,
00000000
00000000
00000000
00000000
,
00000000
00000000
00000000
00000000
,
00000000
00000000
00000000
00000000
,
00000000
00000000
00000000
00000000
,
10000000
02000000
00000000
00000000
03100000
00100000
00001000
00000000
,
00010000
00000020
00000000
00000000
00000130
00000100
00000001
00000000
,
00001000
00000200
00000000
00000000
00000301
00000001
00000100
00000000
,
00000010
00000002
00000000
00000000
00000103
00000100
00001000
00000000
,
00100000
00000000
00010000
00000000
10000000
00000000
00000000
00000000
01000000
00000000
00010000
00001000
00010000
00000000
00000000
00000000
,
00000010
00000000
00001000
00000000
00000001
00000000
00000000
00000000
00000100
00000000
00001000
00010000
00001000
00000000
00000000
00000000
,
00100000
00000000
00000000
00010000
01000000
00000000
00100000
00000000
10000000
01000000
10000000
00000000
00010000
00000000
10000000
00000000
,
20020000
00000000
00000000
30030000
,
20100000
00000000
31000000
00010000
00002000
00000000
00003010
00000001
,
00000200
00000000
00000301
00000010
00000002
00000000
00001003
00000000
,
00000020
00000000
00000000
00000000
00000130
00000000
00001000
00000000
00020000
00000000
00000000
00000000
00030100
00000000
00010000
00001000
,
00020000
00000000
00000000
00031000
00200000
00000000
01300000
10000000
,
00010000
00000000
01100000
00100000
10000000
00000000
01000000
00000000
,
00101000
00000000
00011000
00010000
00000020
00000000
00000130
00000001
,
00000200
00000000
00001000
00000000
00000310
00001000
00000100
00000001
,
00000200
00000000
00000000
00000000
00000310
00000000
00000000
00000000
00000001
00000000
00001000
00000001
00001000
00000000
00000000
00000000
,
00000001
00000000
00000000
00000001
00000100
00000000
00000000
00000100
00001000
00000000
00000000
00000000
00011000
00000000
00000000
00000000
,
00100000
00000000
00000000
00100000
00010000
00000000
00000000
00010000
01000000
00000000
00000000
00000000
01100000
00000000
00000000
00000000
,
10000000
00000000
00000000
10000000
01000000
00000000
00000000
01000000
00010000
00000000
00000000
00000000
00011000
00000000
00000000
00000000
,
00001000
00010000
00001000
00010000
00001000
00010000
00001000
00010000
00002000
00000000
00000000
00000000
00003000
00000000
00000000
00000000
,
02100000
00000000
03100000
10000000
00020000
00000000
01030000
00010000
,
00001000
00000000
00000000
00001000
00000010
00000000
00001000
00000000
00000100
00000000
00000000
00000000
00000110
00000000
00000000
00000000
,
00000001
00000000
00000000
00000100
00001000
00000000
00100000
00000000
00010000
00000000
00000000
10000000
01000000
00000000
10000000
00000000
,
00100000
00000000
00000000
00010000
00001000
00000000
00000010
00000000
00000001
00000000
00000100
00000000
00000101
00000000
00000000
00000000
,
00000210
00000000
00000310
00001000
00000200
00000000
00010300
00001000
,
00010000
00000000
00000000
00010000
00100000
00000000
10000000
00000000
01000000
00000000
00000000
00000000
01100000
00000000
00000000
00000000
,
10000000
00000000
00000000
01000000
00010000
00000000
00000010
00000000
00001000
00000000
00000000
00000001
00000100
00000000
00000001
00000000
,
00000010
00000000
00001000
00000000
00010000
00000000
00000000
00000000
00011000
00000000
00000000
01000000
00100000
00000000
01000000
00000000
,
00200000
00000000
00000000
10300000
01000000
00000000
10000000
00000000
00020000
00000000
00000000
01030000
00010000
00000000
00100000
00000000
,
00002000
00000000
00000000
00013000
00000010
00000000
00000100
00000000
00000020
00000000
00000000
00001030
00000100
00000000
00000001
00000000
,
00000200
00000000
00000000
00000310
00000001
00000000
00000100
00000000
00001000
00000000
00010000
00000000
00100000
00000000
10000000
00000000
,
01000000
00000000
10000000
00010000
10000000
00000000
00000000
00000000
00100000
00000000
00000000
00000000
00011000
00000000
00000000
00000000
,
00000110
00000000
00000000
00000100
00000001
00000000
00000100
00000000
00001000
00000000
00000000
00001000
00100000
00000000
10000000
00000000
,
01000000
00000000
00000000
01000000
00010000
00000000
01000000
00000000
00100000
00000000
00000000
00100000
00001000
00000000
00010000
00000000
,
00000010
00000001
00000001
00000001
00000001
00000010
00001000
00010000
,
00100000
01000000
00100000
01000000
00100000
01000000
00100000
01000000
00200000
00000000
00000000
00000000
00300000
00000000
00000000
00000000
,
10020000
00000000
10030000
01000000
00010000
00000000
00011000
00000000
,
00000010
00000000
00000000
00000100
00000001
00000000
00000100
00000000
00000010
00000000
00001000
00000000
00010000
00000000
00100000
00000000
,
00020000
00000000
01030000
00000000
10000000
01000000
00100000
00000000
,
10000000
01000000
00010000
00001000
00000020
00000000
00000031
00000000
,
00000100
00000000
00001001
00000001
00000010
00000000
00000100
00000000
,
00011000
00000000
01000000
00100000
10000000
00000000
01100000
00000000
,
20000000
30200000
00320000
00030020
,
00001030
00000000
00000100
00000010
00000100
00000000
00000010
00000000
00000001
00000000
00000100
00000000
00001000
00000000
00010000
00000000
,
00200000
00000000
10300000
01000000
00010000
00001000
00021000
00000000
,
00030020
00000000
00000031
00000010
00001000
00010000
00210000
00000000
,
01300000
10000000
01000000
00001000
00000010
00000001
00000010
00000100
,
00001000
00000000
00010000
00000000
00100000
00000000
01000000
00000000
00010000
00000000
00100000
00010000
10000000
00000000
00000000
00000000
,
20010000
00000000
31000000
00010000
00021000
00000000
00030010
00000000
,
00001002
00000000
00000103
00001000
00012000
00000000
00103000
00000000
,
10020000
00000000
01000000
00000000
10030000
00100000
00010000
00001000
,
00000010
00000100
00000000
00000020
00000000
00000000
00000000
00000031
00001000
00000000
00000010
00000100
00000010
00000000
00000000
00000000
,
00001002
00000000
00000000
00000000
00000203
00000000
00001300
00010000
,
00100000
00000000
10000000
00000000
00020000
00000000
00000000
00000000
00000000
00000000
00000000
00000000
00000000
00000000
10030000
01000000
,
10000000
00000000
01000000
00000000
00001000
00000000
00000010
00000000
00000100
00000001
00000100
00000001
00000100
00000000
00001000
00000000
,
00010000
00100000
10000000
00000000
00100000
00000000
01000000
00000000
00020000
00000000
00000000
00000000
00130000
00000000
00000000
00000000
,
10010000
10000000
02000000
00000000
03010000
00000010
00000110
00000000
,
00001001
00000001
00000200
00000000
00001300
00100000
01100000
00000000
,
10000000
00000000
01000000
00010000
00001000
00000000
00000100
00000000
00000001
00000000
00000100
00000010
00010000
00000000
00001000
00000000
,
00011000
01100000
00022000
00000000
,
00033000
00000000
00000000
00000000
;

//--------------- dance-double - t7r ----------------
#NOTEDATA:;
#STEPSTYPE:dance-double;
#DESCRIPTION:t7r;
#DIFFICULTY:Challenge;
#METER:16;
#RADARVALUES:0,0,0,0,0;
#CREDIT:t7r;
#MUSIC:../Machman no theme ~ GITADORA Victory Mach Mix ~/Machman no theme ~ GITADORA Victory Mach Mix ~.ogg;
#CREDIT:t7r;
#NOTES:
00000000
00000000
00000000
00000000
,
00000000
00000000
00000000
00000000
,
00000000
00000000
00000000
00000000
,
00000000
00000000
00000000
00000000
,
00000000
00000000
00000000
00000000
,
00000100
00001000
00001000
00000100
00000010
00000010
00000001
00000100
,
00000001
00000010
00000010
00000100
00010000
00010000
00001000
00010000
,
01000000
10000000
10000000
00100000
01000000
01000000
00010000
00100000
,
00001000
00010000
00010000
00001000
00000100
00000100
00000010
00001000
,
00000001
00000000
00000010
00000001
00000010
00000000
00000000
00000000
00000001
00000000
00000100
00000001
00001000
00000000
00000100
00000000
,
00010000
00000000
00001000
00010000
00001000
00000000
00000000
00000000
00010000
00000000
01000000
00100000
01000000
00000000
10000000
00000000
,
00010000
01000000
00100000
00000000
10000000
01000000
00100000
00000000
00010000
01000000
00010000
00100000
00001000
00010000
00001000
00010000
,
00001000
00000000
00000100
00000010
00000100
00000000
00000001
00001000
00000001
00000000
00000010
00000001
00000010
00000000
00000001
00000000
,
00001002
00000000
00000000
00000000
00000103
00000000
00000001
00000010
00000200
00000000
00000000
00000000
00001300
00000000
00000010
00000000
,
00002000
00000000
00000000
00000000
00013000
00000000
00100000
00010000
20000000
00000000
00000000
00000000
30010000
00000000
00000000
00000000
,
20000000
00000000
00000000
00000000
31000000
00000000
00100000
00000000
00020000
00000000
00000000
00000000
01030000
00000000
00100000
10000000
,
02000000
00000000
00000000
00000000
03010000
00000000
00001000
00000000
00000200
00000000
00000000
00000000
00000310
00001000
00000001
00000000
,
00001002
00000000
00000000
00000000
00000013
00000000
00000100
00000010
00000002
00000000
00000000
00000000
00000103
00000000
00001000
00000000
,
00010000
00000000
01000000
00000000
10000000
00000000
00100000
00000000
01000000
00000000
00000000
00010000
10000000
00000000
01000000
00000000
,
00200000
00000000
00310000
01000000
00100000
10000000
01000000
00010000
,
00002000
00000000
00000000
00000000
00003010
00000000
00000000
00000000
00000001
00000000
00000100
00000010
00000100
00000000
00001000
00000000
,
00000100
00000000
00000001
00000010
00000100
00000000
00000010
00000001
00000100
00000000
00001000
00000000
00010000
00000000
01000000
00000000
,
10000000
00000000
00100000
10000000
01000000
00000000
10000000
01000000
00100000
00000000
00001000
00000000
00010000
00001000
00010000
00000000
,
00001000
00000000
00000010
00000001
00000100
00000000
00000001
00000010
00000100
00001000
00000000
00000000
00001100
00000000
00000100
00000000
,
00010000
00001000
00010000
00001000
00010000
00001000
00010000
00001000
00020000
00000000
00000000
00000000
00000000
00000000
00000000
00000000
,
01030000
00000000
11000000
01000000
00100000
00000000
11000000
01000000
,
00020000
00000000
00000000
00031000
00000100
00000000
00000010
00000000
00000100
00000000
00000000
00000000
00001001
00000000
00000000
00000000
,
00000001
00000000
00000010
00000001
00000010
00000000
00000001
00000000
00000100
00000000
00000010
00001000
00000010
00000000
00001000
00000000
,
00000100
00000000
00010000
00001000
00010000
00000000
00001000
00100000
00001000
00000000
00010000
00000000
00012000
00000000
00000000
00000000
,
00003010
00000000
00000011
00000010
00000100
00000000
00000011
00000010
,
00002000
00000000
00000000
00013000
00100000
00000000
01000000
00000000
00100000
00000000
00000000
00000000
10010000
00000000
00000000
00000000
,
10000000
00000000
01000000
00100000
01000000
00000000
00100000
00000000
00001000
00000000
00010000
00001000
00010000
00000000
00001000
00000000
,
00000100
00000000
00000001
00000000
00000010
00000000
00000000
00000000
00001001
00000000
00000001
00000100
00000010
00000000
00000100
00000000
,
00000101
00000000
00000000
00000001
00000010
00000000
00000001
00000000
00001001
00000000
00000000
00001000
00000100
00000000
00010000
00000000
,
00011000
00000000
00000000
00001000
00100000
00000000
00010000
00000000
00110000
00000000
00000000
00010000
10000000
00000000
00010000
00000000
,
10010000
00000000
00000000
10000000
01000000
00000000
00010000
00000000
00011000
00000000
00000000
00001000
00000100
00000000
00000001
00000000
,
00001000
00000000
00000100
00000010
00000100
00000000
00000010
00000001
00001000
00000000
00000010
00000000
00000110
00000000
00000000
00000000
,
00001010
00000000
00000000
00000010
00001000
00000000
00000100
00000000
00001100
00000000
00000000
00000100
00010000
00000000
00001000
00000000
,
00011000
00000000
00000000
00001000
01000000
00000000
00010000
00000000
10010000
00000000
00000000
00010000
00100000
00000000
00010000
00000000
,
10000000
01000000
00010000
00001000
00000100
00000001
00001000
00000100
,
00010000
00001000
00010000
00001000
00010000
00001000
00010000
00001000
00020000
00000000
00000000
00000000
00030000
00000000
00000000
00000000
,
00011000
00000000
00001000
00010000
00100000
10000000
00010000
10000000
,
01000000
00000000
00100000
01000000
10000000
00000000
01000000
00000000
00010000
00000000
00001000
00000000
00000100
00000000
00000010
00000100
,
00000010
00000100
00000001
00000100
00001000
00000100
00001000
00010000
,
01000000
00000000
10000000
00000000
00100000
00000000
01000000
00000000
00010000
00000000
01000000
00100000
01000000
00000000
01000000
00000000
,
10010000
00000000
11000000
01000000
00010000
00000000
00011000
00010000
,
00000100
00000000
00001001
00000001
00000010
00000000
00001001
00000001
,
00000200
00002300
00023000
02030000
23000000
30200000
00320000
00032000
,
00003010
00000000
00000001
00000100
00000001
00000000
00001000
00000100
00010000
00001000
00000000
00001000
00010000
00001000
00010000
00001000
,
00020000
00000000
00130000
01000000
00010000
01000000
00100000
10000000
,
01000000
00000000
00100000
10000000
00100000
00000000
01000000
00000000
10000000
00000000
00010000
00000000
01000000
00000000
00010000
00100000
,
00001000
00010000
00000010
00001000
00000010
00000100
00000001
00000010
,
00001000
00000000
00010000
00000000
00100000
00000000
10000000
00000000
00100000
00000000
01000000
00010000
10000000
00010000
01000000
00000000
,
01010000
00000000
10100000
10000000
10010000
00000000
11000000
01000000
,
01100000
00000000
00101000
00001000
00011000
00000000
00011000
00010000
,
00010010
00000010
00000100
00001000
00000100
00000010
00001000
00010000
,
00100000
00010000
00000000
10000000
00000000
00000000
00000000
00010000
00100000
00001000
00010000
00000000
00001000
00000100
00000001
00000000
,
00000020
00000001
00000031
00000100
00002000
00010000
01003000
00010000
,
10000000
00000000
01000000
00000000
00200000
00000000
00000000
00000000
00001000
00000000
00001000
00000000
00310000
00000000
00100000
00001000
,
00010000
00000000
00001000
00000000
00000010
00000000
00000001
00000000
00000100
00000001
00000100
00001000
00000100
00000000
00000010
00000000
,
00001000
00000100
00010000
00000000
00001000
00000000
00010000
00000000
01000000
00000000
10000000
00100000
01000000
00010000
10000000
00000000
,
01000000
00000000
00010000
00001000
00010000
00000000
00000100
00000000
00010000
00000000
00001000
00010000
00001000
00000000
01000000
00000000
,
00001000
00000000
00010000
00001000
00010000
00000000
00000010
00000000
00010000
00000000
00001000
00010000
00001000
00000000
00100000
00000000
,
00001000
00000000
00010000
01000000
10000000
00000000
00100000
00000000
01000000
00010000
01000000
00010000
01000000
00001000
01000000
00001000
,
00010000
00000110
00022000
00000000
,
00033000
00000000
00000000
00000000
;
